<?xml version="1.0" standalone="no"?>
<!DOCTYPE svg PUBLIC "-//W3C//DTD SVG 1.1//EN" "http://www.w3.org/Graphics/SVG/1.1/DTD/svg11.dtd" >
<svg xmlns="http://www.w3.org/2000/svg" xmlns:xlink="http://www.w3.org/1999/xlink" version="1.1">
<metadata>
Created by FontForge 20170731 at Tue Dec 25 03:00:00 2018
 By Aleksey,,,
Copyright (c) 2018 by Mark Simonson. All rights reserved.
</metadata>
<defs>
<font id="ProximaSoft-Black" horiz-adv-x="596" >
  <font-face 
    font-family="Proxima Soft Black"
    font-weight="900"
    font-stretch="normal"
    units-per-em="1000"
    panose-1="2 0 5 6 3 0 0 2 0 4"
    ascent="790"
    descent="-210"
    x-height="483"
    cap-height="667"
    bbox="-414 -388 1256 1100"
    underline-thickness="120"
    underline-position="-484"
    unicode-range="U+000D-FB04"
  />
<missing-glyph horiz-adv-x="459" 
d="M54 -48v758q0 19 11.5 30.5t30.5 11.5h267q19 0 30.5 -11.5t11.5 -30.5v-758q0 -19 -11.5 -30.5t-30.5 -11.5h-267q-19 0 -30.5 11.5t-11.5 30.5zM373 722h-288v-782h288v782z" />
    <glyph glyph-name="f_f_j" unicode="ffj" horiz-adv-x="1022" 
d="M781 629q0 42 29.5 71.5t71.5 29.5t71.5 -29.5t29.5 -71.5t-29.5 -71.5t-71.5 -29.5t-71.5 29.5t-29.5 71.5zM668 327h-30v-247q0 -37 -26.5 -63.5t-63.5 -26.5t-63.5 26.5t-26.5 63.5v247h-12q-26 0 -46.5 15.5t-27.5 39.5q-8 -24 -28.5 -39.5t-46.5 -15.5h-30v-247
q0 -37 -26.5 -63.5t-63.5 -26.5t-63.5 26.5t-26.5 63.5v247h-12q-32 0 -55 23t-23 55t23 55t55 23h12v22q0 74 52 123t132 49q31 0 58 -6q24 -5 38.5 -22t14.5 -40q0 -27 -20 -46.5t-47 -18.5h-2q-21 0 -33.5 -12t-12.5 -33v-16h30q26 0 46.5 -15.5t28.5 -39.5
q7 24 27.5 39.5t46.5 15.5h12v22q0 74 52 123t132 49q31 0 58 -6q24 -5 38.5 -22t14.5 -40q0 -27 -20 -46.5t-47 -18.5h-2q-21 0 -33.5 -12t-12.5 -33v-16h30q32 0 55 -23t23 -55t-23 -55t-55 -23zM972 403v-382q0 -98 -49 -157.5t-135 -59.5h-5q-41 0 -65.5 22t-24.5 61
q0 24 13.5 41.5t34.5 21.5l7 1q44 9 44 70v382q0 37 26.5 63.5t63.5 26.5t63.5 -26.5t26.5 -63.5z" />
    <glyph glyph-name="f_j" unicode="fj" horiz-adv-x="651" 
d="M375 405q0 -32 -23 -55t-55 -23h-30v-247q0 -37 -26.5 -63.5t-63.5 -26.5t-63.5 26.5t-26.5 63.5v247h-12q-32 0 -55 23t-23 55t23 55t55 23h12v22q0 74 52 123t132 49q31 0 58 -6q24 -5 38.5 -22t14.5 -40q0 -27 -20 -46.5t-47 -18.5h-2q-21 0 -33.5 -12t-12.5 -33v-16
h30q32 0 55 -23t23 -55zM410 629q0 42 29.5 71.5t71.5 29.5t71.5 -29.5t29.5 -71.5t-29.5 -71.5t-71.5 -29.5t-71.5 29.5t-29.5 71.5zM417 -196h-5q-41 0 -65.5 22t-24.5 61q0 24 13.5 41.5t34.5 21.5l7 1q44 9 44 70v382q0 37 26.5 63.5t63.5 26.5t63.5 -26.5t26.5 -63.5
v-382q0 -98 -49 -157.5t-135 -59.5z" />
    <glyph glyph-name="f_f" unicode="ff" horiz-adv-x="742" 
d="M746 405q0 -32 -23 -55t-55 -23h-30v-247q0 -37 -26.5 -63.5t-63.5 -26.5t-63.5 26.5t-26.5 63.5v247h-12q-26 0 -46.5 15.5t-27.5 39.5q-8 -24 -28.5 -39.5t-46.5 -15.5h-30v-247q0 -37 -26.5 -63.5t-63.5 -26.5t-63.5 26.5t-26.5 63.5v247h-12q-32 0 -55 23t-23 55
t23 55t55 23h12v22q0 74 52 123t132 49q31 0 58 -6q24 -5 38.5 -22t14.5 -40q0 -27 -20 -46.5t-47 -18.5h-2q-21 0 -33.5 -12t-12.5 -33v-16h30q26 0 46.5 -15.5t28.5 -39.5q7 24 27.5 39.5t46.5 15.5h12v22q0 74 52 123t132 49q31 0 58 -6q24 -5 38.5 -22t14.5 -40
q0 -27 -20 -46.5t-47 -18.5h-2q-21 0 -33.5 -12t-12.5 -33v-16h30q32 0 55 -23t23 -55z" />
    <glyph glyph-name="fi" unicode="fi" horiz-adv-x="651" 
d="M375 405q0 -32 -23 -55t-55 -23h-30v-247q0 -37 -26.5 -63.5t-63.5 -26.5t-63.5 26.5t-26.5 63.5v247h-12q-32 0 -55 23t-23 55t23 55t55 23h12v22q0 74 52 123t132 49q31 0 58 -6q24 -5 38.5 -22t14.5 -40q0 -27 -20 -46.5t-47 -18.5h-2q-21 0 -33.5 -12t-12.5 -33v-16
h30q32 0 55 -23t23 -55zM410 629q0 42 29.5 71.5t71.5 29.5t71.5 -29.5t29.5 -71.5t-29.5 -71.5t-71.5 -29.5t-71.5 29.5t-29.5 71.5zM421 80v323q0 37 26.5 63.5t63.5 26.5t63.5 -26.5t26.5 -63.5v-323q0 -37 -26.5 -63.5t-63.5 -26.5t-63.5 26.5t-26.5 63.5z" />
    <glyph glyph-name="fl" unicode="fl" horiz-adv-x="651" 
d="M375 405q0 -32 -23 -55t-55 -23h-30v-247q0 -37 -26.5 -63.5t-63.5 -26.5t-63.5 26.5t-26.5 63.5v247h-12q-32 0 -55 23t-23 55t23 55t55 23h12v22q0 74 52 123t132 49q31 0 58 -6q24 -5 38.5 -22t14.5 -40q0 -27 -20 -46.5t-47 -18.5h-2q-21 0 -33.5 -12t-12.5 -33v-16
h30q32 0 55 -23t23 -55zM421 80v507q0 37 26.5 63.5t63.5 26.5t63.5 -26.5t26.5 -63.5v-507q0 -37 -26.5 -63.5t-63.5 -26.5t-63.5 26.5t-26.5 63.5z" />
    <glyph glyph-name="f_f_i" unicode="ffi" horiz-adv-x="1022" 
d="M781 629q0 42 29.5 71.5t71.5 29.5t71.5 -29.5t29.5 -71.5t-29.5 -71.5t-71.5 -29.5t-71.5 29.5t-29.5 71.5zM638 499v-16h30q32 0 55 -23t23 -55t-23 -55t-55 -23h-30v-247q0 -37 -26.5 -63.5t-63.5 -26.5t-63.5 26.5t-26.5 63.5v247h-12q-26 0 -46.5 15.5t-27.5 39.5
q-8 -24 -28.5 -39.5t-46.5 -15.5h-30v-247q0 -37 -26.5 -63.5t-63.5 -26.5t-63.5 26.5t-26.5 63.5v247h-12q-32 0 -55 23t-23 55t23 55t55 23h12v22q0 74 52 123t132 49q31 0 58 -6q24 -5 38.5 -22t14.5 -40q0 -27 -20 -46.5t-47 -18.5h-2q-21 0 -33.5 -12t-12.5 -33v-16h30
q26 0 46.5 -15.5t28.5 -39.5q7 24 27.5 39.5t46.5 15.5h12v22q0 74 52 123t132 49q31 0 58 -6q24 -5 38.5 -22t14.5 -40q0 -27 -20 -46.5t-47 -18.5h-2q-21 0 -33.5 -12t-12.5 -33zM972 403v-323q0 -37 -26.5 -63.5t-63.5 -26.5t-63.5 26.5t-26.5 63.5v323q0 37 26.5 63.5
t63.5 26.5t63.5 -26.5t26.5 -63.5z" />
    <glyph glyph-name="f_f_l" unicode="ffl" horiz-adv-x="1022" 
d="M638 499v-16h30q32 0 55 -23t23 -55t-23 -55t-55 -23h-30v-247q0 -37 -26.5 -63.5t-63.5 -26.5t-63.5 26.5t-26.5 63.5v247h-12q-26 0 -46.5 15.5t-27.5 39.5q-8 -24 -28.5 -39.5t-46.5 -15.5h-30v-247q0 -37 -26.5 -63.5t-63.5 -26.5t-63.5 26.5t-26.5 63.5v247h-12
q-32 0 -55 23t-23 55t23 55t55 23h12v22q0 74 52 123t132 49q31 0 58 -6q24 -5 38.5 -22t14.5 -40q0 -27 -20 -46.5t-47 -18.5h-2q-21 0 -33.5 -12t-12.5 -33v-16h30q26 0 46.5 -15.5t28.5 -39.5q7 24 27.5 39.5t46.5 15.5h12v22q0 74 52 123t132 49q31 0 58 -6
q24 -5 38.5 -22t14.5 -40q0 -27 -20 -46.5t-47 -18.5h-2q-21 0 -33.5 -12t-12.5 -33zM972 587v-507q0 -37 -26.5 -63.5t-63.5 -26.5t-63.5 26.5t-26.5 63.5v507q0 37 26.5 63.5t63.5 26.5t63.5 -26.5t26.5 -63.5z" />
    <glyph glyph-name="f_b" unicode="fb" horiz-adv-x="967" 
d="M375 405q0 -32 -23 -55t-55 -23h-30v-247q0 -37 -26.5 -63.5t-63.5 -26.5t-63.5 26.5t-26.5 63.5v247h-12q-32 0 -55 23t-23 55t23 55t55 23h12v22q0 74 52 123t132 49q31 0 58 -6q24 -5 38.5 -22t14.5 -40q0 -27 -20 -46.5t-47 -18.5h-2q-21 0 -33.5 -12t-12.5 -33v-16
h30q32 0 55 -23t23 -55zM950 242q0 -118 -60.5 -186t-152.5 -68q-81 0 -136 63q-8 -27 -34 -44t-56 -17q-37 0 -63.5 26.5t-26.5 63.5v507q0 37 26.5 63.5t63.5 26.5t63.5 -26.5t26.5 -63.5v-155q53 63 136 63q92 0 152.5 -69t60.5 -184zM766 242q0 42 -25.5 68t-64.5 26
q-20 0 -41.5 -9.5t-33.5 -23.5v-124q26 -32 75 -32q39 0 64.5 26t25.5 69z" />
    <glyph glyph-name="f_h" unicode="fh" horiz-adv-x="979" 
d="M375 405q0 -32 -23 -55t-55 -23h-30v-247q0 -37 -26.5 -63.5t-63.5 -26.5t-63.5 26.5t-26.5 63.5v247h-12q-32 0 -55 23t-23 55t23 55t55 23h12v22q0 74 52 123t132 49q31 0 58 -6q24 -5 38.5 -22t14.5 -40q0 -27 -20 -46.5t-47 -18.5h-2q-21 0 -33.5 -12t-12.5 -33v-16
h30q32 0 55 -23t23 -55zM749 80v189q0 67 -70 67q-44 0 -77 -38v-218q0 -37 -26.5 -63.5t-63.5 -26.5t-63.5 26.5t-26.5 63.5v507q0 37 26.5 63.5t63.5 26.5t63.5 -26.5t26.5 -63.5v-159q60 67 166 67q78 0 119.5 -40.5t41.5 -109.5v-265q0 -37 -26.5 -63.5t-63.5 -26.5
t-63.5 26.5t-26.5 63.5z" />
    <glyph glyph-name="f_k" unicode="fk" horiz-adv-x="928" 
d="M375 405q0 -32 -23 -55t-55 -23h-30v-247q0 -37 -26.5 -63.5t-63.5 -26.5t-63.5 26.5t-26.5 63.5v247h-12q-32 0 -55 23t-23 55t23 55t55 23h12v22q0 74 52 123t132 49q31 0 58 -6q24 -5 38.5 -22t14.5 -40q0 -27 -20 -46.5t-47 -18.5h-2q-21 0 -33.5 -12t-12.5 -33v-16
h30q32 0 55 -23t23 -55zM909 80q0 -39 -26 -64.5t-65 -25.5q-46 0 -71 34l-107 133l-39 -38v-39q0 -37 -26.5 -63.5t-63.5 -26.5t-63.5 26.5t-26.5 63.5v507q0 37 26.5 63.5t63.5 26.5t63.5 -26.5t26.5 -63.5v-268l140 147q25 27 61 27q37 0 61.5 -24.5t24.5 -59.5
q0 -38 -26 -62l-91 -86l122 -131q16 -16 16 -50z" />
    <glyph glyph-name=".notdef" horiz-adv-x="459" 
d="M54 -48v758q0 19 11.5 30.5t30.5 11.5h267q19 0 30.5 -11.5t11.5 -30.5v-758q0 -19 -11.5 -30.5t-30.5 -11.5h-267q-19 0 -30.5 11.5t-11.5 30.5zM373 722h-288v-782h288v782z" />
    <glyph glyph-name=".null" horiz-adv-x="0" 
 />
    <glyph glyph-name="nonmarkingreturn" horiz-adv-x="333" 
 />
    <glyph glyph-name="CR" unicode="&#xd;" horiz-adv-x="0" 
 />
    <glyph glyph-name="space" unicode=" " horiz-adv-x="255" 
 />
    <glyph glyph-name="exclam" unicode="!" horiz-adv-x="280" 
d="M55 318l-16 252q-3 44 27 75q30 32 74 32q43 0 73 -32q30 -31 28 -75l-15 -252q-2 -33 -26.5 -56.5t-58.5 -23.5t-59 23.5t-27 56.5zM141 202q42 0 74 -32t32 -75t-32 -75q-31 -31 -74 -31q-44 0 -75 31t-31 75t31 75q32 32 75 32z" />
    <glyph glyph-name="quotedbl" unicode="&#x22;" horiz-adv-x="469" 
d="M83 362q-49 206 -49 223q0 38 27 65t65 27t65 -27t27 -65q0 -17 -49 -223q-8 -32 -43 -32t-43 32zM301 362q-49 206 -49 223q0 38 27 65t65 27t64.5 -27t26.5 -65q0 -17 -49 -223q-8 -32 -42 -32q-35 0 -43 32z" />
    <glyph glyph-name="numbersign" unicode="#" horiz-adv-x="646" 
d="M626 453q0 -22 -16 -38t-38 -16h-62l-44 -132h28q23 0 38.5 -15.5t15.5 -38.5t-15.5 -39t-38.5 -16h-65l-42 -127q-14 -41 -57 -41q-25 0 -42.5 17.5t-17.5 42.5q0 10 3 19l30 89h-79l-42 -127q-14 -41 -57 -41q-25 0 -42.5 17.5t-17.5 42.5q0 10 3 19l30 89h-22
q-23 0 -38.5 16t-15.5 39t16 38.5t38 15.5h59l43 132h-24q-22 0 -38 16t-16 38t16 38t38 16h61l43 129q14 41 57 41q25 0 42.5 -17.5t17.5 -42.5q0 -10 -3 -19l-30 -91h78l43 129q14 41 57 41q25 0 42.5 -17.5t17.5 -42.5q0 -10 -3 -19l-31 -91h26q22 0 38 -16t16 -38z
M339 267l44 132h-78l-43 -132h77z" />
    <glyph glyph-name="dollar" unicode="$" horiz-adv-x="635" 
d="M390 -8v-38q0 -26 -19 -45t-45 -19t-45 19t-19 45v37q-97 11 -170 51q-48 26 -48 80q0 38 27 64.5t64 26.5q27 0 46 -12q73 -43 157 -43q32 0 53 10.5t21 28.5q0 19 -21.5 30.5t-72.5 20.5q-80 14 -138 32q-54 18 -97 61t-43 120q0 80 58.5 138.5t163.5 73.5v41
q0 26 19 45t45 19t45 -19t19 -45v-41q76 -7 145 -37q53 -25 53 -82q0 -37 -26.5 -63.5t-63.5 -26.5q-19 0 -40 8q-91 35 -142 35q-71 0 -71 -35q0 -19 20.5 -28.5t77.5 -18.5q82 -15 132 -32q57 -18 99 -60t42 -113q0 -96 -59 -155t-167 -73z" />
    <glyph glyph-name="percent" unicode="%" horiz-adv-x="784" 
d="M20 508q0 72 49.5 120.5t128.5 48.5q80 0 130 -48.5t50 -120.5t-50 -119.5t-130 -47.5q-79 0 -128.5 47.5t-49.5 119.5zM158 31q0 11 7 22l386 605q11 19 35 19q17 0 29 -12t12 -29q0 -12 -6 -22l-387 -605q-10 -19 -35 -19q-17 0 -29 12t-12 29zM256 508q0 75 -58 75
q-26 0 -41.5 -19t-15.5 -56q0 -36 15.5 -54.5t41.5 -18.5q27 0 42.5 18.5t15.5 54.5zM407 155q0 72 49.5 120.5t128.5 48.5q80 0 129.5 -48.5t49.5 -120.5t-49.5 -119.5t-129.5 -47.5q-79 0 -128.5 47.5t-49.5 119.5zM643 155q0 75 -58 75q-57 0 -57 -75q0 -73 57 -73
q27 0 42.5 18.5t15.5 54.5z" />
    <glyph glyph-name="ampersand" unicode="&#x26;" horiz-adv-x="652" 
d="M617 74q0 -34 -24.5 -59t-59.5 -25q-30 0 -50 14q-28 20 -54 40q-86 -56 -184 -56q-103 0 -168 52q-65 53 -65 149q0 65 35.5 110t104.5 77q-37 75 -37 136q0 69 60.5 117t152.5 48q81 0 140 -42t59 -109q0 -65 -38 -104.5t-119 -74.5l37 -49q28 -35 37 -44q21 35 26 46
q20 41 65 41q30 0 51.5 -21.5t21.5 -51.5q0 -20 -10 -37q-25 -41 -47 -70l26 -17q40 -26 40 -70zM310 441q66 32 66 74q0 16 -11 26.5t-28 10.5q-20 0 -33 -12.5t-13 -32.5q0 -29 19 -66zM323 138q-36 36 -54 59q-9 11 -20.5 26.5t-18 24.5t-10.5 15q-20 -23 -20 -56
q0 -35 21 -58t51 -23q26 0 51 12z" />
    <glyph glyph-name="quotesingle" unicode="'" horiz-adv-x="252" 
d="M83 362q-49 206 -49 223q0 38 27 65t65 27t65 -27t27 -65q0 -17 -49 -223q-8 -32 -43 -32t-43 32z" />
    <glyph glyph-name="parenleft" unicode="(" horiz-adv-x="346" 
d="M165 -146q-59 79 -94 184q-34 103 -34 205t34 205q34 104 95 185q24 32 64 32q33 0 56.5 -23.5t23.5 -56.5q0 -21 -9 -37q-71 -138 -71 -305q0 -168 71 -303q9 -18 9 -38q0 -33 -23.5 -56.5t-56.5 -23.5q-40 0 -65 32z" />
    <glyph glyph-name="parenright" unicode=")" horiz-adv-x="347" 
d="M36 -98q0 22 9 38q71 135 71 303q0 167 -71 305q-9 16 -9 37q0 33 23.5 56.5t56.5 23.5q40 0 64 -32q60 -79 94 -185q35 -107 35 -205q0 -102 -34 -205q-35 -105 -94 -184q-25 -32 -65 -32q-33 0 -56.5 23.5t-23.5 56.5z" />
    <glyph glyph-name="asterisk" unicode="*" horiz-adv-x="363" 
d="M142 371l4 79l-65 -42q-11 -7 -21 -7q-15 0 -26 12t-11 27q0 28 18 35l71 35l-71 35q-18 8 -18 34q0 16 11 27.5t26 11.5q13 0 21 -5l65 -44l-4 80q-1 16 11 27t28 11t28 -11t11 -27l-4 -80l65 44q8 5 21 5q14 0 25.5 -11.5t11.5 -27.5q0 -25 -19 -34l-70 -35l70 -35
q19 -8 19 -35q0 -15 -11.5 -27t-25.5 -12q-11 0 -21 7l-65 42l4 -79q1 -16 -11 -27t-28 -11t-28 11t-11 27z" />
    <glyph glyph-name="plus" unicode="+" horiz-adv-x="510" 
d="M313 285v-145q0 -24 -17 -41t-41 -17t-41 17t-17 41v145h-126q-22 0 -37 15.5t-15 37.5q0 21 15 36.5t37 15.5h126v137q0 24 17 41t41 17t41 -17t17 -41v-137h126q22 0 37 -15.5t15 -36.5q0 -22 -15 -37.5t-37 -15.5h-126z" />
    <glyph glyph-name="comma" unicode="," horiz-adv-x="281" 
d="M123 -142q-19 0 -32 12.5t-13 31.5q0 20 16 33q43 38 53 69q-9 -4 -26 -4q-36 0 -61.5 27.5t-25.5 69.5q0 43 31 74t73 31q49 0 82.5 -35.5t33.5 -93.5q0 -114 -102 -204q-11 -11 -29 -11z" />
    <glyph glyph-name="hyphen" unicode="-" horiz-adv-x="300" 
d="M18 242q0 31 22.5 53t52.5 22h114q30 0 52.5 -22t22.5 -53t-22.5 -53t-52.5 -22h-114q-30 0 -52.5 22t-22.5 53z" />
    <glyph glyph-name="period" unicode="." horiz-adv-x="283" 
d="M141 202q43 0 75 -32t32 -75t-32 -75t-75 -32t-75 32t-32 75t32 75t75 32z" />
    <glyph glyph-name="slash" unicode="/" horiz-adv-x="362" 
d="M20 29q0 10 3 19l204 609q6 18 21.5 29t34.5 11q25 0 42 -17t17 -42q0 -10 -3 -19l-204 -609q-6 -18 -21.5 -29t-34.5 -11q-25 0 -42 17t-17 42z" />
    <glyph glyph-name="zero" unicode="0" horiz-adv-x="628" 
d="M314 677q139 0 217.5 -98.5t78.5 -245.5q1 -94 -32.5 -172t-102.5 -126.5t-161 -46.5q-92 -2 -161 46.5t-102.5 126.5t-32.5 172q0 147 78.5 245.5t217.5 98.5zM314 499q-93 0 -93 -166q0 -167 93 -167t93 167q0 166 -93 166z" />
    <glyph glyph-name="one" unicode="1" horiz-adv-x="473" 
d="M217 91v319l-61 -60q-26 -24 -58 -24q-34 0 -58 24t-24 58t25 59l180 177q35 33 82 33q48 0 82 -34t34 -82v-470q0 -41 -29.5 -71t-71.5 -30t-71.5 30t-29.5 71z" />
    <glyph glyph-name="two" unicode="2" horiz-adv-x="603" 
d="M21 103q0 54 45 85q138 95 202 142q59 44 78 68q19 22 19 49q0 24 -22.5 38t-58.5 14q-63 0 -120 -33q-20 -12 -44 -12q-37 0 -63 26.5t-26 63.5q0 51 44 77q94 56 209 56q127 0 206.5 -64.5t79.5 -165.5q0 -71 -51 -133q-49 -62 -180 -138h159q36 0 62 -25.5t26 -62.5
t-26 -62.5t-62 -25.5h-374q-42 0 -72.5 30t-30.5 73z" />
    <glyph glyph-name="three" unicode="3" horiz-adv-x="587" 
d="M51 39q-44 26 -44 75q0 36 25 61t61 25q21 0 38 -9q67 -34 131 -34q46 0 71.5 14t25.5 37q0 22 -22.5 32.5t-80.5 10.5h-22q-35 0 -60 24.5t-25 59.5t25 59.5t59 24.5h23q92 0 92 40q0 23 -26.5 35.5t-72.5 12.5q-59 0 -118 -31q-17 -9 -37 -9q-34 0 -58 23.5t-24 57.5
q0 43 37 69q91 60 222 60q133 0 205.5 -49.5t72.5 -135.5q0 -52 -42 -96q-40 -41 -105 -52q63 -6 110.5 -49.5t47.5 -106.5q0 -89 -80.5 -144.5t-209.5 -55.5q-128 0 -219 51z" />
    <glyph glyph-name="four" unicode="4" horiz-adv-x="636" 
d="M541 107v-16q0 -41 -29.5 -71t-71.5 -30t-71.5 30t-29.5 71v16h-223q-45 0 -76 31q-32 32 -32 77q0 30 15 56l193 321q24 39 63.5 62t86.5 23q72 0 123.5 -51.5t51.5 -123.5v-219q37 -3 62 -28t25 -60q0 -36 -25.5 -61t-61.5 -27zM213 283h126v210z" />
    <glyph glyph-name="five" unicode="5" horiz-adv-x="626" 
d="M62 108q0 35 25.5 60.5t60.5 25.5q19 0 37 -8q60 -29 124 -29q46 0 70 17.5t24 45.5t-22.5 44t-65.5 16q-57 0 -95 -27q-25 -19 -62 -19q-44 0 -75 31t-31 75v220q0 52 27.5 79.5t79.5 27.5h329q35 0 59.5 -24.5t24.5 -59.5q0 -34 -24.5 -59t-59.5 -25h-244v-106
q69 51 149 51q89 0 152 -60.5t63 -155.5q0 -111 -79.5 -175.5t-217.5 -64.5q-115 0 -200 42q-22 11 -35.5 32.5t-13.5 45.5z" />
    <glyph glyph-name="six" unicode="6" horiz-adv-x="625" 
d="M368 677q64 0 125 -19q26 -8 42.5 -30.5t16.5 -50.5q0 -35 -25 -59.5t-60 -24.5q-18 0 -27 4q-33 11 -72 11q-60 0 -103 -36q-43 -34 -43 -93v-2q25 32 66 50t89 18q98 0 167 -59t69 -158q0 -106 -78.5 -173t-198.5 -67q-155 0 -236.5 94.5t-81.5 249.5q0 162 95.5 253.5
t254.5 91.5zM315 282q-53 0 -94 -27q4 -43 31 -70.5t75 -27.5q36 0 58.5 18t22.5 43q0 31 -26 47.5t-67 16.5z" />
    <glyph glyph-name="seven" unicode="7" horiz-adv-x="585" 
d="M178 91q0 18 8 40l155 360h-235q-36 0 -62 25.5t-26 62.5t26 62.5t62 25.5h381q40 0 68 -28t28 -68q0 -24 -7 -38l-203 -481q-11 -27 -37 -44.5t-57 -17.5q-41 0 -71 29.5t-30 71.5z" />
    <glyph glyph-name="eight" unicode="8" horiz-adv-x="630" 
d="M145 344q-116 48 -116 154q0 88 83 133.5t203 45.5t203 -45.5t83 -133.5q0 -106 -117 -154q58 -24 93 -68.5t35 -97.5q0 -93 -85.5 -141.5t-211.5 -48.5t-211.5 48.5t-85.5 141.5q0 53 34.5 97.5t92.5 68.5zM315 513q-38 0 -59.5 -12.5t-21.5 -32.5q0 -18 23.5 -33
t57.5 -20q34 5 57 20t23 33q0 20 -21.5 32.5t-58.5 12.5zM315 258q-38 -6 -65 -21.5t-27 -36.5q0 -22 25 -35t67 -13q41 0 66.5 13t25.5 35q0 21 -27 36.5t-65 21.5z" />
    <glyph glyph-name="nine" unicode="9" horiz-adv-x="625" 
d="M73 89q0 35 25 59.5t59 24.5q12 0 27 -5q31 -10 73 -10q59 0 103 35q43 36 43 94v2q-25 -32 -66 -50t-89 -18q-98 0 -167 59t-69 158q0 106 78.5 173t198.5 67q155 0 236.5 -94.5t81.5 -249.5q0 -162 -95.5 -253.5t-254.5 -91.5q-62 0 -125 20q-26 8 -42.5 30t-16.5 50z
M298 509q-36 0 -58.5 -18t-22.5 -43q0 -31 26 -47.5t67 -16.5q54 0 94 27q-4 43 -31 70.5t-75 27.5z" />
    <glyph glyph-name="colon" unicode=":" horiz-adv-x="283" 
d="M141 490q43 0 75 -32t32 -75t-32 -75t-75 -32t-75 32t-32 75t32 75t75 32zM141 202q43 0 75 -32t32 -75t-32 -75t-75 -32t-75 32t-32 75t32 75t75 32z" />
    <glyph glyph-name="semicolon" unicode=";" horiz-adv-x="281" 
d="M34 384q0 43 31 74q32 32 76 32q43 0 75 -32t32 -74q0 -44 -32 -76t-75 -32t-75 32t-32 76zM123 -141q-19 0 -32 13t-13 31q0 21 15 34q42 37 54 72q-9 -4 -26 -4q-37 0 -62 26t-25 67q0 43 31 74t73 31q49 0 82.5 -35.5t33.5 -93.5q0 -114 -102 -204q-14 -11 -29 -11z
" />
    <glyph glyph-name="less" unicode="&#x3c;" horiz-adv-x="510" 
d="M19 335q0 28 15.5 51t40.5 33l337 134q11 4 21 4q24 0 41 -17t17 -41q0 -18 -10.5 -33t-27.5 -21l-306 -111l306 -109q17 -6 27.5 -21t10.5 -33q0 -24 -17 -41t-40 -17q-11 0 -22 4l-337 134q-25 10 -40.5 33t-15.5 51z" />
    <glyph glyph-name="equal" unicode="=" horiz-adv-x="510" 
d="M19 426q0 21 15 36.5t37 15.5h368q22 0 37 -15.5t15 -37.5q0 -21 -15 -36.5t-37 -15.5h-368q-22 0 -37 15.5t-15 37.5zM19 242q0 22 15 37.5t37 15.5h368q22 0 37 -15.5t15 -36.5q0 -22 -15 -37.5t-37 -15.5h-368q-22 0 -37 15.5t-15 36.5z" />
    <glyph glyph-name="greater" unicode="&#x3e;" horiz-adv-x="510" 
d="M76 113q-23 0 -40 17t-17 41q0 18 10.5 33t27.5 21l306 109l-306 111q-17 6 -27.5 21t-10.5 33q0 24 17 41t40 17q11 0 22 -4l337 -134q25 -10 40.5 -33t15.5 -51t-15.5 -51t-40.5 -33l-337 -134q-11 -4 -22 -4z" />
    <glyph glyph-name="question" unicode="?" horiz-adv-x="450" 
d="M207 446q31 22 31 32q0 21 -39 21q-20 0 -44 -12q-16 -8 -38 -8q-35 0 -60.5 25.5t-25.5 61.5q0 52 48 77q67 34 143 34q101 0 160.5 -43.5t59.5 -117.5q0 -51 -21.5 -83.5t-68.5 -68.5q-28 -22 -39 -34.5t-13 -28.5v-4l-1 -7q-8 -27 -33 -45.5t-55 -18.5
q-34 0 -58.5 22.5t-26.5 56.5v14q0 43 19.5 70t61.5 57zM228 202q43 0 75 -32t32 -75t-32 -75t-75 -32t-75 32t-32 75t32 75t75 32z" />
    <glyph glyph-name="at" unicode="@" horiz-adv-x="783" 
d="M622 405l-27 -127q-5 -20 -5 -37q0 -38 28 -38q32 0 55.5 38.5t23.5 101.5q0 115 -72.5 183t-196.5 68q-89 2 -170.5 -47t-130.5 -130.5t-47 -169.5q0 -117 79 -195.5t198 -78.5q87 0 166 46q6 3 10 3q9 0 15 -6t6 -15q0 -13 -11 -18q-91 -53 -191 -53q-132 -2 -225.5 91
t-91.5 223q-3 99 54 192t150.5 148.5t192.5 53.5q137 2 227 -85.5t88 -209.5q1 -60 -20 -111t-54.5 -82t-72.5 -48t-76 -17q-84 0 -103 66l-2 7q-50 -73 -129 -73q-72 0 -114.5 48.5t-42.5 125.5q-2 92 66 166t151 72q80 0 122 -55q10 25 30 39t44 14q37 0 57.5 -18.5
t20.5 -50.5q0 -11 -2 -21zM432 250l19 95q-19 28 -58 28q-43 0 -70.5 -29.5t-27.5 -70.5q0 -29 17 -46.5t46 -17.5q42 0 74 41z" />
    <glyph glyph-name="A" unicode="A" horiz-adv-x="690" 
d="M678 91q0 -42 -29.5 -71.5t-71.5 -29.5q-33 0 -60.5 20.5t-36.5 51.5l-11 36h-248l-11 -36q-9 -31 -36.5 -51.5t-60.5 -20.5q-42 0 -71.5 29.5t-29.5 71.5q0 19 6 35l161 436q19 51 64.5 83t101.5 32t101.5 -32t64.5 -83l161 -436q6 -16 6 -35zM274 266h142l-71 223z" />
    <glyph glyph-name="B" unicode="B" horiz-adv-x="697" 
d="M54 107v453q0 52 27.5 79.5t79.5 27.5h298q93 0 145.5 -50.5t52.5 -119.5q0 -60 -31.5 -101t-82.5 -52q55 -8 91 -54t36 -109q0 -76 -52 -128.5t-145 -52.5h-312q-52 0 -79.5 27.5t-27.5 79.5zM256 419h156q16 0 28 12.5t12 30.5q0 17 -12 29t-28 12h-156v-84zM256 164
h162q21 0 34 13t13 32t-13 32.5t-34 13.5h-162v-91z" />
    <glyph glyph-name="C" unicode="C" horiz-adv-x="687" 
d="M18 333q-2 149 103.5 248t258.5 97q156 0 246 -99q26 -29 26 -65q0 -39 -28 -67t-68 -28q-44 0 -71 32q-43 49 -105 49q-68 0 -112.5 -48.5t-44.5 -118.5t44.5 -118.5t112.5 -48.5q62 0 105 49q27 32 71 32q39 0 67 -28t28 -67q0 -35 -25 -63q-95 -101 -246 -101
q-152 -3 -258.5 96.5t-103.5 248.5z" />
    <glyph glyph-name="D" unicode="D" horiz-adv-x="736" 
d="M54 107v453q0 52 27.5 79.5t79.5 27.5h191q162 0 264 -89.5t102 -243.5q0 -155 -101.5 -244.5t-263.5 -89.5h-192q-52 0 -79.5 27.5t-27.5 79.5zM256 176h96q72 0 116.5 45.5t44.5 112.5q0 73 -41.5 115t-118.5 42h-97v-315z" />
    <glyph glyph-name="E" unicode="E" 
d="M54 107v453q0 52 27.5 79.5t79.5 27.5h325q35 0 59.5 -24.5t24.5 -59.5q0 -34 -24.5 -59t-59.5 -25h-230v-78h223q35 0 59.5 -24.5t24.5 -59.5q0 -34 -24.5 -59t-59.5 -25h-223v-85h230q35 0 59.5 -24.5t24.5 -59.5q0 -34 -24.5 -59t-59.5 -25h-325q-52 0 -79.5 27.5
t-27.5 79.5z" />
    <glyph glyph-name="F" unicode="F" horiz-adv-x="592" 
d="M54 91v469q0 52 27.5 79.5t79.5 27.5h325q35 0 59.5 -24.5t24.5 -59.5q0 -34 -24.5 -59t-59.5 -25h-230v-78h223q35 0 59.5 -24.5t24.5 -59.5q0 -34 -24.5 -59t-59.5 -25h-223v-162q0 -41 -29.5 -71t-71.5 -30t-71.5 30t-29.5 71z" />
    <glyph glyph-name="G" unicode="G" horiz-adv-x="726" 
d="M690 308v-108q0 -85 -56 -129q-106 -83 -249 -83q-100 -1 -184.5 41.5t-134.5 122.5t-48 181q-2 153 105 250t262 95q123 0 212 -71q35 -28 35 -74q0 -39 -27.5 -66.5t-66.5 -27.5q-38 0 -63 24q-40 37 -90 37q-70 0 -116 -48t-46 -119t46 -119t116 -48q69 0 104 30v24
h-51q-34 0 -58.5 25t-24.5 60t25 63t58 28h168q34 0 59 -26.5t25 -61.5z" />
    <glyph glyph-name="H" unicode="H" horiz-adv-x="751" 
d="M495 91v164h-239v-164q0 -41 -29.5 -71t-71.5 -30t-71.5 30t-29.5 71v485q0 41 29.5 71t71.5 30t71.5 -30t29.5 -71v-145h239v145q0 41 29.5 71t71.5 30t71.5 -30t29.5 -71v-485q0 -41 -29.5 -71t-71.5 -30t-71.5 30t-29.5 71z" />
    <glyph glyph-name="I" unicode="I" horiz-adv-x="310" 
d="M54 91v485q0 41 29.5 71t71.5 30t71.5 -30t29.5 -71v-485q0 -41 -29.5 -71t-71.5 -30t-71.5 30t-29.5 71z" />
    <glyph glyph-name="J" unicode="J" horiz-adv-x="498" 
d="M22 86q0 37 26 62.5t62 25.5q14 0 24 -3q20 -5 34 -5q33 0 53.5 20t20.5 55v335q0 41 29.5 71t71.5 30t71.5 -30t29.5 -71v-338q0 -123 -68 -186.5t-190 -63.5q-53 0 -99 13q-28 8 -46.5 31.5t-18.5 53.5z" />
    <glyph glyph-name="K" unicode="K" horiz-adv-x="671" 
d="M639 89q0 -40 -28.5 -69.5t-69.5 -29.5q-46 0 -74 33l-169 211l-42 -50v-93q0 -41 -29.5 -71t-71.5 -30t-71.5 30t-29.5 71v485q0 41 29.5 71t71.5 30t71.5 -30t29.5 -71v-158l199 228q28 31 70 31q40 0 67 -28.5t27 -66.5t-22 -61l-152 -163l172 -207q22 -25 22 -62z
" />
    <glyph glyph-name="L" unicode="L" horiz-adv-x="536" 
d="M54 107v469q0 41 29.5 71t71.5 30t71.5 -30t29.5 -71v-400h175q36 0 62 -25.5t26 -62.5t-26 -62.5t-62 -25.5h-270q-52 0 -79.5 27.5t-27.5 79.5z" />
    <glyph glyph-name="M" unicode="M" horiz-adv-x="900" 
d="M644 91v330l-139 -392q-6 -17 -21.5 -28t-33.5 -11t-33.5 11t-21.5 28l-139 392v-330q0 -41 -29.5 -71t-71.5 -30t-71.5 30t-29.5 71v425q0 66 47.5 113.5t113.5 47.5q51 0 93 -30t59 -78l83 -242l83 242q17 48 59 78t93 30q66 0 113.5 -47.5t47.5 -113.5v-425
q0 -41 -29.5 -71t-71.5 -30t-71.5 30t-29.5 71z" />
    <glyph glyph-name="N" unicode="N" horiz-adv-x="750" 
d="M472 43l-216 315v-267q0 -41 -29.5 -71t-71.5 -30t-71.5 30t-29.5 71v454q0 53 39 92.5t93 39.5q70 0 108 -57l200 -289v245q0 41 29.5 71t71.5 30t71.5 -30t29.5 -71v-464q0 -50 -36 -86t-87 -36q-63 0 -101 53z" />
    <glyph glyph-name="O" unicode="O" horiz-adv-x="766" 
d="M383 678q154 2 261 -97.5t104 -247.5q3 -149 -104 -248.5t-261 -96.5q-154 -3 -261 96.5t-104 248.5q-3 148 104 247.5t261 97.5zM383 500q-70 0 -115 -48t-45 -119t45 -119t115 -48t115 48t45 119t-45 119t-115 48z" />
    <glyph glyph-name="P" unicode="P" horiz-adv-x="662" 
d="M54 91v469q0 52 27.5 79.5t79.5 27.5h249q111 0 175.5 -65t64.5 -164q0 -98 -64 -161t-176 -63h-154v-123q0 -41 -29.5 -71t-71.5 -30t-71.5 30t-29.5 71zM384 499h-128v-117h128q27 0 44 16t17 42t-17.5 42.5t-43.5 16.5z" />
    <glyph glyph-name="Q" unicode="Q" horiz-adv-x="766" 
d="M663 104l3 -9q3 -14 3 -26q0 -38 -25 -63.5t-65 -25.5q-38 0 -64 29q-61 -21 -132 -21q-154 -3 -261 96.5t-104 248.5q-3 148 104 247.5t261 97.5q154 2 261 -97.5t104 -247.5q0 -136 -85 -229zM383 166h6l-5 6q-6 7 -16 29q-3 14 -3 26q0 30 17 54t46 34q11 4 26 4
q41 0 69 -34l10 -13q10 26 10 61q0 71 -45 119t-115 48t-115 -48t-45 -119t45 -119t115 -48z" />
    <glyph glyph-name="R" unicode="R" horiz-adv-x="678" 
d="M548 246l73 -92q22 -25 22 -63q0 -43 -30 -72t-71 -29q-52 0 -81 41l-129 183h-76v-123q0 -41 -29.5 -71t-71.5 -30t-71.5 30t-29.5 71v469q0 52 27.5 79.5t79.5 27.5h249q111 0 175.5 -65t64.5 -164q0 -129 -102 -192zM256 499v-117h123q28 0 47 16.5t19 42.5t-19 42
t-47 16h-123z" />
    <glyph glyph-name="S" unicode="S" horiz-adv-x="613" 
d="M29 122q0 38 27 64.5t64 26.5q26 0 46 -12q73 -43 157 -43q32 0 53 10.5t21 28.5q0 19 -21.5 30.5t-72.5 20.5q-80 14 -138 32q-54 18 -97 61t-43 120q0 92 76 154t211 62q118 0 208 -41q53 -25 53 -82q0 -37 -26.5 -63.5t-63.5 -26.5q-19 0 -40 8q-91 35 -142 35
q-71 0 -71 -35q0 -19 20.5 -28.5t77.5 -18.5q82 -15 132 -32q57 -18 99 -60t42 -113q0 -110 -76.5 -171t-211.5 -61q-137 0 -236 54q-48 26 -48 80z" />
    <glyph glyph-name="T" unicode="T" horiz-adv-x="595" 
d="M197 91v400h-101q-36 0 -62 25.5t-26 62.5t26 62.5t62 25.5h403q36 0 62 -25.5t26 -62.5t-26 -62.5t-62 -25.5h-100v-400q0 -41 -29.5 -71t-71.5 -30t-71.5 30t-29.5 71z" />
    <glyph glyph-name="U" unicode="U" horiz-adv-x="749" 
d="M54 274v301q0 42 30 72t73 30q42 0 72 -30t30 -72v-294q0 -54 29 -84.5t87 -30.5q56 0 85.5 31t29.5 84v294q0 42 30 72t72 30q43 0 73 -30t30 -72v-300q0 -131 -79 -209q-80 -78 -241 -78q-158 0 -239.5 75.5t-81.5 210.5z" />
    <glyph glyph-name="V" unicode="V" horiz-adv-x="670" 
d="M169 105l-158 429q-7 20 -7 37q0 44 31 75t75 31q35 0 62.5 -20.5t38.5 -53.5l124 -385l124 385q11 33 38.5 53.5t62.5 20.5q44 0 75 -31t31 -75q0 -17 -7 -37l-158 -429q-19 -51 -64.5 -83t-101.5 -32t-101.5 32t-64.5 83z" />
    <glyph glyph-name="W" unicode="W" horiz-adv-x="954" 
d="M542 94l-65 284l-65 -284q-10 -45 -46.5 -74.5t-83.5 -29.5q-45 0 -80.5 27t-47.5 69l-130 456q-4 12 -4 29q0 44 31 75t75 31q38 0 67 -24t37 -60l70 -334l86 347q8 31 33 51t58 20t58 -20t33 -51l86 -347l69 333q8 37 37 61t68 24q44 0 75 -31t31 -75q0 -18 -4 -30
l-130 -455q-12 -42 -47.5 -69t-80.5 -27q-47 0 -83.5 29.5t-46.5 74.5z" />
    <glyph glyph-name="X" unicode="X" horiz-adv-x="684" 
d="M662 89q0 -41 -29 -70t-69 -29q-46 0 -73 32l-149 178l-149 -178q-27 -32 -73 -32q-40 0 -69 29t-29 70q0 37 24 64l168 188l-156 172q-24 27 -24 66q0 41 29.5 69.5t69.5 28.5q47 0 77 -38l132 -162l132 162q30 38 77 38q40 0 69.5 -28.5t29.5 -69.5q0 -40 -15 -55
l-165 -183l168 -188q24 -27 24 -64z" />
    <glyph glyph-name="Y" unicode="Y" horiz-adv-x="662" 
d="M621 511l-189 -245v-175q0 -41 -29.5 -71t-71.5 -30t-71.5 30t-29.5 71v175l-189 245q-26 34 -26 67q0 41 29 70t69 29q51 0 79 -40l139 -199l139 199q28 40 79 40q40 0 69 -29t29 -70q0 -33 -26 -67z" />
    <glyph glyph-name="Z" unicode="Z" horiz-adv-x="600" 
d="M26 110q0 37 22 66l242 315h-176q-36 0 -62 25.5t-26 62.5t26 62.5t62 25.5h344q45 0 77 -32t32 -77q0 -37 -22 -66l-243 -316h184q36 0 62 -25.5t26 -62.5t-26 -62.5t-62 -25.5h-351q-45 0 -77 32t-32 78z" />
    <glyph glyph-name="bracketleft" unicode="[" horiz-adv-x="317" 
d="M54 -119v727q0 29 20.5 49.5t49.5 20.5h128q23 0 39.5 -17t16.5 -40t-16.5 -40t-39.5 -17h-73v-640h73q23 0 39.5 -17t16.5 -40t-16.5 -40t-39.5 -17h-128q-29 0 -49.5 21t-20.5 50z" />
    <glyph glyph-name="backslash" unicode="\" horiz-adv-x="362" 
d="M227 10l-204 609q-3 9 -3 19q0 25 17 42t42 17q19 0 34.5 -11t21.5 -29l204 -609q3 -9 3 -19q0 -25 -17 -42t-42 -17q-19 0 -34.5 11t-21.5 29z" />
    <glyph glyph-name="bracketright" unicode="]" horiz-adv-x="317" 
d="M9 -133q0 23 16.5 40t39.5 17h73v640h-73q-23 0 -39.5 17t-16.5 40t16.5 40t39.5 17h128q29 0 49.5 -20.5t20.5 -49.5v-727q0 -29 -20.5 -50t-49.5 -21h-128q-23 0 -39.5 17t-16.5 40z" />
    <glyph glyph-name="asciicircum" unicode="^" horiz-adv-x="450" 
d="M295 360l-70 188l-69 -187q-6 -17 -21 -27.5t-33 -10.5q-24 0 -41 17t-17 40q0 10 5 23l94 219q25 55 83 55q27 0 50 -15.5t34 -40.5l92 -218q4 -7 4 -23q0 -23 -16.5 -40t-40.5 -17q-41 0 -54 37z" />
    <glyph glyph-name="underscore" unicode="_" horiz-adv-x="564" 
d="M-13 -97q0 23 17 40t40 17h476q23 0 40 -17t17 -40t-17 -40t-40 -17h-476q-23 0 -40 17t-17 40z" />
    <glyph glyph-name="grave" unicode="`" horiz-adv-x="275" 
d="M159 552l-83 77q-16 16 -16 38q0 23 16 38.5t37 15.5q24 0 40 -19l75 -90q10 -10 10 -27q0 -19 -14 -32.5t-32 -13.5q-19 0 -33 13z" />
    <glyph glyph-name="a" unicode="a" horiz-adv-x="559" 
d="M509 292v-206q0 -40 -25.5 -68t-64.5 -28q-29 0 -53.5 16t-35.5 42q-20 -26 -61 -43t-86 -17q-64 0 -115 42.5t-51 116.5q0 81 49 115t117 34q48 0 87.5 -14t58.5 -39v55q0 27 -24 43.5t-66 16.5q-47 0 -92 -22q-12 -6 -26 -6q-27 0 -46 19t-19 46q0 39 36 58
q84 42 180 42q105 0 170 -46q67 -46 67 -157zM329 131v27q-19 26 -71 26q-63 0 -63 -40q0 -39 63 -39q52 0 71 26z" />
    <glyph glyph-name="b" unicode="b" 
d="M579 242q0 -118 -60.5 -186t-152.5 -68q-80 0 -136 63q-8 -27 -34 -44t-56 -17q-37 0 -63.5 26.5t-26.5 63.5v507q0 37 26.5 63.5t63.5 26.5t63.5 -26.5t26.5 -63.5v-155q52 63 136 63q92 0 152.5 -69t60.5 -184zM395 242q0 42 -25.5 68t-64.5 26q-20 0 -41.5 -9.5
t-33.5 -23.5v-124q26 -32 75 -32q39 0 64.5 26t25.5 69z" />
    <glyph glyph-name="c" unicode="c" horiz-adv-x="482" 
d="M288 495q75 0 132 -30q44 -24 44 -71q0 -33 -23.5 -56.5t-56.5 -23.5q-23 0 -39 10q-21 12 -49 12q-41 0 -68 -25t-27 -69t27 -69.5t68 -25.5q27 0 48 12q20 11 39 11q33 0 56.5 -23.5t23.5 -57.5q0 -47 -43 -71q-57 -30 -132 -30q-116 0 -193.5 70.5t-77.5 183.5
q0 112 77.5 182.5t193.5 70.5z" />
    <glyph glyph-name="d" unicode="d" 
d="M546 587v-507q0 -40 -25.5 -67.5t-64.5 -27.5q-30 0 -55 18.5t-35 47.5q-56 -63 -136 -63q-92 0 -152.5 68t-60.5 186q0 115 60.5 184t152.5 69q84 0 136 -63v155q0 37 26.5 63.5t63.5 26.5t63.5 -26.5t26.5 -63.5zM366 180v124q-26 32 -75 32q-39 0 -64.5 -26t-25.5 -68
q0 -43 25.5 -69t64.5 -26q20 0 41.5 9.5t33.5 23.5z" />
    <glyph glyph-name="e" unicode="e" horiz-adv-x="543" 
d="M280 495q103 2 178 -65t73 -156q0 -48 -25.5 -68t-81.5 -20h-221q9 -27 37 -44t69 -17q34 0 71 14q13 5 25 5q28 0 48 -20t20 -48q0 -20 -12.5 -37t-31.5 -26q-66 -25 -143 -25q-117 0 -193 69.5t-76 184.5q0 107 74.5 180t188.5 73zM201 300h159q-14 58 -80 58
q-64 0 -79 -58z" />
    <glyph glyph-name="f" unicode="f" horiz-adv-x="371" 
d="M375 405q0 -32 -23 -55t-55 -23h-30v-247q0 -37 -26.5 -63.5t-63.5 -26.5t-63.5 26.5t-26.5 63.5v247h-12q-32 0 -55 23t-23 55t23 55t55 23h12v22q0 74 52 123t132 49q31 0 58 -6q24 -5 38.5 -22t14.5 -40q0 -27 -20 -46.5t-47 -18.5h-2q-21 0 -33.5 -12t-12.5 -33v-16
h30q32 0 55 -23t23 -55z" />
    <glyph glyph-name="g" unicode="g" horiz-adv-x="595" 
d="M545 403v-351q0 -140 -88 -194q-87 -54 -204 -54q-86 0 -161 35q-42 20 -42 66q0 31 21.5 52.5t52.5 21.5q18 0 31 -7q45 -21 98 -21q43 0 77 22q35 23 35 79v26q-57 -65 -136 -65q-94 0 -153 62.5t-59 178.5q0 115 58.5 178t153.5 63q83 0 136 -63q7 27 33 44t57 17
q37 0 63.5 -26.5t26.5 -63.5zM365 203v102q-12 14 -33 22.5t-41 8.5q-41 0 -65.5 -20.5t-24.5 -61.5t24.5 -61.5t65.5 -20.5q20 0 41 8.5t33 22.5z" />
    <glyph glyph-name="h" unicode="h" horiz-adv-x="608" 
d="M378 80v189q0 67 -70 67q-44 0 -77 -38v-218q0 -37 -26.5 -63.5t-63.5 -26.5t-63.5 26.5t-26.5 63.5v507q0 37 26.5 63.5t63.5 26.5t63.5 -26.5t26.5 -63.5v-159q60 67 166 67q78 0 119.5 -40.5t41.5 -109.5v-265q0 -37 -26.5 -63.5t-63.5 -26.5t-63.5 26.5t-26.5 63.5z
" />
    <glyph glyph-name="i" unicode="i" horiz-adv-x="280" 
d="M39 629q0 42 29.5 71.5t71.5 29.5t71.5 -29.5t29.5 -71.5t-29.5 -71.5t-71.5 -29.5t-71.5 29.5t-29.5 71.5zM50 80v323q0 37 26.5 63.5t63.5 26.5t63.5 -26.5t26.5 -63.5v-323q0 -37 -26.5 -63.5t-63.5 -26.5t-63.5 26.5t-26.5 63.5z" />
    <glyph glyph-name="j" unicode="j" horiz-adv-x="280" 
d="M39 629q0 42 29.5 71.5t71.5 29.5t71.5 -29.5t29.5 -71.5t-29.5 -71.5t-71.5 -29.5t-71.5 29.5t-29.5 71.5zM46 -196h-5q-41 0 -65.5 22t-24.5 61q0 24 13.5 41.5t34.5 21.5l7 1q44 9 44 70v382q0 37 26.5 63.5t63.5 26.5t63.5 -26.5t26.5 -63.5v-382q0 -98 -49 -157.5
t-135 -59.5z" />
    <glyph glyph-name="k" unicode="k" horiz-adv-x="557" 
d="M538 80q0 -39 -26 -64.5t-65 -25.5q-46 0 -71 34l-107 133l-39 -38v-39q0 -37 -26.5 -63.5t-63.5 -26.5t-63.5 26.5t-26.5 63.5v507q0 37 26.5 63.5t63.5 26.5t63.5 -26.5t26.5 -63.5v-268l140 147q26 27 61 27q37 0 61.5 -24.5t24.5 -59.5q0 -38 -26 -62l-91 -86
l122 -131q16 -16 16 -50z" />
    <glyph glyph-name="l" unicode="l" horiz-adv-x="280" 
d="M50 80v507q0 37 26.5 63.5t63.5 26.5t63.5 -26.5t26.5 -63.5v-507q0 -37 -26.5 -63.5t-63.5 -26.5t-63.5 26.5t-26.5 63.5z" />
    <glyph glyph-name="m" unicode="m" horiz-adv-x="897" 
d="M847 350v-270q0 -37 -26.5 -63.5t-63.5 -26.5t-63.5 26.5t-26.5 63.5v202q0 25 -14 39.5t-41 14.5q-40 0 -74 -38v-218q0 -37 -26.5 -63.5t-63.5 -26.5t-63.5 26.5t-26.5 63.5v202q0 54 -55 54q-39 0 -73 -38v-218q0 -37 -26.5 -63.5t-63.5 -26.5t-63.5 26.5t-26.5 63.5
v323q0 39 25.5 66.5t64.5 27.5q32 0 57 -19.5t33 -49.5q21 26 65.5 46.5t94.5 20.5q108 0 139 -85q24 37 70 61t99 24q70 0 109.5 -37t39.5 -108z" />
    <glyph glyph-name="n" unicode="n" horiz-adv-x="607" 
d="M557 343v-263q0 -37 -26.5 -63.5t-63.5 -26.5t-63.5 26.5t-26.5 63.5v187q0 69 -70 69q-44 0 -77 -38v-218q0 -37 -26.5 -63.5t-63.5 -26.5t-63.5 26.5t-26.5 63.5v323q0 39 25.5 66.5t64.5 27.5q33 0 57.5 -19.5t32.5 -49.5q60 67 166 67q78 0 119.5 -41.5t41.5 -110.5z
" />
    <glyph glyph-name="o" unicode="o" horiz-adv-x="577" 
d="M17 242q0 106 74.5 179.5t196.5 73.5t197 -73.5t75 -179.5t-75 -180t-197 -74t-196.5 74t-74.5 180zM375 242q0 42 -23 68t-64 26q-39 0 -62.5 -26t-23.5 -68t23.5 -68.5t62.5 -26.5q41 0 64 26t23 69z" />
    <glyph glyph-name="p" unicode="p" horiz-adv-x="595" 
d="M578 242q0 -119 -59 -186.5t-153 -67.5q-80 0 -136 63v-155q0 -37 -26.5 -63.5t-63.5 -26.5t-63.5 26.5t-26.5 63.5v507q0 40 25.5 67.5t64.5 27.5q31 0 56 -18.5t34 -47.5q52 63 136 63q94 0 153 -67.5t59 -185.5zM394 242q0 42 -25.5 68t-64.5 26q-19 0 -40.5 -9
t-33.5 -24v-123q11 -14 33 -23.5t41 -9.5q39 0 64.5 26t25.5 69z" />
    <glyph glyph-name="q" unicode="q" horiz-adv-x="595" 
d="M545 403v-507q0 -37 -26.5 -63.5t-63.5 -26.5t-63.5 26.5t-26.5 63.5v155q-55 -63 -136 -63q-94 0 -153 67.5t-59 186.5q0 118 59 185.5t153 67.5q83 0 136 -63q8 27 34 44t56 17q37 0 63.5 -26.5t26.5 -63.5zM365 180v123q-12 15 -33.5 24t-40.5 9q-39 0 -64.5 -26
t-25.5 -68q0 -43 25.5 -69t64.5 -26q19 0 41 9.5t33 23.5z" />
    <glyph glyph-name="r" unicode="r" horiz-adv-x="390" 
d="M393 417q0 -38 -19.5 -62.5t-55.5 -28.5q-69 -9 -88 -32v-214q0 -37 -26.5 -63.5t-63.5 -26.5t-63.5 26.5t-26.5 63.5v319q0 39 25.5 66.5t64.5 27.5q32 0 57 -18t33 -47q17 38 47 55q19 11 39 11q32 0 54.5 -22.5t22.5 -54.5z" />
    <glyph glyph-name="s" unicode="s" horiz-adv-x="490" 
d="M26 92q0 29 21 50t50 21q15 0 30 -7q75 -34 128 -34q48 0 48 23q0 11 -15 17t-53 11q-58 7 -101 20q-105 31 -105 137q0 69 59 117t157 48q81 0 154 -33q40 -18 40 -60q0 -27 -19.5 -46.5t-46.5 -19.5q-16 0 -28 6q-48 24 -99 24q-45 0 -45 -21q0 -18 62 -27
q63 -9 103 -22q48 -13 78.5 -48.5t30.5 -93.5q0 -73 -62.5 -119.5t-166.5 -46.5q-95 0 -178 39q-18 8 -30 26t-12 39z" />
    <glyph glyph-name="t" unicode="t" horiz-adv-x="382" 
d="M373 68q0 -27 -17 -47.5t-44 -26.5q-26 -6 -59 -6q-81 0 -123.5 38.5t-42.5 113.5v187h-12q-32 0 -55 23t-23 55t23 55t55 23h12v52q0 37 26.5 63.5t63.5 26.5t63.5 -26.5t26.5 -63.5v-52h30q32 0 55 -23t23 -55t-23 -55t-55 -23h-30v-135q0 -18 10 -31t26 -14l9 -1
q27 -3 44 -25.5t17 -52.5z" />
    <glyph glyph-name="u" unicode="u" horiz-adv-x="606" 
d="M556 403v-323q0 -39 -25.5 -66.5t-64.5 -27.5q-32 0 -57 19t-33 49q-59 -66 -166 -66q-78 0 -119 41t-41 109v265q0 37 26.5 63.5t63.5 26.5t63.5 -26.5t26.5 -63.5v-188q0 -68 70 -68q43 0 76 38v218q0 37 26.5 63.5t63.5 26.5t63.5 -26.5t26.5 -63.5z" />
    <glyph glyph-name="v" unicode="v" horiz-adv-x="535" 
d="M519 405q0 -13 -8 -34l-119 -296q-15 -38 -49 -61.5t-76 -23.5q-41 0 -75 23.5t-49 61.5l-119 296q-8 21 -8 34q0 36 25.5 62t62.5 26q28 0 50 -14.5t31 -40.5l82 -232l82 232q9 26 31 40.5t50 14.5q38 0 63.5 -25.5t25.5 -62.5z" />
    <glyph glyph-name="w" unicode="w" horiz-adv-x="805" 
d="M457 81l-55 189l-55 -189q-11 -40 -45 -65.5t-76 -25.5q-43 0 -77 25.5t-45 65.5l-87 300q-3 11 -3 25q0 36 25.5 61.5t62.5 25.5q31 0 54.5 -19t30.5 -48l50 -209l65 203q10 32 37.5 52.5t62.5 20.5q36 0 63.5 -20.5t37.5 -53.5l64 -202l50 209q7 29 31 48t55 19
q36 0 62 -25.5t26 -62.5q0 -12 -4 -24l-86 -300q-11 -40 -45 -65.5t-77 -25.5t-77 25.5t-45 65.5z" />
    <glyph glyph-name="x" unicode="x" horiz-adv-x="501" 
d="M480 73q0 -34 -24 -58.5t-58 -24.5q-42 0 -60 24l-87 113l-88 -113q-18 -24 -60 -24q-34 0 -58 24.5t-24 58.5q0 30 25 56l100 117l-94 109q-21 25 -21 57q0 33 24 57t59 24q39 0 61 -27l76 -98l75 98q22 27 61 27q35 0 59 -24t24 -57q0 -32 -21 -57l-94 -109l100 -117
q25 -26 25 -56z" />
    <glyph glyph-name="y" unicode="y" horiz-adv-x="525" 
d="M94 -38l8 1q52 4 59 19l4 10l-151 379q-8 21 -8 34q0 36 25.5 62t62.5 26q28 0 50 -14.5t31 -40.5l83 -245l81 245q9 26 31 40.5t50 14.5q38 0 63.5 -25.5t25.5 -62.5q0 -13 -8 -34l-171 -431q-28 -70 -80.5 -103t-117.5 -33h-11q-41 0 -66 24t-25 60q0 29 18.5 50
t45.5 24z" />
    <glyph glyph-name="z" unicode="z" horiz-adv-x="486" 
d="M23 88q0 33 21 57l159 182h-102q-32 0 -55 23t-23 55t23 55t55 23h275q35 0 59 -24t24 -59q0 -32 -20 -55l-164 -189h110q32 0 55 -23t23 -55t-23 -55t-55 -23h-275q-36 0 -61.5 25.5t-25.5 62.5z" />
    <glyph glyph-name="braceleft" unicode="{" horiz-adv-x="316" 
d="M54 -6v139q0 45 -30 58q-34 15 -34 53t34 53q30 13 30 58v138q0 82 54 133.5t131 51.5h13q23 0 40 -17t17 -40t-17 -40t-40 -17h-13q-27 0 -43.5 -19t-16.5 -51v-159q0 -72 -46 -91q46 -19 46 -91v-158q0 -32 17.5 -51.5t42.5 -19.5h13q23 0 40 -17t17 -40t-17 -40
t-40 -17h-13q-77 0 -131 50.5t-54 133.5z" />
    <glyph glyph-name="bar" unicode="|" horiz-adv-x="222" 
d="M54 27v613q0 23 17 40t40 17t40 -17t17 -40v-613q0 -23 -17 -40t-40 -17t-40 17t-17 40z" />
    <glyph glyph-name="braceright" unicode="}" horiz-adv-x="316" 
d="M77 -190h-13q-23 0 -40 17t-17 40t17 40t40 17h13q25 0 42.5 19.5t17.5 51.5v158q0 72 46 91q-46 19 -46 91v159q0 32 -16.5 51t-43.5 19h-13q-23 0 -40 17t-17 40t17 40t40 17h13q77 0 131 -51.5t54 -133.5v-138q0 -45 30 -58q34 -15 34 -53t-34 -53q-30 -13 -30 -58
v-139q0 -83 -54 -133.5t-131 -50.5z" />
    <glyph glyph-name="asciitilde" unicode="~" horiz-adv-x="518" 
d="M488 605q-13 -100 -49 -152t-105 -52q-56 3 -79 29.5t-40 83.5q-7 28 -13 38.5t-17 10.5q-27 0 -38 -113q-2 -22 -19 -37.5t-40 -15.5q-26 0 -44 20.5t-14 46.5q14 99 50 151t105 52q57 -3 80 -30t40 -86q13 -47 29 -47q28 0 39 114q2 22 18.5 37t39.5 15q26 0 43 -19.5
t14 -45.5z" />
    <glyph glyph-name="uni00A0" unicode="&#xa0;" horiz-adv-x="255" 
 />
    <glyph glyph-name="exclamdown" unicode="&#xa1;" horiz-adv-x="280" 
d="M245 389q0 -44 -32 -76q-31 -31 -74 -31q-44 0 -75 31t-31 76q0 43 31 74q32 32 75 32q42 0 74 -32t32 -74zM139 245q34 0 59 -23.5t27 -56.5l16 -252q3 -43 -27 -75t-74 -32q-43 0 -73 32q-30 31 -28 75l15 252q2 33 26.5 56.5t58.5 23.5z" />
    <glyph glyph-name="cent" unicode="&#xa2;" horiz-adv-x="502" 
d="M463 89q0 -47 -43 -71q-29 -15 -65 -23v-42q0 -26 -18.5 -44.5t-44.5 -18.5t-44.5 18.5t-18.5 44.5v40q-96 18 -154 84q-58 67 -58 165q0 99 58 164q58 66 154 84v22q0 26 18.5 44.5t44.5 18.5t44.5 -18.5t18.5 -44.5v-24q36 -8 65 -23q44 -24 44 -71q0 -33 -23.5 -56.5
t-56.5 -23.5q-23 0 -39 10q-21 12 -49 12q-41 0 -68 -25t-27 -69t27 -69.5t68 -25.5q27 0 48 12q20 11 39 11q33 0 56.5 -23.5t23.5 -57.5z" />
    <glyph glyph-name="sterling" unicode="&#xa3;" horiz-adv-x="581" 
d="M553 82q0 -31 -19 -55t-49 -31q-37 -8 -76 -8q-48 0 -120 26q-39 16 -63 16q-30 0 -53 -17q-29 -20 -53 -20q-28 0 -50 23.5t-22 55.5q0 38 30 62q53 42 53 87q0 21 -9 49h-52q-23 0 -38.5 16t-15.5 39q0 21 14 36.5t35 17.5q-23 48 -23 81q-2 64 39.5 115.5t101 77
t120.5 24.5q116 0 183 -43q40 -27 40 -74q0 -37 -25.5 -62.5t-61.5 -25.5q-33 0 -59 23q-23 20 -51 20q-29 0 -47.5 -17t-18.5 -42q0 -26 20 -73l2 -4h90q23 0 38.5 -15.5t15.5 -38.5t-15.5 -39t-38.5 -16h-65q-2 -24 -17.5 -49.5t-36.5 -36.5q18 7 46 7q27 0 63 -13
q27 -12 51 -12q11 0 27 2q3 0 7 0.5t6.5 1t5 0.5h3.5q37 0 62.5 -26t25.5 -62z" />
    <glyph glyph-name="currency" unicode="&#xa4;" horiz-adv-x="648" 
d="M561 202l23 -23q21 -21 21 -52t-21.5 -52.5t-52.5 -21.5q-30 0 -52 22l-29 29q-54 -25 -126 -25q-71 0 -125 25l-29 -29q-22 -22 -52 -22q-31 0 -52.5 21.5t-21.5 52.5t21 52l23 23q-35 59 -35 131q0 73 36 132l-24 24q-21 21 -21 52t21.5 52.5t52.5 21.5q30 0 52 -22
l31 -31q55 24 123 24t124 -24l31 31q22 22 52 22q31 0 52.5 -21.5t21.5 -52.5t-21 -52l-24 -24q36 -59 36 -132q0 -72 -35 -131zM417 333q0 42 -25 68t-68 26q-42 0 -67 -26t-25 -68q0 -43 25 -69t67 -26q44 0 68.5 26t24.5 69z" />
    <glyph glyph-name="yen" unicode="&#xa5;" horiz-adv-x="664" 
d="M649 578q0 -33 -26 -67l-109 -141h85q22 0 37 -15.5t15 -37.5q0 -21 -15 -36.5t-37 -15.5h-165v-53h165q22 0 37 -15.5t15 -37.5q0 -21 -15 -36.5t-37 -15.5h-165v-16q0 -41 -29.5 -71t-71.5 -30t-71.5 30t-29.5 71v16h-165q-22 0 -37 15.5t-15 37.5q0 21 15 36.5
t37 15.5h165v53h-165q-22 0 -37 15.5t-15 36.5q0 22 15 37.5t37 15.5h85l-109 141q-26 34 -26 67q0 41 29 70t69 29q51 0 79 -40l139 -199l139 199q28 40 79 40q40 0 69 -29t29 -70z" />
    <glyph glyph-name="brokenbar" unicode="&#xa6;" horiz-adv-x="222" 
d="M54 418v222q0 23 17 40t40 17t40 -17t17 -40v-222q0 -23 -17 -40t-40 -17t-40 17t-17 40zM54 27v222q0 23 17 40t40 17t40 -17t17 -40v-222q0 -23 -17 -40t-40 -17t-40 17t-17 40z" />
    <glyph glyph-name="section" unicode="&#xa7;" horiz-adv-x="500" 
d="M475 85q0 -77 -65 -121q-64 -45 -164 -45t-186 47q-34 19 -34 58q0 27 19.5 46t46.5 19q15 0 32 -9q68 -39 122 -39q57 0 57 27q0 16 -17.5 24t-67.5 19q-52 10 -94 25q-95 35 -95 137q0 40 23.5 72t56.5 49q-80 38 -80 130q0 66 62 109.5t153 43.5q94 0 160 -33
q35 -19 35 -56q0 -26 -18.5 -44.5t-44.5 -18.5q-15 0 -27 6q-49 24 -96 24q-52 0 -52 -27q0 -13 16 -19.5t64 -15.5q57 -10 97 -24q97 -32 97 -133q0 -39 -20 -73.5t-55 -54.5q75 -38 75 -123zM201 303q0 -43 63 -54q34 15 34 49q0 42 -54 53q-43 -7 -43 -48z" />
    <glyph glyph-name="dieresis" unicode="&#xa8;" horiz-adv-x="433" 
d="M19 618q0 38 25.5 63.5t63.5 25.5q37 0 63 -25.5t26 -63.5q0 -37 -26 -63t-63 -26q-38 0 -63.5 26t-25.5 63zM235 618q0 37 26 63t63 26q38 0 64 -26t26 -63t-26 -63t-64 -26q-37 0 -63 26t-26 63z" />
    <glyph glyph-name="copyright" unicode="&#xa9;" horiz-adv-x="778" 
d="M389 679q139 2 243 -101.5t102 -243.5q2 -140 -102 -244t-243 -101q-139 -3 -243.5 101.5t-101.5 243.5q-3 139 101 243t244 102zM389 637q-122 2 -213.5 -89.5t-89.5 -213.5q-2 -122 89.5 -213.5t213.5 -89.5q122 -2 213.5 89.5t89.5 213.5q2 122 -90 213.5t-213 89.5z
M397 543q83 0 140 -57q6 -6 6 -16t-8 -18t-19 -8q-10 0 -18 8q-42 44 -101 44q-64 0 -108.5 -46t-44.5 -115t45 -116t108 -47q60 0 101 44q9 9 19 9t18.5 -7t8.5 -18q0 -10 -6 -16q-57 -59 -141 -59q-87 0 -147.5 60t-60.5 150t60.5 149t147.5 59z" />
    <glyph glyph-name="ordfeminine" unicode="&#xaa;" horiz-adv-x="392" 
d="M352 509v-130q0 -28 -18 -48t-45 -20q-21 0 -38.5 12.5t-25.5 31.5q-29 -37 -96 -37q-44 0 -76.5 28t-32.5 75t32 73.5t77 26.5q65 0 96 -33v24q0 19 -15 31t-42 12q-30 0 -58 -16q-12 -5 -21 -5q-19 0 -32 13t-13 32q0 29 26 41q57 28 121 28q69 0 115 -31t46 -108z
M183 395q31 0 42 19v15q-11 18 -42 18q-38 0 -38 -26t38 -26z" />
    <glyph glyph-name="guillemotleft" unicode="&#xab;" horiz-adv-x="615" 
d="M181 73l-84 96q-32 37 -32 73t32 74l84 95q16 19 45 19q24 0 41.5 -17t17.5 -42q0 -23 -15 -40l-80 -88l81 -91q14 -17 14 -39q0 -25 -17 -42t-42 -17q-29 0 -45 19zM417 73l-84 96q-32 37 -32 73t32 74l84 95q16 19 45 19q24 0 41.5 -17t17.5 -42q0 -23 -15 -40l-80 -88
l81 -91q14 -17 14 -39q0 -25 -17 -42t-42 -17q-29 0 -45 19z" />
    <glyph glyph-name="logicalnot" unicode="&#xac;" horiz-adv-x="527" 
d="M427 179q-22 0 -38 15.5t-16 37.5v141l-302 1q-21 0 -36.5 15.5t-15.5 36.5t15.5 36.5t36.5 15.5h314q46 0 71 -25t25 -71v-150q0 -22 -16 -37.5t-38 -15.5z" />
    <glyph glyph-name="uni00AD" unicode="&#xad;" horiz-adv-x="300" 
d="M18 242q0 31 22.5 53t52.5 22h114q30 0 52.5 -22t22.5 -53t-22.5 -53t-52.5 -22h-114q-30 0 -52.5 22t-22.5 53z" />
    <glyph glyph-name="registered" unicode="&#xae;" horiz-adv-x="494" 
d="M247 677q88 0 150 -62t62 -150t-62 -150t-150 -62t-150 62t-62 150t62 150t150 62zM247 642q-74 0 -125.5 -51.5t-51.5 -125.5q0 -72 52.5 -124.5t124.5 -52.5t124.5 52.5t52.5 124.5q0 74 -51.5 125.5t-125.5 51.5zM311 347l-60 92h-49v-81q0 -7 -5 -12.5t-13 -5.5
q-19 0 -19 18v208q0 8 6 14t14 6h79q33 0 57.5 -21t24.5 -53q0 -27 -15 -45.5t-38 -25.5l49 -73q3 -5 3 -10q0 -7 -5 -12.5t-14 -5.5t-15 7zM264 555h-62v-84h62q18 0 31 11.5t13 29.5t-13 30.5t-31 12.5z" />
    <glyph glyph-name="overscore" unicode="&#xaf;" horiz-adv-x="363" 
d="M-6 600q0 20 14 34t34 14h280q20 0 33.5 -14t13.5 -34q0 -21 -13.5 -35t-33.5 -14h-280q-20 0 -34 14t-14 35z" />
    <glyph glyph-name="degree" unicode="&#xb0;" horiz-adv-x="331" 
d="M17 528q0 61 43.5 105t104.5 44t105 -44t44 -105t-44 -104.5t-105 -43.5t-104.5 43.5t-43.5 104.5zM108 528q0 -24 16.5 -40.5t40.5 -16.5t41.5 16.5t17.5 40.5t-17.5 41.5t-41.5 17.5t-40.5 -17.5t-16.5 -41.5z" />
    <glyph glyph-name="plusminus" unicode="&#xb1;" horiz-adv-x="510" 
d="M313 328v-145q0 -24 -17 -41t-41 -17t-41 17t-17 41v145h-126q-22 0 -37 15.5t-15 36.5q0 22 15 37.5t37 15.5h126v137q0 24 17 41t41 17t41 -17t17 -41v-137h126q22 0 37 -15.5t15 -36.5q0 -22 -15 -37.5t-37 -15.5h-126zM19 53q0 21 15 36.5t37 15.5h368q22 0 37 -15.5
t15 -37.5q0 -21 -15 -36.5t-37 -15.5h-368q-22 0 -37 15.5t-15 37.5z" />
    <glyph glyph-name="uni00B2" unicode="&#xb2;" horiz-adv-x="387" 
d="M15 477q0 22 10 36t35 30q103 68 131 95q33 32 33 47q0 38 -50 38q-40 0 -77 -25q-14 -8 -28 -8q-22 0 -38 16t-16 38q0 28 26 46q61 37 136 37q83 0 131 -35.5t48 -95.5q0 -39 -31 -76q-27 -34 -113 -95h99q25 0 40.5 -14.5t16.5 -36.5q0 -22 -15.5 -37.5t-41.5 -15.5
h-242q-24 0 -39 16t-15 40z" />
    <glyph glyph-name="uni00B3" unicode="&#xb3;" horiz-adv-x="384" 
d="M40 446q-28 16 -28 48q0 23 16 38.5t38 15.5q15 0 26 -7q43 -23 82 -23q55 0 55 26q0 17 -16 22.5t-57 5.5h-9q-20 0 -35 14.5t-15 35.5t15 35.5t35 14.5h8q38 0 52.5 5.5t14.5 20.5q0 25 -57 25q-37 0 -75 -20q-10 -6 -25 -6q-20 0 -35 14.5t-15 35.5q0 26 23 42
q61 38 142 38q83 0 128 -30t45 -81q0 -31 -25 -56.5t-64 -32.5q38 -3 67 -29t29 -64q0 -53 -50 -86.5t-131 -33.5q-77 0 -139 32z" />
    <glyph glyph-name="acute" unicode="&#xb4;" horiz-adv-x="275" 
d="M83 539q-18 0 -32 13.5t-14 32.5q0 17 10 27l75 90q16 19 40 19q21 0 37 -15.5t16 -38.5q0 -22 -16 -38l-83 -77q-14 -13 -33 -13z" />
    <glyph glyph-name="uni00B5" unicode="&#xb5;" horiz-adv-x="620" 
d="M626 74q0 -86 -83 -86h-14q-110 0 -143 87q-16 -40 -47 -63.5t-70 -23.5q-21 0 -39 8v-100q0 -37 -26.5 -63.5t-63.5 -26.5t-63.5 26.5t-26.5 63.5v507q0 37 26.5 63.5t63.5 26.5t63.5 -26.5t26.5 -63.5v-188q0 -68 70 -68q43 0 76 38v218q0 37 26.5 63.5t63.5 26.5
t63.5 -26.5t26.5 -63.5v-225q0 -12 7 -18t25 -16l4 -2q34 -16 34 -68z" />
    <glyph glyph-name="paragraph" unicode="&#xb6;" horiz-adv-x="449" 
d="M347 -68v655h-68v-657q0 -15 -12 -26.5t-28 -11.5t-28 11.5t-12 28.5v391q-71 0 -121.5 50.5t-50.5 121.5t50.5 121.5t121.5 50.5h121q52 0 79.5 -27.5t27.5 -79.5v-628q0 -17 -11.5 -28.5t-28.5 -11.5q-16 0 -28 11.5t-12 28.5z" />
    <glyph glyph-name="middot" unicode="&#xb7;" horiz-adv-x="283" 
d="M35 244q0 44 31 75q32 32 75 32q42 0 74 -32t32 -75t-32 -75q-31 -31 -74 -31q-44 0 -75 31t-31 75z" />
    <glyph glyph-name="cedilla" unicode="&#xb8;" horiz-adv-x="237" 
d="M27 -182q-24 9 -24 34q0 14 10.5 25t25.5 11q9 0 16 -4q29 -16 59 -16q42 0 42 24q0 17 -21 17q-9 0 -16 -4q-11 -6 -22 -6q-16 0 -28 13t-12 31l2 12l21 56h80l-25 -58q15 9 34 9q28 0 48 -20.5t20 -52.5q0 -40 -33.5 -64.5t-84.5 -24.5t-92 18z" />
    <glyph glyph-name="uni00B9" unicode="&#xb9;" horiz-adv-x="316" 
d="M144 477v177l-38 -38q-15 -15 -38 -15q-22 0 -38 15.5t-16 37.5q0 25 17 39l121 118q23 20 51 20q30 0 51.5 -21.5t21.5 -51.5v-281q0 -27 -19.5 -46.5t-46.5 -19.5t-46.5 19.5t-19.5 46.5z" />
    <glyph glyph-name="ordmasculine" unicode="&#xba;" horiz-adv-x="405" 
d="M202 648q82 0 132.5 -48t50.5 -117t-50.5 -117t-132.5 -48q-81 0 -131.5 48t-50.5 117t50.5 117t131.5 48zM202 546q-51 0 -51 -63q0 -65 51 -65q53 0 53 65q0 63 -53 63z" />
    <glyph glyph-name="guillemotright" unicode="&#xbb;" horiz-adv-x="615" 
d="M95 113q0 22 14 39l81 91l-80 88q-15 17 -15 40q0 25 17.5 42t41.5 17q29 0 45 -19l84 -95q32 -38 32 -74t-32 -73l-84 -96q-16 -19 -45 -19q-25 0 -42 17t-17 42zM331 113q0 22 14 39l81 91l-80 88q-15 17 -15 40q0 25 17.5 42t41.5 17q29 0 45 -19l84 -95
q32 -38 32 -74t-32 -73l-84 -96q-16 -19 -45 -19q-25 0 -42 17t-17 42z" />
    <glyph glyph-name="onequarter" unicode="&#xbc;" horiz-adv-x="853" 
d="M144 323v177l-38 -38q-15 -15 -38 -15q-22 0 -38 15.5t-16 37.5q0 25 17 39l121 118q23 20 51 20q30 0 51.5 -21.5t21.5 -51.5v-281q0 -27 -19.5 -46.5t-46.5 -19.5t-46.5 19.5t-19.5 46.5zM212 -10q-17 0 -29 12t-12 29q0 11 7 22l386 605q11 19 35 19q17 0 29 -12
t12 -29q0 -12 -6 -22l-387 -605q-10 -19 -35 -19zM850 122q0 -21 -15 -36t-36 -15h-6v-16q0 -27 -19 -46t-46 -19q-28 0 -47 19t-19 46v16h-152q-22 0 -38.5 16.5t-16.5 38.5q0 15 7 28l119 200q32 56 98 56q47 0 80 -34q34 -33 34 -80v-123h6q21 0 36 -15t15 -36zM594 173
h68v118z" />
    <glyph glyph-name="onehalf" unicode="&#xbd;" horiz-adv-x="883" 
d="M144 323v177l-38 -38q-15 -15 -38 -15q-22 0 -38 15.5t-16 37.5q0 25 17 39l121 118q23 20 51 20q30 0 51.5 -21.5t21.5 -51.5v-281q0 -27 -19.5 -46.5t-46.5 -19.5t-46.5 19.5t-19.5 46.5zM212 -10q-17 0 -29 12t-12 29q0 11 7 22l386 605q11 19 35 19q17 0 29 -12
t12 -29q0 -12 -6 -22l-387 -605q-10 -19 -35 -19zM511 56q0 22 10 36t35 30q103 68 131 95q33 32 33 47q0 38 -50 38q-40 0 -77 -25q-14 -8 -28 -8q-22 0 -38 16t-16 38q0 28 26 46q61 37 136 37q83 0 131 -35.5t48 -95.5q0 -39 -31 -76q-27 -34 -113 -95h99
q25 0 40.5 -14.5t16.5 -36.5q0 -22 -15.5 -37.5t-41.5 -15.5h-242q-24 0 -39 16t-15 40z" />
    <glyph glyph-name="threequarters" unicode="&#xbe;" horiz-adv-x="921" 
d="M40 292q-28 16 -28 48q0 23 16 38.5t38 15.5q15 0 26 -7q43 -23 82 -23q55 0 55 26q0 17 -16 22.5t-57 5.5h-9q-20 0 -35 14.5t-15 35.5t15 35.5t35 14.5h8q38 0 52.5 5.5t14.5 20.5q0 25 -57 25q-37 0 -75 -20q-10 -6 -25 -6q-20 0 -35 14.5t-15 35.5q0 26 23 42
q61 38 142 38q83 0 128 -30t45 -81q0 -31 -25 -56.5t-64 -32.5q38 -3 67 -29t29 -64q0 -53 -50 -86.5t-131 -33.5q-77 0 -139 32zM280 -10q-17 0 -29 12t-12 29q0 11 7 22l386 605q11 19 35 19q17 0 29 -12t12 -29q0 -12 -6 -22l-387 -605q-10 -19 -35 -19zM918 122
q0 -21 -15 -36t-36 -15h-6v-16q0 -27 -19 -46t-46 -19q-28 0 -47 19t-19 46v16h-152q-22 0 -38.5 16.5t-16.5 38.5q0 15 7 28l119 200q32 56 98 56q47 0 80 -34q34 -33 34 -80v-123h6q21 0 36 -15t15 -36zM662 173h68v118z" />
    <glyph glyph-name="questiondown" unicode="&#xbf;" horiz-adv-x="401" 
d="M222 281q-43 0 -75 32t-32 75t32 75t75 32t75 -32t32 -75t-32 -75t-75 -32zM243 37q-31 -22 -31 -32q0 -21 39 -21q20 0 44 12q16 8 38 8q35 0 60.5 -25.5t25.5 -61.5q0 -52 -48 -77q-67 -34 -143 -34q-101 0 -160.5 43.5t-59.5 117.5q0 51 21.5 83.5t68.5 68.5
q28 22 39 34.5t13 28.5v4l1 7q8 27 33 45.5t55 18.5q34 0 58.5 -22.5t26.5 -56.5v-14q0 -43 -19.5 -70t-61.5 -57z" />
    <glyph glyph-name="Agrave" unicode="&#xc0;" horiz-adv-x="690" 
d="M678 91q0 -42 -29.5 -71.5t-71.5 -29.5q-33 0 -60.5 20.5t-36.5 51.5l-11 36h-248l-11 -36q-9 -31 -36.5 -51.5t-60.5 -20.5q-42 0 -71.5 29.5t-29.5 71.5q0 19 6 35l161 436q19 51 64.5 83t101.5 32t101.5 -32t64.5 -83l161 -436q6 -16 6 -35zM274 266h142l-71 223z
M311 719l-83 77q-16 16 -16 38q0 23 16 38.5t37 15.5q24 0 40 -19l75 -90q10 -10 10 -27q0 -19 -14 -32.5t-32 -13.5q-19 0 -33 13z" />
    <glyph glyph-name="Aacute" unicode="&#xc1;" horiz-adv-x="690" 
d="M678 91q0 -42 -29.5 -71.5t-71.5 -29.5q-33 0 -60.5 20.5t-36.5 51.5l-11 36h-248l-11 -36q-9 -31 -36.5 -51.5t-60.5 -20.5q-42 0 -71.5 29.5t-29.5 71.5q0 19 6 35l161 436q19 51 64.5 83t101.5 32t101.5 -32t64.5 -83l161 -436q6 -16 6 -35zM274 266h142l-71 223z
M349 706q-18 0 -32 13.5t-14 32.5q0 17 10 27l75 90q16 19 40 19q21 0 37 -15.5t16 -38.5q0 -22 -16 -38l-83 -77q-14 -13 -33 -13z" />
    <glyph glyph-name="Acircumflex" unicode="&#xc2;" horiz-adv-x="690" 
d="M678 91q0 -42 -29.5 -71.5t-71.5 -29.5q-33 0 -60.5 20.5t-36.5 51.5l-11 36h-248l-11 -36q-9 -31 -36.5 -51.5t-60.5 -20.5q-42 0 -71.5 29.5t-29.5 71.5q0 19 6 35l161 436q19 51 64.5 83t101.5 32t101.5 -32t64.5 -83l161 -436q6 -16 6 -35zM274 266h142l-71 223z
M401 732l-55 64l-55 -64q-13 -15 -35 -15q-18 0 -31.5 13t-13.5 32q0 12 6 23l28 46q29 42 77 42h48q48 0 77 -42l28 -46q6 -11 6 -23q0 -19 -13.5 -32t-31.5 -13q-22 0 -35 15z" />
    <glyph glyph-name="Atilde" unicode="&#xc3;" horiz-adv-x="690" 
d="M678 91q0 -42 -29.5 -71.5t-71.5 -29.5q-33 0 -60.5 20.5t-36.5 51.5l-11 36h-248l-11 -36q-9 -31 -36.5 -51.5t-60.5 -20.5q-42 0 -71.5 29.5t-29.5 71.5q0 19 6 35l161 436q19 51 64.5 83t101.5 32t101.5 -32t64.5 -83l161 -436q6 -16 6 -35zM274 266h142l-71 223z
M320 749q-30 15 -32 15q-14 0 -20 -17q-12 -30 -44 -30q-19 0 -32 13t-13 32q0 7 1 9q19 90 113 90q38 0 78 -28q30 -15 32 -15q14 0 20 17q12 30 44 30q19 0 32 -13t13 -32q0 -7 -1 -9q-19 -90 -113 -90q-38 0 -78 28z" />
    <glyph glyph-name="Adieresis" unicode="&#xc4;" horiz-adv-x="690" 
d="M678 91q0 -42 -29.5 -71.5t-71.5 -29.5q-33 0 -60.5 20.5t-36.5 51.5l-11 36h-248l-11 -36q-9 -31 -36.5 -51.5t-60.5 -20.5q-42 0 -71.5 29.5t-29.5 71.5q0 19 6 35l161 436q19 51 64.5 83t101.5 32t101.5 -32t64.5 -83l161 -436q6 -16 6 -35zM274 266h142l-71 223z
M148 785q0 38 25.5 63.5t63.5 25.5q37 0 63 -25.5t26 -63.5q0 -37 -26 -63t-63 -26q-38 0 -63.5 26t-25.5 63zM364 785q0 37 26 63t63 26q38 0 64 -26t26 -63t-26 -63t-64 -26q-37 0 -63 26t-26 63z" />
    <glyph glyph-name="Aring" unicode="&#xc5;" horiz-adv-x="690" 
d="M678 91q0 -42 -29.5 -71.5t-71.5 -29.5q-33 0 -60.5 20.5t-36.5 51.5l-11 36h-248l-11 -36q-9 -31 -36.5 -51.5t-60.5 -20.5q-42 0 -71.5 29.5t-29.5 71.5q0 19 6 35l161 436q19 51 64.5 83t101.5 32t101.5 -32t64.5 -83l161 -436q6 -16 6 -35zM274 266h142l-71 223z
M346 910q46 0 78 -33t32 -79t-32 -79t-78 -33t-79 33t-33 79t33 79t79 33zM346 833q-14 0 -24.5 -10.5t-10.5 -24.5t10.5 -24.5t24.5 -10.5t24 10.5t10 24.5t-10 24.5t-24 10.5z" />
    <glyph glyph-name="AE" unicode="&#xc6;" horiz-adv-x="969" 
d="M949 84q0 -34 -24.5 -59t-59.5 -25h-325q-49 0 -77 25.5t-30 72.5h-206l-31 -58q-11 -22 -34 -36t-49 -14q-39 0 -66 27.5t-27 65.5q0 26 13 48l274 463q44 73 128 73h430q35 0 59.5 -24.5t24.5 -59.5q0 -34 -24.5 -59t-59.5 -25h-230v-78h223q35 0 59.5 -24.5
t24.5 -59.5q0 -34 -24.5 -59t-59.5 -25h-223v-85h230q35 0 59.5 -24.5t24.5 -59.5zM433 489l-118 -223h118v223z" />
    <glyph glyph-name="Ccedilla" unicode="&#xc7;" horiz-adv-x="687" 
d="M651 152q0 -35 -25 -63q-83 -91 -215 -100l-16 -36q15 9 34 9q28 0 48 -20.5t20 -52.5q0 -40 -33.5 -64.5t-84.5 -24.5t-92 18q-24 9 -24 34q0 14 10.5 25t25.5 11q9 0 16 -4q29 -16 59 -16q42 0 42 24q0 17 -21 17q-9 0 -16 -4q-11 -6 -22 -6q-16 0 -28 13t-12 31l2 12
l13 36q-138 15 -226 109t-88 233q-2 149 103.5 248t258.5 97q156 0 246 -99q26 -29 26 -65q0 -39 -28 -67t-68 -28q-44 0 -71 32q-43 49 -105 49q-68 0 -112.5 -48.5t-44.5 -118.5t44.5 -118.5t112.5 -48.5q62 0 105 49q27 32 71 32q39 0 67 -28t28 -67z" />
    <glyph glyph-name="Egrave" unicode="&#xc8;" 
d="M54 107v453q0 52 27.5 79.5t79.5 27.5h325q35 0 59.5 -24.5t24.5 -59.5q0 -34 -24.5 -59t-59.5 -25h-230v-78h223q35 0 59.5 -24.5t24.5 -59.5q0 -34 -24.5 -59t-59.5 -25h-223v-85h230q35 0 59.5 -24.5t24.5 -59.5q0 -34 -24.5 -59t-59.5 -25h-325q-52 0 -79.5 27.5
t-27.5 79.5zM280 719l-83 77q-16 16 -16 38q0 23 16 38.5t37 15.5q24 0 40 -19l75 -90q10 -10 10 -27q0 -19 -14 -32.5t-32 -13.5q-19 0 -33 13z" />
    <glyph glyph-name="Eacute" unicode="&#xc9;" 
d="M54 107v453q0 52 27.5 79.5t79.5 27.5h325q35 0 59.5 -24.5t24.5 -59.5q0 -34 -24.5 -59t-59.5 -25h-230v-78h223q35 0 59.5 -24.5t24.5 -59.5q0 -34 -24.5 -59t-59.5 -25h-223v-85h230q35 0 59.5 -24.5t24.5 -59.5q0 -34 -24.5 -59t-59.5 -25h-325q-52 0 -79.5 27.5
t-27.5 79.5zM318 706q-18 0 -32 13.5t-14 32.5q0 17 10 27l75 90q16 19 40 19q21 0 37 -15.5t16 -38.5q0 -22 -16 -38l-83 -77q-14 -13 -33 -13z" />
    <glyph glyph-name="Ecircumflex" unicode="&#xca;" 
d="M54 107v453q0 52 27.5 79.5t79.5 27.5h325q35 0 59.5 -24.5t24.5 -59.5q0 -34 -24.5 -59t-59.5 -25h-230v-78h223q35 0 59.5 -24.5t24.5 -59.5q0 -34 -24.5 -59t-59.5 -25h-223v-85h230q35 0 59.5 -24.5t24.5 -59.5q0 -34 -24.5 -59t-59.5 -25h-325q-52 0 -79.5 27.5
t-27.5 79.5zM370 732l-55 64l-55 -64q-14 -15 -35 -15q-18 0 -31.5 13t-13.5 32q0 12 6 23l28 46q29 42 77 42h48q48 0 77 -42l28 -46q6 -11 6 -23q0 -19 -13.5 -32t-31.5 -13q-21 0 -35 15z" />
    <glyph glyph-name="Edieresis" unicode="&#xcb;" 
d="M54 107v453q0 52 27.5 79.5t79.5 27.5h325q35 0 59.5 -24.5t24.5 -59.5q0 -34 -24.5 -59t-59.5 -25h-230v-78h223q35 0 59.5 -24.5t24.5 -59.5q0 -34 -24.5 -59t-59.5 -25h-223v-85h230q35 0 59.5 -24.5t24.5 -59.5q0 -34 -24.5 -59t-59.5 -25h-325q-52 0 -79.5 27.5
t-27.5 79.5zM117 785q0 38 25.5 63.5t63.5 25.5q37 0 63 -25.5t26 -63.5q0 -37 -26 -63t-63 -26q-38 0 -63.5 26t-25.5 63zM333 785q0 37 26 63t63 26q38 0 64 -26t26 -63t-26 -63t-64 -26q-37 0 -63 26t-26 63z" />
    <glyph glyph-name="Igrave" unicode="&#xcc;" horiz-adv-x="310" 
d="M54 91v485q0 41 29.5 71t71.5 30t71.5 -30t29.5 -71v-485q0 -41 -29.5 -71t-71.5 -30t-71.5 30t-29.5 71zM121 719l-83 77q-16 16 -16 38q0 23 16 38.5t37 15.5q24 0 40 -19l75 -90q10 -10 10 -27q0 -19 -14 -32.5t-32 -13.5q-19 0 -33 13z" />
    <glyph glyph-name="Iacute" unicode="&#xcd;" horiz-adv-x="310" 
d="M54 91v485q0 41 29.5 71t71.5 30t71.5 -30t29.5 -71v-485q0 -41 -29.5 -71t-71.5 -30t-71.5 30t-29.5 71zM159 706q-18 0 -32 13.5t-14 32.5q0 17 10 27l75 90q16 19 40 19q21 0 37 -15.5t16 -38.5q0 -22 -16 -38l-83 -77q-14 -13 -33 -13z" />
    <glyph glyph-name="Icircumflex" unicode="&#xce;" horiz-adv-x="310" 
d="M54 91v485q0 41 29.5 71t71.5 30t71.5 -30t29.5 -71v-485q0 -41 -29.5 -71t-71.5 -30t-71.5 30t-29.5 71zM211 732l-55 64l-55 -64q-14 -15 -35 -15q-18 0 -31.5 13t-13.5 32q0 12 6 23l28 46q29 42 77 42h48q48 0 77 -42l28 -46q6 -11 6 -23q0 -19 -13.5 -32t-31.5 -13
q-22 0 -35 15z" />
    <glyph glyph-name="Idieresis" unicode="&#xcf;" horiz-adv-x="310" 
d="M54 91v485q0 41 29.5 71t71.5 30t71.5 -30t29.5 -71v-485q0 -41 -29.5 -71t-71.5 -30t-71.5 30t-29.5 71zM-42 785q0 38 25.5 63.5t63.5 25.5q37 0 63 -25.5t26 -63.5q0 -37 -26 -63t-63 -26q-38 0 -63.5 26t-25.5 63zM174 785q0 37 26 63t63 26q38 0 64 -26t26 -63
t-26 -63t-64 -26q-37 0 -63 26t-26 63z" />
    <glyph glyph-name="Eth" unicode="&#xd0;" horiz-adv-x="757" 
d="M739 334q0 -155 -101.5 -244.5t-263.5 -89.5h-192q-52 0 -79.5 27.5t-27.5 79.5v147q-33 2 -55.5 25t-22.5 55t22.5 54.5t55.5 24.5v147q0 52 27.5 79.5t79.5 27.5h191q162 0 264 -89.5t102 -243.5zM534 334q0 73 -41.5 115t-118.5 42h-97v-78h60q33 0 56 -23.5t23 -56.5
q0 -32 -23 -55.5t-56 -23.5h-60v-78h96q72 0 116.5 45.5t44.5 112.5z" />
    <glyph glyph-name="Ntilde" unicode="&#xd1;" horiz-adv-x="750" 
d="M472 43l-216 315v-267q0 -41 -29.5 -71t-71.5 -30t-71.5 30t-29.5 71v454q0 53 39 92.5t93 39.5q70 0 108 -57l200 -289v245q0 41 29.5 71t71.5 30t71.5 -30t29.5 -71v-464q0 -50 -36 -86t-87 -36q-63 0 -101 53zM350 749q-30 15 -32 15q-14 0 -20 -17q-12 -30 -44 -30
q-19 0 -32 13t-13 32q0 7 1 9q19 90 113 90q38 0 78 -28q30 -15 32 -15q14 0 20 17q12 30 44 30q19 0 32 -13t13 -32q0 -7 -1 -9q-19 -90 -113 -90q-38 0 -78 28z" />
    <glyph glyph-name="Ograve" unicode="&#xd2;" horiz-adv-x="766" 
d="M383 678q154 2 261 -97.5t104 -247.5q3 -149 -104 -248.5t-261 -96.5q-154 -3 -261 96.5t-104 248.5q-3 148 104 247.5t261 97.5zM383 500q-70 0 -115 -48t-45 -119t45 -119t115 -48t115 48t45 119t-45 119t-115 48zM349 719l-83 77q-16 16 -16 38q0 23 16 38.5t37 15.5
q24 0 40 -19l75 -90q10 -10 10 -27q0 -19 -14 -32.5t-32 -13.5q-19 0 -33 13z" />
    <glyph glyph-name="Oacute" unicode="&#xd3;" horiz-adv-x="766" 
d="M383 678q154 2 261 -97.5t104 -247.5q3 -149 -104 -248.5t-261 -96.5q-154 -3 -261 96.5t-104 248.5q-3 148 104 247.5t261 97.5zM383 500q-70 0 -115 -48t-45 -119t45 -119t115 -48t115 48t45 119t-45 119t-115 48zM387 706q-18 0 -32 13.5t-14 32.5q0 17 10 27l75 90
q16 19 40 19q21 0 37 -15.5t16 -38.5q0 -22 -16 -38l-83 -77q-14 -13 -33 -13z" />
    <glyph glyph-name="Ocircumflex" unicode="&#xd4;" horiz-adv-x="766" 
d="M383 678q154 2 261 -97.5t104 -247.5q3 -149 -104 -248.5t-261 -96.5q-154 -3 -261 96.5t-104 248.5q-3 148 104 247.5t261 97.5zM383 500q-70 0 -115 -48t-45 -119t45 -119t115 -48t115 48t45 119t-45 119t-115 48zM439 732l-55 64l-55 -64q-13 -15 -35 -15
q-18 0 -31.5 13t-13.5 32q0 12 6 23l28 46q29 42 77 42h48q48 0 77 -42l28 -46q6 -11 6 -23q0 -19 -13.5 -32t-31.5 -13q-22 0 -35 15z" />
    <glyph glyph-name="Otilde" unicode="&#xd5;" horiz-adv-x="766" 
d="M383 678q154 2 261 -97.5t104 -247.5q3 -149 -104 -248.5t-261 -96.5q-154 -3 -261 96.5t-104 248.5q-3 148 104 247.5t261 97.5zM383 500q-70 0 -115 -48t-45 -119t45 -119t115 -48t115 48t45 119t-45 119t-115 48zM358 749q-30 15 -32 15q-14 0 -20 -17
q-12 -30 -44 -30q-19 0 -32 13t-13 32q0 7 1 9q19 90 113 90q38 0 78 -28q30 -15 32 -15q14 0 20 17q12 30 44 30q19 0 32 -13t13 -32q0 -7 -1 -9q-19 -90 -113 -90q-38 0 -78 28z" />
    <glyph glyph-name="Odieresis" unicode="&#xd6;" horiz-adv-x="766" 
d="M383 678q154 2 261 -97.5t104 -247.5q3 -149 -104 -248.5t-261 -96.5q-154 -3 -261 96.5t-104 248.5q-3 148 104 247.5t261 97.5zM383 500q-70 0 -115 -48t-45 -119t45 -119t115 -48t115 48t45 119t-45 119t-115 48zM186 785q0 38 25.5 63.5t63.5 25.5q37 0 63 -25.5
t26 -63.5q0 -37 -26 -63t-63 -26q-38 0 -63.5 26t-25.5 63zM402 785q0 37 26 63t63 26q38 0 64 -26t26 -63t-26 -63t-64 -26q-37 0 -63 26t-26 63z" />
    <glyph glyph-name="multiply" unicode="&#xd7;" horiz-adv-x="510" 
d="M255 260l-103 -104q-16 -16 -38 -16t-37 15.5t-15 37.5t15 37l104 104l-104 104q-15 15 -15 37t15 37.5t37 15.5t38 -16l103 -104l104 104q15 15 37 15t37.5 -15t15.5 -37q0 -21 -16 -37l-103 -104l103 -104q16 -16 16 -37q0 -22 -15.5 -37t-37.5 -15t-37 15z" />
    <glyph glyph-name="Oslash" unicode="&#xd8;" horiz-adv-x="766" 
d="M748 333q3 -149 -104 -248.5t-261 -96.5q-91 0 -170 36l-34 -48q-17 -24 -43 -24q-20 0 -35.5 14.5t-15.5 34.5q0 17 12 33l32 44q-111 98 -111 255q-3 148 104 247.5t261 97.5q81 0 158 -30l31 43q16 24 42 24q21 0 36 -14.5t15 -35.5q0 -17 -12 -33l-26 -36
q121 -100 121 -263zM247 241l182 253q-21 6 -46 6q-70 0 -115 -48t-45 -119q0 -51 24 -92zM543 333q0 60 -31 103l-188 -260q29 -10 59 -10q70 0 115 48t45 119z" />
    <glyph glyph-name="Ugrave" unicode="&#xd9;" horiz-adv-x="749" 
d="M54 274v301q0 42 30 72t73 30q42 0 72 -30t30 -72v-294q0 -54 29 -84.5t87 -30.5q56 0 85.5 31t29.5 84v294q0 42 30 72t72 30q43 0 73 -30t30 -72v-300q0 -131 -79 -209q-80 -78 -241 -78q-158 0 -239.5 75.5t-81.5 210.5zM341 719l-83 77q-16 16 -16 38q0 23 16 38.5
t37 15.5q24 0 40 -19l75 -90q10 -10 10 -27q0 -19 -14 -32.5t-32 -13.5q-19 0 -33 13z" />
    <glyph glyph-name="Uacute" unicode="&#xda;" horiz-adv-x="749" 
d="M54 274v301q0 42 30 72t73 30q42 0 72 -30t30 -72v-294q0 -54 29 -84.5t87 -30.5q56 0 85.5 31t29.5 84v294q0 42 30 72t72 30q43 0 73 -30t30 -72v-300q0 -131 -79 -209q-80 -78 -241 -78q-158 0 -239.5 75.5t-81.5 210.5zM379 706q-18 0 -32 13.5t-14 32.5q0 17 10 27
l75 90q16 19 40 19q21 0 37 -15.5t16 -38.5q0 -22 -16 -38l-83 -77q-14 -13 -33 -13z" />
    <glyph glyph-name="Ucircumflex" unicode="&#xdb;" horiz-adv-x="749" 
d="M54 274v301q0 42 30 72t73 30q42 0 72 -30t30 -72v-294q0 -54 29 -84.5t87 -30.5q56 0 85.5 31t29.5 84v294q0 42 30 72t72 30q43 0 73 -30t30 -72v-300q0 -131 -79 -209q-80 -78 -241 -78q-158 0 -239.5 75.5t-81.5 210.5zM431 732l-55 64l-55 -64q-13 -15 -35 -15
q-18 0 -31.5 13t-13.5 32q0 12 6 23l28 46q29 42 77 42h48q48 0 77 -42l28 -46q6 -11 6 -23q0 -19 -13.5 -32t-31.5 -13q-22 0 -35 15z" />
    <glyph glyph-name="Udieresis" unicode="&#xdc;" horiz-adv-x="749" 
d="M54 274v301q0 42 30 72t73 30q42 0 72 -30t30 -72v-294q0 -54 29 -84.5t87 -30.5q56 0 85.5 31t29.5 84v294q0 42 30 72t72 30q43 0 73 -30t30 -72v-300q0 -131 -79 -209q-80 -78 -241 -78q-158 0 -239.5 75.5t-81.5 210.5zM178 785q0 38 25.5 63.5t63.5 25.5
q37 0 63 -25.5t26 -63.5q0 -37 -26 -63t-63 -26q-38 0 -63.5 26t-25.5 63zM394 785q0 37 26 63t63 26q38 0 64 -26t26 -63t-26 -63t-64 -26q-37 0 -63 26t-26 63z" />
    <glyph glyph-name="Yacute" unicode="&#xdd;" horiz-adv-x="662" 
d="M621 511l-189 -245v-175q0 -41 -29.5 -71t-71.5 -30t-71.5 30t-29.5 71v175l-189 245q-26 34 -26 67q0 41 29 70t69 29q51 0 79 -40l139 -199l139 199q28 40 79 40q40 0 69 -29t29 -70q0 -33 -26 -67zM335 706q-18 0 -32 13.5t-14 32.5q0 17 10 27l75 90q16 19 40 19
q21 0 37 -15.5t16 -38.5q0 -22 -16 -38l-83 -77q-14 -13 -33 -13z" />
    <glyph glyph-name="Thorn" unicode="&#xde;" horiz-adv-x="662" 
d="M54 91v485q0 41 29.5 71t71.5 30t71.5 -30t29.5 -71v-5h154q112 0 176 -66t64 -164q0 -99 -64 -163t-176 -64h-154v-23q0 -41 -29.5 -71t-71.5 -30t-71.5 30t-29.5 71zM375 403h-119v-121h119q33 0 51.5 16.5t18.5 43.5t-18.5 44t-51.5 17z" />
    <glyph glyph-name="germandbls" unicode="&#xdf;" horiz-adv-x="594" 
d="M571 178q0 -85 -55 -137.5t-132 -52.5q-40 0 -65 7q-27 7 -43 25.5t-16 44.5q0 30 20 52t48 22h6q24 0 38.5 17t14.5 46q0 45 -57 61q-27 7 -44 28.5t-17 48.5q0 24 13.5 44t34.5 30q32 14 32 51q0 24 -14.5 38.5t-39.5 14.5q-28 0 -46 -19.5t-18 -51.5v-366
q0 -37 -26.5 -63.5t-63.5 -26.5t-63.5 26.5t-26.5 63.5v370q0 95 68 160.5t171 65.5q97 0 167 -55t70 -138q0 -41 -22.5 -77t-59.5 -57q55 -21 90.5 -68.5t35.5 -103.5z" />
    <glyph glyph-name="agrave" unicode="&#xe0;" horiz-adv-x="559" 
d="M509 292v-206q0 -40 -25.5 -68t-64.5 -28q-29 0 -53.5 16t-35.5 42q-20 -26 -61 -43t-86 -17q-64 0 -115 42.5t-51 116.5q0 81 49 115t117 34q48 0 87.5 -14t58.5 -39v55q0 27 -24 43.5t-66 16.5q-47 0 -92 -22q-12 -6 -26 -6q-27 0 -46 19t-19 46q0 39 36 58
q84 42 180 42q105 0 170 -46q67 -46 67 -157zM329 131v27q-19 26 -71 26q-63 0 -63 -40q0 -39 63 -39q52 0 71 26zM243 572l-83 77q-16 16 -16 38q0 23 16 38.5t37 15.5q24 0 40 -19l75 -90q10 -10 10 -27q0 -19 -14 -32.5t-32 -13.5q-19 0 -33 13z" />
    <glyph glyph-name="aacute" unicode="&#xe1;" horiz-adv-x="559" 
d="M509 292v-206q0 -40 -25.5 -68t-64.5 -28q-29 0 -53.5 16t-35.5 42q-20 -26 -61 -43t-86 -17q-64 0 -115 42.5t-51 116.5q0 81 49 115t117 34q48 0 87.5 -14t58.5 -39v55q0 27 -24 43.5t-66 16.5q-47 0 -92 -22q-12 -6 -26 -6q-27 0 -46 19t-19 46q0 39 36 58
q84 42 180 42q105 0 170 -46q67 -46 67 -157zM329 131v27q-19 26 -71 26q-63 0 -63 -40q0 -39 63 -39q52 0 71 26zM281 559q-18 0 -32 13.5t-14 32.5q0 17 10 27l75 90q16 19 40 19q21 0 37 -15.5t16 -38.5q0 -22 -16 -38l-83 -77q-14 -13 -33 -13z" />
    <glyph glyph-name="acircumflex" unicode="&#xe2;" horiz-adv-x="559" 
d="M509 292v-206q0 -40 -25.5 -68t-64.5 -28q-29 0 -53.5 16t-35.5 42q-20 -26 -61 -43t-86 -17q-64 0 -115 42.5t-51 116.5q0 81 49 115t117 34q48 0 87.5 -14t58.5 -39v55q0 27 -24 43.5t-66 16.5q-47 0 -92 -22q-12 -6 -26 -6q-27 0 -46 19t-19 46q0 39 36 58
q84 42 180 42q105 0 170 -46q67 -46 67 -157zM329 131v27q-19 26 -71 26q-63 0 -63 -40q0 -39 63 -39q52 0 71 26zM333 585l-55 64l-55 -64q-13 -15 -35 -15q-18 0 -31.5 13t-13.5 32q0 13 6 23l28 46q29 42 77 42h48q48 0 77 -42l28 -46q6 -10 6 -23q0 -19 -13.5 -32
t-31.5 -13q-22 0 -35 15z" />
    <glyph glyph-name="atilde" unicode="&#xe3;" horiz-adv-x="559" 
d="M509 292v-206q0 -40 -25.5 -68t-64.5 -28q-29 0 -53.5 16t-35.5 42q-20 -26 -61 -43t-86 -17q-64 0 -115 42.5t-51 116.5q0 81 49 115t117 34q48 0 87.5 -14t58.5 -39v55q0 27 -24 43.5t-66 16.5q-47 0 -92 -22q-12 -6 -26 -6q-27 0 -46 19t-19 46q0 39 36 58
q84 42 180 42q105 0 170 -46q67 -46 67 -157zM329 131v27q-19 26 -71 26q-63 0 -63 -40q0 -39 63 -39q52 0 71 26zM252 602q-30 15 -32 15q-14 0 -20 -17q-12 -30 -44 -30q-19 0 -32 13t-13 32q0 7 1 9q19 90 113 90q38 0 78 -28q30 -15 32 -15q14 0 20 17q12 30 44 30
q19 0 32 -13t13 -32q0 -7 -1 -9q-19 -90 -113 -90q-38 0 -78 28z" />
    <glyph glyph-name="adieresis" unicode="&#xe4;" horiz-adv-x="559" 
d="M509 292v-206q0 -40 -25.5 -68t-64.5 -28q-29 0 -53.5 16t-35.5 42q-20 -26 -61 -43t-86 -17q-64 0 -115 42.5t-51 116.5q0 81 49 115t117 34q48 0 87.5 -14t58.5 -39v55q0 27 -24 43.5t-66 16.5q-47 0 -92 -22q-12 -6 -26 -6q-27 0 -46 19t-19 46q0 39 36 58
q84 42 180 42q105 0 170 -46q67 -46 67 -157zM329 131v27q-19 26 -71 26q-63 0 -63 -40q0 -39 63 -39q52 0 71 26zM80 638q0 38 25.5 63.5t63.5 25.5q37 0 63 -25.5t26 -63.5q0 -37 -26 -63t-63 -26q-38 0 -63.5 26t-25.5 63zM296 638q0 37 26 63t63 26q38 0 64 -26t26 -63
t-26 -63t-64 -26q-37 0 -63 26t-26 63z" />
    <glyph glyph-name="aring" unicode="&#xe5;" horiz-adv-x="559" 
d="M509 292v-206q0 -40 -25.5 -68t-64.5 -28q-29 0 -53.5 16t-35.5 42q-20 -26 -61 -43t-86 -17q-64 0 -115 42.5t-51 116.5q0 81 49 115t117 34q48 0 87.5 -14t58.5 -39v55q0 27 -24 43.5t-66 16.5q-47 0 -92 -22q-12 -6 -26 -6q-27 0 -46 19t-19 46q0 39 36 58
q84 42 180 42q105 0 170 -46q67 -46 67 -157zM329 131v27q-19 26 -71 26q-63 0 -63 -40q0 -39 63 -39q52 0 71 26zM278 763q46 0 78 -33t32 -79t-32 -79t-78 -33t-79 33t-33 79t33 79t79 33zM278 686q-14 0 -24.5 -10.5t-10.5 -24.5t10.5 -24.5t24.5 -10.5t24 10.5t10 24.5
t-10 24.5t-24 10.5z" />
    <glyph glyph-name="ae" unicode="&#xe6;" horiz-adv-x="851" 
d="M624 129q30 0 60 12q15 5 26 5q29 0 49 -20t20 -49q0 -22 -12.5 -39.5t-32.5 -25.5q-62 -24 -131 -24q-105 0 -175 65q-78 -65 -198 -65q-97 0 -155 40t-58 116q0 75 47 116t122 41q48 0 89.5 -14t62.5 -38v49q0 27 -25 43t-69 16q-49 0 -96 -22q-12 -6 -27 -6
q-27 0 -46 19.5t-19 46.5q0 39 36 58q84 42 180 42q103 0 156 -59q67 59 170 59q98 0 169.5 -66t71.5 -155q0 -48 -25.5 -68t-81.5 -20h-212q28 -57 104 -57zM592 358q-59 0 -74 -58h150q-13 58 -76 58zM262 184q-28 0 -47.5 -9t-19.5 -26q0 -16 16.5 -25t39.5 -9
q34 0 60.5 12t26.5 27v3q-20 27 -76 27z" />
    <glyph glyph-name="ccedilla" unicode="&#xe7;" horiz-adv-x="482" 
d="M463 89q0 -47 -43 -71q-45 -24 -107 -29l-15 -36q15 9 34 9q28 0 48 -20.5t20 -52.5q0 -40 -33.5 -64.5t-84.5 -24.5q-52 0 -92 18q-24 9 -24 34q0 14 10.5 25t25.5 11q9 0 16 -4q29 -16 59 -16q42 0 42 24q0 17 -21 17q-9 0 -16 -4q-11 -6 -22 -6q-16 0 -28 13t-12 31
l2 12l14 37q-97 15 -158 82t-61 168q0 112 77.5 182.5t193.5 70.5q75 0 132 -30q44 -24 44 -71q0 -33 -23.5 -56.5t-56.5 -23.5q-23 0 -39 10q-21 12 -49 12q-41 0 -68 -25t-27 -69t27 -69.5t68 -25.5q27 0 48 12q20 11 39 11q33 0 56.5 -23.5t23.5 -57.5z" />
    <glyph glyph-name="egrave" unicode="&#xe8;" horiz-adv-x="543" 
d="M280 495q103 2 178 -65t73 -156q0 -48 -25.5 -68t-81.5 -20h-221q9 -27 37 -44t69 -17q34 0 71 14q13 5 25 5q28 0 48 -20t20 -48q0 -20 -12.5 -37t-31.5 -26q-66 -25 -143 -25q-117 0 -193 69.5t-76 184.5q0 107 74.5 180t188.5 73zM201 300h159q-14 58 -80 58
q-64 0 -79 -58zM246 572l-83 77q-16 16 -16 38q0 23 16 38.5t37 15.5q24 0 40 -19l75 -90q10 -10 10 -27q0 -19 -14 -32.5t-32 -13.5q-19 0 -33 13z" />
    <glyph glyph-name="eacute" unicode="&#xe9;" horiz-adv-x="543" 
d="M280 495q103 2 178 -65t73 -156q0 -48 -25.5 -68t-81.5 -20h-221q9 -27 37 -44t69 -17q34 0 71 14q13 5 25 5q28 0 48 -20t20 -48q0 -20 -12.5 -37t-31.5 -26q-66 -25 -143 -25q-117 0 -193 69.5t-76 184.5q0 107 74.5 180t188.5 73zM201 300h159q-14 58 -80 58
q-64 0 -79 -58zM284 559q-18 0 -32 13.5t-14 32.5q0 17 10 27l75 90q16 19 40 19q21 0 37 -15.5t16 -38.5q0 -22 -16 -38l-83 -77q-14 -13 -33 -13z" />
    <glyph glyph-name="ecircumflex" unicode="&#xea;" horiz-adv-x="543" 
d="M280 495q103 2 178 -65t73 -156q0 -48 -25.5 -68t-81.5 -20h-221q9 -27 37 -44t69 -17q34 0 71 14q13 5 25 5q28 0 48 -20t20 -48q0 -20 -12.5 -37t-31.5 -26q-66 -25 -143 -25q-117 0 -193 69.5t-76 184.5q0 107 74.5 180t188.5 73zM201 300h159q-14 58 -80 58
q-64 0 -79 -58zM336 585l-55 64l-55 -64q-14 -15 -35 -15q-18 0 -31.5 13t-13.5 32q0 13 6 23l28 46q29 42 77 42h48q48 0 77 -42l28 -46q6 -10 6 -23q0 -19 -13.5 -32t-31.5 -13q-21 0 -35 15z" />
    <glyph glyph-name="edieresis" unicode="&#xeb;" horiz-adv-x="543" 
d="M280 495q103 2 178 -65t73 -156q0 -48 -25.5 -68t-81.5 -20h-221q9 -27 37 -44t69 -17q34 0 71 14q13 5 25 5q28 0 48 -20t20 -48q0 -20 -12.5 -37t-31.5 -26q-66 -25 -143 -25q-117 0 -193 69.5t-76 184.5q0 107 74.5 180t188.5 73zM201 300h159q-14 58 -80 58
q-64 0 -79 -58zM83 638q0 38 25.5 63.5t63.5 25.5q37 0 63 -25.5t26 -63.5q0 -37 -26 -63t-63 -26q-38 0 -63.5 26t-25.5 63zM299 638q0 37 26 63t63 26q38 0 64 -26t26 -63t-26 -63t-64 -26q-37 0 -63 26t-26 63z" />
    <glyph glyph-name="igrave" unicode="&#xec;" horiz-adv-x="280" 
d="M50 80v323q0 37 26.5 63.5t63.5 26.5t63.5 -26.5t26.5 -63.5v-323q0 -37 -26.5 -63.5t-63.5 -26.5t-63.5 26.5t-26.5 63.5zM106 572l-83 77q-16 16 -16 38q0 23 16 38.5t37 15.5q24 0 40 -19l75 -90q10 -10 10 -27q0 -19 -14 -32.5t-32 -13.5q-19 0 -33 13z" />
    <glyph glyph-name="iacute" unicode="&#xed;" horiz-adv-x="280" 
d="M50 80v323q0 37 26.5 63.5t63.5 26.5t63.5 -26.5t26.5 -63.5v-323q0 -37 -26.5 -63.5t-63.5 -26.5t-63.5 26.5t-26.5 63.5zM144 559q-18 0 -32 13.5t-14 32.5q0 17 10 27l75 90q16 19 40 19q21 0 37 -15.5t16 -38.5q0 -22 -16 -38l-83 -77q-14 -13 -33 -13z" />
    <glyph glyph-name="icircumflex" unicode="&#xee;" horiz-adv-x="280" 
d="M50 80v323q0 37 26.5 63.5t63.5 26.5t63.5 -26.5t26.5 -63.5v-323q0 -37 -26.5 -63.5t-63.5 -26.5t-63.5 26.5t-26.5 63.5zM196 585l-55 64l-55 -64q-14 -15 -35 -15q-18 0 -31.5 13t-13.5 32q0 13 6 23l28 46q29 42 77 42h48q48 0 77 -42l28 -46q6 -10 6 -23
q0 -19 -13.5 -32t-31.5 -13q-21 0 -35 15z" />
    <glyph glyph-name="idieresis" unicode="&#xef;" horiz-adv-x="280" 
d="M50 80v323q0 37 26.5 63.5t63.5 26.5t63.5 -26.5t26.5 -63.5v-323q0 -37 -26.5 -63.5t-63.5 -26.5t-63.5 26.5t-26.5 63.5zM-57 638q0 38 25.5 63.5t63.5 25.5q37 0 63 -25.5t26 -63.5q0 -37 -26 -63t-63 -26q-38 0 -63.5 26t-25.5 63zM159 638q0 37 26 63t63 26
q38 0 64 -26t26 -63t-26 -63t-64 -26q-37 0 -63 26t-26 63z" />
    <glyph glyph-name="eth" unicode="&#xf0;" horiz-adv-x="577" 
d="M560 258q0 -124 -72.5 -197t-199.5 -73q-121 0 -196 63t-75 164q0 98 60.5 162t147.5 64q107 0 162 -96q-22 70 -154 161l-119 -53q-7 -3 -17 -3q-17 0 -29.5 12.5t-12.5 29.5q0 26 25 38l72 32q-23 26 -23 58q0 35 25 60.5t60 25.5q24 0 47 -15l71 -50l71 31q8 3 16 3
q17 0 29 -12t12 -29q0 -27 -24 -38l-33 -15q157 -145 157 -323zM375 215q0 31 -23 49.5t-64 18.5q-40 0 -63 -18.5t-23 -49.5t23 -49.5t63 -18.5q41 0 64 18.5t23 49.5z" />
    <glyph glyph-name="ntilde" unicode="&#xf1;" horiz-adv-x="607" 
d="M557 343v-263q0 -37 -26.5 -63.5t-63.5 -26.5t-63.5 26.5t-26.5 63.5v187q0 69 -70 69q-44 0 -77 -38v-218q0 -37 -26.5 -63.5t-63.5 -26.5t-63.5 26.5t-26.5 63.5v323q0 39 25.5 66.5t64.5 27.5q33 0 57.5 -19.5t32.5 -49.5q60 67 166 67q78 0 119.5 -41.5t41.5 -110.5z
M278 602q-30 15 -32 15q-14 0 -20 -17q-12 -30 -44 -30q-19 0 -32 13t-13 32q0 7 1 9q19 90 113 90q38 0 78 -28q30 -15 32 -15q14 0 20 17q12 30 44 30q19 0 32 -13t13 -32q0 -7 -1 -9q-19 -90 -113 -90q-38 0 -78 28z" />
    <glyph glyph-name="ograve" unicode="&#xf2;" horiz-adv-x="577" 
d="M17 242q0 106 74.5 179.5t196.5 73.5t197 -73.5t75 -179.5t-75 -180t-197 -74t-196.5 74t-74.5 180zM375 242q0 42 -23 68t-64 26q-39 0 -62.5 -26t-23.5 -68t23.5 -68.5t62.5 -26.5q41 0 64 26t23 69zM254 572l-83 77q-16 16 -16 38q0 23 16 38.5t37 15.5q24 0 40 -19
l75 -90q10 -10 10 -27q0 -19 -14 -32.5t-32 -13.5q-19 0 -33 13z" />
    <glyph glyph-name="oacute" unicode="&#xf3;" horiz-adv-x="577" 
d="M17 242q0 106 74.5 179.5t196.5 73.5t197 -73.5t75 -179.5t-75 -180t-197 -74t-196.5 74t-74.5 180zM375 242q0 42 -23 68t-64 26q-39 0 -62.5 -26t-23.5 -68t23.5 -68.5t62.5 -26.5q41 0 64 26t23 69zM292 559q-18 0 -32 13.5t-14 32.5q0 17 10 27l75 90q16 19 40 19
q21 0 37 -15.5t16 -38.5q0 -22 -16 -38l-83 -77q-14 -13 -33 -13z" />
    <glyph glyph-name="ocircumflex" unicode="&#xf4;" horiz-adv-x="577" 
d="M17 242q0 106 74.5 179.5t196.5 73.5t197 -73.5t75 -179.5t-75 -180t-197 -74t-196.5 74t-74.5 180zM375 242q0 42 -23 68t-64 26q-39 0 -62.5 -26t-23.5 -68t23.5 -68.5t62.5 -26.5q41 0 64 26t23 69zM344 585l-55 64l-55 -64q-14 -15 -35 -15q-18 0 -31.5 13t-13.5 32
q0 13 6 23l28 46q29 42 77 42h48q48 0 77 -42l28 -46q6 -10 6 -23q0 -19 -13.5 -32t-31.5 -13q-21 0 -35 15z" />
    <glyph glyph-name="otilde" unicode="&#xf5;" horiz-adv-x="577" 
d="M17 242q0 106 74.5 179.5t196.5 73.5t197 -73.5t75 -179.5t-75 -180t-197 -74t-196.5 74t-74.5 180zM375 242q0 42 -23 68t-64 26q-39 0 -62.5 -26t-23.5 -68t23.5 -68.5t62.5 -26.5q41 0 64 26t23 69zM263 602q-30 15 -32 15q-14 0 -20 -17q-12 -30 -44 -30
q-19 0 -32 13t-13 32q0 7 1 9q19 90 113 90q38 0 78 -28q30 -15 32 -15q14 0 20 17q12 30 44 30q19 0 32 -13t13 -32q0 -7 -1 -9q-19 -90 -113 -90q-38 0 -78 28z" />
    <glyph glyph-name="odieresis" unicode="&#xf6;" horiz-adv-x="577" 
d="M17 242q0 106 74.5 179.5t196.5 73.5t197 -73.5t75 -179.5t-75 -180t-197 -74t-196.5 74t-74.5 180zM375 242q0 42 -23 68t-64 26q-39 0 -62.5 -26t-23.5 -68t23.5 -68.5t62.5 -26.5q41 0 64 26t23 69zM91 638q0 38 25.5 63.5t63.5 25.5q37 0 63 -25.5t26 -63.5
q0 -37 -26 -63t-63 -26q-38 0 -63.5 26t-25.5 63zM307 638q0 37 26 63t63 26q38 0 64 -26t26 -63t-26 -63t-64 -26q-37 0 -63 26t-26 63z" />
    <glyph glyph-name="divide" unicode="&#xf7;" horiz-adv-x="511" 
d="M179 505q0 31 22 53t54 22t54 -22t22 -53q0 -32 -22.5 -54.5t-53.5 -22.5t-53.5 22.5t-22.5 54.5zM19 338q0 21 15 36.5t37 15.5h369q22 0 37 -15.5t15 -37.5q0 -21 -15 -36.5t-37 -15.5h-369q-22 0 -37 15.5t-15 37.5zM179 170q0 32 22.5 54t53.5 22q32 0 54 -22t22 -54
q0 -31 -22 -53.5t-54 -22.5q-31 0 -53.5 22.5t-22.5 53.5z" />
    <glyph glyph-name="oslash" unicode="&#xf8;" horiz-adv-x="577" 
d="M560 242q0 -106 -75 -180t-197 -74q-65 0 -120 23l-29 -41q-12 -18 -33 -18q-15 0 -26.5 10.5t-11.5 24.5q0 12 8 23l29 39q-88 75 -88 193q0 106 74.5 179.5t196.5 73.5q64 0 123 -24l30 42q12 18 32 18q15 0 25.5 -10t10.5 -25q0 -13 -9 -25l-27 -38q87 -73 87 -191z
M211 196l100 138q-18 2 -23 2q-39 0 -62.5 -26t-23.5 -68q0 -26 9 -46zM375 242q0 22 -8 44l-99 -137q16 -2 20 -2q41 0 64 26t23 69z" />
    <glyph glyph-name="ugrave" unicode="&#xf9;" horiz-adv-x="606" 
d="M556 403v-323q0 -39 -25.5 -66.5t-64.5 -27.5q-32 0 -57 19t-33 49q-59 -66 -166 -66q-78 0 -119 41t-41 109v265q0 37 26.5 63.5t63.5 26.5t63.5 -26.5t26.5 -63.5v-188q0 -68 70 -68q43 0 76 38v218q0 37 26.5 63.5t63.5 26.5t63.5 -26.5t26.5 -63.5zM269 572l-83 77
q-16 16 -16 38q0 23 16 38.5t37 15.5q24 0 40 -19l75 -90q10 -10 10 -27q0 -19 -14 -32.5t-32 -13.5q-19 0 -33 13z" />
    <glyph glyph-name="uacute" unicode="&#xfa;" horiz-adv-x="606" 
d="M556 403v-323q0 -39 -25.5 -66.5t-64.5 -27.5q-32 0 -57 19t-33 49q-59 -66 -166 -66q-78 0 -119 41t-41 109v265q0 37 26.5 63.5t63.5 26.5t63.5 -26.5t26.5 -63.5v-188q0 -68 70 -68q43 0 76 38v218q0 37 26.5 63.5t63.5 26.5t63.5 -26.5t26.5 -63.5zM307 559
q-18 0 -32 13.5t-14 32.5q0 17 10 27l75 90q16 19 40 19q21 0 37 -15.5t16 -38.5q0 -22 -16 -38l-83 -77q-14 -13 -33 -13z" />
    <glyph glyph-name="ucircumflex" unicode="&#xfb;" horiz-adv-x="606" 
d="M556 403v-323q0 -39 -25.5 -66.5t-64.5 -27.5q-32 0 -57 19t-33 49q-59 -66 -166 -66q-78 0 -119 41t-41 109v265q0 37 26.5 63.5t63.5 26.5t63.5 -26.5t26.5 -63.5v-188q0 -68 70 -68q43 0 76 38v218q0 37 26.5 63.5t63.5 26.5t63.5 -26.5t26.5 -63.5zM359 585l-55 64
l-55 -64q-13 -15 -35 -15q-18 0 -31.5 13t-13.5 32q0 13 6 23l28 46q29 42 77 42h48q48 0 77 -42l28 -46q6 -10 6 -23q0 -19 -13.5 -32t-31.5 -13q-22 0 -35 15z" />
    <glyph glyph-name="udieresis" unicode="&#xfc;" horiz-adv-x="606" 
d="M556 403v-323q0 -39 -25.5 -66.5t-64.5 -27.5q-32 0 -57 19t-33 49q-59 -66 -166 -66q-78 0 -119 41t-41 109v265q0 37 26.5 63.5t63.5 26.5t63.5 -26.5t26.5 -63.5v-188q0 -68 70 -68q43 0 76 38v218q0 37 26.5 63.5t63.5 26.5t63.5 -26.5t26.5 -63.5zM106 638
q0 38 25.5 63.5t63.5 25.5q37 0 63 -25.5t26 -63.5q0 -37 -26 -63t-63 -26q-38 0 -63.5 26t-25.5 63zM322 638q0 37 26 63t63 26q38 0 64 -26t26 -63t-26 -63t-64 -26q-37 0 -63 26t-26 63z" />
    <glyph glyph-name="yacute" unicode="&#xfd;" horiz-adv-x="525" 
d="M94 -38l8 1q52 4 59 19l4 10l-151 379q-8 21 -8 34q0 36 25.5 62t62.5 26q28 0 50 -14.5t31 -40.5l83 -245l81 245q9 26 31 40.5t50 14.5q38 0 63.5 -25.5t25.5 -62.5q0 -13 -8 -34l-171 -431q-28 -70 -80.5 -103t-117.5 -33h-11q-41 0 -66 24t-25 60q0 29 18.5 50
t45.5 24zM261 559q-18 0 -32 13.5t-14 32.5q0 17 10 27l75 90q16 19 40 19q21 0 37 -15.5t16 -38.5q0 -22 -16 -38l-83 -77q-14 -13 -33 -13z" />
    <glyph glyph-name="thorn" unicode="&#xfe;" horiz-adv-x="595" 
d="M230 51v-155q0 -37 -26.5 -63.5t-63.5 -26.5t-63.5 26.5t-26.5 63.5v691q0 37 26.5 63.5t63.5 26.5t63.5 -26.5t26.5 -63.5v-155q52 63 136 63q94 0 153 -67.5t59 -185.5q0 -119 -59 -186.5t-153 -67.5q-80 0 -136 63zM304 336q-19 0 -40.5 -9t-33.5 -24v-123
q11 -14 33 -23.5t41 -9.5q39 0 64.5 26t25.5 69q0 42 -25.5 68t-64.5 26z" />
    <glyph glyph-name="ydieresis" unicode="&#xff;" horiz-adv-x="525" 
d="M94 -38l8 1q52 4 59 19l4 10l-151 379q-8 21 -8 34q0 36 25.5 62t62.5 26q28 0 50 -14.5t31 -40.5l83 -245l81 245q9 26 31 40.5t50 14.5q38 0 63.5 -25.5t25.5 -62.5q0 -13 -8 -34l-171 -431q-28 -70 -80.5 -103t-117.5 -33h-11q-41 0 -66 24t-25 60q0 29 18.5 50
t45.5 24zM60 638q0 38 25.5 63.5t63.5 25.5q37 0 63 -25.5t26 -63.5q0 -37 -26 -63t-63 -26q-38 0 -63.5 26t-25.5 63zM276 638q0 37 26 63t63 26q38 0 64 -26t26 -63t-26 -63t-64 -26q-37 0 -63 26t-26 63z" />
    <glyph glyph-name="Amacron" unicode="&#x100;" horiz-adv-x="690" 
d="M678 91q0 -42 -29.5 -71.5t-71.5 -29.5q-33 0 -60.5 20.5t-36.5 51.5l-11 36h-248l-11 -36q-9 -31 -36.5 -51.5t-60.5 -20.5q-42 0 -71.5 29.5t-29.5 71.5q0 19 6 35l161 436q19 51 64.5 83t101.5 32t101.5 -32t64.5 -83l161 -436q6 -16 6 -35zM274 266h142l-71 223z
M157 767q0 20 14 34t34 14h280q20 0 33.5 -14t13.5 -34q0 -21 -13.5 -35t-33.5 -14h-280q-20 0 -34 14t-14 35z" />
    <glyph glyph-name="amacron" unicode="&#x101;" horiz-adv-x="559" 
d="M509 292v-206q0 -40 -25.5 -68t-64.5 -28q-29 0 -53.5 16t-35.5 42q-20 -26 -61 -43t-86 -17q-64 0 -115 42.5t-51 116.5q0 81 49 115t117 34q48 0 87.5 -14t58.5 -39v55q0 27 -24 43.5t-66 16.5q-47 0 -92 -22q-12 -6 -26 -6q-27 0 -46 19t-19 46q0 39 36 58
q84 42 180 42q105 0 170 -46q67 -46 67 -157zM329 131v27q-19 26 -71 26q-63 0 -63 -40q0 -39 63 -39q52 0 71 26zM89 620q0 20 14 34t34 14h280q20 0 33.5 -14t13.5 -34q0 -21 -13.5 -35t-33.5 -14h-280q-20 0 -34 14t-14 35z" />
    <glyph glyph-name="Abreve" unicode="&#x102;" horiz-adv-x="690" 
d="M678 91q0 -42 -29.5 -71.5t-71.5 -29.5q-33 0 -60.5 20.5t-36.5 51.5l-11 36h-248l-11 -36q-9 -31 -36.5 -51.5t-60.5 -20.5q-42 0 -71.5 29.5t-29.5 71.5q0 19 6 35l161 436q19 51 64.5 83t101.5 32t101.5 -32t64.5 -83l161 -436q6 -16 6 -35zM274 266h142l-71 223z
M202 771q-17 15 -17 37q0 20 14 34.5t34 14.5q19 0 33 -12q34 -31 79 -31t79 30q14 13 33 13q20 0 34 -14.5t14 -34.5q0 -21 -17 -36q-61 -55 -143 -55q-80 0 -143 54z" />
    <glyph glyph-name="abreve" unicode="&#x103;" horiz-adv-x="559" 
d="M509 292v-206q0 -40 -25.5 -68t-64.5 -28q-29 0 -53.5 16t-35.5 42q-20 -26 -61 -43t-86 -17q-64 0 -115 42.5t-51 116.5q0 81 49 115t117 34q48 0 87.5 -14t58.5 -39v55q0 27 -24 43.5t-66 16.5q-47 0 -92 -22q-12 -6 -26 -6q-27 0 -46 19t-19 46q0 39 36 58
q84 42 180 42q105 0 170 -46q67 -46 67 -157zM329 131v27q-19 26 -71 26q-63 0 -63 -40q0 -39 63 -39q52 0 71 26zM134 624q-17 15 -17 37q0 20 14 34.5t34 14.5q19 0 33 -12q34 -31 79 -31t79 30q14 13 33 13q20 0 34 -14.5t14 -34.5q0 -21 -17 -36q-61 -55 -143 -55
q-80 0 -143 54z" />
    <glyph glyph-name="Aogonek" unicode="&#x104;" horiz-adv-x="690" 
d="M679 -133q0 -37 -35 -46q-27 -7 -72 -7q-51 0 -92 21q-40 19 -40 67q0 64 102 94q-48 18 -62 66l-11 36h-248l-11 -36q-9 -31 -36.5 -51.5t-60.5 -20.5q-42 0 -71.5 29.5t-29.5 71.5q0 19 6 35l161 436q19 51 64.5 83t101.5 32t101.5 -32t64.5 -83l161 -436q6 -16 6 -35
q0 -55 -48 -86q-35 -30 -35 -63q0 -12 9.5 -20.5t22.5 -8.5h2q23 0 36.5 -13.5t13.5 -32.5zM274 266h142l-71 223z" />
    <glyph glyph-name="aogonek" unicode="&#x105;" horiz-adv-x="559" 
d="M517 -133q0 -37 -35 -46q-27 -7 -72 -7q-52 0 -92 21q-40 19 -40 67q0 66 105 95q-38 14 -53 51q-20 -26 -61 -43t-86 -17q-64 0 -115 42.5t-51 116.5q0 81 49 115t117 34q48 0 87.5 -14t58.5 -39v55q0 27 -24 43.5t-66 16.5q-47 0 -92 -22q-12 -6 -26 -6q-27 0 -46 19
t-19 46q0 39 36 58q84 42 180 42q105 0 170 -46q67 -46 67 -157v-206q0 -56 -43 -83q-33 -29 -33 -61q0 -12 9.5 -20.5t22.5 -8.5h2q23 0 36.5 -13.5t13.5 -32.5zM329 131v27q-19 26 -71 26q-63 0 -63 -40q0 -39 63 -39q52 0 71 26z" />
    <glyph glyph-name="Cacute" unicode="&#x106;" horiz-adv-x="687" 
d="M18 333q-2 149 103.5 248t258.5 97q156 0 246 -99q26 -29 26 -65q0 -39 -28 -67t-68 -28q-44 0 -71 32q-43 49 -105 49q-68 0 -112.5 -48.5t-44.5 -118.5t44.5 -118.5t112.5 -48.5q62 0 105 49q27 32 71 32q39 0 67 -28t28 -67q0 -35 -25 -63q-95 -101 -246 -101
q-152 -3 -258.5 96.5t-103.5 248.5zM384 706q-18 0 -32 13.5t-14 32.5q0 17 10 27l75 90q16 19 40 19q21 0 37 -15.5t16 -38.5q0 -22 -16 -38l-83 -77q-14 -13 -33 -13z" />
    <glyph glyph-name="cacute" unicode="&#x107;" horiz-adv-x="482" 
d="M288 495q75 0 132 -30q44 -24 44 -71q0 -33 -23.5 -56.5t-56.5 -23.5q-23 0 -39 10q-21 12 -49 12q-41 0 -68 -25t-27 -69t27 -69.5t68 -25.5q27 0 48 12q20 11 39 11q33 0 56.5 -23.5t23.5 -57.5q0 -47 -43 -71q-57 -30 -132 -30q-116 0 -193.5 70.5t-77.5 183.5
q0 112 77.5 182.5t193.5 70.5zM287 559q-18 0 -32 13.5t-14 32.5q0 17 10 27l75 90q16 19 40 19q21 0 37 -15.5t16 -38.5q0 -22 -16 -38l-83 -77q-14 -13 -33 -13z" />
    <glyph glyph-name="Ccircumflex" unicode="&#x108;" horiz-adv-x="687" 
d="M18 333q-2 149 103.5 248t258.5 97q156 0 246 -99q26 -29 26 -65q0 -39 -28 -67t-68 -28q-44 0 -71 32q-43 49 -105 49q-68 0 -112.5 -48.5t-44.5 -118.5t44.5 -118.5t112.5 -48.5q62 0 105 49q27 32 71 32q39 0 67 -28t28 -67q0 -35 -25 -63q-95 -101 -246 -101
q-152 -3 -258.5 96.5t-103.5 248.5zM436 732l-55 64l-55 -64q-14 -15 -35 -15q-18 0 -31.5 13t-13.5 32q0 12 6 23l28 46q29 42 77 42h48q48 0 77 -42l28 -46q6 -11 6 -23q0 -19 -13.5 -32t-31.5 -13q-21 0 -35 15z" />
    <glyph glyph-name="ccircumflex" unicode="&#x109;" horiz-adv-x="482" 
d="M288 495q75 0 132 -30q44 -24 44 -71q0 -33 -23.5 -56.5t-56.5 -23.5q-23 0 -39 10q-21 12 -49 12q-41 0 -68 -25t-27 -69t27 -69.5t68 -25.5q27 0 48 12q20 11 39 11q33 0 56.5 -23.5t23.5 -57.5q0 -47 -43 -71q-57 -30 -132 -30q-116 0 -193.5 70.5t-77.5 183.5
q0 112 77.5 182.5t193.5 70.5zM339 585l-55 64l-55 -64q-13 -15 -35 -15q-18 0 -31.5 13t-13.5 32q0 13 6 23l28 46q29 42 77 42h48q48 0 77 -42l28 -46q6 -10 6 -23q0 -19 -13.5 -32t-31.5 -13q-22 0 -35 15z" />
    <glyph glyph-name="Cdotaccent" unicode="&#x10a;" horiz-adv-x="687" 
d="M18 333q-2 149 103.5 248t258.5 97q156 0 246 -99q26 -29 26 -65q0 -39 -28 -67t-68 -28q-44 0 -71 32q-43 49 -105 49q-68 0 -112.5 -48.5t-44.5 -118.5t44.5 -118.5t112.5 -48.5q62 0 105 49q27 32 71 32q39 0 67 -28t28 -67q0 -35 -25 -63q-95 -101 -246 -101
q-152 -3 -258.5 96.5t-103.5 248.5zM380 875q36 0 62 -26t26 -63t-26 -63t-62 -26q-37 0 -63 26t-26 63t26 63t63 26z" />
    <glyph glyph-name="cdotaccent" unicode="&#x10b;" horiz-adv-x="482" 
d="M288 495q75 0 132 -30q44 -24 44 -71q0 -33 -23.5 -56.5t-56.5 -23.5q-23 0 -39 10q-21 12 -49 12q-41 0 -68 -25t-27 -69t27 -69.5t68 -25.5q27 0 48 12q20 11 39 11q33 0 56.5 -23.5t23.5 -57.5q0 -47 -43 -71q-57 -30 -132 -30q-116 0 -193.5 70.5t-77.5 183.5
q0 112 77.5 182.5t193.5 70.5zM283 728q36 0 62 -26t26 -63t-26 -63t-62 -26q-37 0 -63 26t-26 63t26 63t63 26z" />
    <glyph glyph-name="Ccaron" unicode="&#x10c;" horiz-adv-x="687" 
d="M18 333q-2 149 103.5 248t258.5 97q156 0 246 -99q26 -29 26 -65q0 -39 -28 -67t-68 -28q-44 0 -71 32q-43 49 -105 49q-68 0 -112.5 -48.5t-44.5 -118.5t44.5 -118.5t112.5 -48.5q62 0 105 49q27 32 71 32q39 0 67 -28t28 -67q0 -35 -25 -63q-95 -101 -246 -101
q-152 -3 -258.5 96.5t-103.5 248.5zM513 828q0 -12 -6 -23l-28 -46q-29 -42 -77 -42h-48q-48 0 -77 42l-28 46q-6 11 -6 23q0 19 13.5 32t31.5 13q22 0 35 -15l55 -64l55 64q13 15 35 15q18 0 31.5 -13t13.5 -32z" />
    <glyph glyph-name="ccaron" unicode="&#x10d;" horiz-adv-x="482" 
d="M288 495q75 0 132 -30q44 -24 44 -71q0 -33 -23.5 -56.5t-56.5 -23.5q-23 0 -39 10q-21 12 -49 12q-41 0 -68 -25t-27 -69t27 -69.5t68 -25.5q27 0 48 12q20 11 39 11q33 0 56.5 -23.5t23.5 -57.5q0 -47 -43 -71q-57 -30 -132 -30q-116 0 -193.5 70.5t-77.5 183.5
q0 112 77.5 182.5t193.5 70.5zM416 681q0 -13 -6 -23l-28 -46q-29 -42 -77 -42h-48q-48 0 -77 42l-28 46q-6 10 -6 23q0 19 13.5 32t31.5 13q21 0 35 -15l55 -64l55 64q14 15 35 15q18 0 31.5 -13t13.5 -32z" />
    <glyph glyph-name="Dcaron" unicode="&#x10e;" horiz-adv-x="736" 
d="M54 107v453q0 52 27.5 79.5t79.5 27.5h191q162 0 264 -89.5t102 -243.5q0 -155 -101.5 -244.5t-263.5 -89.5h-192q-52 0 -79.5 27.5t-27.5 79.5zM256 176h96q72 0 116.5 45.5t44.5 112.5q0 73 -41.5 115t-118.5 42h-97v-315zM499 828q0 -12 -6 -23l-28 -46
q-29 -42 -77 -42h-48q-48 0 -77 42l-28 46q-6 11 -6 23q0 19 13.5 32t31.5 13q22 0 35 -15l55 -64l55 64q13 15 35 15q18 0 31.5 -13t13.5 -32z" />
    <glyph glyph-name="dcaron" unicode="&#x10f;" horiz-adv-x="736" 
d="M546 587v-507q0 -40 -25.5 -67.5t-64.5 -27.5q-30 0 -55 18.5t-35 47.5q-56 -63 -136 -63q-92 0 -152.5 68t-60.5 186q0 115 60.5 184t152.5 69q84 0 136 -63v155q0 37 26.5 63.5t63.5 26.5t63.5 -26.5t26.5 -63.5zM366 180v124q-26 32 -75 32q-39 0 -64.5 -26t-25.5 -68
q0 -43 25.5 -69t64.5 -26q20 0 41.5 9.5t33.5 23.5zM607 454q0 16 12 25q31 25 42 55q-7 -3 -19 -3q-28 0 -46.5 19.5t-18.5 50.5q0 32 22.5 55t54.5 23q38 0 63 -26.5t25 -69.5q0 -91 -82 -156q-8 -7 -20 -7q-14 0 -23.5 10t-9.5 24z" />
    <glyph glyph-name="Dcroat" unicode="&#x110;" horiz-adv-x="757" 
d="M739 334q0 -155 -101.5 -244.5t-263.5 -89.5h-192q-52 0 -79.5 27.5t-27.5 79.5v147q-33 2 -55.5 25t-22.5 55t22.5 54.5t55.5 24.5v147q0 52 27.5 79.5t79.5 27.5h191q162 0 264 -89.5t102 -243.5zM534 334q0 73 -41.5 115t-118.5 42h-97v-78h60q33 0 56 -23.5t23 -56.5
q0 -32 -23 -55.5t-56 -23.5h-60v-78h96q72 0 116.5 45.5t44.5 112.5z" />
    <glyph glyph-name="dslash" unicode="&#x111;" 
d="M602 570q0 -20 -14 -34.5t-34 -14.5h-8v-441q0 -40 -25.5 -67.5t-64.5 -27.5q-30 0 -55 18.5t-35 47.5q-56 -63 -136 -63q-92 0 -152.5 68t-60.5 186q0 115 60.5 184t152.5 69q84 0 136 -63v89h-100q-20 0 -34 14.5t-14 34.5t14 34t34 14h106q9 26 32 42.5t52 16.5
t52 -16.5t32 -42.5h14q20 0 34 -14t14 -34zM366 180v124q-26 32 -75 32q-39 0 -64.5 -26t-25.5 -68q0 -43 25.5 -69t64.5 -26q20 0 41.5 9.5t33.5 23.5z" />
    <glyph glyph-name="Emacron" unicode="&#x112;" 
d="M54 107v453q0 52 27.5 79.5t79.5 27.5h325q35 0 59.5 -24.5t24.5 -59.5q0 -34 -24.5 -59t-59.5 -25h-230v-78h223q35 0 59.5 -24.5t24.5 -59.5q0 -34 -24.5 -59t-59.5 -25h-223v-85h230q35 0 59.5 -24.5t24.5 -59.5q0 -34 -24.5 -59t-59.5 -25h-325q-52 0 -79.5 27.5
t-27.5 79.5zM126 767q0 20 14 34t34 14h280q20 0 33.5 -14t13.5 -34q0 -21 -13.5 -35t-33.5 -14h-280q-20 0 -34 14t-14 35z" />
    <glyph glyph-name="emacron" unicode="&#x113;" horiz-adv-x="543" 
d="M280 495q103 2 178 -65t73 -156q0 -48 -25.5 -68t-81.5 -20h-221q9 -27 37 -44t69 -17q34 0 71 14q13 5 25 5q28 0 48 -20t20 -48q0 -20 -12.5 -37t-31.5 -26q-66 -25 -143 -25q-117 0 -193 69.5t-76 184.5q0 107 74.5 180t188.5 73zM201 300h159q-14 58 -80 58
q-64 0 -79 -58zM92 620q0 20 14 34t34 14h280q20 0 33.5 -14t13.5 -34q0 -21 -13.5 -35t-33.5 -14h-280q-20 0 -34 14t-14 35z" />
    <glyph glyph-name="Ebreve" unicode="&#x114;" 
d="M54 107v453q0 52 27.5 79.5t79.5 27.5h325q35 0 59.5 -24.5t24.5 -59.5q0 -34 -24.5 -59t-59.5 -25h-230v-78h223q35 0 59.5 -24.5t24.5 -59.5q0 -34 -24.5 -59t-59.5 -25h-223v-85h230q35 0 59.5 -24.5t24.5 -59.5q0 -34 -24.5 -59t-59.5 -25h-325q-52 0 -79.5 27.5
t-27.5 79.5zM171 771q-17 15 -17 37q0 20 14 34.5t34 14.5t33 -12q34 -31 79 -31q44 0 79 30q14 13 33 13q20 0 34 -14.5t14 -34.5q0 -21 -17 -36q-61 -55 -143 -55q-80 0 -143 54z" />
    <glyph glyph-name="ebreve" unicode="&#x115;" horiz-adv-x="543" 
d="M280 495q103 2 178 -65t73 -156q0 -48 -25.5 -68t-81.5 -20h-221q9 -27 37 -44t69 -17q34 0 71 14q13 5 25 5q28 0 48 -20t20 -48q0 -20 -12.5 -37t-31.5 -26q-66 -25 -143 -25q-117 0 -193 69.5t-76 184.5q0 107 74.5 180t188.5 73zM201 300h159q-14 58 -80 58
q-64 0 -79 -58zM137 624q-17 15 -17 37q0 20 14 34.5t34 14.5t33 -12q34 -31 79 -31q44 0 79 30q14 13 33 13q20 0 34 -14.5t14 -34.5q0 -21 -17 -36q-61 -55 -143 -55q-80 0 -143 54z" />
    <glyph glyph-name="Edotaccent" unicode="&#x116;" 
d="M54 107v453q0 52 27.5 79.5t79.5 27.5h325q35 0 59.5 -24.5t24.5 -59.5q0 -34 -24.5 -59t-59.5 -25h-230v-78h223q35 0 59.5 -24.5t24.5 -59.5q0 -34 -24.5 -59t-59.5 -25h-223v-85h230q35 0 59.5 -24.5t24.5 -59.5q0 -34 -24.5 -59t-59.5 -25h-325q-52 0 -79.5 27.5
t-27.5 79.5zM314 875q36 0 62 -26t26 -63t-26 -63t-62 -26q-37 0 -63 26t-26 63t26 63t63 26z" />
    <glyph glyph-name="edotaccent" unicode="&#x117;" horiz-adv-x="543" 
d="M280 495q103 2 178 -65t73 -156q0 -48 -25.5 -68t-81.5 -20h-221q9 -27 37 -44t69 -17q34 0 71 14q13 5 25 5q28 0 48 -20t20 -48q0 -20 -12.5 -37t-31.5 -26q-66 -25 -143 -25q-117 0 -193 69.5t-76 184.5q0 107 74.5 180t188.5 73zM201 300h159q-14 58 -80 58
q-64 0 -79 -58zM280 728q36 0 62 -26t26 -63t-26 -63t-62 -26q-37 0 -63 26t-26 63t26 63t63 26z" />
    <glyph glyph-name="Eogonek" unicode="&#x118;" 
d="M473 -58q0 -12 9.5 -20.5t22.5 -8.5h2q23 0 36.5 -13.5t13.5 -32.5q0 -37 -35 -46q-27 -7 -72 -7q-52 0 -92 21q-40 19 -40 67q0 69 117 98h-274q-52 0 -79.5 27.5t-27.5 79.5v453q0 52 27.5 79.5t79.5 27.5h325q35 0 59.5 -24.5t24.5 -59.5q0 -34 -24.5 -59t-59.5 -25
h-230v-78h223q35 0 59.5 -24.5t24.5 -59.5q0 -34 -24.5 -59t-59.5 -25h-223v-85h230q35 0 59.5 -24.5t24.5 -59.5q0 -30 -18.5 -52.5t-46.5 -29.5q-32 -27 -32 -60z" />
    <glyph glyph-name="eogonek" unicode="&#x119;" horiz-adv-x="543" 
d="M17 242q0 107 74.5 180t188.5 73q103 2 178 -65t73 -156q0 -48 -25.5 -68t-81.5 -20h-221q9 -26 36.5 -43.5t67.5 -17.5q27 0 71 14q8 4 24 4q31 0 52.5 -21.5t21.5 -52.5q0 -30 -23 -53q-45 -42 -45 -74q0 -13 9.5 -21t23.5 -8h2q19 1 33 -13.5t14 -33.5
q0 -16 -10 -28.5t-25 -16.5q-22 -7 -70 -7q-51 0 -92 21q-40 19 -40 67q0 60 75 88q-38 -2 -42 -2q-117 0 -193 69.5t-76 184.5zM201 300h159q-14 58 -80 58q-64 0 -79 -58z" />
    <glyph glyph-name="Ecaron" unicode="&#x11a;" 
d="M54 107v453q0 52 27.5 79.5t79.5 27.5h325q35 0 59.5 -24.5t24.5 -59.5q0 -34 -24.5 -59t-59.5 -25h-230v-78h223q35 0 59.5 -24.5t24.5 -59.5q0 -34 -24.5 -59t-59.5 -25h-223v-85h230q35 0 59.5 -24.5t24.5 -59.5q0 -34 -24.5 -59t-59.5 -25h-325q-52 0 -79.5 27.5
t-27.5 79.5zM447 828q0 -12 -6 -23l-28 -46q-29 -42 -77 -42h-48q-48 0 -77 42l-28 46q-6 11 -6 23q0 19 13.5 32t31.5 13q21 0 35 -15l55 -64l55 64q13 15 35 15q18 0 31.5 -13t13.5 -32z" />
    <glyph glyph-name="ecaron" unicode="&#x11b;" horiz-adv-x="543" 
d="M280 495q103 2 178 -65t73 -156q0 -48 -25.5 -68t-81.5 -20h-221q9 -27 37 -44t69 -17q34 0 71 14q13 5 25 5q28 0 48 -20t20 -48q0 -20 -12.5 -37t-31.5 -26q-66 -25 -143 -25q-117 0 -193 69.5t-76 184.5q0 107 74.5 180t188.5 73zM201 300h159q-14 58 -80 58
q-64 0 -79 -58zM413 681q0 -13 -6 -23l-28 -46q-29 -42 -77 -42h-48q-48 0 -77 42l-28 46q-6 10 -6 23q0 19 13.5 32t31.5 13q22 0 35 -15l55 -64l55 64q13 15 35 15q18 0 31.5 -13t13.5 -32z" />
    <glyph glyph-name="Gcircumflex" unicode="&#x11c;" horiz-adv-x="726" 
d="M690 308v-108q0 -85 -56 -129q-106 -83 -249 -83q-100 -1 -184.5 41.5t-134.5 122.5t-48 181q-2 153 105 250t262 95q123 0 212 -71q35 -28 35 -74q0 -39 -27.5 -66.5t-66.5 -27.5q-38 0 -63 24q-40 37 -90 37q-70 0 -116 -48t-46 -119t46 -119t116 -48q69 0 104 30v24
h-51q-34 0 -58.5 25t-24.5 60t25 63t58 28h168q34 0 59 -26.5t25 -61.5zM441 732l-55 64l-55 -64q-13 -15 -35 -15q-18 0 -31.5 13t-13.5 32q0 12 6 23l28 46q29 42 77 42h48q48 0 77 -42l28 -46q6 -11 6 -23q0 -19 -13.5 -32t-31.5 -13q-22 0 -35 15z" />
    <glyph glyph-name="gcircumflex" unicode="&#x11d;" horiz-adv-x="595" 
d="M545 403v-351q0 -140 -88 -194q-87 -54 -204 -54q-86 0 -161 35q-42 20 -42 66q0 31 21.5 52.5t52.5 21.5q18 0 31 -7q45 -21 98 -21q43 0 77 22q35 23 35 79v26q-57 -65 -136 -65q-94 0 -153 62.5t-59 178.5q0 115 58.5 178t153.5 63q83 0 136 -63q7 27 33 44t57 17
q37 0 63.5 -26.5t26.5 -63.5zM365 203v102q-12 14 -33 22.5t-41 8.5q-41 0 -65.5 -20.5t-24.5 -61.5t24.5 -61.5t65.5 -20.5q20 0 41 8.5t33 22.5zM357 585l-55 64l-55 -64q-13 -15 -35 -15q-18 0 -31.5 13t-13.5 32q0 13 6 23l28 46q29 42 77 42h48q48 0 77 -42l28 -46
q6 -10 6 -23q0 -19 -13.5 -32t-31.5 -13q-22 0 -35 15z" />
    <glyph glyph-name="Gbreve" unicode="&#x11e;" horiz-adv-x="726" 
d="M690 308v-108q0 -85 -56 -129q-106 -83 -249 -83q-100 -1 -184.5 41.5t-134.5 122.5t-48 181q-2 153 105 250t262 95q123 0 212 -71q35 -28 35 -74q0 -39 -27.5 -66.5t-66.5 -27.5q-38 0 -63 24q-40 37 -90 37q-70 0 -116 -48t-46 -119t46 -119t116 -48q69 0 104 30v24
h-51q-34 0 -58.5 25t-24.5 60t25 63t58 28h168q34 0 59 -26.5t25 -61.5zM242 771q-17 15 -17 37q0 20 14 34.5t34 14.5q19 0 33 -12q34 -31 79 -31t79 30q14 13 33 13q20 0 34 -14.5t14 -34.5q0 -21 -17 -36q-61 -55 -143 -55q-80 0 -143 54z" />
    <glyph glyph-name="gbreve" unicode="&#x11f;" horiz-adv-x="595" 
d="M545 403v-351q0 -140 -88 -194q-87 -54 -204 -54q-86 0 -161 35q-42 20 -42 66q0 31 21.5 52.5t52.5 21.5q18 0 31 -7q45 -21 98 -21q43 0 77 22q35 23 35 79v26q-57 -65 -136 -65q-94 0 -153 62.5t-59 178.5q0 115 58.5 178t153.5 63q83 0 136 -63q7 27 33 44t57 17
q37 0 63.5 -26.5t26.5 -63.5zM365 203v102q-12 14 -33 22.5t-41 8.5q-41 0 -65.5 -20.5t-24.5 -61.5t24.5 -61.5t65.5 -20.5q20 0 41 8.5t33 22.5zM158 624q-17 15 -17 37q0 20 14 34.5t34 14.5q19 0 33 -12q34 -31 79 -31t79 30q14 13 33 13q20 0 34 -14.5t14 -34.5
q0 -21 -17 -36q-61 -55 -143 -55q-80 0 -143 54z" />
    <glyph glyph-name="Gdotaccent" unicode="&#x120;" horiz-adv-x="726" 
d="M690 308v-108q0 -85 -56 -129q-106 -83 -249 -83q-100 -1 -184.5 41.5t-134.5 122.5t-48 181q-2 153 105 250t262 95q123 0 212 -71q35 -28 35 -74q0 -39 -27.5 -66.5t-66.5 -27.5q-38 0 -63 24q-40 37 -90 37q-70 0 -116 -48t-46 -119t46 -119t116 -48q69 0 104 30v24
h-51q-34 0 -58.5 25t-24.5 60t25 63t58 28h168q34 0 59 -26.5t25 -61.5zM385 875q36 0 62 -26t26 -63t-26 -63t-62 -26q-37 0 -63 26t-26 63t26 63t63 26z" />
    <glyph glyph-name="gdotaccent" unicode="&#x121;" horiz-adv-x="595" 
d="M545 403v-351q0 -140 -88 -194q-87 -54 -204 -54q-86 0 -161 35q-42 20 -42 66q0 31 21.5 52.5t52.5 21.5q18 0 31 -7q45 -21 98 -21q43 0 77 22q35 23 35 79v26q-57 -65 -136 -65q-94 0 -153 62.5t-59 178.5q0 115 58.5 178t153.5 63q83 0 136 -63q7 27 33 44t57 17
q37 0 63.5 -26.5t26.5 -63.5zM365 203v102q-12 14 -33 22.5t-41 8.5q-41 0 -65.5 -20.5t-24.5 -61.5t24.5 -61.5t65.5 -20.5q20 0 41 8.5t33 22.5zM301 728q36 0 62 -26t26 -63t-26 -63t-62 -26q-37 0 -63 26t-26 63t26 63t63 26z" />
    <glyph glyph-name="uni0122" unicode="&#x122;" horiz-adv-x="726" 
d="M690 308v-108q0 -85 -56 -129q-106 -83 -249 -83q-100 -1 -184.5 41.5t-134.5 122.5t-48 181q-2 153 105 250t262 95q123 0 212 -71q35 -28 35 -74q0 -39 -27.5 -66.5t-66.5 -27.5q-38 0 -63 24q-40 37 -90 37q-70 0 -116 -48t-46 -119t46 -119t116 -48q69 0 104 30v24
h-51q-34 0 -58.5 25t-24.5 60t25 63t58 28h168q34 0 59 -26.5t25 -61.5zM337 -267q0 16 12 25q31 25 42 55q-8 -3 -19 -3q-28 0 -46.5 19.5t-18.5 50.5q0 32 22.5 55t54.5 23q38 0 63 -26.5t25 -69.5q0 -91 -82 -156q-8 -7 -20 -7q-14 0 -23.5 10t-9.5 24z" />
    <glyph glyph-name="uni0123" unicode="&#x123;" horiz-adv-x="595" 
d="M210 618q0 91 82 156q8 7 20 7q14 0 23.5 -10t9.5 -24q0 -16 -12 -25q-31 -25 -42 -55q12 3 19 3q28 0 46.5 -19.5t18.5 -50.5q0 -32 -22.5 -55t-54.5 -23q-38 0 -63 26.5t-25 69.5zM545 403v-351q0 -140 -88 -194q-87 -54 -204 -54q-86 0 -161 35q-42 20 -42 66
q0 31 21.5 52.5t52.5 21.5q18 0 31 -7q45 -21 98 -21q43 0 77 22q35 23 35 79v26q-57 -65 -136 -65q-94 0 -153 62.5t-59 178.5q0 115 58.5 178t153.5 63q83 0 136 -63q7 27 33 44t57 17q37 0 63.5 -26.5t26.5 -63.5zM365 203v102q-12 14 -33 22.5t-41 8.5
q-41 0 -65.5 -20.5t-24.5 -61.5t24.5 -61.5t65.5 -20.5q20 0 41 8.5t33 22.5z" />
    <glyph glyph-name="Hcircumflex" unicode="&#x124;" horiz-adv-x="751" 
d="M495 91v164h-239v-164q0 -41 -29.5 -71t-71.5 -30t-71.5 30t-29.5 71v485q0 41 29.5 71t71.5 30t71.5 -30t29.5 -71v-145h239v145q0 41 29.5 71t71.5 30t71.5 -30t29.5 -71v-485q0 -41 -29.5 -71t-71.5 -30t-71.5 30t-29.5 71zM432 732l-55 64l-55 -64q-14 -15 -35 -15
q-18 0 -31.5 13t-13.5 32q0 12 6 23l28 46q29 42 77 42h48q48 0 77 -42l28 -46q6 -11 6 -23q0 -19 -13.5 -32t-31.5 -13q-21 0 -35 15z" />
    <glyph glyph-name="hcircumflex" unicode="&#x125;" horiz-adv-x="608" 
d="M378 80v189q0 67 -70 67q-44 0 -77 -38v-218q0 -37 -26.5 -63.5t-63.5 -26.5t-63.5 26.5t-26.5 63.5v507q0 37 26.5 63.5t63.5 26.5t63.5 -26.5t26.5 -63.5v-159q60 67 166 67q78 0 119.5 -40.5t41.5 -109.5v-265q0 -37 -26.5 -63.5t-63.5 -26.5t-63.5 26.5t-26.5 63.5z
M360 732l-55 64l-55 -64q-14 -15 -35 -15q-18 0 -31.5 13t-13.5 32q0 12 6 23l28 46q29 42 77 42h48q48 0 77 -42l28 -46q6 -11 6 -23q0 -19 -13.5 -32t-31.5 -13q-21 0 -35 15z" />
    <glyph glyph-name="Hbar" unicode="&#x126;" horiz-adv-x="765" 
d="M768 550q0 -20 -14 -34.5t-34 -14.5h-16v-410q0 -41 -29.5 -71t-71.5 -30t-71.5 30t-29.5 71v164h-239v-164q0 -41 -29.5 -71t-71.5 -30t-71.5 30t-29.5 71v410h-16q-20 0 -34 14.5t-14 34.5t14.5 34t33.5 14h18q8 34 35.5 56.5t63.5 22.5t63.5 -22.5t35.5 -56.5h243
q8 34 35.5 56.5t63.5 22.5t63.5 -22.5t35.5 -56.5h18q20 0 34 -14t14 -34zM502 431v70h-239v-70h239z" />
    <glyph glyph-name="hbar" unicode="&#x127;" horiz-adv-x="613" 
d="M563 345v-265q0 -37 -26.5 -63.5t-63.5 -26.5t-63.5 26.5t-26.5 63.5v189q0 67 -70 67q-44 0 -77 -38v-218q0 -37 -26.5 -63.5t-63.5 -26.5t-63.5 26.5t-26.5 63.5v441h-11q-20 0 -34.5 14.5t-14.5 34.5t14.5 34t34.5 14h17q9 26 32 42.5t52 16.5t52 -16.5t32 -42.5h103
q20 0 34.5 -14t14.5 -34t-14.5 -34.5t-34.5 -14.5h-97v-93q60 67 166 67q78 0 119.5 -40.5t41.5 -109.5z" />
    <glyph glyph-name="Itilde" unicode="&#x128;" horiz-adv-x="310" 
d="M54 91v485q0 41 29.5 71t71.5 30t71.5 -30t29.5 -71v-485q0 -41 -29.5 -71t-71.5 -30t-71.5 30t-29.5 71zM130 749q-30 15 -32 15q-14 0 -20 -17q-12 -30 -44 -30q-19 0 -32 13t-13 32q0 7 1 9q19 90 113 90q38 0 78 -28q30 -15 32 -15q14 0 20 17q12 30 44 30
q19 0 32 -13t13 -32q0 -7 -1 -9q-19 -90 -113 -90q-38 0 -78 28z" />
    <glyph glyph-name="itilde" unicode="&#x129;" horiz-adv-x="280" 
d="M50 80v323q0 37 26.5 63.5t63.5 26.5t63.5 -26.5t26.5 -63.5v-323q0 -37 -26.5 -63.5t-63.5 -26.5t-63.5 26.5t-26.5 63.5zM115 602q-30 15 -32 15q-14 0 -20 -17q-12 -30 -44 -30q-19 0 -32 13t-13 32q0 7 1 9q19 90 113 90q38 0 78 -28q30 -15 32 -15q14 0 20 17
q12 30 44 30q19 0 32 -13t13 -32q0 -7 -1 -9q-19 -90 -113 -90q-38 0 -78 28z" />
    <glyph glyph-name="Imacron" unicode="&#x12a;" horiz-adv-x="310" 
d="M54 91v485q0 41 29.5 71t71.5 30t71.5 -30t29.5 -71v-485q0 -41 -29.5 -71t-71.5 -30t-71.5 30t-29.5 71zM-33 767q0 20 14 34t34 14h280q20 0 33.5 -14t13.5 -34q0 -21 -13.5 -35t-33.5 -14h-280q-20 0 -34 14t-14 35z" />
    <glyph glyph-name="imacron" unicode="&#x12b;" horiz-adv-x="280" 
d="M50 80v323q0 37 26.5 63.5t63.5 26.5t63.5 -26.5t26.5 -63.5v-323q0 -37 -26.5 -63.5t-63.5 -26.5t-63.5 26.5t-26.5 63.5zM-48 620q0 20 14 34t34 14h280q20 0 33.5 -14t13.5 -34q0 -21 -13.5 -35t-33.5 -14h-280q-20 0 -34 14t-14 35z" />
    <glyph glyph-name="Ibreve" unicode="&#x12c;" horiz-adv-x="310" 
d="M54 91v485q0 41 29.5 71t71.5 30t71.5 -30t29.5 -71v-485q0 -41 -29.5 -71t-71.5 -30t-71.5 30t-29.5 71zM12 771q-17 15 -17 37q0 20 14 34.5t34 14.5q19 0 33 -12q34 -31 79 -31t79 30q14 13 33 13q20 0 34 -14.5t14 -34.5q0 -21 -17 -36q-61 -55 -143 -55
q-80 0 -143 54z" />
    <glyph glyph-name="ibreve" unicode="&#x12d;" horiz-adv-x="280" 
d="M50 80v323q0 37 26.5 63.5t63.5 26.5t63.5 -26.5t26.5 -63.5v-323q0 -37 -26.5 -63.5t-63.5 -26.5t-63.5 26.5t-26.5 63.5zM-3 624q-17 15 -17 37q0 20 14 34.5t34 14.5t33 -12q34 -31 79 -31q44 0 79 30q14 13 33 13q20 0 34 -14.5t14 -34.5q0 -21 -17 -36
q-61 -55 -143 -55q-80 0 -143 54z" />
    <glyph glyph-name="Iogonek" unicode="&#x12e;" horiz-adv-x="310" 
d="M169 -58q0 -12 9.5 -20.5t22.5 -8.5h2q23 0 36.5 -13.5t13.5 -32.5q0 -37 -35 -46q-27 -7 -72 -7q-52 0 -92 21q-40 19 -40 67q0 66 105 95q-29 11 -47 37t-18 57v485q0 41 29.5 71t71.5 30t71.5 -30t29.5 -71v-485q0 -30 -16 -54.5t-42 -36.5q-29 -27 -29 -58z" />
    <glyph glyph-name="iogonek" unicode="&#x12f;" horiz-adv-x="280" 
d="M39 629q0 42 29.5 71.5t71.5 29.5t71.5 -29.5t29.5 -71.5t-29.5 -71.5t-71.5 -29.5t-71.5 29.5t-29.5 71.5zM230 403v-323q0 -30 -18 -54t-46 -32q-23 -26 -23 -52q0 -12 9.5 -20.5t22.5 -8.5h2q23 0 36.5 -13.5t13.5 -32.5q0 -37 -35 -46q-27 -7 -72 -7q-52 0 -92 21
q-40 19 -40 67q0 68 113 97q-51 25 -51 81v323q0 37 26.5 63.5t63.5 26.5t63.5 -26.5t26.5 -63.5z" />
    <glyph glyph-name="Idot" unicode="&#x130;" horiz-adv-x="310" 
d="M54 91v485q0 41 29.5 71t71.5 30t71.5 -30t29.5 -71v-485q0 -41 -29.5 -71t-71.5 -30t-71.5 30t-29.5 71zM155 875q36 0 62 -26t26 -63t-26 -63t-62 -26q-37 0 -63 26t-26 63t26 63t63 26z" />
    <glyph glyph-name="dotlessi" unicode="&#x131;" horiz-adv-x="280" 
d="M50 80v323q0 37 26.5 63.5t63.5 26.5t63.5 -26.5t26.5 -63.5v-323q0 -37 -26.5 -63.5t-63.5 -26.5t-63.5 26.5t-26.5 63.5z" />
    <glyph glyph-name="IJ" unicode="&#x132;" horiz-adv-x="808" 
d="M54 91v485q0 41 29.5 71t71.5 30t71.5 -30t29.5 -71v-485q0 -41 -29.5 -71t-71.5 -30t-71.5 30t-29.5 71zM332 86q0 37 26 62.5t62 25.5q14 0 24 -3q20 -5 34 -5q33 0 53.5 20t20.5 55v335q0 41 29.5 71t71.5 30t71.5 -30t29.5 -71v-338q0 -123 -68 -186.5t-190 -63.5
q-53 0 -99 13q-28 8 -46.5 31.5t-18.5 53.5z" />
    <glyph glyph-name="ij" unicode="&#x133;" horiz-adv-x="560" 
d="M39 629q0 42 29.5 71.5t71.5 29.5t71.5 -29.5t29.5 -71.5t-29.5 -71.5t-71.5 -29.5t-71.5 29.5t-29.5 71.5zM50 80v323q0 37 26.5 63.5t63.5 26.5t63.5 -26.5t26.5 -63.5v-323q0 -37 -26.5 -63.5t-63.5 -26.5t-63.5 26.5t-26.5 63.5zM319 629q0 42 29.5 71.5t71.5 29.5
t71.5 -29.5t29.5 -71.5t-29.5 -71.5t-71.5 -29.5t-71.5 29.5t-29.5 71.5zM326 -196h-5q-41 0 -65.5 22t-24.5 61q0 24 13.5 41.5t34.5 21.5l7 1q44 9 44 70v382q0 37 26.5 63.5t63.5 26.5t63.5 -26.5t26.5 -63.5v-382q0 -98 -49 -157.5t-135 -59.5z" />
    <glyph glyph-name="Jcircumflex" unicode="&#x134;" horiz-adv-x="498" 
d="M22 86q0 37 26 62.5t62 25.5q14 0 24 -3q20 -5 34 -5q33 0 53.5 20t20.5 55v335q0 41 29.5 71t71.5 30t71.5 -30t29.5 -71v-338q0 -123 -68 -186.5t-190 -63.5q-53 0 -99 13q-28 8 -46.5 31.5t-18.5 53.5zM401 749l-55 64l-55 -64q-13 -15 -35 -15q-18 0 -31.5 13
t-13.5 32q0 13 6 23l28 46q29 42 77 42h48q48 0 77 -42l28 -46q6 -11 6 -23q0 -19 -13.5 -32t-31.5 -13q-22 0 -35 15z" />
    <glyph glyph-name="jcircumflex" unicode="&#x135;" horiz-adv-x="280" 
d="M46 -196h-5q-41 0 -65.5 22t-24.5 61q0 24 13.5 41.5t34.5 21.5l7 1q44 9 44 70v382q0 37 26.5 63.5t63.5 26.5t63.5 -26.5t26.5 -63.5v-382q0 -98 -49 -157.5t-135 -59.5zM196 585l-55 64l-55 -64q-14 -15 -35 -15q-18 0 -31.5 13t-13.5 32q0 13 6 23l28 46q29 42 77 42
h48q48 0 77 -42l28 -46q6 -10 6 -23q0 -19 -13.5 -32t-31.5 -13q-21 0 -35 15z" />
    <glyph glyph-name="uni0136" unicode="&#x136;" horiz-adv-x="671" 
d="M639 89q0 -40 -28.5 -69.5t-69.5 -29.5q-46 0 -74 33l-169 211l-42 -50v-93q0 -41 -29.5 -71t-71.5 -30t-71.5 30t-29.5 71v485q0 41 29.5 71t71.5 30t71.5 -30t29.5 -71v-158l199 228q28 31 70 31q40 0 67 -28.5t27 -66.5t-22 -61l-152 -163l172 -207q22 -25 22 -62z
M296 -267q0 16 12 25q31 25 42 55q-8 -3 -19 -3q-28 0 -46.5 19.5t-18.5 50.5q0 32 22.5 55t54.5 23q38 0 63 -26.5t25 -69.5q0 -91 -82 -156q-8 -7 -20 -7q-14 0 -23.5 10t-9.5 24z" />
    <glyph glyph-name="uni0137" unicode="&#x137;" horiz-adv-x="557" 
d="M538 80q0 -39 -26 -64.5t-65 -25.5q-46 0 -71 34l-107 133l-39 -38v-39q0 -37 -26.5 -63.5t-63.5 -26.5t-63.5 26.5t-26.5 63.5v507q0 37 26.5 63.5t63.5 26.5t63.5 -26.5t26.5 -63.5v-268l140 147q26 27 61 27q37 0 61.5 -24.5t24.5 -59.5q0 -38 -26 -62l-91 -86
l122 -131q16 -16 16 -50zM229 -267q0 16 12 25q31 25 42 55q-8 -3 -19 -3q-28 0 -46.5 19.5t-18.5 50.5q0 32 22.5 55t54.5 23q38 0 63 -26.5t25 -69.5q0 -91 -82 -156q-8 -7 -20 -7q-14 0 -23.5 10t-9.5 24z" />
    <glyph glyph-name="kgreenlandic" unicode="&#x138;" horiz-adv-x="557" 
d="M538 80q0 -39 -26 -64.5t-65 -25.5q-46 0 -71 34l-107 133l-39 -38v-39q0 -37 -26.5 -63.5t-63.5 -26.5t-63.5 26.5t-26.5 63.5v323q0 37 26.5 63.5t63.5 26.5t63.5 -26.5t26.5 -63.5v-84l140 147q26 27 61 27q37 0 61.5 -24.5t24.5 -59.5q0 -38 -26 -62l-91 -86
l122 -131q16 -16 16 -50z" />
    <glyph glyph-name="Lacute" unicode="&#x139;" horiz-adv-x="536" 
d="M54 107v469q0 41 29.5 71t71.5 30t71.5 -30t29.5 -71v-400h175q36 0 62 -25.5t26 -62.5t-26 -62.5t-62 -25.5h-270q-52 0 -79.5 27.5t-27.5 79.5zM159 706q-18 0 -32 13.5t-14 32.5q0 17 10 27l75 90q16 19 40 19q21 0 37 -15.5t16 -38.5q0 -22 -16 -38l-83 -77
q-14 -13 -33 -13z" />
    <glyph glyph-name="lacute" unicode="&#x13a;" horiz-adv-x="280" 
d="M50 80v507q0 37 26.5 63.5t63.5 26.5t63.5 -26.5t26.5 -63.5v-507q0 -37 -26.5 -63.5t-63.5 -26.5t-63.5 26.5t-26.5 63.5zM144 706q-18 0 -32 13.5t-14 32.5q0 17 10 27l75 90q16 19 40 19q21 0 37 -15.5t16 -38.5q0 -22 -16 -38l-83 -77q-14 -13 -33 -13z" />
    <glyph glyph-name="uni013B" unicode="&#x13b;" horiz-adv-x="536" 
d="M54 107v469q0 41 29.5 71t71.5 30t71.5 -30t29.5 -71v-400h175q36 0 62 -25.5t26 -62.5t-26 -62.5t-62 -25.5h-270q-52 0 -79.5 27.5t-27.5 79.5zM234 -267q0 16 12 25q31 25 42 55q-8 -3 -19 -3q-28 0 -46.5 19.5t-18.5 50.5q0 32 22.5 55t54.5 23q38 0 63 -26.5
t25 -69.5q0 -91 -82 -156q-8 -7 -20 -7q-14 0 -23.5 10t-9.5 24z" />
    <glyph glyph-name="uni013C" unicode="&#x13c;" horiz-adv-x="280" 
d="M50 80v507q0 37 26.5 63.5t63.5 26.5t63.5 -26.5t26.5 -63.5v-507q0 -37 -26.5 -63.5t-63.5 -26.5t-63.5 26.5t-26.5 63.5zM92 -267q0 16 12 25q31 25 42 55q-8 -3 -19 -3q-28 0 -46.5 19.5t-18.5 50.5q0 32 22.5 55t54.5 23q38 0 63 -26.5t25 -69.5q0 -91 -82 -156
q-8 -7 -20 -7q-14 0 -23.5 10t-9.5 24z" />
    <glyph glyph-name="Lcaron" unicode="&#x13d;" horiz-adv-x="536" 
d="M54 107v469q0 41 29.5 71t71.5 30t71.5 -30t29.5 -71v-400h175q36 0 62 -25.5t26 -62.5t-26 -62.5t-62 -25.5h-270q-52 0 -79.5 27.5t-27.5 79.5zM351 456q0 16 12 25q31 25 42 55q-7 -3 -19 -3q-28 0 -46.5 19.5t-18.5 50.5q0 32 22.5 55t54.5 23q38 0 63 -26.5
t25 -69.5q0 -91 -82 -156q-8 -7 -20 -7q-14 0 -23.5 10t-9.5 24z" />
    <glyph glyph-name="lcaron" unicode="&#x13e;" horiz-adv-x="418" 
d="M50 80v507q0 37 26.5 63.5t63.5 26.5t63.5 -26.5t26.5 -63.5v-507q0 -37 -26.5 -63.5t-63.5 -26.5t-63.5 26.5t-26.5 63.5zM291 459q0 16 12 25q31 25 42 55q-7 -3 -19 -3q-28 0 -46.5 19.5t-18.5 50.5q0 32 22.5 55t54.5 23q38 0 63 -26.5t25 -69.5q0 -91 -82 -156
q-8 -7 -20 -7q-14 0 -23.5 10t-9.5 24z" />
    <glyph glyph-name="Ldot" unicode="&#x13f;" horiz-adv-x="599" 
d="M54 107v469q0 41 29.5 71t71.5 30t71.5 -30t29.5 -71v-400h175q36 0 62 -25.5t26 -62.5t-26 -62.5t-62 -25.5h-270q-52 0 -79.5 27.5t-27.5 79.5zM351 342q0 44 31 75q32 32 75 32q42 0 74 -32t32 -75t-32 -75q-31 -31 -74 -31q-44 0 -75 31t-31 75z" />
    <glyph glyph-name="ldot" unicode="&#x140;" horiz-adv-x="462" 
d="M50 80v507q0 37 26.5 63.5t63.5 26.5t63.5 -26.5t26.5 -63.5v-507q0 -37 -26.5 -63.5t-63.5 -26.5t-63.5 26.5t-26.5 63.5zM265 244q0 44 31 75q32 32 75 32q42 0 74 -32t32 -75t-32 -75q-31 -31 -74 -31q-44 0 -75 31t-31 75z" />
    <glyph glyph-name="Lslash" unicode="&#x141;" horiz-adv-x="536" 
d="M528 88q0 -37 -26 -62.5t-62 -25.5h-270q-52 0 -79.5 27.5t-27.5 79.5v95h-5q-28 0 -48.5 20.5t-20.5 48.5q0 40 35 61l39 23v221q0 41 29.5 71t71.5 30t71.5 -30t29.5 -71v-110h7q29 0 49 -20.5t20 -48.5q0 -41 -34 -61l-42 -24v-136h175q36 0 62 -25.5t26 -62.5z" />
    <glyph glyph-name="lslash" unicode="&#x142;" horiz-adv-x="330" 
d="M333 400q0 -28 -27 -47l-51 -30v-243q0 -37 -26.5 -63.5t-63.5 -26.5t-63.5 26.5t-26.5 63.5v139q-13 -5 -24 -5q-22 0 -38 16t-16 39q0 31 27 47l51 29v242q0 37 26.5 63.5t63.5 26.5t63.5 -26.5t26.5 -63.5v-139q11 6 24 6q23 0 38.5 -15.5t15.5 -38.5z" />
    <glyph glyph-name="Nacute" unicode="&#x143;" horiz-adv-x="750" 
d="M472 43l-216 315v-267q0 -41 -29.5 -71t-71.5 -30t-71.5 30t-29.5 71v454q0 53 39 92.5t93 39.5q70 0 108 -57l200 -289v245q0 41 29.5 71t71.5 30t71.5 -30t29.5 -71v-464q0 -50 -36 -86t-87 -36q-63 0 -101 53zM379 706q-18 0 -32 13.5t-14 32.5q0 17 10 27l75 90
q16 19 40 19q21 0 37 -15.5t16 -38.5q0 -22 -16 -38l-83 -77q-14 -13 -33 -13z" />
    <glyph glyph-name="nacute" unicode="&#x144;" horiz-adv-x="607" 
d="M557 343v-263q0 -37 -26.5 -63.5t-63.5 -26.5t-63.5 26.5t-26.5 63.5v187q0 69 -70 69q-44 0 -77 -38v-218q0 -37 -26.5 -63.5t-63.5 -26.5t-63.5 26.5t-26.5 63.5v323q0 39 25.5 66.5t64.5 27.5q33 0 57.5 -19.5t32.5 -49.5q60 67 166 67q78 0 119.5 -41.5t41.5 -110.5z
M307 559q-18 0 -32 13.5t-14 32.5q0 17 10 27l75 90q16 19 40 19q21 0 37 -15.5t16 -38.5q0 -22 -16 -38l-83 -77q-14 -13 -33 -13z" />
    <glyph glyph-name="uni0145" unicode="&#x145;" horiz-adv-x="750" 
d="M472 43l-216 315v-267q0 -41 -29.5 -71t-71.5 -30t-71.5 30t-29.5 71v454q0 53 39 92.5t93 39.5q70 0 108 -57l200 -289v245q0 41 29.5 71t71.5 30t71.5 -30t29.5 -71v-464q0 -50 -36 -86t-87 -36q-63 0 -101 53zM327 -267q0 16 12 25q31 25 42 55q-8 -3 -19 -3
q-28 0 -46.5 19.5t-18.5 50.5q0 32 22.5 55t54.5 23q38 0 63 -26.5t25 -69.5q0 -91 -82 -156q-8 -7 -20 -7q-14 0 -23.5 10t-9.5 24z" />
    <glyph glyph-name="uni0146" unicode="&#x146;" horiz-adv-x="607" 
d="M557 343v-263q0 -37 -26.5 -63.5t-63.5 -26.5t-63.5 26.5t-26.5 63.5v187q0 69 -70 69q-44 0 -77 -38v-218q0 -37 -26.5 -63.5t-63.5 -26.5t-63.5 26.5t-26.5 63.5v323q0 39 25.5 66.5t64.5 27.5q33 0 57.5 -19.5t32.5 -49.5q60 67 166 67q78 0 119.5 -41.5t41.5 -110.5z
M255 -267q0 16 12 25q31 25 42 55q-7 -3 -19 -3q-28 0 -46.5 19.5t-18.5 50.5q0 32 22.5 55t54.5 23q38 0 63 -26.5t25 -69.5q0 -91 -82 -156q-8 -7 -20 -7q-14 0 -23.5 10t-9.5 24z" />
    <glyph glyph-name="Ncaron" unicode="&#x147;" horiz-adv-x="750" 
d="M472 43l-216 315v-267q0 -41 -29.5 -71t-71.5 -30t-71.5 30t-29.5 71v454q0 53 39 92.5t93 39.5q70 0 108 -57l200 -289v245q0 41 29.5 71t71.5 30t71.5 -30t29.5 -71v-464q0 -50 -36 -86t-87 -36q-63 0 -101 53zM508 828q0 -12 -6 -23l-28 -46q-29 -42 -77 -42h-48
q-48 0 -77 42l-28 46q-6 11 -6 23q0 19 13.5 32t31.5 13q21 0 35 -15l55 -64l55 64q14 15 35 15q18 0 31.5 -13t13.5 -32z" />
    <glyph glyph-name="ncaron" unicode="&#x148;" horiz-adv-x="607" 
d="M557 343v-263q0 -37 -26.5 -63.5t-63.5 -26.5t-63.5 26.5t-26.5 63.5v187q0 69 -70 69q-44 0 -77 -38v-218q0 -37 -26.5 -63.5t-63.5 -26.5t-63.5 26.5t-26.5 63.5v323q0 39 25.5 66.5t64.5 27.5q33 0 57.5 -19.5t32.5 -49.5q60 67 166 67q78 0 119.5 -41.5t41.5 -110.5z
M436 681q0 -13 -6 -23l-28 -46q-29 -42 -77 -42h-48q-48 0 -77 42l-28 46q-6 10 -6 23q0 19 13.5 32t31.5 13q22 0 35 -15l55 -64l55 64q14 15 35 15q18 0 31.5 -13t13.5 -32z" />
    <glyph glyph-name="napostrophe" unicode="&#x149;" horiz-adv-x="607" 
d="M557 343v-263q0 -37 -26.5 -63.5t-63.5 -26.5t-63.5 26.5t-26.5 63.5v187q0 69 -70 69q-44 0 -77 -38v-218q0 -37 -26.5 -63.5t-63.5 -26.5t-63.5 26.5t-26.5 63.5v323q0 39 25.5 66.5t64.5 27.5q33 0 57.5 -19.5t32.5 -49.5q60 67 166 67q78 0 119.5 -41.5t41.5 -110.5z
M55 560q0 16 12 25q31 25 42 55q-7 -3 -19 -3q-28 0 -46.5 19.5t-18.5 50.5q0 32 22.5 55t54.5 23q38 0 63 -26.5t25 -69.5q0 -91 -82 -156q-8 -7 -20 -7q-14 0 -23.5 10t-9.5 24z" />
    <glyph glyph-name="Eng" unicode="&#x14a;" horiz-adv-x="750" 
d="M696 576v-522q0 -123 -68 -186.5t-190 -63.5q-53 0 -99 13q-28 8 -46.5 31.5t-18.5 53.5q0 37 26 62.5t62 25.5q14 0 24 -3q20 -5 34 -5q52 0 62 47l-226 329v-267q0 -41 -29.5 -71t-71.5 -30t-71.5 30t-29.5 71v453q0 54 39.5 93.5t93.5 39.5q69 0 107 -54l200 -292v245
q0 41 29.5 71t71.5 30t71.5 -30t29.5 -71z" />
    <glyph glyph-name="eng" unicode="&#x14b;" horiz-adv-x="607" 
d="M557 343v-322q0 -98 -49 -157.5t-135 -59.5h-5q-41 0 -65.5 22t-24.5 61q0 24 13.5 41.5t34.5 21.5l7 1q44 9 44 70v246q0 69 -70 69q-44 0 -77 -38v-218q0 -37 -26.5 -63.5t-63.5 -26.5t-63.5 26.5t-26.5 63.5v323q0 39 25.5 66.5t64.5 27.5q33 0 57.5 -19.5t32.5 -49.5
q60 67 166 67q78 0 119.5 -41.5t41.5 -110.5z" />
    <glyph glyph-name="Omacron" unicode="&#x14c;" horiz-adv-x="766" 
d="M383 678q154 2 261 -97.5t104 -247.5q3 -149 -104 -248.5t-261 -96.5q-154 -3 -261 96.5t-104 248.5q-3 148 104 247.5t261 97.5zM383 500q-70 0 -115 -48t-45 -119t45 -119t115 -48t115 48t45 119t-45 119t-115 48zM195 767q0 20 14 34t34 14h280q20 0 33.5 -14
t13.5 -34q0 -21 -13.5 -35t-33.5 -14h-280q-20 0 -34 14t-14 35z" />
    <glyph glyph-name="omacron" unicode="&#x14d;" horiz-adv-x="577" 
d="M17 242q0 106 74.5 179.5t196.5 73.5t197 -73.5t75 -179.5t-75 -180t-197 -74t-196.5 74t-74.5 180zM375 242q0 42 -23 68t-64 26q-39 0 -62.5 -26t-23.5 -68t23.5 -68.5t62.5 -26.5q41 0 64 26t23 69zM100 620q0 20 14 34t34 14h280q20 0 33.5 -14t13.5 -34
q0 -21 -13.5 -35t-33.5 -14h-280q-20 0 -34 14t-14 35z" />
    <glyph glyph-name="Obreve" unicode="&#x14e;" horiz-adv-x="766" 
d="M383 678q154 2 261 -97.5t104 -247.5q3 -149 -104 -248.5t-261 -96.5q-154 -3 -261 96.5t-104 248.5q-3 148 104 247.5t261 97.5zM383 500q-70 0 -115 -48t-45 -119t45 -119t115 -48t115 48t45 119t-45 119t-115 48zM240 771q-17 15 -17 37q0 20 14 34.5t34 14.5
q19 0 33 -12q34 -31 79 -31t79 30q14 13 33 13q20 0 34 -14.5t14 -34.5q0 -21 -17 -36q-61 -55 -143 -55q-80 0 -143 54z" />
    <glyph glyph-name="obreve" unicode="&#x14f;" horiz-adv-x="577" 
d="M17 242q0 106 74.5 179.5t196.5 73.5t197 -73.5t75 -179.5t-75 -180t-197 -74t-196.5 74t-74.5 180zM375 242q0 42 -23 68t-64 26q-39 0 -62.5 -26t-23.5 -68t23.5 -68.5t62.5 -26.5q41 0 64 26t23 69zM145 624q-17 15 -17 37q0 20 14 34.5t34 14.5t33 -12q34 -31 79 -31
q44 0 79 30q14 13 33 13q20 0 34 -14.5t14 -34.5q0 -21 -17 -36q-61 -55 -143 -55q-80 0 -143 54z" />
    <glyph glyph-name="Ohungarumlaut" unicode="&#x150;" horiz-adv-x="766" 
d="M383 678q154 2 261 -97.5t104 -247.5q3 -149 -104 -248.5t-261 -96.5q-154 -3 -261 96.5t-104 248.5q-3 148 104 247.5t261 97.5zM383 500q-70 0 -115 -48t-45 -119t45 -119t115 -48t115 48t45 119t-45 119t-115 48zM282 761q0 11 6 22l35 65q15 26 44 26
q21 0 36.5 -15.5t15.5 -36.5q0 -18 -11 -32l-47 -58q-13 -16 -34 -16q-18 0 -31.5 13.5t-13.5 31.5zM438 761q0 11 6 22l35 65q15 26 44 26q21 0 36.5 -15.5t15.5 -36.5q0 -18 -11 -32l-47 -58q-13 -16 -34 -16q-18 0 -31.5 13.5t-13.5 31.5z" />
    <glyph glyph-name="ohungarumlaut" unicode="&#x151;" horiz-adv-x="577" 
d="M17 242q0 106 74.5 179.5t196.5 73.5t197 -73.5t75 -179.5t-75 -180t-197 -74t-196.5 74t-74.5 180zM375 242q0 42 -23 68t-64 26q-39 0 -62.5 -26t-23.5 -68t23.5 -68.5t62.5 -26.5q41 0 64 26t23 69zM187 614q0 12 6 22l35 65q15 26 44 26q21 0 36.5 -15.5t15.5 -36.5
q0 -18 -11 -32l-47 -58q-13 -16 -34 -16q-18 0 -31.5 13.5t-13.5 31.5zM343 614q0 12 6 22l35 65q15 26 44 26q21 0 36.5 -15.5t15.5 -36.5q0 -18 -11 -32l-47 -58q-13 -16 -34 -16q-18 0 -31.5 13.5t-13.5 31.5z" />
    <glyph glyph-name="OE" unicode="&#x152;" horiz-adv-x="1062" 
d="M1042 84q0 -34 -24.5 -59t-59.5 -25h-325q-69 0 -94 48q-26 -28 -76 -44t-103 -16q-146 -2 -245 96.5t-97 248.5q-2 150 97 248t245 96q54 0 103.5 -15t75.5 -43q25 48 94 48h325q35 0 59.5 -24.5t24.5 -59.5q0 -34 -24.5 -59t-59.5 -25h-230v-78h223q35 0 59.5 -24.5
t24.5 -59.5q0 -34 -24.5 -59t-59.5 -25h-223v-85h230q35 0 59.5 -24.5t24.5 -59.5zM526 237v193q-40 69 -135 69q-76 0 -122 -46.5t-46 -119.5q0 -72 46 -119.5t122 -47.5q44 0 80 19t55 52z" />
    <glyph glyph-name="oe" unicode="&#x153;" horiz-adv-x="901" 
d="M670 124q30 0 66 14q15 5 25 5q28 0 48 -19.5t20 -47.5q0 -20 -12.5 -37t-31.5 -26q-60 -25 -141 -25q-57 0 -97 18.5t-82 57.5q-76 -76 -177 -76q-122 0 -196.5 74t-74.5 180t74.5 179.5t196.5 73.5q96 0 178 -77q72 77 172 77q109 0 180 -74.5t71 -197.5
q0 -37 -107 -37h-221q30 -62 109 -62zM638 359q-64 0 -79 -59h159q-13 59 -80 59zM202 242q0 -45 23.5 -70.5t62.5 -25.5t63 25.5t24 70.5t-23.5 69.5t-63.5 24.5q-39 0 -62.5 -25t-23.5 -69z" />
    <glyph glyph-name="Racute" unicode="&#x154;" horiz-adv-x="678" 
d="M548 246l73 -92q22 -25 22 -63q0 -43 -30 -72t-71 -29q-52 0 -81 41l-129 183h-76v-123q0 -41 -29.5 -71t-71.5 -30t-71.5 30t-29.5 71v469q0 52 27.5 79.5t79.5 27.5h249q111 0 175.5 -65t64.5 -164q0 -129 -102 -192zM256 499v-117h123q28 0 47 16.5t19 42.5t-19 42
t-47 16h-123zM348 706q-18 0 -32 13.5t-14 32.5q0 17 10 27l75 90q16 19 40 19q21 0 37 -15.5t16 -38.5q0 -22 -16 -38l-83 -77q-14 -13 -33 -13z" />
    <glyph glyph-name="racute" unicode="&#x155;" horiz-adv-x="390" 
d="M393 417q0 -38 -19.5 -62.5t-55.5 -28.5q-69 -9 -88 -32v-214q0 -37 -26.5 -63.5t-63.5 -26.5t-63.5 26.5t-26.5 63.5v319q0 39 25.5 66.5t64.5 27.5q32 0 57 -18t33 -47q17 38 47 55q19 11 39 11q32 0 54.5 -22.5t22.5 -54.5zM219 559q-18 0 -32 13.5t-14 32.5
q0 17 10 27l75 90q16 19 40 19q21 0 37 -15.5t16 -38.5q0 -22 -16 -38l-83 -77q-14 -13 -33 -13z" />
    <glyph glyph-name="uni0156" unicode="&#x156;" horiz-adv-x="678" 
d="M548 246l73 -92q22 -25 22 -63q0 -43 -30 -72t-71 -29q-52 0 -81 41l-129 183h-76v-123q0 -41 -29.5 -71t-71.5 -30t-71.5 30t-29.5 71v469q0 52 27.5 79.5t79.5 27.5h249q111 0 175.5 -65t64.5 -164q0 -129 -102 -192zM256 499v-117h123q28 0 47 16.5t19 42.5t-19 42
t-47 16h-123zM296 -267q0 16 12 25q31 25 42 55q-8 -3 -19 -3q-28 0 -46.5 19.5t-18.5 50.5q0 32 22.5 55t54.5 23q38 0 63 -26.5t25 -69.5q0 -91 -82 -156q-8 -7 -20 -7q-14 0 -23.5 10t-9.5 24z" />
    <glyph glyph-name="uni0157" unicode="&#x157;" horiz-adv-x="390" 
d="M393 417q0 -38 -19.5 -62.5t-55.5 -28.5q-69 -9 -88 -32v-214q0 -37 -26.5 -63.5t-63.5 -26.5t-63.5 26.5t-26.5 63.5v319q0 39 25.5 66.5t64.5 27.5q32 0 57 -18t33 -47q17 38 47 55q19 11 39 11q32 0 54.5 -22.5t22.5 -54.5zM95 -267q0 16 12 25q31 25 42 55
q-8 -3 -19 -3q-28 0 -46.5 19.5t-18.5 50.5q0 32 22.5 55t54.5 23q38 0 63 -26.5t25 -69.5q0 -91 -82 -156q-8 -7 -20 -7q-14 0 -23.5 10t-9.5 24z" />
    <glyph glyph-name="Rcaron" unicode="&#x158;" horiz-adv-x="678" 
d="M548 246l73 -92q22 -25 22 -63q0 -43 -30 -72t-71 -29q-52 0 -81 41l-129 183h-76v-123q0 -41 -29.5 -71t-71.5 -30t-71.5 30t-29.5 71v469q0 52 27.5 79.5t79.5 27.5h249q111 0 175.5 -65t64.5 -164q0 -129 -102 -192zM256 499v-117h123q28 0 47 16.5t19 42.5t-19 42
t-47 16h-123zM477 828q0 -12 -6 -23l-28 -46q-29 -42 -77 -42h-48q-48 0 -77 42l-28 46q-6 11 -6 23q0 19 13.5 32t31.5 13q22 0 35 -15l55 -64l55 64q13 15 35 15q18 0 31.5 -13t13.5 -32z" />
    <glyph glyph-name="rcaron" unicode="&#x159;" horiz-adv-x="390" 
d="M393 417q0 -38 -19.5 -62.5t-55.5 -28.5q-69 -9 -88 -32v-214q0 -37 -26.5 -63.5t-63.5 -26.5t-63.5 26.5t-26.5 63.5v319q0 39 25.5 66.5t64.5 27.5q32 0 57 -18t33 -47q17 38 47 55q19 11 39 11q32 0 54.5 -22.5t22.5 -54.5zM348 681q0 -13 -6 -23l-28 -46
q-29 -42 -77 -42h-48q-48 0 -77 42l-28 46q-6 10 -6 23q0 19 13.5 32t31.5 13q21 0 35 -15l55 -64l55 64q14 15 35 15q18 0 31.5 -13t13.5 -32z" />
    <glyph glyph-name="Sacute" unicode="&#x15a;" horiz-adv-x="613" 
d="M29 122q0 38 27 64.5t64 26.5q26 0 46 -12q73 -43 157 -43q32 0 53 10.5t21 28.5q0 19 -21.5 30.5t-72.5 20.5q-80 14 -138 32q-54 18 -97 61t-43 120q0 92 76 154t211 62q118 0 208 -41q53 -25 53 -82q0 -37 -26.5 -63.5t-63.5 -26.5q-19 0 -40 8q-91 35 -142 35
q-71 0 -71 -35q0 -19 20.5 -28.5t77.5 -18.5q82 -15 132 -32q57 -18 99 -60t42 -113q0 -110 -76.5 -171t-211.5 -61q-137 0 -236 54q-48 26 -48 80zM306 706q-18 0 -32 13.5t-14 32.5q0 17 10 27l75 90q16 19 40 19q21 0 37 -15.5t16 -38.5q0 -22 -16 -38l-83 -77
q-14 -13 -33 -13z" />
    <glyph glyph-name="sacute" unicode="&#x15b;" horiz-adv-x="490" 
d="M26 92q0 29 21 50t50 21q15 0 30 -7q75 -34 128 -34q48 0 48 23q0 11 -15 17t-53 11q-58 7 -101 20q-105 31 -105 137q0 69 59 117t157 48q81 0 154 -33q40 -18 40 -60q0 -27 -19.5 -46.5t-46.5 -19.5q-16 0 -28 6q-48 24 -99 24q-45 0 -45 -21q0 -18 62 -27
q63 -9 103 -22q48 -13 78.5 -48.5t30.5 -93.5q0 -73 -62.5 -119.5t-166.5 -46.5q-95 0 -178 39q-18 8 -30 26t-12 39zM249 559q-18 0 -32 13.5t-14 32.5q0 17 10 27l75 90q16 19 40 19q21 0 37 -15.5t16 -38.5q0 -22 -16 -38l-83 -77q-14 -13 -33 -13z" />
    <glyph glyph-name="Scircumflex" unicode="&#x15c;" horiz-adv-x="613" 
d="M29 122q0 38 27 64.5t64 26.5q26 0 46 -12q73 -43 157 -43q32 0 53 10.5t21 28.5q0 19 -21.5 30.5t-72.5 20.5q-80 14 -138 32q-54 18 -97 61t-43 120q0 92 76 154t211 62q118 0 208 -41q53 -25 53 -82q0 -37 -26.5 -63.5t-63.5 -26.5q-19 0 -40 8q-91 35 -142 35
q-71 0 -71 -35q0 -19 20.5 -28.5t77.5 -18.5q82 -15 132 -32q57 -18 99 -60t42 -113q0 -110 -76.5 -171t-211.5 -61q-137 0 -236 54q-48 26 -48 80zM358 732l-55 64l-55 -64q-14 -15 -35 -15q-18 0 -31.5 13t-13.5 32q0 12 6 23l28 46q29 42 77 42h48q48 0 77 -42l28 -46
q6 -11 6 -23q0 -19 -13.5 -32t-31.5 -13q-21 0 -35 15z" />
    <glyph glyph-name="scircumflex" unicode="&#x15d;" horiz-adv-x="490" 
d="M26 92q0 29 21 50t50 21q15 0 30 -7q75 -34 128 -34q48 0 48 23q0 11 -15 17t-53 11q-58 7 -101 20q-105 31 -105 137q0 69 59 117t157 48q81 0 154 -33q40 -18 40 -60q0 -27 -19.5 -46.5t-46.5 -19.5q-16 0 -28 6q-48 24 -99 24q-45 0 -45 -21q0 -18 62 -27
q63 -9 103 -22q48 -13 78.5 -48.5t30.5 -93.5q0 -73 -62.5 -119.5t-166.5 -46.5q-95 0 -178 39q-18 8 -30 26t-12 39zM301 585l-55 64l-55 -64q-13 -15 -35 -15q-18 0 -31.5 13t-13.5 32q0 13 6 23l28 46q29 42 77 42h48q48 0 77 -42l28 -46q6 -10 6 -23q0 -19 -13.5 -32
t-31.5 -13q-22 0 -35 15z" />
    <glyph glyph-name="uni015E" unicode="&#x15e;" horiz-adv-x="613" 
d="M332 -12l-15 -35q15 9 34 9q28 0 48 -20.5t20 -52.5q0 -40 -33.5 -64.5t-84.5 -24.5t-92 18q-24 9 -24 34q0 14 10.5 25t25.5 11q9 0 16 -4q29 -16 59 -16q42 0 42 24q0 17 -21 17q-9 0 -16 -4q-11 -6 -22 -6q-16 0 -28 13t-12 31l2 12l13 36q-102 9 -177 51
q-48 26 -48 80q0 38 27 64.5t64 26.5q26 0 46 -12q73 -43 157 -43q32 0 53 10.5t21 28.5q0 19 -21.5 30.5t-72.5 20.5q-80 14 -138 32q-54 18 -97 61t-43 120q0 92 76 154t211 62q118 0 208 -41q53 -25 53 -82q0 -37 -26.5 -63.5t-63.5 -26.5q-19 0 -40 8q-91 35 -142 35
q-71 0 -71 -35q0 -19 20.5 -28.5t77.5 -18.5q82 -15 132 -32q57 -18 99 -60t42 -113q0 -105 -71 -166t-198 -66z" />
    <glyph glyph-name="uni015F" unicode="&#x15f;" horiz-adv-x="490" 
d="M276 -11l-16 -36q15 9 34 9q28 0 48 -20.5t20 -52.5q0 -40 -33.5 -64.5t-84.5 -24.5t-92 18q-24 9 -24 34q0 14 10.5 25t25.5 11q9 0 16 -4q29 -16 59 -16q42 0 42 24q0 17 -21 17q-9 0 -16 -4q-10 -6 -22 -6q-16 0 -28 13t-12 31l2 12l13 36q-67 7 -129 36q-18 8 -30 26
t-12 39q0 29 21 50t50 21q15 0 30 -7q75 -34 128 -34q48 0 48 23q0 11 -15 17t-53 11q-58 7 -101 20q-105 31 -105 137q0 69 59 117t157 48q81 0 154 -33q40 -18 40 -60q0 -27 -19.5 -46.5t-46.5 -19.5q-16 0 -28 6q-48 24 -99 24q-45 0 -45 -21q0 -18 62 -27q63 -9 103 -22
q48 -13 78.5 -48.5t30.5 -93.5q0 -69 -53.5 -113.5t-145.5 -51.5z" />
    <glyph glyph-name="Scaron" unicode="&#x160;" horiz-adv-x="613" 
d="M29 122q0 38 27 64.5t64 26.5q26 0 46 -12q73 -43 157 -43q32 0 53 10.5t21 28.5q0 19 -21.5 30.5t-72.5 20.5q-80 14 -138 32q-54 18 -97 61t-43 120q0 92 76 154t211 62q118 0 208 -41q53 -25 53 -82q0 -37 -26.5 -63.5t-63.5 -26.5q-19 0 -40 8q-91 35 -142 35
q-71 0 -71 -35q0 -19 20.5 -28.5t77.5 -18.5q82 -15 132 -32q57 -18 99 -60t42 -113q0 -110 -76.5 -171t-211.5 -61q-137 0 -236 54q-48 26 -48 80zM435 828q0 -12 -6 -23l-28 -46q-29 -42 -77 -42h-48q-48 0 -77 42l-28 46q-6 11 -6 23q0 19 13.5 32t31.5 13q22 0 35 -15
l55 -64l55 64q13 15 35 15q18 0 31.5 -13t13.5 -32z" />
    <glyph glyph-name="scaron" unicode="&#x161;" horiz-adv-x="490" 
d="M26 92q0 29 21 50t50 21q15 0 30 -7q75 -34 128 -34q48 0 48 23q0 11 -15 17t-53 11q-58 7 -101 20q-105 31 -105 137q0 69 59 117t157 48q81 0 154 -33q40 -18 40 -60q0 -27 -19.5 -46.5t-46.5 -19.5q-16 0 -28 6q-48 24 -99 24q-45 0 -45 -21q0 -18 62 -27
q63 -9 103 -22q48 -13 78.5 -48.5t30.5 -93.5q0 -73 -62.5 -119.5t-166.5 -46.5q-95 0 -178 39q-18 8 -30 26t-12 39zM378 681q0 -13 -6 -23l-28 -46q-29 -42 -77 -42h-48q-48 0 -77 42l-28 46q-6 10 -6 23q0 19 13.5 32t31.5 13q21 0 35 -15l55 -64l55 64q14 15 35 15
q18 0 31.5 -13t13.5 -32z" />
    <glyph glyph-name="uni0162" unicode="&#x162;" horiz-adv-x="595" 
d="M197 91v400h-101q-36 0 -62 25.5t-26 62.5t26 62.5t62 25.5h403q36 0 62 -25.5t26 -62.5t-26 -62.5t-62 -25.5h-100v-400q0 -41 -29.5 -71t-71.5 -30t-71.5 30t-29.5 71zM250 -267q0 16 12 25q31 25 42 55q-7 -3 -19 -3q-28 0 -46.5 19.5t-18.5 50.5q0 32 22.5 55
t54.5 23q38 0 63 -26.5t25 -69.5q0 -91 -82 -156q-8 -7 -20 -7q-14 0 -23.5 10t-9.5 24z" />
    <glyph glyph-name="uni0163" unicode="&#x163;" horiz-adv-x="382" 
d="M373 68q0 -27 -17 -47.5t-44 -26.5q-26 -6 -59 -6q-81 0 -123.5 38.5t-42.5 113.5v187h-12q-32 0 -55 23t-23 55t23 55t55 23h12v52q0 37 26.5 63.5t63.5 26.5t63.5 -26.5t26.5 -63.5v-52h30q32 0 55 -23t23 -55t-23 -55t-55 -23h-30v-135q0 -18 10 -31t26 -14l9 -1
q27 -3 44 -25.5t17 -52.5zM141 -267q0 16 12 25q31 25 42 55q-7 -3 -19 -3q-28 0 -46.5 19.5t-18.5 50.5q0 32 22.5 55t54.5 23q38 0 63 -26.5t25 -69.5q0 -91 -82 -156q-8 -7 -20 -7q-14 0 -23.5 10t-9.5 24z" />
    <glyph glyph-name="Tcaron" unicode="&#x164;" horiz-adv-x="595" 
d="M197 91v400h-101q-36 0 -62 25.5t-26 62.5t26 62.5t62 25.5h403q36 0 62 -25.5t26 -62.5t-26 -62.5t-62 -25.5h-100v-400q0 -41 -29.5 -71t-71.5 -30t-71.5 30t-29.5 71zM431 828q0 -12 -6 -23l-28 -46q-29 -42 -77 -42h-48q-48 0 -77 42l-28 46q-6 11 -6 23
q0 19 13.5 32t31.5 13q21 0 35 -15l55 -64l55 64q13 15 35 15q18 0 31.5 -13t13.5 -32z" />
    <glyph glyph-name="tcaron" unicode="&#x165;" horiz-adv-x="447" 
d="M373 68q0 -27 -17 -47.5t-44 -26.5q-26 -6 -59 -6q-81 0 -123.5 38.5t-42.5 113.5v187h-12q-32 0 -55 23t-23 55t23 55t55 23h12v52q0 37 26.5 63.5t63.5 26.5t63.5 -26.5t26.5 -63.5v-52h30q32 0 55 -23t23 -55t-23 -55t-55 -23h-30v-135q0 -18 10 -31t26 -14l9 -1
q27 -3 44 -25.5t17 -52.5zM343 560q0 16 12 25q31 25 42 55q-7 -3 -19 -3q-28 0 -46.5 19.5t-18.5 50.5q0 32 22.5 55t54.5 23q38 0 63 -26.5t25 -69.5q0 -91 -82 -156q-8 -7 -20 -7q-14 0 -23.5 10t-9.5 24z" />
    <glyph glyph-name="Tbar" unicode="&#x166;" horiz-adv-x="595" 
d="M499 491h-100v-163h80q20 0 34 -14t14 -34t-14 -34.5t-34 -14.5h-80v-140q0 -41 -29.5 -71t-71.5 -30t-71.5 30t-29.5 71v140h-78q-20 0 -34 14.5t-14 34.5t14.5 34t33.5 14h78v163h-101q-36 0 -62 25.5t-26 62.5t26 62.5t62 25.5h403q36 0 62 -25.5t26 -62.5t-26 -62.5
t-62 -25.5z" />
    <glyph glyph-name="tbar" unicode="&#x167;" horiz-adv-x="382" 
d="M373 68q0 -27 -17 -47.5t-44 -26.5q-26 -6 -59 -6q-81 0 -123.5 38.5t-42.5 113.5v51h-42q-20 0 -34 14.5t-14 34.5t14 34t34 14h42v39h-12q-32 0 -55 23t-23 55t23 55t55 23h12v52q0 37 26.5 63.5t63.5 26.5t63.5 -26.5t26.5 -63.5v-52h30q32 0 55 -23t23 -55t-23 -55
t-55 -23h-30v-39h31q20 0 34 -14t14 -34t-14 -34.5t-34 -14.5h-31q0 -18 10 -30.5t26 -13.5l9 -1q27 -3 44 -25.5t17 -52.5z" />
    <glyph glyph-name="Utilde" unicode="&#x168;" horiz-adv-x="749" 
d="M54 274v301q0 42 30 72t73 30q42 0 72 -30t30 -72v-294q0 -54 29 -84.5t87 -30.5q56 0 85.5 31t29.5 84v294q0 42 30 72t72 30q43 0 73 -30t30 -72v-300q0 -131 -79 -209q-80 -78 -241 -78q-158 0 -239.5 75.5t-81.5 210.5zM350 749q-30 15 -32 15q-14 0 -20 -17
q-12 -30 -44 -30q-19 0 -32 13t-13 32q0 7 1 9q19 90 113 90q38 0 78 -28q30 -15 32 -15q14 0 20 17q12 30 44 30q19 0 32 -13t13 -32q0 -7 -1 -9q-19 -90 -113 -90q-38 0 -78 28z" />
    <glyph glyph-name="utilde" unicode="&#x169;" horiz-adv-x="606" 
d="M556 403v-323q0 -39 -25.5 -66.5t-64.5 -27.5q-32 0 -57 19t-33 49q-59 -66 -166 -66q-78 0 -119 41t-41 109v265q0 37 26.5 63.5t63.5 26.5t63.5 -26.5t26.5 -63.5v-188q0 -68 70 -68q43 0 76 38v218q0 37 26.5 63.5t63.5 26.5t63.5 -26.5t26.5 -63.5zM278 602
q-30 15 -32 15q-14 0 -20 -17q-12 -30 -44 -30q-19 0 -32 13t-13 32q0 7 1 9q19 90 113 90q38 0 78 -28q30 -15 32 -15q14 0 20 17q12 30 44 30q19 0 32 -13t13 -32q0 -7 -1 -9q-19 -90 -113 -90q-38 0 -78 28z" />
    <glyph glyph-name="Umacron" unicode="&#x16a;" horiz-adv-x="749" 
d="M54 274v301q0 42 30 72t73 30q42 0 72 -30t30 -72v-294q0 -54 29 -84.5t87 -30.5q56 0 85.5 31t29.5 84v294q0 42 30 72t72 30q43 0 73 -30t30 -72v-300q0 -131 -79 -209q-80 -78 -241 -78q-158 0 -239.5 75.5t-81.5 210.5zM187 767q0 20 14 34t34 14h280q20 0 33.5 -14
t13.5 -34q0 -21 -13.5 -35t-33.5 -14h-280q-20 0 -34 14t-14 35z" />
    <glyph glyph-name="umacron" unicode="&#x16b;" horiz-adv-x="606" 
d="M556 403v-323q0 -39 -25.5 -66.5t-64.5 -27.5q-32 0 -57 19t-33 49q-59 -66 -166 -66q-78 0 -119 41t-41 109v265q0 37 26.5 63.5t63.5 26.5t63.5 -26.5t26.5 -63.5v-188q0 -68 70 -68q43 0 76 38v218q0 37 26.5 63.5t63.5 26.5t63.5 -26.5t26.5 -63.5zM115 620
q0 20 14 34t34 14h280q20 0 33.5 -14t13.5 -34q0 -21 -13.5 -35t-33.5 -14h-280q-20 0 -34 14t-14 35z" />
    <glyph glyph-name="Ubreve" unicode="&#x16c;" horiz-adv-x="749" 
d="M54 274v301q0 42 30 72t73 30q42 0 72 -30t30 -72v-294q0 -54 29 -84.5t87 -30.5q56 0 85.5 31t29.5 84v294q0 42 30 72t72 30q43 0 73 -30t30 -72v-300q0 -131 -79 -209q-80 -78 -241 -78q-158 0 -239.5 75.5t-81.5 210.5zM232 771q-17 15 -17 37q0 20 14 34.5t34 14.5
q19 0 33 -12q34 -31 79 -31t79 30q14 13 33 13q20 0 34 -14.5t14 -34.5q0 -21 -17 -36q-61 -55 -143 -55q-80 0 -143 54z" />
    <glyph glyph-name="ubreve" unicode="&#x16d;" horiz-adv-x="606" 
d="M556 403v-323q0 -39 -25.5 -66.5t-64.5 -27.5q-32 0 -57 19t-33 49q-59 -66 -166 -66q-78 0 -119 41t-41 109v265q0 37 26.5 63.5t63.5 26.5t63.5 -26.5t26.5 -63.5v-188q0 -68 70 -68q43 0 76 38v218q0 37 26.5 63.5t63.5 26.5t63.5 -26.5t26.5 -63.5zM160 624
q-17 15 -17 37q0 20 14 34.5t34 14.5q19 0 33 -12q34 -31 79 -31t79 30q14 13 33 13q20 0 34 -14.5t14 -34.5q0 -21 -17 -36q-61 -55 -143 -55q-80 0 -143 54z" />
    <glyph glyph-name="Uring" unicode="&#x16e;" horiz-adv-x="749" 
d="M54 274v301q0 42 30 72t73 30q42 0 72 -30t30 -72v-294q0 -54 29 -84.5t87 -30.5q56 0 85.5 31t29.5 84v294q0 42 30 72t72 30q43 0 73 -30t30 -72v-300q0 -131 -79 -209q-80 -78 -241 -78q-158 0 -239.5 75.5t-81.5 210.5zM376 910q46 0 78 -33t32 -79t-32 -79t-78 -33
t-79 33t-33 79t33 79t79 33zM376 833q-14 0 -24.5 -10.5t-10.5 -24.5t10.5 -24.5t24.5 -10.5t24 10.5t10 24.5t-10 24.5t-24 10.5z" />
    <glyph glyph-name="uring" unicode="&#x16f;" horiz-adv-x="606" 
d="M556 403v-323q0 -39 -25.5 -66.5t-64.5 -27.5q-32 0 -57 19t-33 49q-59 -66 -166 -66q-78 0 -119 41t-41 109v265q0 37 26.5 63.5t63.5 26.5t63.5 -26.5t26.5 -63.5v-188q0 -68 70 -68q43 0 76 38v218q0 37 26.5 63.5t63.5 26.5t63.5 -26.5t26.5 -63.5zM304 763
q46 0 78 -33t32 -79t-32 -79t-78 -33t-79 33t-33 79t33 79t79 33zM304 686q-14 0 -24.5 -10.5t-10.5 -24.5t10.5 -24.5t24.5 -10.5t24 10.5t10 24.5t-10 24.5t-24 10.5z" />
    <glyph glyph-name="Uhungarumlaut" unicode="&#x170;" horiz-adv-x="749" 
d="M54 274v301q0 42 30 72t73 30q42 0 72 -30t30 -72v-294q0 -54 29 -84.5t87 -30.5q56 0 85.5 31t29.5 84v294q0 42 30 72t72 30q43 0 73 -30t30 -72v-300q0 -131 -79 -209q-80 -78 -241 -78q-158 0 -239.5 75.5t-81.5 210.5zM274 761q0 11 6 22l35 65q15 26 44 26
q21 0 36.5 -15.5t15.5 -36.5q0 -18 -11 -32l-47 -58q-13 -16 -34 -16q-18 0 -31.5 13.5t-13.5 31.5zM430 761q0 11 6 22l35 65q15 26 44 26q21 0 36.5 -15.5t15.5 -36.5q0 -18 -11 -32l-47 -58q-13 -16 -34 -16q-18 0 -31.5 13.5t-13.5 31.5z" />
    <glyph glyph-name="uhungarumlaut" unicode="&#x171;" horiz-adv-x="606" 
d="M556 403v-323q0 -39 -25.5 -66.5t-64.5 -27.5q-32 0 -57 19t-33 49q-59 -66 -166 -66q-78 0 -119 41t-41 109v265q0 37 26.5 63.5t63.5 26.5t63.5 -26.5t26.5 -63.5v-188q0 -68 70 -68q43 0 76 38v218q0 37 26.5 63.5t63.5 26.5t63.5 -26.5t26.5 -63.5zM202 614
q0 12 6 22l35 65q15 26 44 26q21 0 36.5 -15.5t15.5 -36.5q0 -18 -11 -32l-47 -58q-13 -16 -34 -16q-18 0 -31.5 13.5t-13.5 31.5zM358 614q0 12 6 22l35 65q15 26 44 26q21 0 36.5 -15.5t15.5 -36.5q0 -18 -11 -32l-47 -58q-13 -16 -34 -16q-18 0 -31.5 13.5t-13.5 31.5z
" />
    <glyph glyph-name="Uogonek" unicode="&#x172;" horiz-adv-x="749" 
d="M54 274v301q0 42 30 72t73 30q42 0 72 -30t30 -72v-294q0 -54 29 -84.5t87 -30.5q56 0 85.5 31t29.5 84v294q0 42 30 72t72 30q43 0 73 -30t30 -72v-300q0 -193 -151 -257q-50 -21 -69.5 -38t-19.5 -38q0 -13 9.5 -21t23.5 -8h2q19 1 33 -13.5t14 -33.5q0 -16 -10 -28.5
t-25 -16.5q-22 -7 -70 -7q-52 0 -92 21q-40 19 -40 67q0 56 78 86h-3q-158 0 -239.5 75.5t-81.5 210.5z" />
    <glyph glyph-name="uogonek" unicode="&#x173;" horiz-adv-x="606" 
d="M487 -12q-18 -21 -18 -46q0 -12 9.5 -20.5t22.5 -8.5h2q23 0 36.5 -13.5t13.5 -32.5q0 -37 -35 -46q-27 -7 -72 -7q-52 0 -92 21q-40 19 -40 67q0 66 107 95q-35 19 -45 57q-59 -66 -166 -66q-78 0 -119 41t-41 109v265q0 37 26.5 63.5t63.5 26.5t63.5 -26.5t26.5 -63.5
v-188q0 -68 70 -68q43 0 76 38v218q0 37 26.5 63.5t63.5 26.5t63.5 -26.5t26.5 -63.5v-323q0 -34 -19 -59t-50 -33z" />
    <glyph glyph-name="Wcircumflex" unicode="&#x174;" horiz-adv-x="954" 
d="M542 94l-65 284l-65 -284q-10 -45 -46.5 -74.5t-83.5 -29.5q-45 0 -80.5 27t-47.5 69l-130 456q-4 12 -4 29q0 44 31 75t75 31q38 0 67 -24t37 -60l70 -334l86 347q8 31 33 51t58 20t58 -20t33 -51l86 -347l69 333q8 37 37 61t68 24q44 0 75 -31t31 -75q0 -18 -4 -30
l-130 -455q-12 -42 -47.5 -69t-80.5 -27q-47 0 -83.5 29.5t-46.5 74.5zM533 732l-55 64l-55 -64q-13 -15 -35 -15q-18 0 -31.5 13t-13.5 32q0 12 6 23l28 46q29 42 77 42h48q48 0 77 -42l28 -46q6 -11 6 -23q0 -19 -13.5 -32t-31.5 -13q-22 0 -35 15z" />
    <glyph glyph-name="wcircumflex" unicode="&#x175;" horiz-adv-x="805" 
d="M457 81l-55 189l-55 -189q-11 -40 -45 -65.5t-76 -25.5q-43 0 -77 25.5t-45 65.5l-87 300q-3 11 -3 25q0 36 25.5 61.5t62.5 25.5q31 0 54.5 -19t30.5 -48l50 -209l65 203q10 32 37.5 52.5t62.5 20.5q36 0 63.5 -20.5t37.5 -53.5l64 -202l50 209q7 29 31 48t55 19
q36 0 62 -25.5t26 -62.5q0 -12 -4 -24l-86 -300q-11 -40 -45 -65.5t-77 -25.5t-77 25.5t-45 65.5zM458 585l-55 64l-55 -64q-14 -15 -35 -15q-18 0 -31.5 13t-13.5 32q0 13 6 23l28 46q29 42 77 42h48q48 0 77 -42l28 -46q6 -10 6 -23q0 -19 -13.5 -32t-31.5 -13
q-21 0 -35 15z" />
    <glyph glyph-name="Ycircumflex" unicode="&#x176;" horiz-adv-x="662" 
d="M621 511l-189 -245v-175q0 -41 -29.5 -71t-71.5 -30t-71.5 30t-29.5 71v175l-189 245q-26 34 -26 67q0 41 29 70t69 29q51 0 79 -40l139 -199l139 199q28 40 79 40q40 0 69 -29t29 -70q0 -33 -26 -67zM387 732l-55 64l-55 -64q-13 -15 -35 -15q-18 0 -31.5 13t-13.5 32
q0 12 6 23l28 46q29 42 77 42h48q48 0 77 -42l28 -46q6 -11 6 -23q0 -19 -13.5 -32t-31.5 -13q-22 0 -35 15z" />
    <glyph glyph-name="ycircumflex" unicode="&#x177;" horiz-adv-x="525" 
d="M94 -38l8 1q52 4 59 19l4 10l-151 379q-8 21 -8 34q0 36 25.5 62t62.5 26q28 0 50 -14.5t31 -40.5l83 -245l81 245q9 26 31 40.5t50 14.5q38 0 63.5 -25.5t25.5 -62.5q0 -13 -8 -34l-171 -431q-28 -70 -80.5 -103t-117.5 -33h-11q-41 0 -66 24t-25 60q0 29 18.5 50
t45.5 24zM313 585l-55 64l-55 -64q-14 -15 -35 -15q-18 0 -31.5 13t-13.5 32q0 13 6 23l28 46q29 42 77 42h48q48 0 77 -42l28 -46q6 -10 6 -23q0 -19 -13.5 -32t-31.5 -13q-22 0 -35 15z" />
    <glyph glyph-name="Ydieresis" unicode="&#x178;" horiz-adv-x="662" 
d="M621 511l-189 -245v-175q0 -41 -29.5 -71t-71.5 -30t-71.5 30t-29.5 71v175l-189 245q-26 34 -26 67q0 41 29 70t69 29q51 0 79 -40l139 -199l139 199q28 40 79 40q40 0 69 -29t29 -70q0 -33 -26 -67zM134 785q0 38 25.5 63.5t63.5 25.5q37 0 63 -25.5t26 -63.5
q0 -37 -26 -63t-63 -26q-38 0 -63.5 26t-25.5 63zM350 785q0 37 26 63t63 26q38 0 64 -26t26 -63t-26 -63t-64 -26q-37 0 -63 26t-26 63z" />
    <glyph glyph-name="Zacute" unicode="&#x179;" horiz-adv-x="600" 
d="M26 110q0 37 22 66l242 315h-176q-36 0 -62 25.5t-26 62.5t26 62.5t62 25.5h344q45 0 77 -32t32 -77q0 -37 -22 -66l-243 -316h184q36 0 62 -25.5t26 -62.5t-26 -62.5t-62 -25.5h-351q-45 0 -77 32t-32 78zM304 706q-18 0 -32 13.5t-14 32.5q0 17 10 27l75 90
q16 19 40 19q21 0 37 -15.5t16 -38.5q0 -22 -16 -38l-83 -77q-14 -13 -33 -13z" />
    <glyph glyph-name="zacute" unicode="&#x17a;" horiz-adv-x="486" 
d="M23 88q0 33 21 57l159 182h-102q-32 0 -55 23t-23 55t23 55t55 23h275q35 0 59 -24t24 -59q0 -32 -20 -55l-164 -189h110q32 0 55 -23t23 -55t-23 -55t-55 -23h-275q-36 0 -61.5 25.5t-25.5 62.5zM247 559q-18 0 -32 13.5t-14 32.5q0 17 10 27l75 90q16 19 40 19
q21 0 37 -15.5t16 -38.5q0 -22 -16 -38l-83 -77q-14 -13 -33 -13z" />
    <glyph glyph-name="Zdotaccent" unicode="&#x17b;" horiz-adv-x="600" 
d="M26 110q0 37 22 66l242 315h-176q-36 0 -62 25.5t-26 62.5t26 62.5t62 25.5h344q45 0 77 -32t32 -77q0 -37 -22 -66l-243 -316h184q36 0 62 -25.5t26 -62.5t-26 -62.5t-62 -25.5h-351q-45 0 -77 32t-32 78zM300 875q36 0 62 -26t26 -63t-26 -63t-62 -26q-37 0 -63 26
t-26 63t26 63t63 26z" />
    <glyph glyph-name="zdotaccent" unicode="&#x17c;" horiz-adv-x="486" 
d="M23 88q0 33 21 57l159 182h-102q-32 0 -55 23t-23 55t23 55t55 23h275q35 0 59 -24t24 -59q0 -32 -20 -55l-164 -189h110q32 0 55 -23t23 -55t-23 -55t-55 -23h-275q-36 0 -61.5 25.5t-25.5 62.5zM243 728q36 0 62 -26t26 -63t-26 -63t-62 -26q-37 0 -63 26t-26 63t26 63
t63 26z" />
    <glyph glyph-name="Zcaron" unicode="&#x17d;" horiz-adv-x="600" 
d="M26 110q0 37 22 66l242 315h-176q-36 0 -62 25.5t-26 62.5t26 62.5t62 25.5h344q45 0 77 -32t32 -77q0 -37 -22 -66l-243 -316h184q36 0 62 -25.5t26 -62.5t-26 -62.5t-62 -25.5h-351q-45 0 -77 32t-32 78zM433 828q0 -12 -6 -23l-28 -46q-29 -42 -77 -42h-48
q-48 0 -77 42l-28 46q-6 11 -6 23q0 19 13.5 32t31.5 13q22 0 35 -15l55 -64l55 64q13 15 35 15q18 0 31.5 -13t13.5 -32z" />
    <glyph glyph-name="zcaron" unicode="&#x17e;" horiz-adv-x="486" 
d="M23 88q0 33 21 57l159 182h-102q-32 0 -55 23t-23 55t23 55t55 23h275q35 0 59 -24t24 -59q0 -32 -20 -55l-164 -189h110q32 0 55 -23t23 -55t-23 -55t-55 -23h-275q-36 0 -61.5 25.5t-25.5 62.5zM376 681q0 -13 -6 -23l-28 -46q-29 -42 -77 -42h-48q-48 0 -77 42l-28 46
q-6 10 -6 23q0 19 13.5 32t31.5 13q21 0 35 -15l55 -64l55 64q14 15 35 15q18 0 31.5 -13t13.5 -32z" />
    <glyph glyph-name="longs" unicode="&#x17f;" horiz-adv-x="371" 
d="M382 609q0 -27 -20 -46.5t-47 -18.5h-2q-21 0 -33.5 -12t-12.5 -33v-419q0 -37 -26.5 -63.5t-63.5 -26.5t-63.5 26.5t-26.5 63.5v247h-12q-32 0 -55 23t-23 55t23 55t55 23h12v22q0 74 52 123t132 49q31 0 58 -6q24 -5 38.5 -22t14.5 -40z" />
    <glyph glyph-name="uni018F" unicode="&#x18f;" horiz-adv-x="741" 
d="M723 333q3 -150 -101.5 -248.5t-245.5 -96.5q-88 -2 -159 29t-112.5 81t-63 104.5t-21.5 106.5q0 39 27 63.5t77 24.5h383q-18 48 -58 75.5t-93 27.5q-50 0 -91 -39q-28 -28 -67 -28t-66.5 27.5t-27.5 67.5q0 42 31 70q89 80 221 80q155 2 262 -95t105 -250zM497 241
h-263q11 -35 45.5 -56t81.5 -21q96 0 136 77z" />
    <glyph glyph-name="uni0192" unicode="&#x192;" horiz-adv-x="477" 
d="M334 459l-18 -80h19q32 0 55 -23t23 -55t-23 -55t-55 -23h-54l-70 -315q-8 -34 -35.5 -56.5t-62.5 -22.5q-41 0 -71 29.5t-30 71.5q0 9 3 21l57 279q-47 20 -47 71q0 32 22.5 55t54.5 23l21 102q15 86 82.5 141t153.5 55q33 0 61 -6q31 -7 50.5 -29.5t19.5 -52.5
q0 -38 -26.5 -63.5t-63.5 -24.5h-7h-7q-41 0 -52 -42z" />
    <glyph glyph-name="uni019D" unicode="&#x19d;" horiz-adv-x="750" 
d="M595 677q42 0 71.5 -30t29.5 -71v-464q0 -50 -36 -86t-87 -36q-63 0 -101 53l-216 315v-304q0 -123 -68 -186.5t-190 -63.5h-7q-36 1 -60.5 24t-24.5 58q0 33 23.5 59.5t55.5 26.5h2q30 1 48.5 21.5t18.5 53.5v498q0 53 39 92.5t93 39.5q70 0 108 -57l200 -289v245
q0 41 29.5 71t71.5 30z" />
    <glyph glyph-name="Ohorn" unicode="&#x1a0;" horiz-adv-x="766" 
d="M690 528q58 -85 58 -195q3 -149 -104 -248.5t-261 -96.5q-154 -3 -261 96.5t-104 248.5q-3 148 104 247.5t261 97.5q165 0 270 -105q30 23 42 52q-5 -3 -17 -3q-24 0 -40.5 17t-16.5 44q0 28 20 48.5t48 20.5q33 0 54.5 -23.5t21.5 -61.5q0 -83 -75 -139zM543 333
q0 71 -45 119t-115 48t-115 -48t-45 -119t45 -119t115 -48t115 48t45 119z" />
    <glyph glyph-name="ohorn" unicode="&#x1a1;" horiz-adv-x="577" 
d="M507 399q53 -67 53 -157q0 -106 -75 -180t-197 -74t-196.5 74t-74.5 180t74.5 179.5t196.5 73.5q104 0 177 -55q30 23 42 52q-5 -3 -17 -3q-24 0 -40.5 17t-16.5 44q0 28 20 48.5t48 20.5q33 0 54.5 -23.5t21.5 -61.5q0 -79 -70 -135zM375 242q0 42 -23 68t-64 26
q-39 0 -62.5 -26t-23.5 -68t23.5 -68.5t62.5 -26.5q41 0 64 26t23 69z" />
    <glyph glyph-name="Uhorn" unicode="&#x1af;" horiz-adv-x="749" 
d="M695 567v-292q0 -131 -79 -209q-80 -78 -241 -78q-158 0 -239.5 75.5t-81.5 210.5v301q0 42 30 72t73 30q42 0 72 -30t30 -72v-294q0 -54 29 -84.5t87 -30.5q56 0 85.5 31t29.5 84v294q0 42 30 72t72 30q58 0 89 -50q37 24 48 56q-5 -3 -17 -3q-24 0 -40.5 17t-16.5 44
q0 28 20 48.5t48 20.5q33 0 54.5 -23.5t21.5 -61.5q0 -46 -27 -89t-77 -69z" />
    <glyph glyph-name="uhorn" unicode="&#x1b0;" horiz-adv-x="606" 
d="M555 417q1 -3 1 -14v-323q0 -39 -25.5 -66.5t-64.5 -27.5q-32 0 -57 19t-33 49q-59 -66 -166 -66q-78 0 -119 41t-41 109v265q0 37 26.5 63.5t63.5 26.5t63.5 -26.5t26.5 -63.5v-188q0 -68 70 -68q43 0 76 38v218q0 37 26.5 63.5t63.5 26.5q34 0 60 -23q24 21 31 42
q-5 -3 -17 -3q-24 0 -40.5 17t-16.5 44q0 28 20 48.5t48 20.5q33 0 54.5 -23.5t21.5 -61.5q0 -83 -72 -137z" />
    <glyph glyph-name="Gcaron" unicode="&#x1e6;" horiz-adv-x="726" 
d="M690 308v-108q0 -85 -56 -129q-106 -83 -249 -83q-100 -1 -184.5 41.5t-134.5 122.5t-48 181q-2 153 105 250t262 95q123 0 212 -71q35 -28 35 -74q0 -39 -27.5 -66.5t-66.5 -27.5q-38 0 -63 24q-40 37 -90 37q-70 0 -116 -48t-46 -119t46 -119t116 -48q69 0 104 30v24
h-51q-34 0 -58.5 25t-24.5 60t25 63t58 28h168q34 0 59 -26.5t25 -61.5zM518 828q0 -12 -6 -23l-28 -46q-29 -42 -77 -42h-48q-48 0 -77 42l-28 46q-6 11 -6 23q0 19 13.5 32t31.5 13q21 0 35 -15l55 -64l55 64q14 15 35 15q18 0 31.5 -13t13.5 -32z" />
    <glyph glyph-name="gcaron" unicode="&#x1e7;" horiz-adv-x="595" 
d="M545 403v-351q0 -140 -88 -194q-87 -54 -204 -54q-86 0 -161 35q-42 20 -42 66q0 31 21.5 52.5t52.5 21.5q18 0 31 -7q45 -21 98 -21q43 0 77 22q35 23 35 79v26q-57 -65 -136 -65q-94 0 -153 62.5t-59 178.5q0 115 58.5 178t153.5 63q83 0 136 -63q7 27 33 44t57 17
q37 0 63.5 -26.5t26.5 -63.5zM365 203v102q-12 14 -33 22.5t-41 8.5q-41 0 -65.5 -20.5t-24.5 -61.5t24.5 -61.5t65.5 -20.5q20 0 41 8.5t33 22.5zM434 681q0 -13 -6 -23l-28 -46q-29 -42 -77 -42h-48q-48 0 -77 42l-28 46q-6 10 -6 23q0 19 13.5 32t31.5 13q22 0 35 -15
l55 -64l55 64q14 15 35 15q18 0 31.5 -13t13.5 -32z" />
    <glyph glyph-name="uni01EA" unicode="&#x1ea;" horiz-adv-x="766" 
d="M414 -11q-19 -22 -19 -47q0 -12 9.5 -20.5t22.5 -8.5h2q23 0 36.5 -13.5t13.5 -32.5q0 -37 -35 -46q-27 -7 -72 -7q-52 0 -92 21q-40 19 -40 67q0 58 87 90q-135 17 -222 111t-87 230q-3 148 104 247.5t261 97.5q154 2 261 -97.5t104 -247.5q0 -143 -94.5 -239
t-239.5 -105zM383 166q70 0 115 48t45 119t-45 119t-115 48t-115 -48t-45 -119t45 -119t115 -48z" />
    <glyph glyph-name="uni01EB" unicode="&#x1eb;" horiz-adv-x="577" 
d="M307 -11q-18 -23 -18 -47q0 -12 9.5 -20.5t22.5 -8.5h2q23 0 36.5 -13.5t13.5 -32.5q0 -37 -35 -46q-27 -7 -72 -7q-52 0 -92 21q-40 19 -40 67q0 62 93 91q-96 18 -153 88t-57 161q0 106 74.5 179.5t196.5 73.5t197 -73.5t75 -179.5q0 -102 -69.5 -174.5t-183.5 -78.5z
M202 242q0 -42 23.5 -68.5t62.5 -26.5q41 0 64 26t23 69q0 42 -23 68t-64 26q-39 0 -62.5 -26t-23.5 -68z" />
    <glyph glyph-name="Aringacute" unicode="&#x1fa;" horiz-adv-x="690" 
d="M678 91q0 -42 -29.5 -71.5t-71.5 -29.5q-33 0 -60.5 20.5t-36.5 51.5l-11 36h-248l-11 -36q-9 -31 -36.5 -51.5t-60.5 -20.5q-42 0 -71.5 29.5t-29.5 71.5q0 19 6 35l161 436q19 51 64.5 83t101.5 32t101.5 -32t64.5 -83l161 -436q6 -16 6 -35zM274 266h142l-71 223z
M346 910q46 0 78 -33t32 -79t-32 -79t-78 -33t-79 33t-33 79t33 79t79 33zM346 833q-14 0 -24.5 -10.5t-10.5 -24.5t10.5 -24.5t24.5 -10.5t24 10.5t10 24.5t-10 24.5t-24 10.5zM349 918q-18 0 -32 13.5t-14 32.5q0 17 10 27l75 90q16 19 40 19q21 0 37 -15.5t16 -38.5
q0 -22 -16 -38l-83 -77q-14 -13 -33 -13z" />
    <glyph glyph-name="aringacute" unicode="&#x1fb;" horiz-adv-x="559" 
d="M509 292v-206q0 -40 -25.5 -68t-64.5 -28q-29 0 -53.5 16t-35.5 42q-20 -26 -61 -43t-86 -17q-64 0 -115 42.5t-51 116.5q0 81 49 115t117 34q48 0 87.5 -14t58.5 -39v55q0 27 -24 43.5t-66 16.5q-47 0 -92 -22q-12 -6 -26 -6q-27 0 -46 19t-19 46q0 39 36 58
q84 42 180 42q105 0 170 -46q67 -46 67 -157zM329 131v27q-19 26 -71 26q-63 0 -63 -40q0 -39 63 -39q52 0 71 26zM278 763q46 0 78 -33t32 -79t-32 -79t-78 -33t-79 33t-33 79t33 79t79 33zM278 686q-14 0 -24.5 -10.5t-10.5 -24.5t10.5 -24.5t24.5 -10.5t24 10.5t10 24.5
t-10 24.5t-24 10.5zM281 771q-18 0 -32 13.5t-14 32.5q0 17 10 27l75 90q16 19 40 19q21 0 37 -15.5t16 -38.5q0 -22 -16 -38l-83 -77q-14 -13 -33 -13z" />
    <glyph glyph-name="AEacute" unicode="&#x1fc;" horiz-adv-x="969" 
d="M949 84q0 -34 -24.5 -59t-59.5 -25h-325q-49 0 -77 25.5t-30 72.5h-206l-31 -58q-11 -22 -34 -36t-49 -14q-39 0 -66 27.5t-27 65.5q0 26 13 48l274 463q44 73 128 73h430q35 0 59.5 -24.5t24.5 -59.5q0 -34 -24.5 -59t-59.5 -25h-230v-78h223q35 0 59.5 -24.5
t24.5 -59.5q0 -34 -24.5 -59t-59.5 -25h-223v-85h230q35 0 59.5 -24.5t24.5 -59.5zM433 489l-118 -223h118v223zM536 706q-18 0 -32 13.5t-14 32.5q0 17 10 27l75 90q16 19 40 19q21 0 37 -15.5t16 -38.5q0 -22 -16 -38l-83 -77q-14 -13 -33 -13z" />
    <glyph glyph-name="aeacute" unicode="&#x1fd;" horiz-adv-x="851" 
d="M624 129q30 0 60 12q15 5 26 5q29 0 49 -20t20 -49q0 -22 -12.5 -39.5t-32.5 -25.5q-62 -24 -131 -24q-105 0 -175 65q-78 -65 -198 -65q-97 0 -155 40t-58 116q0 75 47 116t122 41q48 0 89.5 -14t62.5 -38v49q0 27 -25 43t-69 16q-49 0 -96 -22q-12 -6 -27 -6
q-27 0 -46 19.5t-19 46.5q0 39 36 58q84 42 180 42q103 0 156 -59q67 59 170 59q98 0 169.5 -66t71.5 -155q0 -48 -25.5 -68t-81.5 -20h-212q28 -57 104 -57zM592 358q-59 0 -74 -58h150q-13 58 -76 58zM262 184q-28 0 -47.5 -9t-19.5 -26q0 -16 16.5 -25t39.5 -9
q34 0 60.5 12t26.5 27v3q-20 27 -76 27zM431 559q-18 0 -32 13.5t-14 32.5q0 17 10 27l75 90q16 19 40 19q21 0 37 -15.5t16 -38.5q0 -22 -16 -38l-83 -77q-14 -13 -33 -13z" />
    <glyph glyph-name="Oslashacute" unicode="&#x1fe;" horiz-adv-x="766" 
d="M748 333q3 -149 -104 -248.5t-261 -96.5q-91 0 -170 36l-34 -48q-17 -24 -43 -24q-20 0 -35.5 14.5t-15.5 34.5q0 17 12 33l32 44q-111 98 -111 255q-3 148 104 247.5t261 97.5q81 0 158 -30l31 43q16 24 42 24q21 0 36 -14.5t15 -35.5q0 -17 -12 -33l-26 -36
q121 -100 121 -263zM247 241l182 253q-21 6 -46 6q-70 0 -115 -48t-45 -119q0 -51 24 -92zM543 333q0 60 -31 103l-188 -260q29 -10 59 -10q70 0 115 48t45 119zM387 706q-18 0 -32 13.5t-14 32.5q0 17 10 27l75 90q16 19 40 19q21 0 37 -15.5t16 -38.5q0 -22 -16 -38
l-83 -77q-14 -13 -33 -13z" />
    <glyph glyph-name="oslashacute" unicode="&#x1ff;" horiz-adv-x="577" 
d="M560 242q0 -106 -75 -180t-197 -74q-65 0 -120 23l-29 -41q-12 -18 -33 -18q-15 0 -26.5 10.5t-11.5 24.5q0 12 8 23l29 39q-88 75 -88 193q0 106 74.5 179.5t196.5 73.5q64 0 123 -24l30 42q12 18 32 18q15 0 25.5 -10t10.5 -25q0 -13 -9 -25l-27 -38q87 -73 87 -191z
M211 196l100 138q-18 2 -23 2q-39 0 -62.5 -26t-23.5 -68q0 -26 9 -46zM375 242q0 22 -8 44l-99 -137q16 -2 20 -2q41 0 64 26t23 69zM292 559q-18 0 -32 13.5t-14 32.5q0 17 10 27l75 90q16 19 40 19q21 0 37 -15.5t16 -38.5q0 -22 -16 -38l-83 -77q-14 -13 -33 -13z" />
    <glyph glyph-name="uni0218" unicode="&#x218;" horiz-adv-x="613" 
d="M29 122q0 38 27 64.5t64 26.5q26 0 46 -12q73 -43 157 -43q32 0 53 10.5t21 28.5q0 19 -21.5 30.5t-72.5 20.5q-80 14 -138 32q-54 18 -97 61t-43 120q0 92 76 154t211 62q118 0 208 -41q53 -25 53 -82q0 -37 -26.5 -63.5t-63.5 -26.5q-19 0 -40 8q-91 35 -142 35
q-71 0 -71 -35q0 -19 20.5 -28.5t77.5 -18.5q82 -15 132 -32q57 -18 99 -60t42 -113q0 -110 -76.5 -171t-211.5 -61q-137 0 -236 54q-48 26 -48 80zM254 -267q0 16 12 25q31 25 42 55q-8 -3 -19 -3q-28 0 -46.5 19.5t-18.5 50.5q0 32 22.5 55t54.5 23q38 0 63 -26.5
t25 -69.5q0 -91 -82 -156q-8 -7 -20 -7q-14 0 -23.5 10t-9.5 24z" />
    <glyph glyph-name="uni0219" unicode="&#x219;" horiz-adv-x="490" 
d="M26 92q0 29 21 50t50 21q15 0 30 -7q75 -34 128 -34q48 0 48 23q0 11 -15 17t-53 11q-58 7 -101 20q-105 31 -105 137q0 69 59 117t157 48q81 0 154 -33q40 -18 40 -60q0 -27 -19.5 -46.5t-46.5 -19.5q-16 0 -28 6q-48 24 -99 24q-45 0 -45 -21q0 -18 62 -27
q63 -9 103 -22q48 -13 78.5 -48.5t30.5 -93.5q0 -73 -62.5 -119.5t-166.5 -46.5q-95 0 -178 39q-18 8 -30 26t-12 39zM197 -267q0 16 12 25q31 25 42 55q-8 -3 -19 -3q-28 0 -46.5 19.5t-18.5 50.5q0 32 22.5 55t54.5 23q38 0 63 -26.5t25 -69.5q0 -91 -82 -156
q-8 -7 -20 -7q-14 0 -23.5 10t-9.5 24z" />
    <glyph glyph-name="uni021A" unicode="&#x21a;" horiz-adv-x="595" 
d="M197 91v400h-101q-36 0 -62 25.5t-26 62.5t26 62.5t62 25.5h403q36 0 62 -25.5t26 -62.5t-26 -62.5t-62 -25.5h-100v-400q0 -41 -29.5 -71t-71.5 -30t-71.5 30t-29.5 71zM250 -267q0 16 12 25q31 25 42 55q-7 -3 -19 -3q-28 0 -46.5 19.5t-18.5 50.5q0 32 22.5 55
t54.5 23q38 0 63 -26.5t25 -69.5q0 -91 -82 -156q-8 -7 -20 -7q-14 0 -23.5 10t-9.5 24z" />
    <glyph glyph-name="uni021B" unicode="&#x21b;" horiz-adv-x="382" 
d="M373 68q0 -27 -17 -47.5t-44 -26.5q-26 -6 -59 -6q-81 0 -123.5 38.5t-42.5 113.5v187h-12q-32 0 -55 23t-23 55t23 55t55 23h12v52q0 37 26.5 63.5t63.5 26.5t63.5 -26.5t26.5 -63.5v-52h30q32 0 55 -23t23 -55t-23 -55t-55 -23h-30v-135q0 -18 10 -31t26 -14l9 -1
q27 -3 44 -25.5t17 -52.5zM141 -267q0 16 12 25q31 25 42 55q-7 -3 -19 -3q-28 0 -46.5 19.5t-18.5 50.5q0 32 22.5 55t54.5 23q38 0 63 -26.5t25 -69.5q0 -91 -82 -156q-8 -7 -20 -7q-14 0 -23.5 10t-9.5 24z" />
    <glyph glyph-name="uni0232" unicode="&#x232;" horiz-adv-x="662" 
d="M621 511l-189 -245v-175q0 -41 -29.5 -71t-71.5 -30t-71.5 30t-29.5 71v175l-189 245q-26 34 -26 67q0 41 29 70t69 29q51 0 79 -40l139 -199l139 199q28 40 79 40q40 0 69 -29t29 -70q0 -33 -26 -67zM143 767q0 20 14 34t34 14h280q20 0 33.5 -14t13.5 -34
q0 -21 -13.5 -35t-33.5 -14h-280q-20 0 -34 14t-14 35z" />
    <glyph glyph-name="uni0233" unicode="&#x233;" horiz-adv-x="525" 
d="M94 -38l8 1q52 4 59 19l4 10l-151 379q-8 21 -8 34q0 36 25.5 62t62.5 26q28 0 50 -14.5t31 -40.5l83 -245l81 245q9 26 31 40.5t50 14.5q38 0 63.5 -25.5t25.5 -62.5q0 -13 -8 -34l-171 -431q-28 -70 -80.5 -103t-117.5 -33h-11q-41 0 -66 24t-25 60q0 29 18.5 50
t45.5 24zM69 620q0 20 14 34t34 14h280q20 0 33.5 -14t13.5 -34q0 -21 -13.5 -35t-33.5 -14h-280q-20 0 -34 14t-14 35z" />
    <glyph glyph-name="uni0237" unicode="&#x237;" horiz-adv-x="280" 
d="M46 -196h-5q-41 0 -65.5 22t-24.5 61q0 24 13.5 41.5t34.5 21.5l7 1q44 9 44 70v382q0 37 26.5 63.5t63.5 26.5t63.5 -26.5t26.5 -63.5v-382q0 -98 -49 -157.5t-135 -59.5z" />
    <glyph glyph-name="uni0259" unicode="&#x259;" horiz-adv-x="543" 
d="M263 -12q-103 0 -174 65t-71 157q0 53 22 70t79 17h221q-9 26 -36.5 43.5t-67.5 17.5q-32 0 -74 -15q-8 -4 -23 -4q-28 0 -48 19.5t-20 47.5q0 45 43 64q66 25 143 25q117 0 193 -69.5t76 -184.5q0 -107 -74.5 -180t-188.5 -73zM342 183h-159q14 -58 80 -58q64 0 79 58z
" />
    <glyph glyph-name="uni0272" unicode="&#x272;" horiz-adv-x="607" 
d="M557 343v-263q0 -37 -26.5 -63.5t-63.5 -26.5t-63.5 26.5t-26.5 63.5v187q0 69 -70 69q-44 0 -77 -38v-277q0 -101 -50.5 -158.5t-148.5 -58.5h-2q-32 0 -55 21.5t-23 55.5q0 27 16 48.5t38 21.5h3q18 0 30 19t12 51l-2 382q0 39 26.5 66.5t65.5 27.5q32 0 57 -19.5
t33 -49.5q60 67 166 67q78 0 119.5 -41.5t41.5 -110.5z" />
    <glyph glyph-name="uni02B0" unicode="&#x2b0;" horiz-adv-x="424" 
d="M257 379v121q0 41 -45 41q-25 0 -46 -21v-141q0 -27 -17.5 -45t-44.5 -18t-45.5 18.5t-18.5 44.5v328q0 26 18.5 44.5t44.5 18.5t44.5 -18.5t18.5 -44.5v-101q38 42 110 42q53 0 80.5 -27t27.5 -73v-169q0 -26 -18.5 -44.5t-45.5 -18.5q-26 0 -44.5 18.5t-18.5 44.5z" />
    <glyph glyph-name="uni02BC" unicode="&#x2bc;" horiz-adv-x="281" 
d="M123 333q-19 0 -32 13t-13 31q0 21 15 34q42 37 54 72q-9 -4 -26 -4q-37 0 -62 26t-25 67q0 43 31 74t73 31q49 0 82.5 -35.5t33.5 -93.5q0 -114 -102 -204q-14 -11 -29 -11z" />
    <glyph glyph-name="circumflex" unicode="&#x2c6;" horiz-adv-x="335" 
d="M222 565l-55 64l-55 -64q-14 -15 -35 -15q-18 0 -31.5 13t-13.5 32q0 13 6 23l28 46q29 42 77 42h48q48 0 77 -42l28 -46q6 -10 6 -23q0 -19 -13.5 -32t-31.5 -13q-21 0 -35 15z" />
    <glyph glyph-name="caron" unicode="&#x2c7;" horiz-adv-x="335" 
d="M302 661q0 -13 -6 -23l-28 -46q-29 -42 -77 -42h-48q-48 0 -77 42l-28 46q-6 10 -6 23q0 19 13.5 32t31.5 13q21 0 35 -15l55 -64l55 64q14 15 35 15q18 0 31.5 -13t13.5 -32z" />
    <glyph glyph-name="uni02C9" unicode="&#x2c9;" horiz-adv-x="363" 
d="M-6 640q0 20 14 34t34 14h280q20 0 33.5 -14t13.5 -34q0 -21 -13.5 -35t-33.5 -14h-280q-20 0 -34 14t-14 35z" />
    <glyph glyph-name="uni02CB" unicode="&#x2cb;" horiz-adv-x="275" 
d="M159 552l-83 77q-16 16 -16 38q0 23 16 38.5t37 15.5q24 0 40 -19l75 -90q10 -10 10 -27q0 -19 -14 -32.5t-32 -13.5q-19 0 -33 13z" />
    <glyph glyph-name="breve" unicode="&#x2d8;" horiz-adv-x="351" 
d="M33 604q-17 15 -17 37q0 20 14 34.5t34 14.5t33 -12q34 -31 79 -31q44 0 79 30q14 13 33 13q20 0 34 -14.5t14 -34.5q0 -21 -17 -36q-61 -55 -143 -55q-80 0 -143 54z" />
    <glyph glyph-name="dotaccent" unicode="&#x2d9;" horiz-adv-x="187" 
d="M94 708q36 0 62 -26t26 -63t-26 -63t-62 -26q-37 0 -63 26t-26 63t26 63t63 26z" />
    <glyph glyph-name="ring" unicode="&#x2da;" horiz-adv-x="262" 
d="M132 743q46 0 78 -33t32 -79t-32 -79t-78 -33t-79 33t-33 79t33 79t79 33zM132 666q-14 0 -24.5 -10.5t-10.5 -24.5t10.5 -24.5t24.5 -10.5t24 10.5t10 24.5t-10 24.5t-24 10.5z" />
    <glyph glyph-name="ogonek" unicode="&#x2db;" horiz-adv-x="252" 
d="M5 -98q0 69 117 98q9 1 20 6q56 14 63 14q4 0 4 -2t-9 -9q-40 -31 -40 -67q0 -12 9.5 -20.5t22.5 -8.5h2q23 0 36.5 -13.5t13.5 -32.5q0 -37 -35 -46q-27 -7 -72 -7q-51 0 -92 21q-40 19 -40 67z" />
    <glyph glyph-name="tilde" unicode="&#x2dc;" horiz-adv-x="341" 
d="M145 582q-30 15 -32 15q-14 0 -20 -17q-12 -30 -44 -30q-19 0 -32 13t-13 32q0 7 1 9q19 90 113 90q38 0 78 -28q30 -15 32 -15q14 0 20 17q12 30 44 30q19 0 32 -13t13 -32q0 -7 -1 -9q-19 -90 -113 -90q-38 0 -78 28z" />
    <glyph glyph-name="hungarumlaut" unicode="&#x2dd;" horiz-adv-x="371" 
d="M28 594q0 12 6 22l35 65q15 26 44 26q21 0 36.5 -15.5t15.5 -36.5q0 -18 -11 -32l-47 -58q-13 -16 -34 -16q-18 0 -31.5 13.5t-13.5 31.5zM184 594q0 12 6 22l35 65q15 26 44 26q21 0 36.5 -15.5t15.5 -36.5q0 -18 -11 -32l-47 -58q-13 -16 -34 -16q-18 0 -31.5 13.5
t-13.5 31.5z" />
    <glyph glyph-name="gravecomb" unicode="&#x300;" horiz-adv-x="0" 
d="M-116 552l-83 77q-16 16 -16 38q0 23 16 38.5t37 15.5q24 0 40 -19l75 -90q10 -10 10 -27q0 -19 -14 -32.5t-32 -13.5q-19 0 -33 13z" />
    <glyph glyph-name="acutecomb" unicode="&#x301;" horiz-adv-x="0" 
d="M-192 539q-18 0 -32 13.5t-14 32.5q0 17 10 27l75 90q16 19 40 19q21 0 37 -15.5t16 -38.5q0 -22 -16 -38l-83 -77q-14 -13 -33 -13z" />
    <glyph glyph-name="uni0302" unicode="&#x302;" horiz-adv-x="0" 
d="M-113 565l-55 64l-55 -64q-14 -15 -35 -15q-18 0 -31.5 13t-13.5 32q0 13 6 23l28 46q29 42 77 42h48q48 0 77 -42l28 -46q6 -10 6 -23q0 -19 -13.5 -32t-31.5 -13q-22 0 -35 15z" />
    <glyph glyph-name="tildecomb" unicode="&#x303;" horiz-adv-x="0" 
d="M-196 582q-30 15 -32 15q-14 0 -20 -17q-12 -30 -44 -30q-19 0 -32 13t-13 32q0 7 1 9q19 90 113 90q38 0 78 -28q30 -15 32 -15q14 0 20 17q12 30 44 30q19 0 32 -13t13 -32q0 -7 -1 -9q-19 -90 -113 -90q-38 0 -78 28z" />
    <glyph glyph-name="uni0304" unicode="&#x304;" horiz-adv-x="0" 
d="M-369 600q0 20 14 34t34 14h280q20 0 33.5 -14t13.5 -34q0 -21 -13.5 -35t-33.5 -14h-280q-20 0 -34 14t-14 35z" />
    <glyph glyph-name="uni0306" unicode="&#x306;" horiz-adv-x="0" 
d="M-318 604q-17 15 -17 37q0 20 14 34.5t34 14.5q19 0 33 -12q34 -31 79 -31t79 30q14 13 33 13q20 0 34 -14.5t14 -34.5q0 -21 -17 -36q-61 -55 -143 -55q-80 0 -143 54z" />
    <glyph glyph-name="uni0307" unicode="&#x307;" horiz-adv-x="0" 
d="M-93 708q36 0 62 -26t26 -63t-26 -63t-62 -26q-37 0 -63 26t-26 63t26 63t63 26z" />
    <glyph glyph-name="uni0308" unicode="&#x308;" horiz-adv-x="0" 
d="M-414 618q0 38 25.5 63.5t63.5 25.5q37 0 63 -25.5t26 -63.5q0 -37 -26 -63t-63 -26q-38 0 -63.5 26t-25.5 63zM-198 618q0 37 26 63t63 26q38 0 64 -26t26 -63t-26 -63t-64 -26q-37 0 -63 26t-26 63z" />
    <glyph glyph-name="uni0309" unicode="&#x309;" horiz-adv-x="0" 
d="M-85 585q0 8 1 10q2 16 2 19q0 15 -8.5 23t-21.5 8q-16 0 -26 -13q-14 -18 -36 -18q-14 0 -24.5 11t-9.5 28q0 27 27 44q28 19 69 19q51 0 83 -25t32 -72q0 -17 -8 -43q-9 -26 -38 -26q-17 0 -29 9.5t-13 25.5z" />
    <glyph glyph-name="uni030A" unicode="&#x30a;" horiz-adv-x="0" 
d="M-130 743q46 0 78 -33t32 -79t-32 -79t-78 -33t-79 33t-33 79t33 79t79 33zM-130 666q-14 0 -24.5 -10.5t-10.5 -24.5t10.5 -24.5t24.5 -10.5t24 10.5t10 24.5t-10 24.5t-24 10.5z" />
    <glyph glyph-name="uni030B" unicode="&#x30b;" horiz-adv-x="0" 
d="M-343 594q0 12 6 22l35 65q15 26 44 26q21 0 36.5 -15.5t15.5 -36.5q0 -18 -11 -32l-47 -58q-13 -16 -34 -16q-18 0 -31.5 13.5t-13.5 31.5zM-187 594q0 12 6 22l35 65q15 26 44 26q21 0 36.5 -15.5t15.5 -36.5q0 -18 -11 -32l-47 -58q-13 -16 -34 -16q-18 0 -31.5 13.5
t-13.5 31.5z" />
    <glyph glyph-name="uni030C" unicode="&#x30c;" horiz-adv-x="0" 
d="M-33 661q0 -13 -6 -23l-28 -46q-29 -42 -77 -42h-48q-48 0 -77 42l-28 46q-6 10 -6 23q0 19 13.5 32t31.5 13q21 0 35 -15l55 -64l55 64q14 15 35 15q18 0 31.5 -13t13.5 -32z" />
    <glyph glyph-name="dotbelowcomb" unicode="&#x323;" horiz-adv-x="0" 
d="M-93 -32q36 0 62 -26t26 -63t-26 -63t-62 -26q-37 0 -63 26t-26 63t26 63t63 26z" />
    <glyph glyph-name="uni0326" unicode="&#x326;" horiz-adv-x="0" 
d="M-190 -267q0 16 12 25q31 25 42 55q-8 -3 -19 -3q-28 0 -46.5 19.5t-18.5 50.5q0 32 22.5 55t54.5 23q38 0 63 -26.5t25 -69.5q0 -91 -82 -156q-8 -7 -20 -7q-14 0 -23.5 10t-9.5 24z" />
    <glyph glyph-name="uni0327" unicode="&#x327;" horiz-adv-x="0" 
d="M-210 -182q-24 9 -24 34q0 14 10.5 25t25.5 11q9 0 16 -4q29 -16 59 -16q42 0 42 24q0 17 -21 17q-9 0 -16 -4q-10 -6 -22 -6q-16 0 -28 13t-12 31l2 12l21 56h80l-25 -58q15 9 34 9q28 0 48 -20.5t20 -52.5q0 -40 -33.5 -64.5t-84.5 -24.5q-52 0 -92 18z" />
    <glyph glyph-name="uni0328" unicode="&#x328;" horiz-adv-x="0" 
d="M-247 -98q0 69 117 98q9 1 20 6q56 14 63 14q4 0 4 -2t-9 -9q-40 -31 -40 -67q0 -12 9.5 -20.5t22.5 -8.5h2q23 0 36.5 -13.5t13.5 -32.5q0 -37 -35 -46q-27 -7 -72 -7q-51 0 -92 21q-40 19 -40 67z" />
    <glyph glyph-name="uni037E" unicode="&#x37e;" horiz-adv-x="281" 
d="M34 384q0 43 31 74q32 32 76 32q43 0 75 -32t32 -74q0 -44 -32 -76t-75 -32t-75 32t-32 76zM123 -141q-19 0 -32 13t-13 31q0 21 15 34q42 37 54 72q-9 -4 -26 -4q-37 0 -62 26t-25 67q0 43 31 74t73 31q49 0 82.5 -35.5t33.5 -93.5q0 -114 -102 -204q-14 -11 -29 -11z
" />
    <glyph glyph-name="tonos" unicode="&#x384;" horiz-adv-x="166" 
d="M9 575l14 140q2 22 18.5 37.5t38.5 15.5q24 0 41.5 -17t17.5 -41q0 -10 -3 -17l-49 -134q-12 -30 -39 -30q-17 0 -29 14t-10 32z" />
    <glyph glyph-name="dieresistonos" unicode="&#x385;" horiz-adv-x="520" 
d="M206 575l14 140q2 22 18.5 37.5t38.5 15.5q24 0 41.5 -17t17.5 -41q0 -10 -3 -17l-49 -134q-12 -30 -39 -30q-17 0 -29 14t-10 32zM5 618q0 38 26 63.5t63 25.5q38 0 63.5 -25.5t25.5 -63.5q0 -37 -25.5 -63t-63.5 -26q-37 0 -63 26t-26 63zM336 618q0 37 26 63t63 26
q38 0 64 -26t26 -63t-26 -63t-64 -26q-37 0 -63 26t-26 63z" />
    <glyph glyph-name="Alphatonos" unicode="&#x386;" horiz-adv-x="690" 
d="M678 91q0 -42 -29.5 -71.5t-71.5 -29.5q-33 0 -60.5 20.5t-36.5 51.5l-11 36h-248l-11 -36q-9 -31 -36.5 -51.5t-60.5 -20.5q-42 0 -71.5 29.5t-29.5 71.5q0 19 6 35l161 436q19 51 64.5 83t101.5 32t101.5 -32t64.5 -83l161 -436q6 -16 6 -35zM274 266h142l-71 223z
M6 484l14 140q2 22 18.5 37.5t38.5 15.5q24 0 41.5 -17t17.5 -41q0 -9 -3 -17l-49 -134q-12 -30 -39 -30q-17 0 -29 14t-10 32z" />
    <glyph glyph-name="Epsilontonos" unicode="&#x388;" horiz-adv-x="676" 
d="M134 107v453q0 52 27.5 79.5t79.5 27.5h325q35 0 59.5 -24.5t24.5 -59.5q0 -34 -24.5 -59t-59.5 -25h-230v-78h223q35 0 59.5 -24.5t24.5 -59.5q0 -34 -24.5 -59t-59.5 -25h-223v-85h230q35 0 59.5 -24.5t24.5 -59.5q0 -34 -24.5 -59t-59.5 -25h-325q-52 0 -79.5 27.5
t-27.5 79.5zM-18 484l14 140q2 22 18.5 37.5t38.5 15.5q24 0 41.5 -17t17.5 -41q0 -9 -3 -17l-49 -134q-12 -30 -39 -30q-17 0 -29 14t-10 32z" />
    <glyph glyph-name="Etatonos" unicode="&#x389;" horiz-adv-x="831" 
d="M575 91v164h-239v-164q0 -41 -29.5 -71t-71.5 -30t-71.5 30t-29.5 71v485q0 41 29.5 71t71.5 30t71.5 -30t29.5 -71v-145h239v145q0 41 29.5 71t71.5 30t71.5 -30t29.5 -71v-485q0 -41 -29.5 -71t-71.5 -30t-71.5 30t-29.5 71zM-18 484l14 140q2 22 18.5 37.5t38.5 15.5
q24 0 41.5 -17t17.5 -41q0 -9 -3 -17l-49 -134q-12 -30 -39 -30q-17 0 -29 14t-10 32z" />
    <glyph glyph-name="Iotatonos" unicode="&#x38a;" horiz-adv-x="390" 
d="M134 91v485q0 41 29.5 71t71.5 30t71.5 -30t29.5 -71v-485q0 -41 -29.5 -71t-71.5 -30t-71.5 30t-29.5 71zM-18 484l14 140q2 22 18.5 37.5t38.5 15.5q24 0 41.5 -17t17.5 -41q0 -9 -3 -17l-49 -134q-12 -30 -39 -30q-17 0 -29 14t-10 32z" />
    <glyph glyph-name="Omicrontonos" unicode="&#x38c;" horiz-adv-x="828" 
d="M445 678q154 2 261 -97.5t104 -247.5q3 -149 -104 -248.5t-261 -96.5q-154 -3 -261 96.5t-104 248.5q-3 148 104 247.5t261 97.5zM445 500q-70 0 -115 -48t-45 -119t45 -119t115 -48t115 48t45 119t-45 119t-115 48zM-18 484l14 140q2 22 18.5 37.5t38.5 15.5
q24 0 41.5 -17t17.5 -41q0 -9 -3 -17l-49 -134q-12 -30 -39 -30q-17 0 -29 14t-10 32z" />
    <glyph glyph-name="Upsilontonos" unicode="&#x38e;" horiz-adv-x="774" 
d="M731 511l-189 -245v-175q0 -41 -29.5 -71t-71.5 -30t-71.5 30t-29.5 71v175l-189 245q-26 34 -26 67q0 41 29 70t69 29q51 0 79 -40l139 -199l139 199q28 40 79 40q40 0 69 -29t29 -70q0 -33 -26 -67zM-20 484l14 140q2 22 18.5 37.5t38.5 15.5q24 0 41.5 -17t17.5 -41
q0 -9 -3 -17l-49 -134q-12 -30 -39 -30q-17 0 -29 14t-10 32z" />
    <glyph glyph-name="Omegatonos" unicode="&#x38f;" horiz-adv-x="838" 
d="M90 383q0 136 103 215.5t262 79.5q160 0 262.5 -79.5t102.5 -215.5q0 -114 -119 -207h24q36 0 62 -25.5t26 -62.5t-26 -62.5t-62 -25.5h-124q-44 0 -75 31t-31 75q0 60 48 91q72 46 72 138q0 64 -39.5 114t-120.5 50t-120.5 -50t-39.5 -114q0 -92 72 -138q48 -31 48 -91
q0 -44 -31 -75t-75 -31h-124q-36 0 -62 25.5t-26 62.5t26 62.5t62 25.5h25q-120 93 -120 207zM-18 484l14 140q2 22 18.5 37.5t38.5 15.5q24 0 41.5 -17t17.5 -41q0 -9 -3 -17l-49 -134q-12 -30 -39 -30q-17 0 -29 14t-10 32z" />
    <glyph glyph-name="iotadieresistonos" unicode="&#x390;" horiz-adv-x="294" 
d="M50 140v263q0 37 26.5 63.5t63.5 26.5t63.5 -26.5t26.5 -63.5v-225q0 -20 32 -34l4 -2q34 -16 34 -68q0 -86 -83 -86h-14q-72 0 -112.5 39.5t-40.5 112.5zM106 595l14 140q2 22 18.5 37.5t38.5 15.5q24 0 41.5 -17t17.5 -41q0 -10 -3 -17l-49 -134q-12 -30 -39 -30
q-17 0 -29 14t-10 32zM-95 638q0 38 26 63.5t63 25.5q38 0 63.5 -25.5t25.5 -63.5q0 -37 -25.5 -63t-63.5 -26q-37 0 -63 26t-26 63zM236 638q0 37 26 63t63 26q38 0 64 -26t26 -63t-26 -63t-64 -26q-37 0 -63 26t-26 63z" />
    <glyph glyph-name="Alpha" unicode="&#x391;" horiz-adv-x="690" 
d="M678 91q0 -42 -29.5 -71.5t-71.5 -29.5q-33 0 -60.5 20.5t-36.5 51.5l-11 36h-248l-11 -36q-9 -31 -36.5 -51.5t-60.5 -20.5q-42 0 -71.5 29.5t-29.5 71.5q0 19 6 35l161 436q19 51 64.5 83t101.5 32t101.5 -32t64.5 -83l161 -436q6 -16 6 -35zM274 266h142l-71 223z" />
    <glyph glyph-name="Beta" unicode="&#x392;" horiz-adv-x="697" 
d="M54 107v453q0 52 27.5 79.5t79.5 27.5h298q93 0 145.5 -50.5t52.5 -119.5q0 -60 -31.5 -101t-82.5 -52q55 -8 91 -54t36 -109q0 -76 -52 -128.5t-145 -52.5h-312q-52 0 -79.5 27.5t-27.5 79.5zM256 419h156q16 0 28 12.5t12 30.5q0 17 -12 29t-28 12h-156v-84zM256 164
h162q21 0 34 13t13 32t-13 32.5t-34 13.5h-162v-91z" />
    <glyph glyph-name="Gamma" unicode="&#x393;" horiz-adv-x="592" 
d="M54 91v469q0 52 27.5 79.5t79.5 27.5h321q36 0 62 -25.5t26 -62.5t-26 -62.5t-62 -25.5h-226v-400q0 -41 -29.5 -71t-71.5 -30t-71.5 30t-29.5 71z" />
    <glyph glyph-name="uni0394" unicode="&#x394;" horiz-adv-x="710" 
d="M18 77q0 21 9 46l162 439q19 51 64.5 83t101.5 32t101.5 -32t64.5 -83l162 -439q9 -26 9 -46q0 -36 -25 -56.5t-70 -20.5h-484q-45 0 -70 20.5t-25 56.5zM355 469l-90 -293h180z" />
    <glyph glyph-name="Epsilon" unicode="&#x395;" 
d="M54 107v453q0 52 27.5 79.5t79.5 27.5h325q35 0 59.5 -24.5t24.5 -59.5q0 -34 -24.5 -59t-59.5 -25h-230v-78h223q35 0 59.5 -24.5t24.5 -59.5q0 -34 -24.5 -59t-59.5 -25h-223v-85h230q35 0 59.5 -24.5t24.5 -59.5q0 -34 -24.5 -59t-59.5 -25h-325q-52 0 -79.5 27.5
t-27.5 79.5z" />
    <glyph glyph-name="Zeta" unicode="&#x396;" horiz-adv-x="600" 
d="M26 110q0 37 22 66l242 315h-176q-36 0 -62 25.5t-26 62.5t26 62.5t62 25.5h344q45 0 77 -32t32 -77q0 -37 -22 -66l-243 -316h184q36 0 62 -25.5t26 -62.5t-26 -62.5t-62 -25.5h-351q-45 0 -77 32t-32 78z" />
    <glyph glyph-name="Eta" unicode="&#x397;" horiz-adv-x="751" 
d="M495 91v164h-239v-164q0 -41 -29.5 -71t-71.5 -30t-71.5 30t-29.5 71v485q0 41 29.5 71t71.5 30t71.5 -30t29.5 -71v-145h239v145q0 41 29.5 71t71.5 30t71.5 -30t29.5 -71v-485q0 -41 -29.5 -71t-71.5 -30t-71.5 30t-29.5 71z" />
    <glyph glyph-name="Theta" unicode="&#x398;" horiz-adv-x="766" 
d="M383 678q154 2 261 -97.5t104 -247.5q3 -149 -104 -248.5t-261 -96.5q-154 -3 -261 96.5t-104 248.5q-3 148 104 247.5t261 97.5zM383 500q-70 0 -115 -48t-45 -119t45 -119t115 -48t115 48t45 119t-45 119t-115 48zM241 338q0 36 26.5 61.5t62.5 25.5h105
q36 0 62.5 -25.5t26.5 -61.5q0 -37 -26.5 -63t-62.5 -26h-105q-36 0 -62.5 26t-26.5 63z" />
    <glyph glyph-name="Iota" unicode="&#x399;" horiz-adv-x="310" 
d="M54 91v485q0 41 29.5 71t71.5 30t71.5 -30t29.5 -71v-485q0 -41 -29.5 -71t-71.5 -30t-71.5 30t-29.5 71z" />
    <glyph glyph-name="Kappa" unicode="&#x39a;" horiz-adv-x="671" 
d="M639 89q0 -40 -28.5 -69.5t-69.5 -29.5q-46 0 -74 33l-169 211l-42 -50v-93q0 -41 -29.5 -71t-71.5 -30t-71.5 30t-29.5 71v485q0 41 29.5 71t71.5 30t71.5 -30t29.5 -71v-158l199 228q28 31 70 31q40 0 67 -28.5t27 -66.5t-22 -61l-152 -163l172 -207q22 -25 22 -62z
" />
    <glyph glyph-name="Lambda" unicode="&#x39b;" horiz-adv-x="710" 
d="M479 64l-124 405l-124 -405q-10 -33 -38 -53.5t-63 -20.5q-44 0 -75 30.5t-31 74.5q0 17 7 37l158 429q19 51 64.5 83.5t101.5 32.5t101.5 -32.5t64.5 -83.5l158 -429q7 -20 7 -37q0 -44 -31 -74.5t-75 -30.5q-35 0 -63 20.5t-38 53.5z" />
    <glyph glyph-name="Mu" unicode="&#x39c;" horiz-adv-x="900" 
d="M644 91v330l-139 -392q-6 -17 -21.5 -28t-33.5 -11t-33.5 11t-21.5 28l-139 392v-330q0 -41 -29.5 -71t-71.5 -30t-71.5 30t-29.5 71v425q0 66 47.5 113.5t113.5 47.5q51 0 93 -30t59 -78l83 -242l83 242q17 48 59 78t93 30q66 0 113.5 -47.5t47.5 -113.5v-425
q0 -41 -29.5 -71t-71.5 -30t-71.5 30t-29.5 71z" />
    <glyph glyph-name="Nu" unicode="&#x39d;" horiz-adv-x="750" 
d="M472 43l-216 315v-267q0 -41 -29.5 -71t-71.5 -30t-71.5 30t-29.5 71v454q0 53 39 92.5t93 39.5q70 0 108 -57l200 -289v245q0 41 29.5 71t71.5 30t71.5 -30t29.5 -71v-464q0 -50 -36 -86t-87 -36q-63 0 -101 53z" />
    <glyph glyph-name="Xi" unicode="&#x39e;" horiz-adv-x="632" 
d="M26 583q0 35 25 59.5t59 24.5h411q35 0 59.5 -24.5t24.5 -59.5q0 -34 -24.5 -59t-59.5 -25h-411q-34 0 -59 25t-25 59zM33 337q0 35 25 59.5t59 24.5h398q35 0 59.5 -24.5t24.5 -59.5q0 -34 -24.5 -59t-59.5 -25h-398q-34 0 -59 25t-25 59zM27 84q0 35 25 59.5t59 24.5
h411q35 0 59.5 -24.5t24.5 -59.5q0 -34 -24.5 -59t-59.5 -25h-411q-34 0 -59 25t-25 59z" />
    <glyph glyph-name="Omicron" unicode="&#x39f;" horiz-adv-x="766" 
d="M383 678q154 2 261 -97.5t104 -247.5q3 -149 -104 -248.5t-261 -96.5q-154 -3 -261 96.5t-104 248.5q-3 148 104 247.5t261 97.5zM383 500q-70 0 -115 -48t-45 -119t45 -119t115 -48t115 48t45 119t-45 119t-115 48z" />
    <glyph glyph-name="Pi" unicode="&#x3a0;" horiz-adv-x="751" 
d="M495 91v400h-239v-400q0 -41 -29.5 -71t-71.5 -30t-71.5 30t-29.5 71v469q0 52 27.5 79.5t79.5 27.5h429q52 0 79.5 -27.5t27.5 -79.5v-469q0 -41 -29.5 -71t-71.5 -30t-71.5 30t-29.5 71z" />
    <glyph glyph-name="Rho" unicode="&#x3a1;" horiz-adv-x="662" 
d="M54 91v469q0 52 27.5 79.5t79.5 27.5h249q111 0 175.5 -65t64.5 -164q0 -98 -64 -161t-176 -63h-154v-123q0 -41 -29.5 -71t-71.5 -30t-71.5 30t-29.5 71zM384 499h-128v-117h128q27 0 44 16t17 42t-17.5 42.5t-43.5 16.5z" />
    <glyph glyph-name="Sigma" unicode="&#x3a3;" 
d="M281 176h201q36 0 62 -25.5t26 -62.5t-26 -62.5t-62 -25.5h-340q-48 0 -82 34t-34 82q0 51 37 85l148 138l-145 128q-39 35 -39 86q0 47 33 80q34 34 81 34h341q36 0 62 -25.5t26 -62.5t-26 -62.5t-62 -25.5h-192l86 -76q41 -36 41 -76q0 -38 -40 -75z" />
    <glyph glyph-name="Tau" unicode="&#x3a4;" horiz-adv-x="595" 
d="M197 91v400h-101q-36 0 -62 25.5t-26 62.5t26 62.5t62 25.5h403q36 0 62 -25.5t26 -62.5t-26 -62.5t-62 -25.5h-100v-400q0 -41 -29.5 -71t-71.5 -30t-71.5 30t-29.5 71z" />
    <glyph glyph-name="Upsilon" unicode="&#x3a5;" horiz-adv-x="662" 
d="M621 511l-189 -245v-175q0 -41 -29.5 -71t-71.5 -30t-71.5 30t-29.5 71v175l-189 245q-26 34 -26 67q0 41 29 70t69 29q51 0 79 -40l139 -199l139 199q28 40 79 40q40 0 69 -29t29 -70q0 -33 -26 -67z" />
    <glyph glyph-name="Phi" unicode="&#x3a6;" horiz-adv-x="904" 
d="M551 68q-6 -39 -31.5 -60t-67.5 -21t-67.5 21t-31.5 60q-163 14 -249 81.5t-86 183.5t86 183.5t249 81.5q6 39 31.5 60t67.5 21t67.5 -21t31.5 -60q163 -14 249 -81.5t86 -183.5t-86 -183.5t-249 -81.5zM351 247v172q-128 -16 -128 -86t128 -86zM681 333q0 70 -128 86
v-172q128 16 128 86z" />
    <glyph glyph-name="Chi" unicode="&#x3a7;" horiz-adv-x="684" 
d="M662 89q0 -41 -29 -70t-69 -29q-46 0 -73 32l-149 178l-149 -178q-27 -32 -73 -32q-40 0 -69 29t-29 70q0 37 24 64l168 188l-156 172q-24 27 -24 66q0 41 29.5 69.5t69.5 28.5q47 0 77 -38l132 -162l132 162q30 38 77 38q40 0 69.5 -28.5t29.5 -69.5q0 -40 -15 -55
l-165 -183l168 -188q24 -27 24 -64z" />
    <glyph glyph-name="Psi" unicode="&#x3a8;" horiz-adv-x="937" 
d="M780 677q43 0 73 -30.5t30 -72.5v-163q0 -115 -80 -189t-233 -92v-39q0 -41 -29.5 -71t-71.5 -30t-71.5 30t-29.5 71v39q-153 18 -233.5 92t-80.5 188v165q0 42 30 72t73 30q42 0 72 -30t30 -72v-158q0 -81 109 -105v264q0 41 29.5 71t71.5 30t71.5 -30t29.5 -71v-264
q107 24 107 105v157q0 42 30 72.5t73 30.5z" />
    <glyph glyph-name="uni03A9" unicode="&#x3a9;" horiz-adv-x="766" 
d="M18 383q0 136 103 215.5t262 79.5q160 0 262.5 -79.5t102.5 -215.5q0 -114 -119 -207h24q36 0 62 -25.5t26 -62.5t-26 -62.5t-62 -25.5h-124q-44 0 -75 31t-31 75q0 60 48 91q72 46 72 138q0 64 -39.5 114t-120.5 50t-120.5 -50t-39.5 -114q0 -92 72 -138q48 -31 48 -91
q0 -44 -31 -75t-75 -31h-124q-36 0 -62 25.5t-26 62.5t26 62.5t62 25.5h25q-120 93 -120 207z" />
    <glyph glyph-name="Iotadieresis" unicode="&#x3aa;" horiz-adv-x="310" 
d="M54 91v485q0 41 29.5 71t71.5 30t71.5 -30t29.5 -71v-485q0 -41 -29.5 -71t-71.5 -30t-71.5 30t-29.5 71zM-42 785q0 38 25.5 63.5t63.5 25.5q37 0 63 -25.5t26 -63.5q0 -37 -26 -63t-63 -26q-38 0 -63.5 26t-25.5 63zM174 785q0 37 26 63t63 26q38 0 64 -26t26 -63
t-26 -63t-64 -26q-37 0 -63 26t-26 63z" />
    <glyph glyph-name="Upsilondieresis" unicode="&#x3ab;" horiz-adv-x="662" 
d="M621 511l-189 -245v-175q0 -41 -29.5 -71t-71.5 -30t-71.5 30t-29.5 71v175l-189 245q-26 34 -26 67q0 41 29 70t69 29q51 0 79 -40l139 -199l139 199q28 40 79 40q40 0 69 -29t29 -70q0 -33 -26 -67zM134 785q0 38 25.5 63.5t63.5 25.5q37 0 63 -25.5t26 -63.5
q0 -37 -26 -63t-63 -26q-38 0 -63.5 26t-25.5 63zM350 785q0 37 26 63t63 26q38 0 64 -26t26 -63t-26 -63t-64 -26q-37 0 -63 26t-26 63z" />
    <glyph glyph-name="alphatonos" unicode="&#x3ac;" horiz-adv-x="610" 
d="M616 74q0 -86 -83 -86h-14q-107 0 -141 82q-24 -39 -63 -60.5t-85 -21.5q-92 0 -152.5 68t-60.5 186q0 115 60.5 184t152.5 69q87 0 139 -67q7 29 31 47t56 18q37 0 63.5 -26.5t26.5 -63.5v-225q0 -12 7 -18t25 -16l4 -2q34 -16 34 -68zM366 180v123q-26 32 -75 32
q-39 0 -64.5 -25.5t-25.5 -67.5q0 -43 25.5 -69t64.5 -26q20 0 41.5 9.5t33.5 23.5zM267 595l14 140q2 22 18.5 37.5t38.5 15.5q24 0 41.5 -17t17.5 -41q0 -10 -3 -17l-49 -134q-12 -30 -39 -30q-17 0 -29 14t-10 32z" />
    <glyph glyph-name="epsilontonos" unicode="&#x3ad;" horiz-adv-x="502" 
d="M17 136q0 46 40 78t91 35q-53 9 -87.5 40t-34.5 70q1 62 58.5 98.5t160.5 36.5q110 0 187 -41q34 -19 34 -59q0 -28 -19.5 -47.5t-46.5 -19.5q-16 0 -32 9q-46 24 -102 24q-54 0 -54 -30q0 -16 12 -23t44 -7h43q23 0 40 -17t17 -40t-17 -40t-40 -17h-43q-65 0 -65 -30
q0 -33 59 -33q56 0 113 26q12 6 28 6q29 0 49 -20t20 -49q0 -43 -39 -62q-73 -36 -174 -36q-109 0 -175.5 41t-66.5 107zM217 595l14 140q2 22 18.5 37.5t38.5 15.5q24 0 41.5 -17t17.5 -41q0 -10 -3 -17l-49 -134q-12 -30 -39 -30q-17 0 -29 14t-10 32z" />
    <glyph glyph-name="etatonos" unicode="&#x3ae;" horiz-adv-x="607" 
d="M557 343v-447q0 -37 -26.5 -63.5t-63.5 -26.5t-63.5 26.5t-26.5 63.5v371q0 69 -70 69q-44 0 -77 -38v-218q0 -37 -26.5 -63.5t-63.5 -26.5t-63.5 26.5t-26.5 63.5v323q0 39 25.5 66.5t64.5 27.5q33 0 57.5 -19.5t32.5 -49.5q60 67 166 67q78 0 119.5 -41.5t41.5 -110.5z
M269 595l14 140q2 22 18.5 37.5t38.5 15.5q24 0 41.5 -17t17.5 -41q0 -10 -3 -17l-49 -134q-12 -30 -39 -30q-17 0 -29 14t-10 32z" />
    <glyph glyph-name="iotatonos" unicode="&#x3af;" horiz-adv-x="294" 
d="M50 140v263q0 37 26.5 63.5t63.5 26.5t63.5 -26.5t26.5 -63.5v-225q0 -20 32 -34l4 -2q34 -16 34 -68q0 -86 -83 -86h-14q-72 0 -112.5 39.5t-40.5 112.5zM106 595l14 140q2 22 18.5 37.5t38.5 15.5q24 0 41.5 -17t17.5 -41q0 -10 -3 -17l-49 -134q-12 -30 -39 -30
q-17 0 -29 14t-10 32z" />
    <glyph glyph-name="upsilondieresistonos" unicode="&#x3b0;" horiz-adv-x="592" 
d="M50 224v179q0 37 26.5 63.5t63.5 26.5t63.5 -26.5t26.5 -63.5v-176q0 -36 20 -58t53 -22q87 0 87 122q0 70 -15 108q-4 9 -4 27q0 38 26.5 64.5t64.5 26.5q30 0 54 -17t33 -44q26 -75 26 -165q0 -125 -73.5 -203t-198.5 -78q-122 0 -187.5 63.5t-65.5 172.5zM269 595
l14 140q2 22 18.5 37.5t38.5 15.5q24 0 41.5 -17t17.5 -41q0 -10 -3 -17l-49 -134q-12 -30 -39 -30q-17 0 -29 14t-10 32zM68 638q0 38 26 63.5t63 25.5q38 0 63.5 -25.5t25.5 -63.5q0 -37 -25.5 -63t-63.5 -26q-37 0 -63 26t-26 63zM399 638q0 37 26 63t63 26q38 0 64 -26
t26 -63t-26 -63t-64 -26q-37 0 -63 26t-26 63z" />
    <glyph glyph-name="alpha" unicode="&#x3b1;" horiz-adv-x="610" 
d="M616 74q0 -86 -83 -86h-14q-107 0 -141 82q-24 -39 -63 -60.5t-85 -21.5q-92 0 -152.5 68t-60.5 186q0 115 60.5 184t152.5 69q87 0 139 -67q7 29 31 47t56 18q37 0 63.5 -26.5t26.5 -63.5v-225q0 -12 7 -18t25 -16l4 -2q34 -16 34 -68zM366 180v123q-26 32 -75 32
q-39 0 -64.5 -25.5t-25.5 -67.5q0 -43 25.5 -69t64.5 -26q20 0 41.5 9.5t33.5 23.5z" />
    <glyph glyph-name="beta" unicode="&#x3b2;" 
d="M140 -194q-37 0 -63.5 26.5t-26.5 63.5v545q-1 60 22.5 107t63 74.5t85.5 41t95 13.5q121 0 184.5 -48.5t63.5 -136.5q0 -54 -40 -96t-102 -52q64 -6 110.5 -54t46.5 -125q2 -69 -59.5 -124t-133.5 -53q-100 0 -156 63v-155q0 -37 -26.5 -63.5t-63.5 -26.5zM321 147
q35 0 54.5 15t19.5 40q0 20 -14.5 31t-44.5 18q-35 9 -55 31.5t-20 52.5q0 63 67 82q28 9 39.5 19.5t11.5 29.5q0 24 -17 37.5t-46 13.5q-39 0 -62.5 -21t-23.5 -55v-262q35 -32 91 -32z" />
    <glyph glyph-name="gamma" unicode="&#x3b3;" horiz-adv-x="535" 
d="M177 -105v19q0 231 -122 457q-10 19 -10 40q0 34 24 58t58 24q49 0 73 -43q33 -61 57 -131q25 -67 31 -118q37 70 52 213q4 33 29.5 56t59.5 23q37 0 63 -26.5t26 -62.5q0 -10 -1 -13q-16 -106 -60 -211q-42 -101 -100 -175v-109q0 -38 -26 -64t-64 -26q-37 0 -63.5 26
t-26.5 63z" />
    <glyph glyph-name="delta" unicode="&#x3b4;" horiz-adv-x="577" 
d="M560 234q0 -103 -71 -174.5t-190 -71.5q-129 0 -205.5 73t-76.5 181q0 115 94 177q-39 36 -39 95q0 69 59 117t157 48q79 0 151 -31q19 -8 31 -26t12 -39q0 -29 -20.5 -50t-50.5 -21q-16 0 -28 6q-46 21 -94 21q-45 0 -45 -18q0 -6 10 -10t46 -13q65 -16 122 -40
q54 -22 96 -78q42 -54 42 -146zM387 234q0 45 -29 70.5t-92 45.5q-30 -18 -47 -47t-17 -61q0 -43 25 -69t67 -26t67.5 25t25.5 62z" />
    <glyph glyph-name="epsilon" unicode="&#x3b5;" horiz-adv-x="502" 
d="M17 136q0 46 40 78t91 35q-53 9 -87.5 40t-34.5 70q1 62 58.5 98.5t160.5 36.5q110 0 187 -41q34 -19 34 -59q0 -28 -19.5 -47.5t-46.5 -19.5q-16 0 -32 9q-46 24 -102 24q-54 0 -54 -30q0 -16 12 -23t44 -7h43q23 0 40 -17t17 -40t-17 -40t-40 -17h-43q-65 0 -65 -30
q0 -33 59 -33q56 0 113 26q12 6 28 6q29 0 49 -20t20 -49q0 -43 -39 -62q-73 -36 -174 -36q-109 0 -175.5 41t-66.5 107z" />
    <glyph glyph-name="zeta" unicode="&#x3b6;" horiz-adv-x="482" 
d="M17 211q0 92 54 172.5t147 127.5h-117q-32 0 -55 23t-23 55t23 55t55 23h280q32 0 55 -23t23 -55q0 -44 -39 -68q-92 -54 -154 -134q-65 -82 -65 -161q0 -42 21 -54.5t74 -12.5q169 0 169 -134q0 -56 -40 -143q-21 -49 -76 -49q-34 0 -58.5 24t-24.5 59q0 18 6 32
q12 32 12 43q0 9 -9 9q-121 0 -189.5 55.5t-68.5 155.5z" />
    <glyph glyph-name="eta" unicode="&#x3b7;" horiz-adv-x="607" 
d="M557 343v-447q0 -37 -26.5 -63.5t-63.5 -26.5t-63.5 26.5t-26.5 63.5v371q0 69 -70 69q-44 0 -77 -38v-218q0 -37 -26.5 -63.5t-63.5 -26.5t-63.5 26.5t-26.5 63.5v323q0 39 25.5 66.5t64.5 27.5q33 0 57.5 -19.5t32.5 -49.5q60 67 166 67q78 0 119.5 -41.5t41.5 -110.5z
" />
    <glyph glyph-name="theta" unicode="&#x3b8;" horiz-adv-x="577" 
d="M560 334q1 -93 -32 -172t-96.5 -127.5t-143.5 -46.5q-80 -2 -143.5 46.5t-96 127.5t-31.5 172q-2 143 74 245t197 100q121 2 197.5 -100t74.5 -245zM206 413h165q-13 107 -83 107q-36 0 -55.5 -25.5t-26.5 -81.5zM371 257h-165q7 -57 26.5 -83.5t55.5 -26.5t56 26.5
t27 83.5z" />
    <glyph glyph-name="iota" unicode="&#x3b9;" horiz-adv-x="294" 
d="M50 140v263q0 37 26.5 63.5t63.5 26.5t63.5 -26.5t26.5 -63.5v-225q0 -20 32 -34l4 -2q34 -16 34 -68q0 -86 -83 -86h-14q-72 0 -112.5 39.5t-40.5 112.5z" />
    <glyph glyph-name="kappa" unicode="&#x3ba;" horiz-adv-x="557" 
d="M538 80q0 -39 -26 -64.5t-65 -25.5q-46 0 -71 34l-107 133l-39 -38v-39q0 -37 -26.5 -63.5t-63.5 -26.5t-63.5 26.5t-26.5 63.5v323q0 37 26.5 63.5t63.5 26.5t63.5 -26.5t26.5 -63.5v-84l140 147q26 27 61 27q37 0 61.5 -24.5t24.5 -59.5q0 -38 -26 -62l-91 -86
l122 -131q16 -16 16 -50z" />
    <glyph glyph-name="lambda" unicode="&#x3bb;" horiz-adv-x="535" 
d="M349 45l-81 245l-83 -245q-9 -26 -31 -40.5t-50 -14.5q-37 0 -62.5 26t-25.5 62q0 13 8 34l151 378l-4 10q-8 20 -59 20h-8q-26 0 -45 22t-19 52q0 36 25 60t66 24h11q64 0 117 -33t81 -103l171 -430q8 -21 8 -34q0 -37 -25.5 -62.5t-63.5 -25.5q-28 0 -50 14.5t-31 40.5
z" />
    <glyph glyph-name="uni03BC" unicode="&#x3bc;" horiz-adv-x="620" 
d="M626 74q0 -86 -83 -86h-14q-110 0 -143 87q-16 -40 -47 -63.5t-70 -23.5q-21 0 -39 8v-100q0 -37 -26.5 -63.5t-63.5 -26.5t-63.5 26.5t-26.5 63.5v507q0 37 26.5 63.5t63.5 26.5t63.5 -26.5t26.5 -63.5v-188q0 -68 70 -68q43 0 76 38v218q0 37 26.5 63.5t63.5 26.5
t63.5 -26.5t26.5 -63.5v-225q0 -12 7 -18t25 -16l4 -2q34 -16 34 -68z" />
    <glyph glyph-name="nu" unicode="&#x3bd;" horiz-adv-x="535" 
d="M140 82l-113 292q-6 14 -6 32q0 36 25.5 61.5t62.5 25.5q28 0 51.5 -17t31.5 -43l84 -254q52 87 65 234q3 34 28.5 57t59.5 23q37 0 63 -26.5t26 -62.5q0 -10 -1 -13q-26 -173 -117 -329q-19 -33 -52.5 -52.5t-72.5 -19.5q-45 0 -82 25.5t-53 66.5z" />
    <glyph glyph-name="xi" unicode="&#x3be;" horiz-adv-x="482" 
d="M121 303q-42 7 -67.5 33t-25.5 64q0 36 23 66t61 45h-4q-32 0 -55 23t-23 55t23 55t55 23h273q32 0 55 -23t23 -55t-23 -55t-55 -23h-124q-44 -14 -44 -52q0 -47 83 -47h82q32 0 55 -22t23 -54t-23 -55t-55 -23h-82q-49 0 -71.5 -12t-22.5 -39q0 -48 94 -48
q169 0 169 -134q0 -53 -39 -142q-10 -22 -31 -36t-47 -14q-35 0 -59.5 24.5t-24.5 59.5q0 16 5 31q12 32 12 43q0 9 -9 9q-125 0 -190 42t-65 119q0 104 104 142z" />
    <glyph glyph-name="omicron" unicode="&#x3bf;" horiz-adv-x="577" 
d="M17 242q0 106 74.5 179.5t196.5 73.5t197 -73.5t75 -179.5t-75 -180t-197 -74t-196.5 74t-74.5 180zM375 242q0 42 -23 68t-64 26q-39 0 -62.5 -26t-23.5 -68t23.5 -68.5t62.5 -26.5q41 0 64 26t23 69z" />
    <glyph glyph-name="pi" unicode="&#x3c0;" horiz-adv-x="681" 
d="M684 405q0 -32 -23 -55t-55 -23h-12v-247q0 -37 -26.5 -63.5t-63.5 -26.5t-63.5 26.5t-26.5 63.5v247h-147v-247q0 -37 -26.5 -63.5t-63.5 -26.5t-63.5 26.5t-26.5 63.5v247h-12q-32 0 -55 23t-23 55t23 55t55 23h531q32 0 55 -23t23 -55z" />
    <glyph glyph-name="rho" unicode="&#x3c1;" horiz-adv-x="595" 
d="M230 51v-155q0 -37 -26.5 -63.5t-63.5 -26.5t-63.5 26.5t-26.5 63.5v346q0 106 72.5 179.5t191.5 73.5t191.5 -73.5t72.5 -179.5q0 -119 -59 -186.5t-153 -67.5q-80 0 -136 63zM312 336q-38 0 -60 -26t-22 -68v-62q11 -14 33 -23.5t41 -9.5q39 0 64.5 26t25.5 69
q0 42 -22 68t-60 26z" />
    <glyph glyph-name="uni03C2" unicode="&#x3c2;" horiz-adv-x="502" 
d="M288 495q75 0 132 -30q44 -24 44 -71q0 -33 -23.5 -56.5t-56.5 -23.5q-23 0 -39 10q-21 12 -49 12q-43 0 -69 -23t-26 -66t26 -65.5t69 -22.5q182 0 182 -122q0 -59 -39 -153q-10 -23 -31 -37t-47 -14q-35 0 -59.5 24.5t-24.5 59.5q0 15 5 30q12 33 12 44q0 9 -6 9
q-118 0 -194.5 65.5t-76.5 176.5q0 112 77.5 182.5t193.5 70.5z" />
    <glyph glyph-name="sigma" unicode="&#x3c3;" horiz-adv-x="577" 
d="M497 324q48 -44 48 -119q0 -94 -67.5 -155.5t-189.5 -61.5t-196.5 74t-74.5 180q0 105 73.5 173t197.5 68h205q33 0 56 -23.5t23 -55.5t-22 -55.5t-53 -24.5zM375 242q0 50 -39 82h-48q-39 0 -62.5 -23.5t-23.5 -58.5q0 -42 23.5 -68.5t62.5 -26.5q41 0 64 26t23 69z" />
    <glyph glyph-name="tau" unicode="&#x3c4;" horiz-adv-x="485" 
d="M402 327h-74v-135q0 -17 9 -29.5t22 -14.5l7 -1l10 -1q23 -3 40.5 -26.5t17.5 -51.5t-18 -49t-46 -26q-25 -5 -56 -5q-81 0 -123.5 38.5t-42.5 113.5v187h-65q-32 0 -55 23t-23 55t23 55t55 23h319q32 0 55 -23t23 -55t-23 -55t-55 -23z" />
    <glyph glyph-name="upsilon" unicode="&#x3c5;" horiz-adv-x="592" 
d="M50 224v179q0 37 26.5 63.5t63.5 26.5t63.5 -26.5t26.5 -63.5v-176q0 -36 20 -58t53 -22q87 0 87 122q0 70 -15 108q-4 9 -4 27q0 38 26.5 64.5t64.5 26.5q30 0 54 -17t33 -44q26 -75 26 -165q0 -125 -73.5 -203t-198.5 -78q-122 0 -187.5 63.5t-65.5 172.5z" />
    <glyph glyph-name="phi" unicode="&#x3c6;" horiz-adv-x="754" 
d="M466 -12l1 -92q0 -37 -26.5 -63.5t-63.5 -26.5t-63.5 26.5t-26.5 63.5l1 92q-128 4 -199.5 70.5t-71.5 191.5q0 126 103 199q25 19 49 19q36 0 61.5 -25.5t25.5 -61.5q0 -34 -25 -60q-29 -31 -29 -71q0 -50 22.5 -76.5t62.5 -26.5v209q0 57 43 97t102 40q145 0 225 -67.5
t80 -189.5q0 -117 -71.5 -180.5t-199.5 -67.5zM552 236q0 88 -85 88v-177q40 0 62.5 22.5t22.5 66.5z" />
    <glyph glyph-name="chi" unicode="&#x3c7;" horiz-adv-x="521" 
d="M516 -105q0 -38 -26 -63.5t-63 -25.5q-51 0 -76 43l-90 150l-91 -150q-25 -43 -76 -43q-37 0 -63 25.5t-26 63.5q0 24 15 48l139 213l-131 199q-14 21 -14 47q0 37 26.5 64t64.5 27q47 0 75 -43l81 -133l80 133q28 43 75 43q38 0 64.5 -27t26.5 -64q0 -26 -14 -47
l-131 -199l139 -213q15 -24 15 -48z" />
    <glyph glyph-name="psi" unicode="&#x3c8;" horiz-adv-x="798" 
d="M658 493q37 0 63.5 -26.5t26.5 -63.5v-146q0 -116 -62 -181.5t-197 -82.5v-97q0 -37 -26.5 -63.5t-63.5 -26.5t-63.5 26.5t-26.5 63.5v97q-135 15 -197 81.5t-62 182.5v146q0 37 26.5 63.5t63.5 26.5t63.5 -26.5t26.5 -63.5v-145q0 -44 17 -67.5t62 -34.5v431
q0 37 26.5 63.5t63.5 26.5t63.5 -26.5t26.5 -63.5v-431q44 10 61.5 33.5t17.5 68.5v145q0 37 26.5 63.5t63.5 26.5z" />
    <glyph glyph-name="omega" unicode="&#x3c9;" horiz-adv-x="806" 
d="M403 115q-30 -66 -71.5 -96.5t-103.5 -30.5q-103 0 -157 70t-54 174q0 130 67 222q26 37 70 37q36 0 61.5 -25.5t25.5 -61.5q0 -21 -9 -39q-30 -60 -30 -133q0 -85 52 -85q27 0 43 26t16 69v35q0 42 25.5 69.5t66.5 27.5q39 0 63.5 -27.5t24.5 -69.5v-35q0 -43 16 -69
t43 -26q52 0 52 85q0 73 -30 133q-8 16 -8 39q0 36 25.5 61t60.5 25q47 0 70 -36q67 -92 67 -222q0 -104 -54 -174t-157 -70q-62 0 -103.5 30.5t-71.5 96.5z" />
    <glyph glyph-name="iotadieresis" unicode="&#x3ca;" horiz-adv-x="294" 
d="M50 140v263q0 37 26.5 63.5t63.5 26.5t63.5 -26.5t26.5 -63.5v-225q0 -20 32 -34l4 -2q34 -16 34 -68q0 -86 -83 -86h-14q-72 0 -112.5 39.5t-40.5 112.5zM-57 638q0 38 25.5 63.5t63.5 25.5q37 0 63 -25.5t26 -63.5q0 -37 -26 -63t-63 -26q-38 0 -63.5 26t-25.5 63z
M159 638q0 37 26 63t63 26q38 0 64 -26t26 -63t-26 -63t-64 -26q-37 0 -63 26t-26 63z" />
    <glyph glyph-name="upsilondieresis" unicode="&#x3cb;" horiz-adv-x="592" 
d="M50 224v179q0 37 26.5 63.5t63.5 26.5t63.5 -26.5t26.5 -63.5v-176q0 -36 20 -58t53 -22q87 0 87 122q0 70 -15 108q-4 9 -4 27q0 38 26.5 64.5t64.5 26.5q30 0 54 -17t33 -44q26 -75 26 -165q0 -125 -73.5 -203t-198.5 -78q-122 0 -187.5 63.5t-65.5 172.5zM106 638
q0 38 25.5 63.5t63.5 25.5q37 0 63 -25.5t26 -63.5q0 -37 -26 -63t-63 -26q-38 0 -63.5 26t-25.5 63zM322 638q0 37 26 63t63 26q38 0 64 -26t26 -63t-26 -63t-64 -26q-37 0 -63 26t-26 63z" />
    <glyph glyph-name="omicrontonos" unicode="&#x3cc;" horiz-adv-x="577" 
d="M17 242q0 106 74.5 179.5t196.5 73.5t197 -73.5t75 -179.5t-75 -180t-197 -74t-196.5 74t-74.5 180zM375 242q0 42 -23 68t-64 26q-39 0 -62.5 -26t-23.5 -68t23.5 -68.5t62.5 -26.5q41 0 64 26t23 69zM254 595l14 140q2 22 18.5 37.5t38.5 15.5q24 0 41.5 -17t17.5 -41
q0 -10 -3 -17l-49 -134q-12 -30 -39 -30q-17 0 -29 14t-10 32z" />
    <glyph glyph-name="upsilontonos" unicode="&#x3cd;" horiz-adv-x="592" 
d="M50 224v179q0 37 26.5 63.5t63.5 26.5t63.5 -26.5t26.5 -63.5v-176q0 -36 20 -58t53 -22q87 0 87 122q0 70 -15 108q-4 9 -4 27q0 38 26.5 64.5t64.5 26.5q30 0 54 -17t33 -44q26 -75 26 -165q0 -125 -73.5 -203t-198.5 -78q-122 0 -187.5 63.5t-65.5 172.5zM269 595
l14 140q2 22 18.5 37.5t38.5 15.5q24 0 41.5 -17t17.5 -41q0 -10 -3 -17l-49 -134q-12 -30 -39 -30q-17 0 -29 14t-10 32z" />
    <glyph glyph-name="omegatonos" unicode="&#x3ce;" horiz-adv-x="806" 
d="M403 115q-30 -66 -71.5 -96.5t-103.5 -30.5q-103 0 -157 70t-54 174q0 130 67 222q26 37 70 37q36 0 61.5 -25.5t25.5 -61.5q0 -21 -9 -39q-30 -60 -30 -133q0 -85 52 -85q27 0 43 26t16 69v35q0 42 25.5 69.5t66.5 27.5q39 0 63.5 -27.5t24.5 -69.5v-35q0 -43 16 -69
t43 -26q52 0 52 85q0 73 -30 133q-8 16 -8 39q0 36 25.5 61t60.5 25q47 0 70 -36q67 -92 67 -222q0 -104 -54 -174t-157 -70q-62 0 -103.5 30.5t-71.5 96.5zM369 595l14 140q2 22 18.5 37.5t38.5 15.5q24 0 41.5 -17t17.5 -41q0 -10 -3 -17l-49 -134q-12 -30 -39 -30
q-17 0 -29 14t-10 32z" />
    <glyph glyph-name="uni0401" unicode="&#x401;" 
d="M54 107v453q0 52 27.5 79.5t79.5 27.5h325q35 0 59.5 -24.5t24.5 -59.5q0 -34 -24.5 -59t-59.5 -25h-230v-78h223q35 0 59.5 -24.5t24.5 -59.5q0 -34 -24.5 -59t-59.5 -25h-223v-85h230q35 0 59.5 -24.5t24.5 -59.5q0 -34 -24.5 -59t-59.5 -25h-325q-52 0 -79.5 27.5
t-27.5 79.5zM117 785q0 38 25.5 63.5t63.5 25.5q37 0 63 -25.5t26 -63.5q0 -37 -26 -63t-63 -26q-38 0 -63.5 26t-25.5 63zM333 785q0 37 26 63t63 26q38 0 64 -26t26 -63t-26 -63t-64 -26q-37 0 -63 26t-26 63z" />
    <glyph glyph-name="uni0402" unicode="&#x402;" horiz-adv-x="805" 
d="M557 160q34 11 34 43v7q0 59 -95 59q-53 0 -97 -25v-153q0 -41 -29.5 -71t-71.5 -30t-71.5 30t-29.5 71v400h-101q-36 0 -62 25.5t-26 62.5t26 62.5t62 25.5h403q36 0 62 -25.5t26 -62.5t-26 -62.5t-62 -25.5h-100v-91q72 45 173 45q105 0 163 -60t58 -162v-10
q0 -187 -199 -218q-3 -1 -13 -1q-35 0 -60.5 24.5t-25.5 59.5q0 29 17.5 51.5t44.5 30.5z" />
    <glyph glyph-name="uni0403" unicode="&#x403;" horiz-adv-x="592" 
d="M54 91v469q0 52 27.5 79.5t79.5 27.5h321q36 0 62 -25.5t26 -62.5t-26 -62.5t-62 -25.5h-226v-400q0 -41 -29.5 -71t-71.5 -30t-71.5 30t-29.5 71zM341 709q-26 0 -42 16.5t-16 41.5q0 18 12 33l49 59q20 22 47 22q25 0 44 -19t19 -45q0 -28 -19 -44l-54 -48
q-19 -16 -40 -16z" />
    <glyph glyph-name="uni0404" unicode="&#x404;" horiz-adv-x="697" 
d="M485 215q27 32 71 32q40 0 67.5 -28t27.5 -67q0 -35 -25 -63q-92 -101 -241 -101q-156 -2 -262.5 96.5t-104.5 248.5q-2 150 104.5 248.5t262.5 96.5q151 0 241 -99q26 -29 26 -64q0 -40 -28 -68t-68 -28q-44 0 -71 32q-43 49 -108 49q-96 0 -136 -79h153
q35 0 59.5 -24.5t24.5 -59.5q0 -34 -24.5 -59t-59.5 -25h-156q36 -87 139 -87q65 0 108 49z" />
    <glyph glyph-name="uni0405" unicode="&#x405;" horiz-adv-x="613" 
d="M29 122q0 38 27 64.5t64 26.5q26 0 46 -12q73 -43 157 -43q32 0 53 10.5t21 28.5q0 19 -21.5 30.5t-72.5 20.5q-80 14 -138 32q-54 18 -97 61t-43 120q0 92 76 154t211 62q118 0 208 -41q53 -25 53 -82q0 -37 -26.5 -63.5t-63.5 -26.5q-19 0 -40 8q-91 35 -142 35
q-71 0 -71 -35q0 -19 20.5 -28.5t77.5 -18.5q82 -15 132 -32q57 -18 99 -60t42 -113q0 -110 -76.5 -171t-211.5 -61q-137 0 -236 54q-48 26 -48 80z" />
    <glyph glyph-name="uni0406" unicode="&#x406;" horiz-adv-x="310" 
d="M54 91v485q0 41 29.5 71t71.5 30t71.5 -30t29.5 -71v-485q0 -41 -29.5 -71t-71.5 -30t-71.5 30t-29.5 71z" />
    <glyph glyph-name="uni0407" unicode="&#x407;" horiz-adv-x="310" 
d="M54 91v485q0 41 29.5 71t71.5 30t71.5 -30t29.5 -71v-485q0 -41 -29.5 -71t-71.5 -30t-71.5 30t-29.5 71zM-42 785q0 38 25.5 63.5t63.5 25.5q37 0 63 -25.5t26 -63.5q0 -37 -26 -63t-63 -26q-38 0 -63.5 26t-25.5 63zM174 785q0 37 26 63t63 26q38 0 64 -26t26 -63
t-26 -63t-64 -26q-37 0 -63 26t-26 63z" />
    <glyph glyph-name="uni0408" unicode="&#x408;" horiz-adv-x="498" 
d="M22 86q0 37 26 62.5t62 25.5q14 0 24 -3q20 -5 34 -5q33 0 53.5 20t20.5 55v335q0 41 29.5 71t71.5 30t71.5 -30t29.5 -71v-338q0 -123 -68 -186.5t-190 -63.5q-53 0 -99 13q-28 8 -46.5 31.5t-18.5 53.5z" />
    <glyph glyph-name="uni0409" unicode="&#x409;" horiz-adv-x="1103" 
d="M851 0h-249q-52 0 -79.5 27.5t-27.5 79.5v384h-155l-4 -53q-17 -207 -65 -305q-48 -100 -127 -134q-22 -9 -46 -9q-37 0 -64.5 28.5t-27.5 68.5q0 61 55 88q38 19 66 98.5t34 205.5l7 79q5 55 30 82t74 27h318q52 0 79.5 -27.5t27.5 -79.5v-103h154q111 0 175.5 -65
t64.5 -163q0 -99 -64.5 -164t-175.5 -65zM697 281v-105h128q28 0 44.5 13.5t16.5 39.5q0 24 -17 38t-44 14h-128z" />
    <glyph glyph-name="uni040A" unicode="&#x40a;" horiz-adv-x="1103" 
d="M155 677q42 0 71.5 -30t29.5 -71v-145h239v145q0 41 29.5 71t71.5 30t71.5 -30t29.5 -71v-145h167q105 0 166 -61t61 -154t-61 -154.5t-166 -61.5h-262q-52 0 -79.5 27.5t-27.5 79.5v148h-239v-164q0 -41 -29.5 -71t-71.5 -30t-71.5 30t-29.5 71v485q0 41 29.5 71
t71.5 30zM886 216q0 18 -12.5 28.5t-33.5 10.5h-143v-79h143q21 0 33.5 11t12.5 29z" />
    <glyph glyph-name="uni040B" unicode="&#x40b;" horiz-adv-x="847" 
d="M496 269q-53 0 -97 -25v-153q0 -41 -29.5 -71t-71.5 -30t-71.5 30t-29.5 71v400h-101q-36 0 -62 25.5t-26 62.5t26 62.5t62 25.5h403q36 0 62 -25.5t26 -62.5t-26 -62.5t-62 -25.5h-100v-91q72 45 173 45q221 0 221 -258v-96q0 -42 -27.5 -71.5t-68.5 -29.5q-43 0 -74 30
q-32 30 -32 71v96q0 82 -95 82z" />
    <glyph glyph-name="uni040C" unicode="&#x40c;" horiz-adv-x="671" 
d="M639 89q0 -40 -28.5 -69.5t-69.5 -29.5q-46 0 -74 33l-169 211l-42 -50v-93q0 -41 -29.5 -71t-71.5 -30t-71.5 30t-29.5 71v485q0 41 29.5 71t71.5 30t71.5 -30t29.5 -71v-158l199 228q28 31 70 31q40 0 67 -28.5t27 -66.5t-22 -61l-152 -163l172 -207q22 -25 22 -62z
M376 709q-26 0 -42 16.5t-16 41.5q0 18 12 33l49 59q20 22 47 22q25 0 44 -19t19 -45q0 -28 -19 -44l-54 -48q-19 -16 -40 -16z" />
    <glyph glyph-name="uni040E" unicode="&#x40e;" horiz-adv-x="626" 
d="M621 577q0 -22 -9 -40l-170 -361q-45 -98 -108 -143t-157 -45h-3q-39 0 -65.5 24.5t-26.5 62.5q0 33 20 58t50 32l9 1h2q40 1 62 26l-197 336q-13 22 -13 49q0 41 29.5 70.5t71.5 29.5q28 0 52 -15t37 -39l128 -232l95 223q12 28 37.5 45.5t55.5 17.5q41 0 70.5 -29.5
t29.5 -70.5zM166 758q-23 20 -23 47q0 25 17.5 42t42.5 17q21 0 37 -13q32 -26 71 -26q37 0 72 26q16 13 37 13q24 0 41.5 -17t17.5 -42q0 -27 -22 -46q-64 -52 -146 -52q-81 0 -145 51z" />
    <glyph glyph-name="uni040F" unicode="&#x40f;" horiz-adv-x="731" 
d="M677 576v-469q0 -52 -27.5 -79.5t-79.5 -27.5h-116v-45q0 -36 -25.5 -62t-62.5 -26t-62.5 26t-25.5 62v45h-117q-52 0 -79.5 27.5t-27.5 79.5v469q0 41 29.5 71t71.5 30t71.5 -30t29.5 -71v-400h219v400q0 41 29.5 71t71.5 30t71.5 -30t29.5 -71z" />
    <glyph glyph-name="uni0410" unicode="&#x410;" horiz-adv-x="690" 
d="M678 91q0 -42 -29.5 -71.5t-71.5 -29.5q-33 0 -60.5 20.5t-36.5 51.5l-11 36h-248l-11 -36q-9 -31 -36.5 -51.5t-60.5 -20.5q-42 0 -71.5 29.5t-29.5 71.5q0 19 6 35l161 436q19 51 64.5 83t101.5 32t101.5 -32t64.5 -83l161 -436q6 -16 6 -35zM274 266h142l-71 223z" />
    <glyph glyph-name="uni0411" unicode="&#x411;" horiz-adv-x="662" 
d="M620 583q0 -34 -24.5 -59t-59.5 -25h-280v-65h164q107 0 168.5 -61.5t61.5 -155.5q0 -95 -61.5 -156t-168.5 -61h-259q-52 0 -79.5 27.5t-27.5 79.5v453q0 52 27.5 79.5t79.5 27.5h375q35 0 59.5 -24.5t24.5 -59.5zM256 266v-98h139q21 0 35.5 14t14.5 35t-14.5 35
t-35.5 14h-139z" />
    <glyph glyph-name="uni0412" unicode="&#x412;" horiz-adv-x="697" 
d="M54 107v453q0 52 27.5 79.5t79.5 27.5h298q93 0 145.5 -50.5t52.5 -119.5q0 -60 -31.5 -101t-82.5 -52q55 -8 91 -54t36 -109q0 -76 -52 -128.5t-145 -52.5h-312q-52 0 -79.5 27.5t-27.5 79.5zM256 419h156q16 0 28 12.5t12 30.5q0 17 -12 29t-28 12h-156v-84zM256 164
h162q21 0 34 13t13 32t-13 32.5t-34 13.5h-162v-91z" />
    <glyph glyph-name="uni0413" unicode="&#x413;" horiz-adv-x="592" 
d="M54 91v469q0 52 27.5 79.5t79.5 27.5h321q36 0 62 -25.5t26 -62.5t-26 -62.5t-62 -25.5h-226v-400q0 -41 -29.5 -71t-71.5 -30t-71.5 30t-29.5 71z" />
    <glyph glyph-name="uni0414" unicode="&#x414;" horiz-adv-x="761" 
d="M748 91v-134q0 -36 -25.5 -61.5t-62.5 -25.5t-62.5 25.5t-25.5 61.5v43h-383v-43q0 -36 -25.5 -61.5t-62.5 -25.5t-62.5 25.5t-25.5 60.5v132q0 32 15 56.5t39 29.5q27 34 46 100q20 72 32 205l7 79q5 55 30 82t74 27h307q52 0 79.5 -27.5t27.5 -79.5v-385
q33 -3 55.5 -27.5t22.5 -56.5zM468 176v315h-144l-6 -66q-16 -185 -49 -249h199z" />
    <glyph glyph-name="uni0415" unicode="&#x415;" 
d="M54 107v453q0 52 27.5 79.5t79.5 27.5h325q35 0 59.5 -24.5t24.5 -59.5q0 -34 -24.5 -59t-59.5 -25h-230v-78h223q35 0 59.5 -24.5t24.5 -59.5q0 -34 -24.5 -59t-59.5 -25h-223v-85h230q35 0 59.5 -24.5t24.5 -59.5q0 -34 -24.5 -59t-59.5 -25h-325q-52 0 -79.5 27.5
t-27.5 79.5z" />
    <glyph glyph-name="uni0416" unicode="&#x416;" horiz-adv-x="1012" 
d="M980 89q0 -41 -29 -70t-69 -29q-52 0 -86 51l-149 224h-40v-174q0 -41 -29.5 -71t-71.5 -30t-71.5 30t-29.5 71v174h-40l-149 -224q-34 -51 -86 -51q-40 0 -69 29t-29 70q0 32 17 55l159 205l-140 180q-16 19 -16 53q0 39 27.5 67t66.5 28q53 0 85 -49l135 -207h39v155
q0 41 29.5 71t71.5 30t71.5 -30t29.5 -71v-155h39l135 207q32 49 85 49q39 0 66.5 -28t27.5 -67q0 -34 -16 -53l-140 -180l159 -205q17 -23 17 -55z" />
    <glyph glyph-name="uni0417" unicode="&#x417;" horiz-adv-x="637" 
d="M38 115q0 35 25 60t60 25q21 0 37 -8q69 -34 142 -34q50 0 78.5 13.5t28.5 35.5t-25.5 33t-87.5 11h-46q-39 0 -65.5 22.5t-26.5 62.5t26.5 61.5t66.5 21.5h45q102 0 102 41q0 23 -29.5 35t-79.5 12q-66 0 -127 -31q-16 -9 -36 -9q-34 0 -58 23.5t-24 57.5q0 46 39 70
q98 59 228 59q134 0 211 -50.5t77 -134.5q0 -52 -42 -96q-40 -41 -105 -52q63 -6 110.5 -49.5t47.5 -106.5q0 -89 -84.5 -144.5t-215.5 -55.5q-132 0 -227 52q-45 25 -45 75z" />
    <glyph glyph-name="uni0418" unicode="&#x418;" horiz-adv-x="750" 
d="M155 677q42 0 71.5 -30t29.5 -71v-285l200 325q40 61 111 61q53 0 91 -38.5t38 -90.5v-457q0 -41 -29.5 -71t-71.5 -30t-71.5 30t-29.5 71v307l-217 -351q-34 -57 -102 -57q-49 0 -86 35q-35 35 -35 85v466q0 41 29.5 71t71.5 30z" />
    <glyph glyph-name="uni0419" unicode="&#x419;" horiz-adv-x="750" 
d="M155 677q42 0 71.5 -30t29.5 -71v-285l200 325q40 61 111 61q53 0 91 -38.5t38 -90.5v-457q0 -41 -29.5 -71t-71.5 -30t-71.5 30t-29.5 71v307l-217 -351q-34 -57 -102 -57q-49 0 -86 35q-35 35 -35 85v466q0 41 29.5 71t71.5 30zM230 758q-23 20 -23 47q0 25 17.5 42
t42.5 17q21 0 37 -13q32 -26 71 -26q37 0 72 26q16 13 37 13q24 0 41.5 -17t17.5 -42q0 -27 -22 -46q-64 -52 -146 -52q-81 0 -145 51z" />
    <glyph glyph-name="uni041A" unicode="&#x41a;" horiz-adv-x="671" 
d="M639 89q0 -40 -28.5 -69.5t-69.5 -29.5q-46 0 -74 33l-169 211l-42 -50v-93q0 -41 -29.5 -71t-71.5 -30t-71.5 30t-29.5 71v485q0 41 29.5 71t71.5 30t71.5 -30t29.5 -71v-158l199 228q28 31 70 31q40 0 67 -28.5t27 -66.5t-22 -61l-152 -163l172 -207q22 -25 22 -62z
" />
    <glyph glyph-name="uni041B" unicode="&#x41b;" horiz-adv-x="751" 
d="M495 91v400h-155l-4 -53q-17 -207 -65 -305q-48 -100 -127 -134q-21 -9 -46 -9q-37 0 -64.5 28.5t-27.5 68.5q0 61 55 88q38 19 66 98.5t34 205.5l7 79q5 55 30 82t74 27h318q52 0 79.5 -27.5t27.5 -79.5v-469q0 -41 -29.5 -71t-71.5 -30t-71.5 30t-29.5 71z" />
    <glyph glyph-name="uni041C" unicode="&#x41c;" horiz-adv-x="900" 
d="M644 91v330l-139 -392q-6 -17 -21.5 -28t-33.5 -11t-33.5 11t-21.5 28l-139 392v-330q0 -41 -29.5 -71t-71.5 -30t-71.5 30t-29.5 71v425q0 66 47.5 113.5t113.5 47.5q51 0 93 -30t59 -78l83 -242l83 242q17 48 59 78t93 30q66 0 113.5 -47.5t47.5 -113.5v-425
q0 -41 -29.5 -71t-71.5 -30t-71.5 30t-29.5 71z" />
    <glyph glyph-name="uni041D" unicode="&#x41d;" horiz-adv-x="751" 
d="M495 91v164h-239v-164q0 -41 -29.5 -71t-71.5 -30t-71.5 30t-29.5 71v485q0 41 29.5 71t71.5 30t71.5 -30t29.5 -71v-145h239v145q0 41 29.5 71t71.5 30t71.5 -30t29.5 -71v-485q0 -41 -29.5 -71t-71.5 -30t-71.5 30t-29.5 71z" />
    <glyph glyph-name="uni041E" unicode="&#x41e;" horiz-adv-x="766" 
d="M383 678q154 2 261 -97.5t104 -247.5q3 -149 -104 -248.5t-261 -96.5q-154 -3 -261 96.5t-104 248.5q-3 148 104 247.5t261 97.5zM383 500q-70 0 -115 -48t-45 -119t45 -119t115 -48t115 48t45 119t-45 119t-115 48z" />
    <glyph glyph-name="uni041F" unicode="&#x41f;" horiz-adv-x="751" 
d="M495 91v400h-239v-400q0 -41 -29.5 -71t-71.5 -30t-71.5 30t-29.5 71v469q0 52 27.5 79.5t79.5 27.5h429q52 0 79.5 -27.5t27.5 -79.5v-469q0 -41 -29.5 -71t-71.5 -30t-71.5 30t-29.5 71z" />
    <glyph glyph-name="uni0420" unicode="&#x420;" horiz-adv-x="662" 
d="M54 91v469q0 52 27.5 79.5t79.5 27.5h249q111 0 175.5 -65t64.5 -164q0 -98 -64 -161t-176 -63h-154v-123q0 -41 -29.5 -71t-71.5 -30t-71.5 30t-29.5 71zM384 499h-128v-117h128q27 0 44 16t17 42t-17.5 42.5t-43.5 16.5z" />
    <glyph glyph-name="uni0421" unicode="&#x421;" horiz-adv-x="687" 
d="M18 333q-2 149 103.5 248t258.5 97q156 0 246 -99q26 -29 26 -65q0 -39 -28 -67t-68 -28q-44 0 -71 32q-43 49 -105 49q-68 0 -112.5 -48.5t-44.5 -118.5t44.5 -118.5t112.5 -48.5q62 0 105 49q27 32 71 32q39 0 67 -28t28 -67q0 -35 -25 -63q-95 -101 -246 -101
q-152 -3 -258.5 96.5t-103.5 248.5z" />
    <glyph glyph-name="uni0422" unicode="&#x422;" horiz-adv-x="595" 
d="M197 91v400h-101q-36 0 -62 25.5t-26 62.5t26 62.5t62 25.5h403q36 0 62 -25.5t26 -62.5t-26 -62.5t-62 -25.5h-100v-400q0 -41 -29.5 -71t-71.5 -30t-71.5 30t-29.5 71z" />
    <glyph glyph-name="uni0423" unicode="&#x423;" horiz-adv-x="626" 
d="M621 577q0 -22 -9 -40l-170 -361q-45 -98 -108 -143t-157 -45h-3q-39 0 -65.5 24.5t-26.5 62.5q0 33 20 58t50 32l9 1h2q40 1 62 26l-197 336q-13 22 -13 49q0 41 29.5 70.5t71.5 29.5q28 0 52 -15t37 -39l128 -232l95 223q12 28 37.5 45.5t55.5 17.5q41 0 70.5 -29.5
t29.5 -70.5z" />
    <glyph glyph-name="uni0424" unicode="&#x424;" horiz-adv-x="904" 
d="M551 68q-6 -39 -31.5 -60t-67.5 -21t-67.5 21t-31.5 60q-163 14 -249 81.5t-86 183.5t86 183.5t249 81.5q6 39 31.5 60t67.5 21t67.5 -21t31.5 -60q163 -14 249 -81.5t86 -183.5t-86 -183.5t-249 -81.5zM351 247v172q-128 -16 -128 -86t128 -86zM681 333q0 70 -128 86
v-172q128 16 128 86z" />
    <glyph glyph-name="uni0425" unicode="&#x425;" horiz-adv-x="684" 
d="M662 89q0 -41 -29 -70t-69 -29q-46 0 -73 32l-149 178l-149 -178q-27 -32 -73 -32q-40 0 -69 29t-29 70q0 37 24 64l168 188l-156 172q-24 27 -24 66q0 41 29.5 69.5t69.5 28.5q47 0 77 -38l132 -162l132 162q30 38 77 38q40 0 69.5 -28.5t29.5 -69.5q0 -40 -15 -55
l-165 -183l168 -188q24 -27 24 -64z" />
    <glyph glyph-name="uni0426" unicode="&#x426;" horiz-adv-x="768" 
d="M755 88v-123q0 -37 -25.5 -62.5t-62.5 -25.5t-62.5 25.5t-25.5 62.5v35h-418q-52 0 -79.5 27.5t-27.5 79.5v469q0 41 29.5 71t71.5 30t71.5 -30t29.5 -71v-400h219v400q0 41 29.5 71t71.5 30t71.5 -30t29.5 -71v-401q33 -3 55.5 -28t22.5 -59z" />
    <glyph glyph-name="uni0427" unicode="&#x427;" horiz-adv-x="691" 
d="M338 374q53 0 97 25v177q0 41 29.5 70.5t71.5 29.5t71.5 -29.5t29.5 -70.5v-485q0 -41 -29.5 -71t-71.5 -30t-71.5 30t-29.5 71v152q-72 -45 -173 -45q-221 0 -221 258v120q0 41 30 71q30 31 72 31t71 -30t29 -72v-120q0 -82 95 -82z" />
    <glyph glyph-name="uni0428" unicode="&#x428;" horiz-adv-x="1052" 
d="M998 576v-469q0 -52 -27.5 -79.5t-79.5 -27.5h-730q-52 0 -79.5 27.5t-27.5 79.5v469q0 41 29.5 71t71.5 30t71.5 -30t29.5 -71v-400h169v400q0 41 29.5 71t71.5 30t71.5 -30t29.5 -71v-400h169v400q0 41 29.5 71t71.5 30t71.5 -30t29.5 -71z" />
    <glyph glyph-name="uni0429" unicode="&#x429;" horiz-adv-x="1089" 
d="M1076 88v-123q0 -37 -25.5 -62.5t-62.5 -25.5t-62.5 25.5t-25.5 62.5v35h-739q-52 0 -79.5 27.5t-27.5 79.5v469q0 41 29.5 71t71.5 30t71.5 -30t29.5 -71v-400h169v400q0 41 29.5 71t71.5 30t71.5 -30t29.5 -71v-400h169v400q0 41 29.5 71t71.5 30t71.5 -30t29.5 -71
v-401q33 -3 55.5 -28t22.5 -59z" />
    <glyph glyph-name="uni042A" unicode="&#x42a;" horiz-adv-x="805" 
d="M197 107v384h-101q-36 0 -62 25.5t-26 62.5t26 62.5t62 25.5h196q52 0 79.5 -27.5t27.5 -79.5v-103h154q111 0 175.5 -65t64.5 -163q0 -99 -64.5 -164t-175.5 -65h-249q-52 0 -79.5 27.5t-27.5 79.5zM399 281v-105h128q28 0 44.5 13.5t16.5 39.5q0 24 -17 38t-44 14h-128
z" />
    <glyph glyph-name="uni042B" unicode="&#x42b;" horiz-adv-x="947" 
d="M256 576v-119h154q111 0 175.5 -65t64.5 -163q0 -99 -64.5 -164t-175.5 -65h-249q-52 0 -79.5 27.5t-27.5 79.5v469q0 41 29.5 71t71.5 30t71.5 -30t29.5 -71zM691 91v485q0 41 29.5 71t71.5 30t71.5 -30t29.5 -71v-485q0 -41 -29.5 -71t-71.5 -30t-71.5 30t-29.5 71z
M256 281v-105h128q28 0 44.5 13.5t16.5 39.5q0 24 -17 38t-44 14h-128z" />
    <glyph glyph-name="uni042C" unicode="&#x42c;" horiz-adv-x="662" 
d="M256 576v-119h154q111 0 175.5 -65t64.5 -163q0 -99 -64.5 -164t-175.5 -65h-249q-52 0 -79.5 27.5t-27.5 79.5v469q0 41 29.5 71t71.5 30t71.5 -30t29.5 -71zM256 281v-105h128q28 0 44.5 13.5t16.5 39.5q0 24 -17 38t-44 14h-128z" />
    <glyph glyph-name="uni042D" unicode="&#x42d;" horiz-adv-x="697" 
d="M679 333q2 -150 -104.5 -248.5t-262.5 -96.5q-149 0 -241 101q-25 28 -25 63q0 40 27.5 67.5t67.5 27.5q44 0 71 -32q43 -49 108 -49q103 0 139 87h-156q-34 0 -59 25t-25 59q0 35 25 59.5t59 24.5h153q-40 79 -136 79q-65 0 -108 -49q-26 -31 -71 -31q-40 0 -67.5 27.5
t-27.5 67.5q0 36 25 64q90 99 241 99q156 2 262.5 -96.5t104.5 -248.5z" />
    <glyph glyph-name="uni042E" unicode="&#x42e;" horiz-adv-x="1108" 
d="M1090 333q3 -149 -104 -248.5t-261 -96.5q-134 0 -233 73.5t-124 193.5h-112v-164q0 -41 -29.5 -71t-71.5 -30t-71.5 30t-29.5 71v485q0 41 29.5 71t71.5 30t71.5 -30t29.5 -71v-145h117q32 112 128 179.5t224 67.5q154 2 261 -97.5t104 -247.5zM885 333q0 71 -45 119
t-115 48t-115 -48t-45 -119t45 -119t115 -48t115 48t45 119z" />
    <glyph glyph-name="uni042F" unicode="&#x42f;" horiz-adv-x="678" 
d="M624 560v-469q0 -41 -29.5 -71t-71.5 -30t-71.5 30t-29.5 71v123h-76l-129 -183q-29 -41 -81 -41q-41 0 -71 29t-30 72q0 38 22 63l73 92q-102 63 -102 192q0 99 64.5 164t175.5 65h249q52 0 79.5 -27.5t27.5 -79.5zM422 382v117h-123q-28 0 -47 -16t-19 -42t19 -42.5
t47 -16.5h123z" />
    <glyph glyph-name="uni0430" unicode="&#x430;" horiz-adv-x="559" 
d="M509 292v-206q0 -40 -25.5 -68t-64.5 -28q-29 0 -53.5 16t-35.5 42q-20 -26 -61 -43t-86 -17q-64 0 -115 42.5t-51 116.5q0 81 49 115t117 34q48 0 87.5 -14t58.5 -39v55q0 27 -24 43.5t-66 16.5q-47 0 -92 -22q-12 -6 -26 -6q-27 0 -46 19t-19 46q0 39 36 58
q84 42 180 42q105 0 170 -46q67 -46 67 -157zM329 131v27q-19 26 -71 26q-63 0 -63 -40q0 -39 63 -39q52 0 71 26z" />
    <glyph glyph-name="uni0431" unicode="&#x431;" horiz-adv-x="577" 
d="M306 666l81 15q12 2 25 2q40 0 63 -23t23 -64q0 -29 -19 -50.5t-52 -27.5l-81 -14q-181 -31 -204 -133q30 41 81 62.5t111 21.5q98 0 162 -61.5t64 -160.5q0 -106 -74 -175.5t-198 -69.5q-127 0 -199 82.5t-72 224.5q0 319 289 371zM288 336q-39 0 -62.5 -26t-23.5 -67
q0 -43 23.5 -69.5t62.5 -26.5q41 0 64 26.5t23 69.5q0 41 -23.5 67t-63.5 26z" />
    </font>
</defs>
</svg>
