<?xml version="1.0" standalone="no"?>
<!DOCTYPE svg PUBLIC "-//W3C//DTD SVG 1.1//EN" "http://www.w3.org/Graphics/SVG/1.1/DTD/svg11.dtd" >
<svg xmlns="http://www.w3.org/2000/svg" xmlns:xlink="http://www.w3.org/1999/xlink" version="1.1">
<metadata>
Created by FontForge 20170731 at Tue Dec 25 03:00:00 2018
 By Aleksey,,,
Copyright (c) 2018 by Mark Simonson. All rights reserved.
</metadata>
<defs>
<font id="ProximaSoft-Bold" horiz-adv-x="579" >
  <font-face 
    font-family="Proxima Soft"
    font-weight="700"
    font-stretch="normal"
    units-per-em="1000"
    panose-1="2 0 5 6 3 0 0 2 0 4"
    ascent="790"
    descent="-210"
    x-height="483"
    cap-height="667"
    bbox="-385 -351 1196 1090"
    underline-thickness="88"
    underline-position="-404"
    unicode-range="U+000D-FB04"
  />
<missing-glyph horiz-adv-x="483" 
d="M66 -48v758q0 19 11.5 30.5t30.5 11.5h267q19 0 30.5 -11.5t11.5 -30.5v-758q0 -19 -11.5 -30.5t-30.5 -11.5h-267q-19 0 -30.5 11.5t-11.5 30.5zM385 722h-288v-782h288v782z" />
    <glyph glyph-name="f_f_j" unicode="ffj" horiz-adv-x="907" 
d="M219 507v-24h49q23 0 39.5 -16.5t16.5 -39.5t-16.5 -39t-39.5 -16h-49v-315q0 -26 -19 -45t-45 -19t-45 19t-19 45v315h-31q-23 0 -39.5 16t-16.5 39t16.5 39.5t39.5 16.5h31v26q0 77 45 122.5t118 45.5q27 0 51 -6q17 -4 28 -16.5t11 -30.5q0 -21 -13 -34.5t-34 -13.5
l-18 1q-28 0 -44 -18.5t-16 -51.5zM546 507v-24h49q23 0 39.5 -16.5t16.5 -39.5t-16.5 -39t-39.5 -16h-49v-315q0 -26 -19 -45t-45 -19t-45 19t-19 45v315h-31q-23 0 -39.5 16t-16.5 39t16.5 39.5t39.5 16.5h31v26q0 77 45 122.5t118 45.5q27 0 51 -6q17 -4 28 -16.5
t11 -30.5q0 -21 -13 -34.5t-34 -13.5l-18 1q-28 0 -44 -18.5t-16 -51.5zM704 638q0 31 22.5 53.5t53.5 22.5q32 0 54 -22t22 -54q0 -31 -22 -53.5t-54 -22.5q-31 0 -53.5 22.5t-22.5 53.5zM677 -196h-10q-24 0 -40.5 16t-16.5 40q0 19 12 34t30 16h4q61 5 61 77v439
q0 26 18.5 45t45.5 19q26 0 44.5 -19t18.5 -45v-439q0 -85 -43.5 -134t-123.5 -49z" />
    <glyph glyph-name="f_j" unicode="fj" horiz-adv-x="580" 
d="M219 507v-24h49q23 0 39.5 -16.5t16.5 -39.5t-16.5 -39t-39.5 -16h-49v-315q0 -26 -19 -45t-45 -19t-45 19t-19 45v315h-31q-23 0 -39.5 16t-16.5 39t16.5 39.5t39.5 16.5h31v26q0 77 45 122.5t118 45.5q27 0 51 -6q17 -4 28 -16.5t11 -30.5q0 -21 -13 -34.5t-34 -13.5
l-18 1q-28 0 -44 -18.5t-16 -51.5zM377 638q0 31 22.5 53.5t53.5 22.5q32 0 54 -22t22 -54q0 -31 -22 -53.5t-54 -22.5q-31 0 -53.5 22.5t-22.5 53.5zM350 -196h-10q-24 0 -40.5 16t-16.5 40q0 19 12 34t30 16h4q61 5 61 77v439q0 26 18.5 45t45.5 19q26 0 44.5 -19
t18.5 -45v-439q0 -85 -43.5 -134t-123.5 -49z" />
    <glyph glyph-name="f_f" unicode="ff" horiz-adv-x="654" 
d="M219 507v-24h49q23 0 39.5 -16.5t16.5 -39.5t-16.5 -39t-39.5 -16h-49v-315q0 -26 -19 -45t-45 -19t-45 19t-19 45v315h-31q-23 0 -39.5 16t-16.5 39t16.5 39.5t39.5 16.5h31v26q0 77 45 122.5t118 45.5q27 0 51 -6q17 -4 28 -16.5t11 -30.5q0 -21 -13 -34.5t-34 -13.5
l-18 1q-28 0 -44 -18.5t-16 -51.5zM546 507v-24h49q23 0 39.5 -16.5t16.5 -39.5t-16.5 -39t-39.5 -16h-49v-315q0 -26 -19 -45t-45 -19t-45 19t-19 45v315h-31q-23 0 -39.5 16t-16.5 39t16.5 39.5t39.5 16.5h31v26q0 77 45 122.5t118 45.5q27 0 51 -6q17 -4 28 -16.5
t11 -30.5q0 -21 -13 -34.5t-34 -13.5l-18 1q-28 0 -44 -18.5t-16 -51.5z" />
    <glyph glyph-name="fi" unicode="fi" horiz-adv-x="580" 
d="M219 507v-24h49q23 0 39.5 -16.5t16.5 -39.5t-16.5 -39t-39.5 -16h-49v-315q0 -26 -19 -45t-45 -19t-45 19t-19 45v315h-31q-23 0 -39.5 16t-16.5 39t16.5 39.5t39.5 16.5h31v26q0 77 45 122.5t118 45.5q27 0 51 -6q17 -4 28 -16.5t11 -30.5q0 -21 -13 -34.5t-34 -13.5
l-18 1q-28 0 -44 -18.5t-16 -51.5zM377 638q0 31 22.5 53.5t53.5 22.5q32 0 54 -22t22 -54q0 -31 -22 -53.5t-54 -22.5q-31 0 -53.5 22.5t-22.5 53.5zM390 57v369q0 26 18.5 45t45.5 19q26 0 44.5 -19t18.5 -45v-369q0 -26 -19 -45t-45 -19t-44.5 19t-18.5 45z" />
    <glyph glyph-name="fl" unicode="fl" horiz-adv-x="580" 
d="M219 507v-24h49q23 0 39.5 -16.5t16.5 -39.5t-16.5 -39t-39.5 -16h-49v-315q0 -26 -19 -45t-45 -19t-45 19t-19 45v315h-31q-23 0 -39.5 16t-16.5 39t16.5 39.5t39.5 16.5h31v26q0 77 45 122.5t118 45.5q27 0 51 -6q17 -4 28 -16.5t11 -30.5q0 -21 -13 -34.5t-34 -13.5
l-18 1q-28 0 -44 -18.5t-16 -51.5zM390 57v553q0 26 18.5 45t45.5 19q26 0 44.5 -19t18.5 -45v-553q0 -26 -18.5 -45t-44.5 -19q-27 0 -45.5 19t-18.5 45z" />
    <glyph glyph-name="f_f_i" unicode="ffi" horiz-adv-x="907" 
d="M219 507v-24h49q23 0 39.5 -16.5t16.5 -39.5t-16.5 -39t-39.5 -16h-49v-315q0 -26 -19 -45t-45 -19t-45 19t-19 45v315h-31q-23 0 -39.5 16t-16.5 39t16.5 39.5t39.5 16.5h31v26q0 77 45 122.5t118 45.5q27 0 51 -6q17 -4 28 -16.5t11 -30.5q0 -21 -13 -34.5t-34 -13.5
l-18 1q-28 0 -44 -18.5t-16 -51.5zM546 507v-24h49q23 0 39.5 -16.5t16.5 -39.5t-16.5 -39t-39.5 -16h-49v-315q0 -26 -19 -45t-45 -19t-45 19t-19 45v315h-31q-23 0 -39.5 16t-16.5 39t16.5 39.5t39.5 16.5h31v26q0 77 45 122.5t118 45.5q27 0 51 -6q17 -4 28 -16.5
t11 -30.5q0 -21 -13 -34.5t-34 -13.5l-18 1q-28 0 -44 -18.5t-16 -51.5zM704 638q0 31 22.5 53.5t53.5 22.5q32 0 54 -22t22 -54q0 -31 -22 -53.5t-54 -22.5q-31 0 -53.5 22.5t-22.5 53.5zM717 57v369q0 26 18.5 45t45.5 19q26 0 44.5 -19t18.5 -45v-369q0 -26 -19 -45
t-45 -19t-44.5 19t-18.5 45z" />
    <glyph glyph-name="f_f_l" unicode="ffl" horiz-adv-x="907" 
d="M219 507v-24h49q23 0 39.5 -16.5t16.5 -39.5t-16.5 -39t-39.5 -16h-49v-315q0 -26 -19 -45t-45 -19t-45 19t-19 45v315h-31q-23 0 -39.5 16t-16.5 39t16.5 39.5t39.5 16.5h31v26q0 77 45 122.5t118 45.5q27 0 51 -6q17 -4 28 -16.5t11 -30.5q0 -21 -13 -34.5t-34 -13.5
l-18 1q-28 0 -44 -18.5t-16 -51.5zM546 507v-24h49q23 0 39.5 -16.5t16.5 -39.5t-16.5 -39t-39.5 -16h-49v-315q0 -26 -19 -45t-45 -19t-45 19t-19 45v315h-31q-23 0 -39.5 16t-16.5 39t16.5 39.5t39.5 16.5h31v26q0 77 45 122.5t118 45.5q27 0 51 -6q17 -4 28 -16.5
t11 -30.5q0 -21 -13 -34.5t-34 -13.5l-18 1q-28 0 -44 -18.5t-16 -51.5zM717 57v553q0 26 18.5 45t45.5 19q26 0 44.5 -19t18.5 -45v-553q0 -26 -18.5 -45t-44.5 -19q-27 0 -45.5 19t-18.5 45z" />
    <glyph glyph-name="f_b" unicode="fb" horiz-adv-x="912" 
d="M219 507v-24h49q23 0 39.5 -16.5t16.5 -39.5t-16.5 -39t-39.5 -16h-49v-315q0 -26 -19 -45t-45 -19t-45 19t-19 45v315h-31q-23 0 -39.5 16t-16.5 39t16.5 39.5t39.5 16.5h31v26q0 77 45 122.5t118 45.5q27 0 51 -6q17 -4 28 -16.5t11 -30.5q0 -21 -13 -34.5t-34 -13.5
l-18 1q-28 0 -44 -18.5t-16 -51.5zM880 241q0 -117 -60 -185t-154 -68q-88 0 -148 72v-5q0 -26 -19.5 -44t-44.5 -18q-27 0 -45.5 19t-18.5 45v553q0 26 18.5 45t45.5 19q26 0 44.5 -19t18.5 -45v-189q56 74 149 74q94 0 154 -69.5t60 -184.5zM749 241q0 63 -34 102t-89 39
q-31 0 -62 -16t-47 -40v-171q16 -23 47 -38.5t62 -15.5q55 0 89 38.5t34 101.5z" />
    <glyph glyph-name="f_h" unicode="fh" horiz-adv-x="907" 
d="M219 507v-24h49q23 0 39.5 -16.5t16.5 -39.5t-16.5 -39t-39.5 -16h-49v-315q0 -26 -19 -45t-45 -19t-45 19t-19 45v315h-31q-23 0 -39.5 16t-16.5 39t16.5 39.5t39.5 16.5h31v26q0 77 45 122.5t118 45.5q27 0 51 -6q17 -4 28 -16.5t11 -30.5q0 -21 -13 -34.5t-34 -13.5
l-18 1q-28 0 -44 -18.5t-16 -51.5zM717 57v237q0 47 -22 67.5t-68 20.5q-67 0 -110 -57v-268q0 -26 -18.5 -45t-44.5 -19t-45 19t-19 45v553q0 26 19 45t45 19t44.5 -19t18.5 -45v-190q28 33 73 54t97 21q77 0 117 -39.5t40 -112.5v-286q0 -26 -18.5 -45t-45.5 -19
q-26 0 -44.5 19t-18.5 45z" />
    <glyph glyph-name="f_k" unicode="fk" horiz-adv-x="862" 
d="M219 507v-24h49q23 0 39.5 -16.5t16.5 -39.5t-16.5 -39t-39.5 -16h-49v-315q0 -26 -19 -45t-45 -19t-45 19t-19 45v315h-31q-23 0 -39.5 16t-16.5 39t16.5 39.5t39.5 16.5h31v26q0 77 45 122.5t118 45.5q27 0 51 -6q17 -4 28 -16.5t11 -30.5q0 -21 -13 -34.5t-34 -13.5
l-18 1q-28 0 -44 -18.5t-16 -51.5zM831 57q0 -28 -18 -46t-45 -18q-30 0 -49 22l-142 170l-60 -56v-72q0 -26 -19 -45t-45 -19t-44.5 19t-18.5 45v553q0 26 18.5 45t45.5 19q26 0 44.5 -19t18.5 -45v-340l200 203q17 17 42 17t42 -17.5t17 -41.5q0 -25 -17 -42l-131 -128
l148 -165q13 -13 13 -39z" />
    <glyph glyph-name=".notdef" horiz-adv-x="483" 
d="M66 -48v758q0 19 11.5 30.5t30.5 11.5h267q19 0 30.5 -11.5t11.5 -30.5v-758q0 -19 -11.5 -30.5t-30.5 -11.5h-267q-19 0 -30.5 11.5t-11.5 30.5zM385 722h-288v-782h288v782z" />
    <glyph glyph-name=".null" horiz-adv-x="0" 
 />
    <glyph glyph-name="nonmarkingreturn" horiz-adv-x="333" 
 />
    <glyph glyph-name="CR" unicode="&#xd;" horiz-adv-x="0" 
 />
    <glyph glyph-name="space" unicode=" " horiz-adv-x="256" 
 />
    <glyph glyph-name="exclam" unicode="!" horiz-adv-x="256" 
d="M69 266l-15 331q-1 31 20.5 54t52.5 23q32 0 53.5 -22.5t20.5 -54.5l-14 -331q-1 -24 -18 -40t-41 -16t-40.5 16t-18.5 40zM128 151q33 0 57 -24t24 -57q0 -32 -24 -56t-57 -24t-56.5 24t-23.5 56q0 33 23.5 57t56.5 24z" />
    <glyph glyph-name="quotedbl" unicode="&#x22;" horiz-adv-x="406" 
d="M81 395q-10 48 -25 134q-12 69 -12 79q0 29 20.5 49t48.5 20t48.5 -20.5t20.5 -48.5q0 -19 -37 -213q-5 -26 -32 -26t-32 26zM263 395q-17 78 -27 141q-11 66 -11 72q0 29 20.5 49t48.5 20t48 -20t20 -49q0 -7 -11 -71q-16 -94 -26 -142q-5 -26 -31 -26t-31 26z" />
    <glyph glyph-name="numbersign" unicode="#" horiz-adv-x="618" 
d="M595 456q0 -16 -11.5 -28t-28.5 -12h-78l-55 -166h54q17 0 28.5 -11.5t11.5 -28.5t-11.5 -29t-28.5 -12h-81l-49 -146q-4 -13 -16 -21.5t-26 -8.5q-18 0 -31 13t-13 31q0 5 2 15l40 117h-95l-49 -146q-12 -30 -42 -30q-19 0 -32 13t-13 31q0 9 3 15l39 117h-48
q-17 0 -28.5 12t-11.5 29t11.5 28.5t28.5 11.5h76l54 166h-51q-16 0 -28 12t-12 28t12 28t28 12h79l48 148q11 30 43 30q18 0 31 -13t13 -31q0 -12 -1 -14l-40 -120h94l49 148q4 13 16 21.5t26 8.5q18 0 31 -13t13 -31q0 -6 -2 -14l-40 -120h51q17 0 28.5 -11.5t11.5 -28.5z
M328 250l55 166h-94l-54 -166h93z" />
    <glyph glyph-name="dollar" unicode="$" horiz-adv-x="614" 
d="M361 -9v-51q0 -19 -14 -33t-34 -14q-19 0 -33 14t-14 33v50q-107 7 -189 65q-29 20 -29 56q0 27 19 46.5t47 19.5q20 0 37 -12q56 -38 115 -48v157q-50 12 -84.5 25.5t-66 36t-47.5 57t-17 81.5q0 78 59 135t156 66v53q0 19 14 33t33 14q20 0 34 -14t14 -33v-55
q83 -9 150 -50q33 -18 33 -57q0 -27 -19.5 -46.5t-46.5 -19.5q-18 0 -34 10q-37 25 -83 35v-140q108 -28 162 -70.5t57 -132.5q0 -88 -56.5 -144t-162.5 -67zM275 426v127q-78 -8 -78 -67q0 -40 78 -60zM435 186q0 25 -19.5 40t-63.5 28v-140q40 6 61.5 25.5t21.5 46.5z" />
    <glyph glyph-name="percent" unicode="%" horiz-adv-x="757" 
d="M26 509q0 72 47 120t122 48t122.5 -48t47.5 -120q0 -71 -47 -117.5t-123 -46.5q-75 0 -122 46.5t-47 117.5zM151 25q0 8 6 17l393 617q10 15 28 15q14 0 23 -9t9 -23q0 -9 -5 -17l-395 -617q-10 -15 -27 -15q-13 0 -22.5 9.5t-9.5 22.5zM274 509q0 44 -21.5 70t-57.5 26
t-57.5 -26t-21.5 -70q0 -42 22.5 -68t56.5 -26q35 0 57 25.5t22 68.5zM393 153q0 72 47 120t122 48q74 0 122 -48t48 -120q0 -70 -48 -117.5t-122 -47.5q-75 0 -122 47t-47 118zM642 153q0 44 -22 70t-58 26t-57.5 -26t-21.5 -70t21.5 -69.5t57.5 -25.5q35 0 57.5 26
t22.5 69z" />
    <glyph glyph-name="ampersand" unicode="&#x26;" horiz-adv-x="646" 
d="M599 53q0 -25 -18 -42.5t-42 -17.5q-22 0 -36 10q-37 28 -67 55q-88 -70 -192 -70q-96 0 -158 50t-62 143q0 66 36 110.5t108 82.5q-45 83 -45 143q0 68 54.5 114t136.5 46q74 0 124 -39q51 -38 51 -102q-2 -69 -39.5 -105.5t-123.5 -77.5q20 -29 57 -72q25 -33 58 -66
q19 30 43 82q14 32 49 32q22 0 38 -15.5t16 -37.5q0 -12 -6 -25q-34 -63 -65 -106l57 -43q26 -18 26 -49zM279 424q52 25 76 49t24 56q0 26 -17 41t-42 15q-30 0 -50 -20.5t-20 -50.5q0 -34 29 -90zM362 126q-58 57 -78 81q-46 58 -67 88q-58 -42 -58 -102q0 -46 29.5 -75.5
t73.5 -29.5q50 0 100 38z" />
    <glyph glyph-name="quotesingle" unicode="'" horiz-adv-x="225" 
d="M81 395q-10 48 -25 134q-12 69 -12 79q0 29 20.5 49t48.5 20t48.5 -20.5t20.5 -48.5q0 -19 -37 -213q-5 -26 -32 -26t-32 26z" />
    <glyph glyph-name="parenleft" unicode="(" horiz-adv-x="297" 
d="M168 -161q-60 84 -93.5 191t-33.5 213t33.5 213t93.5 191q17 23 45 23q22 0 38 -16t16 -39q0 -13 -5 -25q-84 -161 -84 -347q0 -183 83 -346q6 -12 6 -25q0 -23 -16 -39.5t-38 -16.5q-28 0 -45 23z" />
    <glyph glyph-name="parenright" unicode=")" horiz-adv-x="297" 
d="M29 -128q0 14 6 25q84 161 84 346q0 186 -84 347q-6 12 -6 25q0 23 16.5 39t38.5 16q27 0 44 -23q61 -84 95 -191t34 -213t-33.5 -212.5t-94.5 -191.5q-17 -23 -45 -23q-23 0 -39 16.5t-16 39.5z" />
    <glyph glyph-name="asterisk" unicode="*" horiz-adv-x="351" 
d="M145 390l4 87l-72 -47q-8 -5 -17 -5q-12 0 -20.5 9t-8.5 21q0 19 15 27l77 39l-77 39q-15 9 -15 27q0 13 8.5 21.5t20.5 8.5q10 0 17 -4l72 -47l-4 87q-1 12 8.5 21.5t21.5 9.5q13 0 22.5 -9t8.5 -22l-5 -87l72 47q9 4 17 4q12 0 21 -8.5t9 -21.5q0 -17 -16 -27l-76 -39
l76 -39q16 -7 16 -27q0 -12 -9 -21t-21 -9q-10 0 -17 5l-72 47l5 -87q1 -13 -8.5 -22t-22.5 -9q-12 0 -21.5 9t-8.5 22z" />
    <glyph glyph-name="plus" unicode="+" horiz-adv-x="504" 
d="M296 298v-167q0 -18 -13 -30.5t-31 -12.5q-17 0 -30 12.5t-13 30.5v167h-148q-16 0 -27.5 11.5t-11.5 27.5t11.5 28t27.5 12h148v159q0 18 13 30.5t30 12.5q18 0 31 -12.5t13 -30.5v-159h147q17 0 28.5 -11.5t11.5 -28.5q0 -16 -11.5 -27.5t-28.5 -11.5h-147z" />
    <glyph glyph-name="comma" unicode="," horiz-adv-x="256" 
d="M107 -133q-14 0 -24 10t-10 24q0 15 11 26q43 40 50 74q-9 -3 -19 -3q-29 0 -48.5 20.5t-19.5 52.5q0 33 23 56.5t55 23.5q38 0 64 -28t26 -74q0 -99 -85 -173q-9 -9 -23 -9z" />
    <glyph glyph-name="hyphen" unicode="-" horiz-adv-x="300" 
d="M22 242q0 22 16 38t38 16h148q22 0 38 -16t16 -38t-16 -38t-38 -16h-148q-22 0 -38 16t-16 38z" />
    <glyph glyph-name="period" unicode="." horiz-adv-x="256" 
d="M128 151q33 0 57 -24t24 -57t-24 -57t-57 -24t-57 24t-24 57t24 57t57 24z" />
    <glyph glyph-name="slash" unicode="/" horiz-adv-x="329" 
d="M14 16q0 9 3 15l213 634q12 29 41 29q18 0 31 -12.5t13 -30.5q0 -9 -3 -14l-213 -635q-12 -29 -41 -29q-18 0 -31 12.5t-13 30.5z" />
    <glyph glyph-name="zero" unicode="0" horiz-adv-x="620" 
d="M310 677q66 1 120 -27.5t87.5 -77t51 -110.5t17.5 -129q0 -68 -17.5 -129.5t-51 -110.5t-87.5 -77.5t-120 -27.5q-66 -1 -120 27.5t-87.5 77.5t-51 110.5t-17.5 129.5q0 67 17.5 129t51 110.5t87.5 77t120 27.5zM310 551q-66 0 -99 -58t-33 -160q0 -103 33 -161t99 -58
t98.5 58t32.5 161t-32.5 160.5t-98.5 57.5z" />
    <glyph glyph-name="one" unicode="1" horiz-adv-x="408" 
d="M200 64v420l-73 -75q-18 -18 -42 -18q-25 0 -42 17.5t-17 41.5q0 22 17 42l158 158q24 24 59 24q34 0 58 -24t24 -58v-528q0 -29 -21 -50t-50 -21q-30 0 -50.5 21t-20.5 50z" />
    <glyph glyph-name="two" unicode="2" horiz-adv-x="590" 
d="M30 74q0 38 31 59q133 97 203 154q68 56 97 96.5t29 80.5t-31 63.5t-78 23.5q-77 0 -141 -45q-17 -11 -35 -11q-26 0 -44.5 18.5t-18.5 44.5q0 32 26 51q91 68 211 68q110 0 182.5 -58.5t72.5 -154.5q0 -80 -64.5 -159t-208.5 -180h222q26 0 44.5 -18.5t18.5 -43.5
q0 -26 -18.5 -44.5t-44.5 -18.5h-379q-30 0 -52 21.5t-22 52.5z" />
    <glyph glyph-name="three" unicode="3" horiz-adv-x="578" 
d="M53 56q-26 18 -26 50q0 26 18.5 44t44.5 18q16 0 33 -11q68 -45 146 -45q59 0 92.5 23.5t33.5 62.5q0 41 -32.5 60t-101.5 19h-28q-26 0 -44 18t-18 44q0 25 18 42.5t43 17.5h29q58 0 90.5 19t32.5 55q0 38 -34 59t-90 21q-72 0 -134 -42q-14 -10 -32 -10
q-24 0 -41.5 17.5t-17.5 41.5q0 28 24 47q89 70 216 70q117 0 184.5 -49t67.5 -132q0 -61 -43 -101q-44 -41 -103 -51q61 -7 108.5 -50t47.5 -110q0 -86 -72.5 -141t-190.5 -55q-132 0 -221 68z" />
    <glyph glyph-name="four" unicode="4" horiz-adv-x="597" 
d="M579 201q0 -27 -18.5 -45t-45.5 -18h-29v-74q0 -29 -20.5 -50t-49.5 -21q-30 0 -51 21t-21 50v74h-248q-32 0 -55 23t-23 55q0 21 12 42l228 358q38 58 105 58q51 0 87 -37q36 -36 36 -87v-287h28q27 0 46 -18t19 -44zM164 263h180v278z" />
    <glyph glyph-name="five" unicode="5" horiz-adv-x="608" 
d="M68 101q0 26 18.5 44.5t44.5 18.5q21 0 34 -10q59 -42 140 -42q56 0 90 28t34 72q0 46 -32 74t-88 28q-66 0 -116 -38q-19 -15 -47 -15q-31 0 -53.5 22.5t-22.5 53.5v255q0 75 75 75h329q25 0 43.5 -18t18.5 -44q0 -25 -18.5 -42.5t-43.5 -17.5h-265v-167q63 56 150 56
q88 0 151 -60t63 -156q0 -105 -73 -167.5t-194 -62.5q-125 0 -210 61q-28 19 -28 52z" />
    <glyph glyph-name="six" unicode="6" horiz-adv-x="608" 
d="M345 677q81 0 148 -38q34 -15 34 -54q0 -25 -18 -43t-43 -18q-19 0 -29 7q-41 23 -92 23q-73 0 -120 -56t-47 -137q0 -11 1 -14q25 37 72.5 61t98.5 24q96 0 161.5 -57.5t65.5 -157.5q0 -98 -71.5 -163.5t-183.5 -65.5q-142 0 -215 95t-73 249q0 155 83.5 250t227.5 95z
M309 314q-79 0 -130 -64q5 -56 38 -97q35 -41 98 -41q53 0 85.5 30t32.5 69q0 49 -34.5 76t-89.5 27z" />
    <glyph glyph-name="seven" unicode="7" horiz-adv-x="548" 
d="M158 64q0 10 6 29l199 449h-280q-26 0 -44.5 18.5t-18.5 43.5q0 26 18.5 44.5t44.5 18.5h384q28 0 48 -20t20 -48q0 -15 -6 -27l-234 -536q-18 -43 -66 -43q-29 0 -50 21t-21 50z" />
    <glyph glyph-name="eight" unicode="8" horiz-adv-x="606" 
d="M178 344q-132 46 -132 157q0 84 75.5 130t181.5 46t181.5 -46t75.5 -130q0 -111 -133 -157q64 -22 104 -68t40 -103q0 -87 -77 -136t-191 -49t-191 49t-77 136q0 57 39.5 103t103.5 68zM303 555q-51 0 -82 -20.5t-31 -55.5t36 -55q37 -20 77 -26q41 6 76 26q36 20 36 55
t-30.5 55.5t-81.5 20.5zM303 281q-42 -4 -83 -29q-41 -23 -41 -62q0 -36 35 -58t89 -22q53 0 88.5 22.5t35.5 57.5q0 39 -41 62q-41 25 -83 29z" />
    <glyph glyph-name="nine" unicode="9" horiz-adv-x="608" 
d="M81 81q0 25 18 43t43 18q18 0 28 -7q40 -22 93 -22q75 0 121 56t46 136v14q-27 -37 -74.5 -61.5t-97.5 -24.5q-97 0 -162.5 58t-65.5 158q0 98 72 163.5t184 65.5q141 0 214 -95.5t73 -249.5q0 -155 -83 -249.5t-227 -94.5q-80 0 -148 38q-34 19 -34 54zM292 555
q-52 0 -84.5 -30.5t-32.5 -69.5q0 -49 34.5 -75.5t88.5 -26.5q80 0 131 62q-6 61 -40.5 100.5t-96.5 39.5z" />
    <glyph glyph-name="colon" unicode=":" horiz-adv-x="256" 
d="M128 490q33 0 57 -24t24 -57t-24 -57t-57 -24t-57 24t-24 57t24 57t57 24zM128 151q33 0 57 -24t24 -57t-24 -57t-57 -24t-57 24t-24 57t24 57t57 24z" />
    <glyph glyph-name="semicolon" unicode=";" horiz-adv-x="256" 
d="M47 409q0 33 24 57t57 24t57 -24t24 -57q0 -32 -24 -56.5t-57 -24.5t-57 24.5t-24 56.5zM107 -133q-14 0 -24 10t-10 25q0 16 11 25q42 39 50 76q-5 -4 -19 -4q-29 0 -48.5 20.5t-19.5 51.5q0 33 23 56.5t55 23.5q38 0 64 -28t26 -74q0 -99 -85 -173q-11 -9 -23 -9z" />
    <glyph glyph-name="less" unicode="&#x3c;" horiz-adv-x="504" 
d="M22 335q0 40 39 60l362 162q7 4 16 4q19 0 31.5 -13t12.5 -31q0 -25 -27 -39l-336 -144l337 -143q26 -9 26 -39q0 -17 -12.5 -29.5t-30.5 -12.5q-11 0 -17 3l-362 162q-39 19 -39 60z" />
    <glyph glyph-name="equal" unicode="=" horiz-adv-x="504" 
d="M22 428q0 16 11.5 28t27.5 12h382q17 0 28.5 -11.5t11.5 -28.5q0 -16 -11.5 -28t-28.5 -12h-382q-16 0 -27.5 12t-11.5 28zM22 239q0 16 11.5 28t27.5 12h382q16 0 28 -11.5t12 -27.5t-11.5 -27.5t-28.5 -11.5h-382q-16 0 -27.5 11t-11.5 27z" />
    <glyph glyph-name="greater" unicode="&#x3e;" horiz-adv-x="504" 
d="M64 110q-17 0 -29.5 12.5t-12.5 29.5q0 27 26 39l336 143l-335 144q-27 14 -27 39q0 18 12.5 31t30.5 13q8 0 17 -4l361 -162q18 -8 29 -24.5t11 -35.5q0 -42 -40 -60l-361 -162q-8 -3 -18 -3z" />
    <glyph glyph-name="question" unicode="?" horiz-adv-x="456" 
d="M233 423q33 23 45.5 37.5t12.5 33.5q0 26 -20 41.5t-58 15.5q-51 0 -89 -32q-14 -10 -34 -10q-26 0 -44 18t-18 43q0 32 27 51q77 56 173 56q95 0 151.5 -43t56.5 -115q0 -51 -24 -85.5t-77 -70.5q-39 -29 -52.5 -45t-13.5 -38q0 -7 1 -10v-9q-2 -22 -19.5 -38.5
t-40.5 -16.5q-19 0 -34.5 12t-20.5 30q-10 19 -10 44q3 47 22 72t66 59zM226 151q33 0 57 -24t24 -57t-24 -57t-57 -24t-57 24t-24 57t24 57t57 24z" />
    <glyph glyph-name="at" unicode="@" horiz-adv-x="783" 
d="M614 425l-38 -182q-3 -21 -3 -27q0 -45 37 -45q35 0 64.5 43t29.5 118q0 120 -75.5 193.5t-200.5 73.5q-90 2 -173 -48t-133 -133t-48 -172q0 -118 81 -198t201 -80q90 0 170 47q4 4 11 4t12.5 -5.5t5.5 -13.5t-9 -16q-91 -54 -194 -54q-132 -2 -225.5 91t-91.5 223
q-3 100 54 193t150.5 148t192.5 53q136 2 226.5 -89t88.5 -217q0 -113 -61 -180t-137 -67q-40 0 -65.5 21t-31.5 53l-1 6q-26 -37 -65 -58.5t-79 -21.5q-71 0 -113 46.5t-42 121.5q-2 96 69 171.5t157 73.5q42 0 75 -18t49 -48l2 9q4 22 19.5 36t36.5 14q24 0 40 -15t16 -37
zM462 240l25 117q-25 51 -81 51q-58 0 -98 -43.5t-40 -101.5q0 -39 22.5 -63.5t60.5 -24.5q63 0 111 65z" />
    <glyph glyph-name="A" unicode="A" horiz-adv-x="678" 
d="M656 65q0 -30 -21.5 -51t-51.5 -21q-23 0 -41.5 13.5t-25.5 34.5l-27 78h-300l-27 -78q-7 -21 -26 -34.5t-42 -13.5q-30 0 -51 21t-21 51q0 7 5 25l195 504q14 36 46 58t71 22t71 -22t46 -58l194 -504q6 -14 6 -25zM233 242h212l-106 302z" />
    <glyph glyph-name="B" unicode="B" horiz-adv-x="663" 
d="M66 76v516q0 36 19.5 55.5t55.5 19.5h276q89 0 140.5 -49t51.5 -121q0 -59 -32.5 -101t-82.5 -52q53 -7 91 -55q37 -46 37 -109q0 -80 -52 -130t-142 -50h-287q-36 0 -55.5 19.5t-19.5 56.5zM208 399h178q36 0 57 20.5t21 53.5q0 31 -21.5 52t-56.5 21h-178v-147z
M208 121h183q40 0 63 21.5t23 57.5q0 34 -23.5 56t-62.5 22h-183v-157z" />
    <glyph glyph-name="C" unicode="C" horiz-adv-x="677" 
d="M34 333q-2 148 101 247.5t249 97.5q148 0 238 -99q17 -17 17 -45t-19.5 -47.5t-47.5 -19.5q-31 0 -51 23q-56 62 -137 62q-87 0 -145.5 -62.5t-58.5 -156.5t58.5 -156.5t145.5 -62.5q83 0 138 63q19 22 50 22q28 0 47.5 -19.5t19.5 -47.5q0 -27 -17 -44
q-91 -100 -238 -100q-146 -3 -249 97t-101 248z" />
    <glyph glyph-name="D" unicode="D" horiz-adv-x="718" 
d="M66 76v516q0 36 19.5 55.5t55.5 19.5h188q157 0 255.5 -92.5t98.5 -241.5t-98.5 -241t-255.5 -92h-188q-36 0 -55.5 19.5t-19.5 56.5zM208 125h121q94 0 151.5 60t57.5 148q0 92 -55 150q-56 59 -154 59h-121v-417z" />
    <glyph glyph-name="E" unicode="E" horiz-adv-x="583" 
d="M66 76v516q0 36 19.5 55.5t55.5 19.5h342q26 0 44 -18t18 -44q0 -25 -18 -42.5t-44 -17.5h-275v-145h268q26 0 44 -18t18 -43t-18 -43t-44 -18h-268v-155h275q25 0 43.5 -18t18.5 -43t-18 -43.5t-44 -18.5h-342q-36 0 -55.5 19.5t-19.5 56.5z" />
    <glyph glyph-name="F" unicode="F" horiz-adv-x="571" 
d="M66 64v528q0 36 19.5 55.5t55.5 19.5h342q26 0 44 -18t18 -44q0 -25 -18 -42.5t-44 -17.5h-275v-145h268q26 0 44 -18t18 -43t-18 -43t-44 -18h-268v-214q0 -29 -20.5 -50t-49.5 -21q-30 0 -51 21t-21 50z" />
    <glyph glyph-name="G" unicode="G" horiz-adv-x="720" 
d="M673 300v-133q0 -60 -39 -92q-103 -88 -245 -88q-148 -2 -252.5 97t-102.5 249q-2 152 102 249.5t253 95.5q131 0 223 -84q21 -20 21 -50q0 -27 -19 -46.5t-47 -19.5q-27 0 -46 19q-56 55 -132 55q-90 0 -149.5 -62.5t-59.5 -156.5t59.5 -156.5t149.5 -62.5q86 0 142 51
v80h-122q-25 0 -43.5 18t-18.5 43t18.5 44t43.5 19h196q31 0 49.5 -19t18.5 -50z" />
    <glyph glyph-name="H" unicode="H" horiz-adv-x="731" 
d="M523 64v216h-315v-216q0 -29 -20.5 -50t-49.5 -21q-30 0 -51 21t-21 50v539q0 29 21 50t50 21q30 0 50.5 -21t20.5 -50v-198h315v198q0 29 21 50t51 21q29 0 50 -21t21 -50v-539q0 -29 -21 -50t-51 -21q-29 0 -50 21t-21 50z" />
    <glyph glyph-name="I" unicode="I" horiz-adv-x="274" 
d="M66 64v539q0 29 21 50t51 21q29 0 49.5 -21t20.5 -50v-539q0 -29 -20.5 -50t-49.5 -21q-30 0 -51 21t-21 50z" />
    <glyph glyph-name="J" unicode="J" horiz-adv-x="486" 
d="M19 76q0 26 18.5 44.5t44.5 18.5q15 0 27 -6q29 -19 65 -19q47 0 75.5 29t28.5 78v382q0 29 20.5 50t50.5 21t50.5 -21t20.5 -50v-384q0 -112 -63 -171.5t-172 -59.5q-73 0 -130 33q-36 19 -36 55z" />
    <glyph glyph-name="K" unicode="K" horiz-adv-x="636" 
d="M602 62q0 -28 -19 -48.5t-48 -20.5q-33 0 -51 22l-222 250l-54 -60v-141q0 -29 -20.5 -50t-50.5 -21q-29 0 -50 21t-21 50v539q0 29 21 50t50 21q30 0 50.5 -21t20.5 -50v-235l257 284q21 22 50 22q27 0 46.5 -19.5t19.5 -46.5t-17 -44l-202 -214l223 -244q17 -20 17 -44
z" />
    <glyph glyph-name="L" unicode="L" horiz-adv-x="523" 
d="M66 76v527q0 29 21 50t51 21q29 0 49.5 -21t20.5 -50v-478h227q26 0 44 -18t18 -44t-18 -44.5t-44 -18.5h-294q-36 0 -55.5 19.5t-19.5 56.5z" />
    <glyph glyph-name="M" unicode="M" horiz-adv-x="855" 
d="M646 64v416l-181 -461q-12 -26 -38 -26t-38 26l-181 461v-416q0 -29 -20.5 -50t-49.5 -21q-30 0 -51 21t-21 50v494q0 48 34 82t82 34q37 0 66.5 -20.5t42.5 -54.5l136 -348l137 348q12 33 42 54t66 21q49 0 83 -34t34 -82v-494q0 -29 -21 -50t-51 -21q-29 0 -50 21
t-21 50z" />
    <glyph glyph-name="N" unicode="N" horiz-adv-x="729" 
d="M505 30l-297 418v-384q0 -29 -20.5 -50t-49.5 -21q-30 0 -51 21t-21 50v517q0 38 27 65.5t66 27.5q48 0 76 -39l286 -400v368q0 29 20.5 50t50.5 21q29 0 50 -21t21 -50v-523q0 -36 -25.5 -61.5t-61.5 -25.5q-45 0 -71 37z" />
    <glyph glyph-name="O" unicode="O" horiz-adv-x="765" 
d="M382 678q149 2 250 -97.5t99 -247.5q2 -148 -99 -247.5t-250 -97.5q-148 -2 -249 98t-99 247q-2 147 99 247t249 98zM382 552q-90 0 -146 -62t-56 -157t56 -157t146 -62t146.5 62t56.5 157t-56.5 157t-146.5 62z" />
    <glyph glyph-name="P" unicode="P" horiz-adv-x="624" 
d="M66 64v528q0 36 19.5 55.5t55.5 19.5h237q103 0 163.5 -61.5t60.5 -153.5q0 -91 -60.5 -152t-163.5 -61h-170v-175q0 -29 -20.5 -50t-49.5 -21q-30 0 -51 21t-21 50zM359 545h-151v-184h151q43 0 70.5 25.5t27.5 66.5t-28 66.5t-70 25.5z" />
    <glyph glyph-name="Q" unicode="Q" horiz-adv-x="765" 
d="M669 51q3 -29 -15.5 -50.5t-48.5 -21.5t-47 23l-17 20q-72 -34 -159 -34q-148 -2 -249 98t-99 247q-2 147 99 247t249 98q149 2 250 -97.5t99 -247.5q0 -140 -87 -235l12 -14q11 -14 13 -33zM452 125l-39 46q-13 16 -13 40q0 25 15 42.5t39 20.5q3 1 11 1q26 0 45 -22
l41 -47q34 53 34 127q0 95 -56.5 157t-146.5 62t-146 -62t-56 -157t56 -157t146 -62q35 0 70 11z" />
    <glyph glyph-name="R" unicode="R" horiz-adv-x="643" 
d="M475 259l113 -154q14 -20 14 -45q0 -26 -20 -46.5t-48 -20.5q-38 0 -59 30l-150 216h-117v-175q0 -29 -20.5 -50t-49.5 -21q-30 0 -51 21t-21 50v528q0 36 19.5 55.5t55.5 19.5h237q102 0 163 -60t61 -155q0 -72 -35 -122t-92 -71zM208 545v-184h149q43 0 71.5 25.5
t28.5 66.5t-28.5 66.5t-71.5 25.5h-149z" />
    <glyph glyph-name="S" unicode="S" horiz-adv-x="600" 
d="M38 110q0 28 19.5 47.5t46.5 19.5q22 0 38 -12q77 -53 168 -53q53 0 84.5 21.5t31.5 53.5t-31 50t-104 35q-77 18 -127 36q-54 20 -88 62t-34 106q0 87 71.5 144t191.5 57q113 0 207 -55q33 -18 33 -56q0 -27 -19.5 -46.5t-45.5 -19.5q-20 0 -34 10q-76 43 -151 43
q-53 0 -80.5 -18t-27.5 -50q0 -29 28 -43.5t105 -33.5q71 -15 126 -37q124 -46 124 -169q0 -98 -70 -156t-197 -58q-140 0 -235 67q-30 19 -30 55z" />
    <glyph glyph-name="T" unicode="T" horiz-adv-x="582" 
d="M220 64v478h-139q-26 0 -44.5 18.5t-18.5 43.5q0 26 18.5 44.5t44.5 18.5h421q26 0 44.5 -18.5t18.5 -44.5q0 -25 -18.5 -43.5t-44.5 -18.5h-139v-478q0 -29 -21 -50t-50 -21q-30 0 -51 21t-21 50z" />
    <glyph glyph-name="U" unicode="U" horiz-adv-x="728" 
d="M66 266v336q0 30 21 51t51 21t51 -21t21 -51v-331q0 -73 40 -115t115 -42q73 0 113 42t40 115v331q0 30 21 51t51 21t51 -21t21 -51v-335q0 -131 -76 -205t-221 -74t-222 73.5t-77 204.5z" />
    <glyph glyph-name="V" unicode="V" horiz-adv-x="672" 
d="M218 74l-192 499q-6 12 -6 26q0 31 22 53t53 22q24 0 43.5 -14t27.5 -36l170 -470l169 470q8 22 27.5 36t43.5 14q31 0 53 -22t22 -53q0 -11 -5 -26l-193 -499q-14 -36 -46 -58.5t-71 -22.5t-71.5 22.5t-46.5 58.5z" />
    <glyph glyph-name="W" unicode="W" horiz-adv-x="918" 
d="M560 66l-101 392l-100 -392q-8 -32 -34 -52.5t-59 -20.5q-32 0 -58 19.5t-34 49.5l-148 516q-2 16 -2 21q0 32 22 53.5t53 21.5q26 0 46.5 -16.5t26.5 -41.5l105 -431l115 438q6 23 24.5 37t43.5 14q24 0 42 -14t24 -37l115 -438l104 431q6 25 26.5 41.5t47.5 16.5
q31 0 53 -22t22 -53q0 -4 -2 -22l-147 -515q-8 -30 -34 -49.5t-59 -19.5t-58.5 20.5t-33.5 52.5z" />
    <glyph glyph-name="X" unicode="X" horiz-adv-x="668" 
d="M645 62q0 -28 -20 -48.5t-48 -20.5q-34 0 -53 22l-190 225l-190 -225q-19 -22 -53 -22q-28 0 -48 20.5t-20 48.5q0 26 17 45l205 235l-192 218q-16 20 -16 44q0 29 20 49.5t48 20.5q35 0 54 -25l175 -208l175 208q19 25 54 25q28 0 48 -20.5t20 -49.5q0 -22 -13 -41
l-195 -221l205 -235q17 -19 17 -45z" />
    <glyph glyph-name="Y" unicode="Y" horiz-adv-x="644" 
d="M594 564l-200 -289v-211q0 -29 -21 -50t-50 -21q-30 0 -51 21t-21 50v209l-201 291q-14 19 -14 41q0 29 20 49t49 20q37 0 56 -30l162 -246l160 246q21 30 56 30q29 0 49 -20t20 -49q0 -22 -14 -41z" />
    <glyph glyph-name="Z" unicode="Z" horiz-adv-x="592" 
d="M34 79q0 27 16 47l307 416h-260q-26 0 -44.5 18.5t-18.5 43.5q0 26 18.5 44.5t44.5 18.5h374q33 0 56 -23t23 -56q0 -26 -15 -46l-307 -417h266q26 0 44.5 -18.5t18.5 -43.5q0 -26 -18.5 -44.5t-44.5 -18.5h-381q-32 0 -55.5 23t-23.5 56z" />
    <glyph glyph-name="bracketleft" unicode="[" horiz-adv-x="280" 
d="M47 -139v765q0 22 15 37t37 15h130q17 0 29.5 -12.5t12.5 -29.5q0 -18 -12.5 -30.5t-29.5 -12.5h-91v-698h91q17 0 29.5 -12.5t12.5 -30.5q0 -17 -12 -29.5t-29 -12.5h-131q-22 0 -37 15t-15 36z" />
    <glyph glyph-name="backslash" unicode="\" horiz-adv-x="329" 
d="M230 2l-213 635q-3 5 -3 14q0 18 13 30.5t31 12.5q29 0 41 -29l213 -634q3 -6 3 -15q0 -18 -13 -30.5t-31 -12.5q-29 0 -41 29z" />
    <glyph glyph-name="bracketright" unicode="]" horiz-adv-x="280" 
d="M9 -148q0 18 12.5 30.5t29.5 12.5h91v698h-91q-17 0 -29.5 12.5t-12.5 30.5q0 17 12.5 29.5t29.5 12.5h130q22 0 37 -15t15 -37v-765q0 -21 -15 -36t-37 -15h-131q-17 0 -29 12.5t-12 29.5z" />
    <glyph glyph-name="asciicircum" unicode="^" horiz-adv-x="441" 
d="M320 352l-100 228l-99 -228q-12 -26 -39 -26q-18 0 -30.5 12.5t-12.5 29.5q0 9 4 18l117 249q15 39 61 39q44 0 62 -40l115 -248q4 -7 4 -18q0 -17 -12.5 -29.5t-29.5 -12.5q-29 0 -40 26z" />
    <glyph glyph-name="underscore" unicode="_" horiz-adv-x="564" 
d="M-10 -82q0 17 12.5 29.5t29.5 12.5h500q17 0 29.5 -12.5t12.5 -29.5q0 -18 -12.5 -30.5t-29.5 -12.5h-500q-17 0 -29.5 12.5t-12.5 30.5z" />
    <glyph glyph-name="grave" unicode="`" horiz-adv-x="251" 
d="M163 556l-99 87q-12 12 -12 28t11.5 28t26.5 12q19 0 29 -13l90 -97q9 -11 9 -22q0 -13 -9.5 -22.5t-23.5 -9.5q-15 0 -22 9z" />
    <glyph glyph-name="a" unicode="a" horiz-adv-x="543" 
d="M480 312v-253q0 -27 -18.5 -46.5t-45.5 -19.5q-24 0 -42.5 16t-21.5 41q-51 -62 -152 -62q-66 0 -117 43t-51 117q0 75 50 114.5t118 39.5q105 0 153 -59v67q0 37 -29 59t-77 22q-55 0 -107 -32q-11 -7 -25 -7q-20 0 -34 14.5t-14 34.5q0 28 23 42q79 52 179 52
q94 0 152 -43q59 -44 59 -140zM353 116v60q-31 42 -102 42q-40 0 -65.5 -20t-25.5 -53q0 -32 25.5 -51.5t65.5 -19.5q71 0 102 42z" />
    <glyph glyph-name="b" unicode="b" horiz-adv-x="586" 
d="M553 241q0 -117 -60 -185t-154 -68q-88 0 -148 72v-5q0 -26 -19.5 -44t-44.5 -18q-27 0 -45.5 19t-18.5 45v553q0 26 18.5 45t45.5 19q26 0 44.5 -19t18.5 -45v-189q56 74 149 74q94 0 154 -69.5t60 -184.5zM422 241q0 63 -34 102t-89 39q-31 0 -62 -16t-47 -40v-171
q16 -23 47 -38.5t62 -15.5q55 0 89 38.5t34 101.5z" />
    <glyph glyph-name="c" unicode="c" horiz-adv-x="493" 
d="M288 495q87 0 147 -45q25 -18 25 -47q0 -23 -17 -40t-40 -17q-19 0 -33 11q-31 25 -76 25q-58 0 -94.5 -38.5t-36.5 -101.5t36.5 -102t94.5 -39q44 0 75 25q14 11 33 11q24 0 41 -16.5t17 -40.5q0 -29 -25 -47q-60 -45 -147 -45q-111 0 -183.5 71.5t-72.5 182.5
q0 110 72.5 181.5t183.5 71.5z" />
    <glyph glyph-name="d" unicode="d" horiz-adv-x="586" 
d="M523 610v-553q0 -27 -18.5 -46.5t-45.5 -19.5q-26 0 -45 19t-20 46v4q-60 -72 -148 -72q-94 0 -154 68t-60 185q0 115 60 184.5t154 69.5q90 0 149 -74v189q0 26 19 45t45 19t45 -19t19 -45zM395 156v171q-16 24 -47 39.5t-63 15.5q-54 0 -88 -39t-34 -102q0 -62 34 -101
t88 -39q32 0 63 15.5t47 39.5z" />
    <glyph glyph-name="e" unicode="e" horiz-adv-x="553" 
d="M282 495q104 0 173 -68.5t69 -165.5q0 -60 -75 -60h-284q6 -49 43.5 -80.5t95.5 -31.5q50 0 98 27q10 6 24 6q20 0 35 -15t15 -35q0 -29 -27 -44q-70 -40 -159 -40q-112 0 -185 70.5t-73 183.5q0 106 71 179.5t179 73.5zM163 287h238q-3 45 -34 76t-85 31q-51 0 -82 -31
t-37 -76z" />
    <glyph glyph-name="f" unicode="f" horiz-adv-x="327" 
d="M219 507v-24h49q23 0 39.5 -16.5t16.5 -39.5t-16.5 -39t-39.5 -16h-49v-315q0 -26 -19 -45t-45 -19t-45 19t-19 45v315h-31q-23 0 -39.5 16t-16.5 39t16.5 39.5t39.5 16.5h31v26q0 77 45 122.5t118 45.5q27 0 51 -6q17 -4 28 -16.5t11 -30.5q0 -21 -13 -34.5t-34 -13.5
l-18 1q-28 0 -44 -18.5t-16 -51.5z" />
    <glyph glyph-name="g" unicode="g" horiz-adv-x="585" 
d="M522 426v-393q0 -124 -77 -177q-76 -52 -184 -52q-98 0 -170 45q-26 15 -26 45q0 22 15.5 37.5t37.5 15.5q13 0 27 -8q47 -31 116 -31q58 0 95.5 30t37.5 92v48q-62 -75 -149 -75q-95 0 -154 65.5t-59 180.5q0 114 59 180t154 66q90 0 149 -74v8q0 25 19.5 43t45.5 18
t44.5 -19t18.5 -45zM394 171v156q-16 24 -46.5 39.5t-62.5 15.5q-55 0 -88.5 -36.5t-33.5 -96.5t33.5 -96.5t88.5 -36.5q31 0 62 16t47 39z" />
    <glyph glyph-name="h" unicode="h" horiz-adv-x="580" 
d="M390 57v237q0 47 -22 67.5t-68 20.5q-67 0 -110 -57v-268q0 -26 -18.5 -45t-44.5 -19t-45 19t-19 45v553q0 26 19 45t45 19t44.5 -19t18.5 -45v-190q28 33 73 54t97 21q77 0 117 -39.5t40 -112.5v-286q0 -26 -18.5 -45t-45.5 -19q-26 0 -44.5 19t-18.5 45z" />
    <glyph glyph-name="i" unicode="i" horiz-adv-x="253" 
d="M50 638q0 31 22.5 53.5t53.5 22.5q32 0 54 -22t22 -54q0 -31 -22 -53.5t-54 -22.5q-31 0 -53.5 22.5t-22.5 53.5zM63 57v369q0 26 18.5 45t45.5 19q26 0 44.5 -19t18.5 -45v-369q0 -26 -19 -45t-45 -19t-44.5 19t-18.5 45z" />
    <glyph glyph-name="j" unicode="j" horiz-adv-x="253" 
d="M50 638q0 31 22.5 53.5t53.5 22.5q32 0 54 -22t22 -54q0 -31 -22 -53.5t-54 -22.5q-31 0 -53.5 22.5t-22.5 53.5zM23 -196h-10q-24 0 -40.5 16t-16.5 40q0 19 12 34t30 16h4q61 5 61 77v439q0 26 18.5 45t45.5 19q26 0 44.5 -19t18.5 -45v-439q0 -85 -43.5 -134
t-123.5 -49z" />
    <glyph glyph-name="k" unicode="k" horiz-adv-x="535" 
d="M504 57q0 -28 -18 -46t-45 -18q-30 0 -49 22l-142 170l-60 -56v-72q0 -26 -19 -45t-45 -19t-44.5 19t-18.5 45v553q0 26 18.5 45t45.5 19q26 0 44.5 -19t18.5 -45v-340l200 203q17 17 42 17t42 -17.5t17 -41.5q0 -25 -17 -42l-131 -128l148 -165q13 -13 13 -39z" />
    <glyph glyph-name="l" unicode="l" horiz-adv-x="253" 
d="M63 57v553q0 26 18.5 45t45.5 19q26 0 44.5 -19t18.5 -45v-553q0 -26 -18.5 -45t-44.5 -19q-27 0 -45.5 19t-18.5 45z" />
    <glyph glyph-name="m" unicode="m" horiz-adv-x="852" 
d="M790 349v-292q0 -26 -19 -45t-45 -19t-45 19t-19 45v248q0 77 -72 77q-59 0 -100 -56v-269q0 -26 -19 -45t-45 -19t-45 19t-19 45v248q0 77 -72 77q-29 0 -56 -16.5t-44 -40.5v-268q0 -26 -18.5 -45t-44.5 -19q-27 0 -45.5 19t-18.5 45v369q0 27 18.5 46t44.5 19
q27 0 46 -19t19 -46v-5q20 26 63 50q44 24 94 24q104 0 134 -88q24 37 70 62.5t96 25.5q69 0 105.5 -37t36.5 -109z" />
    <glyph glyph-name="n" unicode="n" 
d="M516 341v-284q0 -26 -18.5 -45t-45.5 -19q-26 0 -44.5 19t-18.5 45v235q0 90 -89 90q-67 0 -110 -57v-268q0 -26 -18.5 -45t-44.5 -19q-27 0 -45.5 19t-18.5 45v369q0 27 18.5 46t44.5 19q27 0 46 -19t19 -46v-4q66 73 168 73q77 0 117 -40.5t40 -113.5z" />
    <glyph glyph-name="o" unicode="o" horiz-adv-x="574" 
d="M32 242q0 107 70.5 180t184.5 73q115 0 185.5 -73t70.5 -180q0 -108 -70.5 -181t-185.5 -73t-185 73t-70 181zM411 242q0 60 -34 100t-90 40t-89.5 -39.5t-33.5 -100.5t33.5 -101t89.5 -40t90 40t34 101z" />
    <glyph glyph-name="p" unicode="p" horiz-adv-x="585" 
d="M553 242q0 -117 -59.5 -185.5t-154.5 -68.5q-90 0 -149 74v-189q0 -26 -18.5 -45t-44.5 -19q-27 0 -45.5 19t-18.5 45v553q0 27 18.5 46.5t45.5 19.5q26 0 45 -19.5t19 -46.5v-3q57 72 148 72q95 0 154.5 -68t59.5 -185zM421 242q0 62 -33.5 101t-88.5 39q-31 0 -62 -16
t-47 -39v-171q16 -23 47.5 -39t61.5 -16q55 0 88.5 39t33.5 102z" />
    <glyph glyph-name="q" unicode="q" horiz-adv-x="585" 
d="M522 426v-553q0 -26 -19 -45t-45 -19t-45 19t-19 45v189q-59 -74 -149 -74q-95 0 -154 68.5t-59 185.5t59 185t154 68q93 0 149 -73v7q0 25 19 43t45 18t45 -19t19 -45zM394 156v171q-16 23 -47 39t-62 16q-54 0 -88 -39t-34 -101q0 -63 34 -102t88 -39q31 0 62.5 16
t46.5 39z" />
    <glyph glyph-name="r" unicode="r" horiz-adv-x="360" 
d="M354 435q0 -25 -16 -42t-44 -21q-29 -3 -59.5 -18t-44.5 -35v-262q0 -26 -18.5 -45t-44.5 -19q-27 0 -45.5 19t-18.5 45v368q0 27 18.5 46t44.5 19q27 0 46 -18.5t19 -45.5l-1 -9q38 51 79 67q21 8 32 8q24 0 38.5 -16t14.5 -41z" />
    <glyph glyph-name="s" unicode="s" horiz-adv-x="477" 
d="M32 81q0 22 15.5 37.5t37.5 15.5q14 0 27 -7q66 -41 131 -41q81 0 81 49q0 22 -22.5 34.5t-74.5 22.5q-59 10 -96 24q-94 31 -94 127q0 64 54 108t144 44q89 0 159 -43q25 -13 25 -42q0 -20 -14.5 -34.5t-34.5 -14.5q-15 0 -24 6q-50 31 -110 31q-35 0 -55.5 -12
t-20.5 -33q0 -20 20.5 -31t71.5 -21q51 -9 97 -25q97 -35 97 -133q0 -68 -56 -111.5t-153 -43.5q-101 0 -178 47q-27 15 -27 46z" />
    <glyph glyph-name="t" unicode="t" horiz-adv-x="338" 
d="M329 48q0 -38 -38 -50q-27 -10 -66 -10q-67 0 -102 34t-35 98v252h-31q-23 0 -39.5 16t-16.5 39t16.5 39.5t39.5 16.5h31v75q0 26 19 45t46 19q26 0 44.5 -19t18.5 -45v-75h50q23 0 39 -16.5t16 -39.5q0 -22 -16 -38.5t-39 -16.5h-50v-218q0 -24 11.5 -38.5t31.5 -14.5
q5 0 12 1t9 1q22 -1 35.5 -16.5t13.5 -38.5z" />
    <glyph glyph-name="u" unicode="u" 
d="M516 426v-369q0 -27 -18.5 -46t-44.5 -19q-27 0 -46 19t-19 46v3q-65 -72 -169 -72q-77 0 -116.5 39.5t-39.5 112.5v286q0 26 18.5 45t45.5 19q26 0 44.5 -19t18.5 -45v-236q0 -89 89 -89q67 0 110 55v270q0 26 18.5 45t44.5 19t45 -19t19 -45z" />
    <glyph glyph-name="v" unicode="v" horiz-adv-x="513" 
d="M493 427q0 -11 -5 -24l-142 -350q-11 -27 -35.5 -43.5t-53.5 -16.5q-30 0 -54.5 16.5t-35.5 43.5l-142 351q-5 13 -5 23q0 26 18 44.5t44 18.5q43 0 58 -39l116 -307l115 307q15 39 59 39q27 0 45 -18.5t18 -44.5z" />
    <glyph glyph-name="w" unicode="w" horiz-adv-x="769" 
d="M470 56l-85 273l-86 -273q-8 -28 -31 -45.5t-53 -17.5t-53.5 17.5t-31.5 45.5l-108 354q-2 14 -2 18q0 26 18 44t44 18q22 0 38.5 -13t21.5 -33l80 -286l92 281q7 23 26.5 37t44.5 14t44 -14t26 -37l92 -281l80 286q5 20 22 33t39 13q26 0 44 -18.5t18 -44.5q0 -2 -3 -17
l-108 -354q-7 -28 -31 -45.5t-53 -17.5q-30 0 -53.5 17.5t-31.5 45.5z" />
    <glyph glyph-name="x" unicode="x" horiz-adv-x="498" 
d="M473 51q0 -23 -16.5 -40.5t-41.5 -17.5q-31 0 -44 19l-123 152l-121 -150q-17 -21 -44 -21q-25 0 -41.5 17.5t-16.5 40.5t15 38l134 161l-125 143q-15 17 -15 38q0 24 17.5 41.5t41.5 17.5q28 0 43 -19l113 -135l113 135q13 19 43 19q24 0 41.5 -17.5t17.5 -41.5
q0 -21 -15 -38l-125 -143l134 -161q15 -17 15 -38z" />
    <glyph glyph-name="y" unicode="y" horiz-adv-x="510" 
d="M97 -84l6 1q50 1 66 35l18 41l-166 411q-4 8 -4 23q0 26 18 44.5t44 18.5q45 0 58 -39l116 -308l115 308q15 39 59 39q27 0 45 -18.5t18 -44.5q0 -11 -5 -24l-196 -482q-45 -115 -175 -117q-11 0 -14 1q-25 1 -41 17t-16 40q0 23 16 38t38 16z" />
    <glyph glyph-name="z" unicode="z" horiz-adv-x="479" 
d="M35 64q0 23 14 40l211 268h-169q-23 0 -39.5 16t-16.5 39t16.5 39.5t39.5 16.5h287q26 0 43.5 -17.5t17.5 -43.5q0 -24 -13 -38l-215 -273h177q23 0 39 -16t16 -39t-16 -39.5t-39 -16.5h-290q-26 0 -44.5 19t-18.5 45z" />
    <glyph glyph-name="braceleft" unicode="{" horiz-adv-x="288" 
d="M55 -31v172q0 49 -33 63q-27 12 -27 40t27 40q33 13 33 63v171q0 71 45.5 115.5t109.5 44.5h29q17 0 29 -12.5t12 -29.5q0 -18 -12 -30.5t-29 -12.5h-29q-26 0 -44 -21t-18 -53v-185q0 -71 -46 -90q46 -19 46 -90v-184q0 -33 18 -54t44 -21h29q17 0 29 -12.5t12 -30.5
t-12 -30t-29 -12h-29q-64 0 -109.5 44t-45.5 115z" />
    <glyph glyph-name="bar" unicode="|" horiz-adv-x="216" 
d="M66 15v637q0 17 12.5 29.5t29.5 12.5q18 0 30.5 -12.5t12.5 -29.5v-637q0 -17 -12.5 -29.5t-30.5 -12.5q-17 0 -29.5 12.5t-12.5 29.5z" />
    <glyph glyph-name="braceright" unicode="}" horiz-adv-x="288" 
d="M78 -190h-29q-17 0 -29 12t-12 30t12 30.5t29 12.5h29q26 0 44.5 21.5t18.5 53.5v184q0 71 46 90q-46 19 -46 90v185q0 32 -18 53t-45 21h-29q-17 0 -29 12.5t-12 30.5q0 17 12 29.5t29 12.5h29q64 0 109.5 -44.5t45.5 -115.5v-171q0 -50 33 -63q27 -12 27 -40t-27 -40
q-33 -14 -33 -63v-172q0 -71 -45.5 -115t-109.5 -44z" />
    <glyph glyph-name="asciitilde" unicode="~" horiz-adv-x="510" 
d="M480 621q-12 -103 -45.5 -156t-99.5 -53q-51 2 -73 28.5t-41 84.5q-13 38 -21.5 50.5t-24.5 12.5q-41 0 -59 -140q-1 -16 -13.5 -27.5t-29.5 -11.5q-19 0 -32.5 15t-11.5 34q14 102 47.5 155t98.5 53q51 -3 74 -29.5t41 -84.5q13 -37 21.5 -50t23.5 -13q42 0 60 142
q1 16 13.5 27t29.5 11q19 0 31.5 -14.5t10.5 -33.5z" />
    <glyph glyph-name="uni00A0" unicode="&#xa0;" horiz-adv-x="256" 
 />
    <glyph glyph-name="exclamdown" unicode="&#xa1;" horiz-adv-x="256" 
d="M208 414q0 -33 -24 -57.5t-57 -24.5t-56.5 24.5t-23.5 57.5q0 32 23.5 56t56.5 24t57 -24t24 -56zM128 272q23 0 40.5 -16t18.5 -39l15 -331q1 -31 -20.5 -54t-53.5 -23t-53.5 22.5t-20.5 54.5l15 331q1 23 18 39t41 16z" />
    <glyph glyph-name="cent" unicode="&#xa2;" horiz-adv-x="499" 
d="M460 80q0 -29 -25 -47q-43 -31 -102 -42v-52q0 -19 -13.5 -32.5t-32.5 -13.5t-32.5 13.5t-13.5 32.5v53q-93 14 -151 83t-58 167t58 166.5t151 82.5v35q0 19 13.5 32.5t32.5 13.5t32.5 -13.5t13.5 -32.5v-34q59 -10 102 -42q25 -18 25 -47q0 -23 -17 -40t-40 -17
q-19 0 -33 11t-37 19v-269q20 6 36 19q14 11 33 11q24 0 41 -16.5t17 -40.5zM241 111v261q-36 -15 -57 -49t-21 -81t21 -81.5t57 -49.5z" />
    <glyph glyph-name="sterling" unicode="&#xa3;" horiz-adv-x="550" 
d="M527 63q0 -19 -11.5 -35t-29.5 -23q-40 -18 -95 -18q-42 0 -108 26q-48 18 -73 18q-36 0 -82 -30q-10 -9 -28 -9q-22 0 -38 16.5t-16 39.5q0 28 24 47q85 61 85 120q0 25 -12 54h-87q-17 0 -29 12t-12 29q0 16 12 28t29 12h35q-46 70 -46 120q-2 87 73.5 147.5
t169.5 59.5q116 0 184 -62q22 -19 22 -47q0 -26 -18.5 -45t-44.5 -19q-28 0 -46 20q-31 37 -80 37q-45 0 -75 -26t-30 -68q0 -45 39 -101l11 -16h110q17 0 28.5 -11.5t11.5 -28.5t-11.5 -29t-28.5 -12h-80q1 -4 1 -19q0 -34 -18 -64t-47 -47q20 7 50 7q28 0 70 -17
q34 -15 60 -15q28 0 47 9q11 3 21 3q26 0 44.5 -18.5t18.5 -44.5z" />
    <glyph glyph-name="currency" unicode="&#xa4;" horiz-adv-x="623" 
d="M527 193l42 -42q15 -15 15 -37t-16 -37.5t-38 -15.5q-20 0 -37 15l-44 45q-61 -35 -138 -35q-76 0 -137 35l-44 -45q-15 -15 -37 -15t-38 15.5t-16 37.5t16 37l42 43q-40 61 -40 139q0 79 40 140l-42 43q-16 15 -16 37t16 37.5t38 15.5q24 0 37 -16l45 -45q56 34 136 34
q79 0 137 -34l45 45q16 16 37 16q22 0 38 -15.5t16 -37.5t-15 -37l-43 -43q41 -62 41 -140q0 -79 -40 -140zM439 333q0 58 -34.5 95t-93.5 37q-58 0 -92.5 -37t-34.5 -95t34.5 -95.5t92.5 -37.5q59 0 93.5 37.5t34.5 95.5z" />
    <glyph glyph-name="yen" unicode="&#xa5;" horiz-adv-x="645" 
d="M608 605q0 -24 -14 -41l-145 -212h142q16 0 27.5 -12t11.5 -28t-11.5 -27.5t-27.5 -11.5h-197v-80h197q16 0 27.5 -12t11.5 -28t-11.5 -27t-27.5 -11h-197v-51q0 -29 -21 -50t-50 -21q-30 0 -50.5 21t-20.5 50v51h-196q-16 0 -28 11.5t-12 27.5t12 27.5t28 11.5h196v80
h-196q-16 0 -28 11.5t-12 27.5t12 28t28 12h141l-146 212q-14 19 -14 41q0 29 20 49t48 20q39 0 57 -30l161 -246l160 246q18 30 57 30q28 0 48 -20t20 -49z" />
    <glyph glyph-name="brokenbar" unicode="&#xa6;" horiz-adv-x="216" 
d="M66 406v246q0 17 12.5 29.5t29.5 12.5q18 0 30.5 -12.5t12.5 -29.5v-246q0 -17 -12.5 -29.5t-30.5 -12.5q-17 0 -29.5 12.5t-12.5 29.5zM66 15v246q0 17 12.5 29.5t29.5 12.5q18 0 30.5 -12.5t12.5 -29.5v-246q0 -17 -12.5 -29.5t-30.5 -12.5q-17 0 -29.5 12.5
t-12.5 29.5z" />
    <glyph glyph-name="section" unicode="&#xa7;" horiz-adv-x="484" 
d="M446 75q0 -72 -57.5 -114t-151.5 -42q-104 0 -182 54q-21 15 -21 40q0 20 14 33.5t34 13.5q15 0 26 -8q64 -45 129 -45q40 0 63.5 15.5t23.5 42.5q0 25 -22.5 37t-84.5 28q-57 14 -92 27q-88 35 -88 124q0 45 27.5 77.5t70.5 47.5q-98 38 -98 126q0 62 55.5 103.5
t142.5 41.5q93 0 163 -43q21 -14 21 -39q0 -19 -13.5 -32t-32.5 -13q-13 0 -23 6q-50 32 -110 32q-37 0 -58.5 -14.5t-21.5 -39.5q0 -22 21 -32.5t80 -23.5q50 -9 93 -25q92 -34 92 -127q0 -86 -83 -128q83 -36 83 -123zM160 300q0 -30 24 -44.5t79 -27.5q58 25 58 74
q0 52 -83 72q-42 -10 -60 -27.5t-18 -46.5z" />
    <glyph glyph-name="dieresis" unicode="&#xa8;" horiz-adv-x="423" 
d="M38 622q0 28 20 47.5t48 19.5t47.5 -19.5t19.5 -47.5q0 -29 -19.5 -48.5t-47.5 -19.5q-29 0 -48.5 19.5t-19.5 48.5zM249 622q0 28 20 47.5t48 19.5t48 -19.5t20 -47.5q0 -29 -20 -48.5t-48 -19.5t-48 19.5t-20 48.5z" />
    <glyph glyph-name="copyright" unicode="&#xa9;" horiz-adv-x="778" 
d="M389 679q139 2 243 -101.5t102 -243.5q2 -140 -102 -244t-243 -101q-139 -3 -243.5 101.5t-101.5 243.5q-3 139 101 243t244 102zM389 643q-124 2 -218 -91t-91 -218q-3 -124 91 -218t218 -91q125 -3 218 91t91 218q2 125 -91 218t-218 91zM394 545q86 0 141 -58
q5 -8 5 -13q0 -10 -7 -16.5t-16 -6.5q-8 0 -15 7q-44 47 -108 47q-67 0 -114.5 -48.5t-47.5 -121.5q0 -72 47.5 -122t114.5 -50q64 0 108 47q7 7 16 7t15.5 -6t6.5 -16q0 -8 -5 -13q-54 -59 -141 -59q-86 0 -147 61t-61 151t60.5 150t147.5 60z" />
    <glyph glyph-name="ordfeminine" unicode="&#xaa;" horiz-adv-x="385" 
d="M335 523v-158q0 -20 -13.5 -34t-33.5 -14q-17 0 -30 12t-16 29q-35 -40 -101 -40q-46 0 -78 28.5t-32 75.5q0 46 32 73.5t78 27.5q69 0 102 -38v40q0 25 -19 39.5t-50 14.5q-36 0 -71 -23q-7 -5 -17 -5q-14 0 -24 9.5t-10 23.5q0 17 16 29q58 35 122 35q67 0 106 -30.5
t39 -94.5zM243 404v36q-22 27 -64 27q-25 0 -41 -12t-16 -33t16 -34t41 -13q42 0 64 29z" />
    <glyph glyph-name="guillemotleft" unicode="&#xab;" horiz-adv-x="527" 
d="M183 71l-106 119q-22 25 -22 53t22 53l106 117q12 14 33 14q18 0 30.5 -12.5t12.5 -30.5t-11 -29l-101 -112l102 -114q11 -14 11 -29q0 -18 -13 -31t-31 -13q-20 0 -33 15zM373 71l-106 119q-23 29 -23 53q0 27 23 53l106 117q11 14 33 14q18 0 30.5 -12.5t12.5 -30.5
t-11 -29l-101 -112l102 -114q11 -14 11 -29q0 -18 -13 -31t-31 -13q-20 0 -33 15z" />
    <glyph glyph-name="logicalnot" unicode="&#xac;" horiz-adv-x="515" 
d="M435 193q-17 0 -29 12t-12 28v155l-333 1q-15 0 -27 11.5t-12 27.5t12 28t27 12h342q72 0 72 -73v-162q0 -16 -11.5 -28t-28.5 -12z" />
    <glyph glyph-name="uni00AD" unicode="&#xad;" horiz-adv-x="300" 
d="M22 242q0 22 16 38t38 16h148q22 0 38 -16t16 -38t-16 -38t-38 -16h-148q-22 0 -38 16t-16 38z" />
    <glyph glyph-name="registered" unicode="&#xae;" horiz-adv-x="494" 
d="M247 677q88 0 150 -62t62 -150t-62 -150t-150 -62t-150 62t-62 150t62 150t150 62zM247 645q-74 0 -127 -53t-53 -127t53 -127t127 -53q73 0 126.5 53.5t53.5 126.5q0 74 -53 127t-127 53zM311 346l-61 93h-50v-83q0 -7 -5 -12t-12 -5t-12 5t-5 12v210q0 8 6 14t14 6h79
q33 0 56 -21t23 -53q0 -28 -16 -46.5t-38 -24.5l51 -75q3 -4 3 -9q0 -7 -5.5 -12.5t-13.5 -5.5q-10 0 -14 7zM265 556h-65v-86h65q18 0 31 12t13 30t-13 31t-31 13z" />
    <glyph glyph-name="overscore" unicode="&#xaf;" horiz-adv-x="363" 
d="M8 598q0 15 10.5 25.5t25.5 10.5h275q15 0 25.5 -10.5t10.5 -25.5t-10.5 -25.5t-25.5 -10.5h-275q-15 0 -25.5 10.5t-10.5 25.5z" />
    <glyph glyph-name="degree" unicode="&#xb0;" horiz-adv-x="311" 
d="M20 541q0 56 39.5 96t95.5 40t95.5 -40t39.5 -96t-39.5 -95t-95.5 -39t-95.5 39t-39.5 95zM90 541q0 -27 18.5 -46t46.5 -19q27 0 46.5 19t19.5 46q0 28 -19.5 47.5t-46.5 19.5q-28 0 -46.5 -19.5t-18.5 -47.5z" />
    <glyph glyph-name="plusminus" unicode="&#xb1;" horiz-adv-x="504" 
d="M296 326v-167q0 -18 -13 -31t-31 -13q-17 0 -30 13t-13 31v167h-148q-16 0 -27.5 11.5t-11.5 27.5t11.5 27.5t27.5 11.5h148v160q0 18 13 31t30 13q18 0 31 -13t13 -31v-160h147q17 0 28.5 -11t11.5 -27t-11.5 -28t-28.5 -12h-147zM22 40q0 16 11.5 27t27.5 11h382
q17 0 28.5 -11.5t11.5 -27.5t-12 -27.5t-28 -11.5h-382q-16 0 -27.5 12t-11.5 28z" />
    <glyph glyph-name="uni00B2" unicode="&#xb2;" horiz-adv-x="363" 
d="M13 465q0 24 25 42q118 80 155 116q42 41 42 72q0 26 -18.5 40.5t-49.5 14.5q-47 0 -87 -30q-11 -8 -23 -8q-16 0 -27.5 12t-11.5 28q0 22 16 32q58 43 135 43q72 0 116.5 -33.5t44.5 -91.5q0 -46 -39.5 -92.5t-132.5 -111.5h142q18 0 29 -11t11 -27t-11.5 -27.5
t-28.5 -11.5h-244q-19 0 -31 12.5t-12 31.5z" />
    <glyph glyph-name="uni00B3" unicode="&#xb3;" horiz-adv-x="376" 
d="M37 454q-17 11 -17 34q0 16 11.5 27.5t28.5 11.5q13 0 22 -6q41 -30 91 -30q35 0 54.5 13t19.5 34q0 49 -89 49h-14q-15 0 -26.5 11t-11.5 26t11.5 26t26.5 11h13q83 0 83 45q0 44 -74 44q-46 0 -84 -27q-9 -6 -21 -6q-15 0 -26 11t-11 26q0 16 15 30q59 43 138 43
q74 0 116 -29t42 -80q0 -34 -25.5 -59.5t-63.5 -31.5q34 -3 65 -29q31 -25 31 -66q0 -53 -45.5 -85.5t-120.5 -32.5q-81 0 -139 40z" />
    <glyph glyph-name="acute" unicode="&#xb4;" horiz-adv-x="251" 
d="M66 547q-14 0 -23.5 9.5t-9.5 22.5q0 9 8 22l91 97q10 13 29 13q15 0 26.5 -12t11.5 -28t-13 -28l-98 -87q-7 -9 -22 -9z" />
    <glyph glyph-name="uni00B5" unicode="&#xb5;" horiz-adv-x="593" 
d="M588 46q0 -25 -15.5 -41t-40.5 -17h-11q-102 0 -126 88q-22 -40 -58 -64t-77 -24q-49 0 -70 28v-143q0 -26 -19 -45t-45 -19t-44.5 19t-18.5 45v553q0 26 18.5 45t45.5 19q26 0 44.5 -19t18.5 -45v-236q0 -90 90 -90q65 0 109 56v270q0 26 18.5 45t44.5 19t45 -19t19 -45
v-281q0 -38 31 -45l5 -1q36 -11 36 -53z" />
    <glyph glyph-name="paragraph" unicode="&#xb6;" horiz-adv-x="449" 
d="M340 -75v680h-78v-681q0 -12 -9.5 -21.5t-22.5 -9.5t-22 9.5t-9 22.5v398q-71 0 -121.5 50.5t-50.5 121.5t50.5 121.5t121.5 50.5h128q37 0 56.5 -19.5t19.5 -55.5v-667q0 -13 -9 -22.5t-22 -9.5t-22.5 9.5t-9.5 22.5z" />
    <glyph glyph-name="middot" unicode="&#xb7;" horiz-adv-x="256" 
d="M47 244q0 33 24 57t57 24t57 -24t24 -57q0 -32 -24 -56t-57 -24t-57 24t-24 56z" />
    <glyph glyph-name="cedilla" unicode="&#xb8;" horiz-adv-x="221" 
d="M18 -175q-17 8 -17 26q0 12 8.5 20.5t19.5 8.5q7 0 14 -4q31 -18 63 -18q22 0 37 9t15 24q0 26 -29 26q-13 0 -24 -8q-12 -5 -18 -5q-13 0 -22 9.5t-9 23.5q0 2 2 10l23 64h63l-26 -62q16 10 36 10q28 0 47.5 -20t19.5 -50q0 -38 -31.5 -61.5t-79.5 -23.5q-50 0 -92 21z
" />
    <glyph glyph-name="uni00B9" unicode="&#xb9;" horiz-adv-x="273" 
d="M122 462v236l-44 -45q-11 -11 -28 -11q-16 0 -27.5 11.5t-11.5 27.5q0 17 12 28l105 104q15 15 37 15t38 -15.5t16 -37.5v-313q0 -20 -14.5 -34t-34.5 -14q-19 0 -33.5 14.5t-14.5 33.5z" />
    <glyph glyph-name="ordmasculine" unicode="&#xba;" horiz-adv-x="405" 
d="M202 648q77 0 125 -48t48 -117t-48 -117t-125 -48q-76 0 -124 48t-48 117t48 117t124 48zM202 572q-36 0 -56.5 -23.5t-20.5 -65.5t20.5 -66.5t56.5 -24.5t57 24.5t21 66.5q0 41 -20.5 65t-57.5 24z" />
    <glyph glyph-name="guillemotright" unicode="&#xbb;" horiz-adv-x="527" 
d="M78 100q0 19 10 29l102 114l-101 112q-11 11 -11 29t13 30.5t30 12.5q22 0 33 -14l106 -117q23 -26 23 -53t-23 -53l-106 -119q-14 -15 -33 -15q-18 0 -30.5 13t-12.5 31zM267 100q0 15 11 29l102 114l-101 112q-11 11 -11 29t12.5 30.5t30.5 12.5q22 0 33 -14l106 -117
q23 -26 23 -53q0 -24 -23 -53l-106 -119q-14 -15 -33 -15q-18 0 -31 13t-13 31z" />
    <glyph glyph-name="onequarter" unicode="&#xbc;" horiz-adv-x="775" 
d="M122 308v236l-44 -45q-11 -11 -28 -11q-16 0 -27.5 11.5t-11.5 27.5q0 17 12 28l105 104q15 15 37 15t38 -15.5t16 -37.5v-313q0 -20 -14.5 -34t-34.5 -14q-19 0 -33.5 14.5t-14.5 33.5zM172 -7q-14 0 -23 9.5t-9 22.5q0 6 5 18l394 616q8 15 27 15q14 0 23.5 -9.5
t9.5 -22.5q0 -9 -5 -17l-395 -617q-8 -15 -27 -15zM772 123q0 -16 -11 -26.5t-26 -10.5h-23v-46q0 -19 -13.5 -33t-33.5 -14t-34 13.5t-14 33.5v46h-162q-17 0 -29 12t-12 29q0 14 6 23l139 218q24 39 70 39q35 0 59 -24t24 -59v-163h23q15 0 26 -11t11 -27zM516 161h101
v158z" />
    <glyph glyph-name="onehalf" unicode="&#xbd;" horiz-adv-x="812" 
d="M122 308v236l-44 -45q-11 -11 -28 -11q-16 0 -27.5 11.5t-11.5 27.5q0 17 12 28l105 104q15 15 37 15t38 -15.5t16 -37.5v-313q0 -20 -14.5 -34t-34.5 -14q-19 0 -33.5 14.5t-14.5 33.5zM172 -7q-14 0 -23 9.5t-9 22.5q0 6 5 18l394 616q8 15 27 15q14 0 23.5 -9.5
t9.5 -22.5q0 -9 -5 -17l-395 -617q-8 -15 -27 -15zM462 44q0 24 25 42q118 80 155 116q42 40 42 72q0 26 -18.5 40.5t-49.5 14.5q-46 0 -87 -30q-11 -8 -23 -8q-16 0 -27.5 12t-11.5 28q0 22 16 32q58 43 135 43q72 0 116.5 -33.5t44.5 -91.5q0 -46 -39.5 -92.5
t-132.5 -111.5h142q18 0 29 -11t11 -27t-11.5 -27.5t-28.5 -11.5h-244q-19 0 -31 12.5t-12 31.5z" />
    <glyph glyph-name="threequarters" unicode="&#xbe;" horiz-adv-x="862" 
d="M37 300q-17 11 -17 34q0 16 11.5 27.5t28.5 11.5q13 0 22 -6q41 -30 91 -30q35 0 54.5 13t19.5 34q0 49 -89 49h-14q-15 0 -26.5 11t-11.5 26t11.5 26t26.5 11h13q83 0 83 45q0 44 -74 44q-46 0 -84 -27q-9 -6 -21 -6q-15 0 -26 11t-11 26q0 16 15 30q59 43 138 43
q74 0 116 -29t42 -80q0 -34 -25.5 -59.5t-63.5 -31.5q34 -3 65 -29q31 -25 31 -66q0 -53 -45.5 -85.5t-120.5 -32.5q-81 0 -139 40zM258 -7q-14 0 -23 9.5t-9 22.5q0 6 5 18l394 616q8 15 27 15q14 0 23.5 -9.5t9.5 -22.5q0 -9 -5 -17l-395 -617q-8 -15 -27 -15zM858 123
q0 -16 -11 -26.5t-26 -10.5h-23v-46q0 -19 -13.5 -33t-33.5 -14t-34 13.5t-14 33.5v46h-162q-17 0 -29 12t-12 29q0 14 6 23l139 218q24 39 70 39q35 0 59 -24t24 -59v-163h23q15 0 26 -11t11 -27zM602 161h101v158z" />
    <glyph glyph-name="questiondown" unicode="&#xbf;" horiz-adv-x="398" 
d="M230 331q-33 0 -57 24.5t-24 57.5t24 57t57 24t57 -24t24 -57t-24 -57.5t-57 -24.5zM223 59q-33 -22 -46 -36.5t-13 -34.5q0 -26 20.5 -41.5t58.5 -15.5q48 0 89 32q13 10 34 10q26 0 43.5 -18t17.5 -43q0 -36 -27 -50q-75 -57 -173 -57q-94 0 -151 44t-57 114
q3 56 25.5 87t75.5 70q37 26 51.5 43t15.5 39l-1 11q-1 3 -1 9q2 22 19.5 38t41.5 16q19 0 34.5 -12t20.5 -30q10 -21 10 -44q0 -42 -20.5 -69t-67.5 -62z" />
    <glyph glyph-name="Agrave" unicode="&#xc0;" horiz-adv-x="678" 
d="M656 65q0 -30 -21.5 -51t-51.5 -21q-23 0 -41.5 13.5t-25.5 34.5l-27 78h-300l-27 -78q-7 -21 -26 -34.5t-42 -13.5q-30 0 -51 21t-21 51q0 7 5 25l195 504q14 36 46 58t71 22t71 -22t46 -58l194 -504q6 -14 6 -25zM233 242h212l-106 302zM315 723l-99 87q-12 12 -12 28
t11.5 28t26.5 12q19 0 29 -13l90 -97q9 -10 9 -22q0 -13 -9.5 -22.5t-23.5 -9.5q-15 0 -22 9z" />
    <glyph glyph-name="Aacute" unicode="&#xc1;" horiz-adv-x="678" 
d="M656 65q0 -30 -21.5 -51t-51.5 -21q-23 0 -41.5 13.5t-25.5 34.5l-27 78h-300l-27 -78q-7 -21 -26 -34.5t-42 -13.5q-30 0 -51 21t-21 51q0 7 5 25l195 504q14 36 46 58t71 22t71 -22t46 -58l194 -504q6 -14 6 -25zM233 242h212l-106 302zM345 714q-14 0 -23.5 9.5
t-9.5 22.5q0 9 8 22l91 97q10 13 29 13q15 0 26.5 -12t11.5 -28t-13 -28l-98 -87q-7 -9 -22 -9z" />
    <glyph glyph-name="Acircumflex" unicode="&#xc2;" horiz-adv-x="678" 
d="M656 65q0 -30 -21.5 -51t-51.5 -21q-23 0 -41.5 13.5t-25.5 34.5l-27 78h-300l-27 -78q-7 -21 -26 -34.5t-42 -13.5q-30 0 -51 21t-21 51q0 7 5 25l195 504q14 36 46 58t71 22t71 -22t46 -58l194 -504q6 -14 6 -25zM233 242h212l-106 302zM406 729l-66 83l-67 -83
q-11 -12 -26 -12q-14 0 -23.5 9.5t-9.5 24.5q0 10 4 17l49 75q19 30 56 30h34q35 0 56 -30l48 -75q4 -7 4 -17q0 -15 -9.5 -24.5t-23.5 -9.5q-16 0 -26 12z" />
    <glyph glyph-name="Atilde" unicode="&#xc3;" horiz-adv-x="678" 
d="M656 65q0 -30 -21.5 -51t-51.5 -21q-23 0 -41.5 13.5t-25.5 34.5l-27 78h-300l-27 -78q-7 -21 -26 -34.5t-42 -13.5q-30 0 -51 21t-21 51q0 7 5 25l195 504q14 36 46 58t71 22t71 -22t46 -58l194 -504q6 -14 6 -25zM233 242h212l-106 302zM319 762q-23 27 -40 27
q-28 0 -34 -43q-7 -26 -33 -26q-16 0 -25.5 11.5t-7.5 26.5q14 103 105 103q39 0 75 -41q26 -26 41 -26q26 0 34 42q2 11 11.5 18.5t21.5 7.5q15 0 25 -11t8 -27q-14 -103 -104 -103q-24 0 -40.5 10t-36.5 31z" />
    <glyph glyph-name="Adieresis" unicode="&#xc4;" horiz-adv-x="678" 
d="M656 65q0 -30 -21.5 -51t-51.5 -21q-23 0 -41.5 13.5t-25.5 34.5l-27 78h-300l-27 -78q-7 -21 -26 -34.5t-42 -13.5q-30 0 -51 21t-21 51q0 7 5 25l195 504q14 36 46 58t71 22t71 -22t46 -58l194 -504q6 -14 6 -25zM233 242h212l-106 302zM166 789q0 28 20 47.5t48 19.5
t47.5 -19.5t19.5 -47.5q0 -29 -19.5 -48.5t-47.5 -19.5q-29 0 -48.5 19.5t-19.5 48.5zM377 789q0 28 20 47.5t48 19.5t48 -19.5t20 -47.5q0 -29 -20 -48.5t-48 -19.5t-48 19.5t-20 48.5z" />
    <glyph glyph-name="Aring" unicode="&#xc5;" horiz-adv-x="678" 
d="M656 65q0 -30 -21.5 -51t-51.5 -21q-23 0 -41.5 13.5t-25.5 34.5l-27 78h-300l-27 -78q-7 -21 -26 -34.5t-42 -13.5q-30 0 -51 21t-21 51q0 7 5 25l195 504q14 36 46 58t71 22t71 -22t46 -58l194 -504q6 -14 6 -25zM233 242h212l-106 302zM339 909q43 0 73.5 -31.5
t30.5 -74.5q0 -44 -30.5 -74.5t-73.5 -30.5t-74 31t-31 74t31 74.5t74 31.5zM339 850q-19 0 -33 -14t-14 -33t14 -33t33 -14t32.5 14t13.5 33q0 20 -13.5 33.5t-32.5 13.5z" />
    <glyph glyph-name="AE" unicode="&#xc6;" horiz-adv-x="962" 
d="M927 62q0 -25 -18 -43.5t-43 -18.5h-342q-76 0 -76 76v43h-240l-53 -93q-19 -33 -57 -33q-27 0 -46.5 19t-19.5 47q0 16 9 34l319 523q31 51 90 51h416q25 0 43 -18t18 -44q0 -25 -18 -42.5t-43 -17.5h-275v-145h268q25 0 43 -18t18 -43t-18 -43t-43 -18h-268v-155h275
q25 0 43 -18t18 -43zM277 242h171v303z" />
    <glyph glyph-name="Ccedilla" unicode="&#xc7;" horiz-adv-x="677" 
d="M639 132q0 -27 -17 -44q-84 -92 -214 -99l-16 -40q16 10 35 10q28 0 47.5 -20t19.5 -50q0 -38 -31.5 -61.5t-79.5 -23.5q-50 0 -92 21q-17 8 -17 26q0 12 8.5 20.5t20.5 8.5q6 0 13 -4q32 -18 64 -18q22 0 36.5 9t14.5 24q0 26 -29 26q-13 0 -24 -8q-12 -5 -17 -5
q-14 0 -23 9.5t-9 23.5q0 2 2 10l16 43q-135 12 -224 107.5t-89 235.5q-2 148 101 247.5t249 97.5q148 0 238 -99q17 -17 17 -45t-19.5 -47.5t-47.5 -19.5q-31 0 -51 23q-56 62 -137 62q-87 0 -145.5 -62.5t-58.5 -156.5t58.5 -156.5t145.5 -62.5q83 0 138 63q19 22 50 22
q28 0 47.5 -19.5t19.5 -47.5z" />
    <glyph glyph-name="Egrave" unicode="&#xc8;" horiz-adv-x="583" 
d="M66 76v516q0 36 19.5 55.5t55.5 19.5h342q26 0 44 -18t18 -44q0 -25 -18 -42.5t-44 -17.5h-275v-145h268q26 0 44 -18t18 -43t-18 -43t-44 -18h-268v-155h275q25 0 43.5 -18t18.5 -43t-18 -43.5t-44 -18.5h-342q-36 0 -55.5 19.5t-19.5 56.5zM285 723l-99 87
q-12 12 -12 28t11.5 28t26.5 12q19 0 29 -13l90 -97q9 -10 9 -22q0 -13 -9.5 -22.5t-23.5 -9.5q-15 0 -22 9z" />
    <glyph glyph-name="Eacute" unicode="&#xc9;" horiz-adv-x="583" 
d="M66 76v516q0 36 19.5 55.5t55.5 19.5h342q26 0 44 -18t18 -44q0 -25 -18 -42.5t-44 -17.5h-275v-145h268q26 0 44 -18t18 -43t-18 -43t-44 -18h-268v-155h275q25 0 43.5 -18t18.5 -43t-18 -43.5t-44 -18.5h-342q-36 0 -55.5 19.5t-19.5 56.5zM315 714q-14 0 -23.5 9.5
t-9.5 22.5q0 9 8 22l91 97q10 13 29 13q15 0 26.5 -12t11.5 -28t-13 -28l-98 -87q-7 -9 -22 -9z" />
    <glyph glyph-name="Ecircumflex" unicode="&#xca;" horiz-adv-x="583" 
d="M66 76v516q0 36 19.5 55.5t55.5 19.5h342q26 0 44 -18t18 -44q0 -25 -18 -42.5t-44 -17.5h-275v-145h268q26 0 44 -18t18 -43t-18 -43t-44 -18h-268v-155h275q25 0 43.5 -18t18.5 -43t-18 -43.5t-44 -18.5h-342q-36 0 -55.5 19.5t-19.5 56.5zM376 729l-66 83l-67 -83
q-10 -12 -26 -12q-14 0 -23.5 9.5t-9.5 24.5q0 10 4 17l49 75q19 30 56 30h34q35 0 56 -30l48 -75q4 -7 4 -17q0 -15 -9.5 -24.5t-23.5 -9.5q-16 0 -26 12z" />
    <glyph glyph-name="Edieresis" unicode="&#xcb;" horiz-adv-x="583" 
d="M66 76v516q0 36 19.5 55.5t55.5 19.5h342q26 0 44 -18t18 -44q0 -25 -18 -42.5t-44 -17.5h-275v-145h268q26 0 44 -18t18 -43t-18 -43t-44 -18h-268v-155h275q25 0 43.5 -18t18.5 -43t-18 -43.5t-44 -18.5h-342q-36 0 -55.5 19.5t-19.5 56.5zM135 789q0 28 20 47.5
t48 19.5t47.5 -19.5t19.5 -47.5q0 -29 -19.5 -48.5t-47.5 -19.5q-29 0 -48.5 19.5t-19.5 48.5zM346 789q0 28 20 47.5t48 19.5t48 -19.5t20 -47.5q0 -29 -20 -48.5t-48 -19.5t-48 19.5t-20 48.5z" />
    <glyph glyph-name="Igrave" unicode="&#xcc;" horiz-adv-x="274" 
d="M66 64v539q0 29 21 50t51 21q29 0 49.5 -21t20.5 -50v-539q0 -29 -20.5 -50t-49.5 -21q-30 0 -51 21t-21 50zM114 723l-99 87q-12 12 -12 28t11.5 28t26.5 12q19 0 29 -13l90 -97q9 -10 9 -22q0 -13 -9.5 -22.5t-23.5 -9.5q-15 0 -22 9z" />
    <glyph glyph-name="Iacute" unicode="&#xcd;" horiz-adv-x="274" 
d="M66 64v539q0 29 21 50t51 21q29 0 49.5 -21t20.5 -50v-539q0 -29 -20.5 -50t-49.5 -21q-30 0 -51 21t-21 50zM144 714q-14 0 -23.5 9.5t-9.5 22.5q0 9 8 22l91 97q10 13 29 13q15 0 26.5 -12t11.5 -28t-13 -28l-98 -87q-7 -9 -22 -9z" />
    <glyph glyph-name="Icircumflex" unicode="&#xce;" horiz-adv-x="274" 
d="M66 64v539q0 29 21 50t51 21q29 0 49.5 -21t20.5 -50v-539q0 -29 -20.5 -50t-49.5 -21q-30 0 -51 21t-21 50zM205 729l-66 83l-67 -83q-11 -12 -26 -12q-14 0 -23.5 9.5t-9.5 24.5q0 10 4 17l49 75q19 30 56 30h34q35 0 56 -30l48 -75q4 -7 4 -17q0 -15 -9.5 -24.5
t-23.5 -9.5q-15 0 -26 12z" />
    <glyph glyph-name="Idieresis" unicode="&#xcf;" horiz-adv-x="274" 
d="M66 64v539q0 29 21 50t51 21q29 0 49.5 -21t20.5 -50v-539q0 -29 -20.5 -50t-49.5 -21q-30 0 -51 21t-21 50zM-35 789q0 28 20 47.5t48 19.5t47.5 -19.5t19.5 -47.5q0 -29 -19.5 -48.5t-47.5 -19.5q-29 0 -48.5 19.5t-19.5 48.5zM176 789q0 28 20 47.5t48 19.5t48 -19.5
t20 -47.5q0 -29 -20 -48.5t-48 -19.5t-48 19.5t-20 48.5z" />
    <glyph glyph-name="Eth" unicode="&#xd0;" horiz-adv-x="742" 
d="M708 333q0 -148 -99 -240.5t-255 -92.5h-188q-76 0 -76 76v200h-33q-23 0 -39.5 15.5t-16.5 38.5q0 22 16.5 38t39.5 16h33v208q0 36 19.5 55.5t56.5 19.5h187q156 2 256 -92t99 -242zM562 333q0 92 -55 150q-54 59 -153 59h-121v-158h103q22 0 37.5 -16t15.5 -38
t-15.5 -38t-37.5 -16h-103v-151h120q94 0 151.5 60t57.5 148z" />
    <glyph glyph-name="Ntilde" unicode="&#xd1;" horiz-adv-x="729" 
d="M505 30l-297 418v-384q0 -29 -20.5 -50t-49.5 -21q-30 0 -51 21t-21 50v517q0 38 27 65.5t66 27.5q48 0 76 -39l286 -400v368q0 29 20.5 50t50.5 21q29 0 50 -21t21 -50v-523q0 -36 -25.5 -61.5t-61.5 -25.5q-45 0 -71 37zM345 762q-23 27 -40 27q-28 0 -34 -43
q-7 -26 -33 -26q-16 0 -25.5 11.5t-7.5 26.5q14 103 105 103q39 0 75 -41q26 -26 41 -26q27 0 34 42q2 11 11.5 18.5t21.5 7.5q15 0 25 -11t8 -27q-14 -103 -104 -103q-24 0 -40.5 10t-36.5 31z" />
    <glyph glyph-name="Ograve" unicode="&#xd2;" horiz-adv-x="765" 
d="M382 678q149 2 250 -97.5t99 -247.5q2 -148 -99 -247.5t-250 -97.5q-148 -2 -249 98t-99 247q-2 147 99 247t249 98zM382 552q-90 0 -146 -62t-56 -157t56 -157t146 -62t146.5 62t56.5 157t-56.5 157t-146.5 62zM358 723l-99 87q-12 12 -12 28t11.5 28t26.5 12
q19 0 29 -13l90 -97q9 -10 9 -22q0 -13 -9.5 -22.5t-23.5 -9.5t-22 9z" />
    <glyph glyph-name="Oacute" unicode="&#xd3;" horiz-adv-x="765" 
d="M382 678q149 2 250 -97.5t99 -247.5q2 -148 -99 -247.5t-250 -97.5q-148 -2 -249 98t-99 247q-2 147 99 247t249 98zM382 552q-90 0 -146 -62t-56 -157t56 -157t146 -62t146.5 62t56.5 157t-56.5 157t-146.5 62zM388 714q-14 0 -23.5 9.5t-9.5 22.5q0 9 8 22l91 97
q10 13 29 13q15 0 26.5 -12t11.5 -28t-13 -28l-98 -87q-8 -9 -22 -9z" />
    <glyph glyph-name="Ocircumflex" unicode="&#xd4;" horiz-adv-x="765" 
d="M382 678q149 2 250 -97.5t99 -247.5q2 -148 -99 -247.5t-250 -97.5q-148 -2 -249 98t-99 247q-2 147 99 247t249 98zM382 552q-90 0 -146 -62t-56 -157t56 -157t146 -62t146.5 62t56.5 157t-56.5 157t-146.5 62zM449 729l-66 83l-67 -83q-10 -12 -26 -12q-14 0 -23.5 9.5
t-9.5 24.5q0 10 4 17l49 75q19 30 56 30h34q35 0 56 -30l48 -75q4 -7 4 -17q0 -15 -9.5 -24.5t-23.5 -9.5q-15 0 -26 12z" />
    <glyph glyph-name="Otilde" unicode="&#xd5;" horiz-adv-x="765" 
d="M382 678q149 2 250 -97.5t99 -247.5q2 -148 -99 -247.5t-250 -97.5q-148 -2 -249 98t-99 247q-2 147 99 247t249 98zM382 552q-90 0 -146 -62t-56 -157t56 -157t146 -62t146.5 62t56.5 157t-56.5 157t-146.5 62zM362 762q-23 27 -40 27q-28 0 -34 -43q-7 -26 -33 -26
q-16 0 -25.5 11.5t-7.5 26.5q14 103 105 103q39 0 75 -41q26 -26 41 -26q27 0 34 42q2 11 11.5 18.5t21.5 7.5q15 0 25 -11t8 -27q-14 -103 -104 -103q-24 0 -40.5 10t-36.5 31z" />
    <glyph glyph-name="Odieresis" unicode="&#xd6;" horiz-adv-x="765" 
d="M382 678q149 2 250 -97.5t99 -247.5q2 -148 -99 -247.5t-250 -97.5q-148 -2 -249 98t-99 247q-2 147 99 247t249 98zM382 552q-90 0 -146 -62t-56 -157t56 -157t146 -62t146.5 62t56.5 157t-56.5 157t-146.5 62zM209 789q0 28 20 47.5t48 19.5t47.5 -19.5t19.5 -47.5
q0 -29 -19.5 -48.5t-47.5 -19.5q-29 0 -48.5 19.5t-19.5 48.5zM420 789q0 28 20 47.5t48 19.5t48 -19.5t20 -47.5q0 -29 -20 -48.5t-48 -19.5t-48 19.5t-20 48.5z" />
    <glyph glyph-name="multiply" unicode="&#xd7;" horiz-adv-x="504" 
d="M252 278l-118 -118q-12 -12 -28 -12t-27.5 11.5t-11.5 27.5q0 14 11 28l118 119l-118 118q-11 14 -11 28q0 17 11.5 28.5t27.5 11.5q17 0 29 -12l117 -119l118 119q11 11 28 11t28.5 -11.5t11.5 -27.5t-12 -28l-118 -118l118 -119q12 -12 12 -28t-11.5 -27t-28.5 -11
q-16 0 -27 11z" />
    <glyph glyph-name="Oslash" unicode="&#xd8;" horiz-adv-x="765" 
d="M731 333q2 -148 -99 -247.5t-250 -97.5q-99 0 -180 45l-46 -64q-14 -17 -30 -17q-14 0 -24.5 10t-10.5 24q0 13 8 24l46 64q-111 98 -111 259q-2 147 99 247t249 98q96 0 172 -40l43 60q11 17 30 17q14 0 24.5 -10t10.5 -24q0 -12 -9 -24l-41 -57q119 -100 119 -267z
M227 187l249 344q-44 21 -94 21q-90 0 -146 -62t-56 -157q0 -85 47 -146zM585 333q0 93 -54 155l-251 -348q44 -26 102 -26q90 0 146.5 62t56.5 157z" />
    <glyph glyph-name="Ugrave" unicode="&#xd9;" horiz-adv-x="728" 
d="M66 266v336q0 30 21 51t51 21t51 -21t21 -51v-331q0 -73 40 -115t115 -42q73 0 113 42t40 115v331q0 30 21 51t51 21t51 -21t21 -51v-335q0 -131 -76 -205t-221 -74t-222 73.5t-77 204.5zM341 723l-99 87q-12 12 -12 28t11.5 28t26.5 12q19 0 29 -13l90 -97q9 -10 9 -22
q0 -13 -9.5 -22.5t-23.5 -9.5q-15 0 -22 9z" />
    <glyph glyph-name="Uacute" unicode="&#xda;" horiz-adv-x="728" 
d="M66 266v336q0 30 21 51t51 21t51 -21t21 -51v-331q0 -73 40 -115t115 -42q73 0 113 42t40 115v331q0 30 21 51t51 21t51 -21t21 -51v-335q0 -131 -76 -205t-221 -74t-222 73.5t-77 204.5zM371 714q-14 0 -23.5 9.5t-9.5 22.5q0 9 8 22l91 97q10 13 29 13q15 0 26.5 -12
t11.5 -28t-13 -28l-98 -87q-7 -9 -22 -9z" />
    <glyph glyph-name="Ucircumflex" unicode="&#xdb;" horiz-adv-x="728" 
d="M66 266v336q0 30 21 51t51 21t51 -21t21 -51v-331q0 -73 40 -115t115 -42q73 0 113 42t40 115v331q0 30 21 51t51 21t51 -21t21 -51v-335q0 -131 -76 -205t-221 -74t-222 73.5t-77 204.5zM432 729l-66 83l-67 -83q-11 -12 -26 -12q-14 0 -23.5 9.5t-9.5 24.5q0 10 4 17
l49 75q19 30 56 30h34q35 0 56 -30l48 -75q4 -7 4 -17q0 -15 -9.5 -24.5t-23.5 -9.5q-16 0 -26 12z" />
    <glyph glyph-name="Udieresis" unicode="&#xdc;" horiz-adv-x="728" 
d="M66 266v336q0 30 21 51t51 21t51 -21t21 -51v-331q0 -73 40 -115t115 -42q73 0 113 42t40 115v331q0 30 21 51t51 21t51 -21t21 -51v-335q0 -131 -76 -205t-221 -74t-222 73.5t-77 204.5zM192 789q0 28 20 47.5t48 19.5t47.5 -19.5t19.5 -47.5q0 -29 -19.5 -48.5
t-47.5 -19.5q-29 0 -48.5 19.5t-19.5 48.5zM403 789q0 28 20 47.5t48 19.5t48 -19.5t20 -47.5q0 -29 -20 -48.5t-48 -19.5t-48 19.5t-20 48.5z" />
    <glyph glyph-name="Yacute" unicode="&#xdd;" horiz-adv-x="644" 
d="M594 564l-200 -289v-211q0 -29 -21 -50t-50 -21q-30 0 -51 21t-21 50v209l-201 291q-14 19 -14 41q0 29 20 49t49 20q37 0 56 -30l162 -246l160 246q21 30 56 30q29 0 49 -20t20 -49q0 -22 -14 -41zM329 714q-14 0 -23.5 9.5t-9.5 22.5q0 9 8 22l91 97q10 13 29 13
q15 0 26.5 -12t11.5 -28t-13 -28l-98 -87q-7 -9 -22 -9z" />
    <glyph glyph-name="Thorn" unicode="&#xde;" horiz-adv-x="624" 
d="M66 64v539q0 29 21 50t50 21q30 0 50.5 -21t20.5 -50v-44h170q103 0 163.5 -61.5t60.5 -154.5q0 -91 -60.5 -152t-163.5 -61h-170v-66q0 -29 -20.5 -50t-49.5 -21q-30 0 -51 21t-21 50zM356 437h-148v-184h148q45 0 73 25t28 66t-28 67t-73 26z" />
    <glyph glyph-name="germandbls" unicode="&#xdf;" horiz-adv-x="585" 
d="M551 181q0 -88 -56 -140.5t-140 -52.5q-45 0 -86 15q-36 12 -36 49q0 22 15 37.5t36 15.5q2 0 22 -4.5t34 -4.5q34 0 57.5 26t23.5 69q0 45 -32.5 73.5t-94.5 34.5q-20 2 -33.5 17t-13.5 36q0 18 11.5 32.5t29.5 19.5q41 8 62 30t21 53q0 35 -23.5 56t-57.5 21
q-47 0 -73.5 -31.5t-26.5 -92.5v-383q0 -26 -18.5 -44.5t-44.5 -18.5t-45 18.5t-19 44.5v384q0 105 65 170.5t159 65.5q91 0 152.5 -50t61.5 -125q0 -48 -27 -85.5t-73 -56.5q62 -15 106 -66q44 -50 44 -113z" />
    <glyph glyph-name="agrave" unicode="&#xe0;" horiz-adv-x="543" 
d="M480 312v-253q0 -27 -18.5 -46.5t-45.5 -19.5q-24 0 -42.5 16t-21.5 41q-51 -62 -152 -62q-66 0 -117 43t-51 117q0 75 50 114.5t118 39.5q105 0 153 -59v67q0 37 -29 59t-77 22q-55 0 -107 -32q-11 -7 -25 -7q-20 0 -34 14.5t-14 34.5q0 28 23 42q79 52 179 52
q94 0 152 -43q59 -44 59 -140zM353 116v60q-31 42 -102 42q-40 0 -65.5 -20t-25.5 -53q0 -32 25.5 -51.5t65.5 -19.5q71 0 102 42zM247 576l-99 87q-12 12 -12 28t11.5 28t26.5 12q19 0 29 -13l90 -97q9 -11 9 -22q0 -13 -9.5 -22.5t-23.5 -9.5q-15 0 -22 9z" />
    <glyph glyph-name="aacute" unicode="&#xe1;" horiz-adv-x="543" 
d="M480 312v-253q0 -27 -18.5 -46.5t-45.5 -19.5q-24 0 -42.5 16t-21.5 41q-51 -62 -152 -62q-66 0 -117 43t-51 117q0 75 50 114.5t118 39.5q105 0 153 -59v67q0 37 -29 59t-77 22q-55 0 -107 -32q-11 -7 -25 -7q-20 0 -34 14.5t-14 34.5q0 28 23 42q79 52 179 52
q94 0 152 -43q59 -44 59 -140zM353 116v60q-31 42 -102 42q-40 0 -65.5 -20t-25.5 -53q0 -32 25.5 -51.5t65.5 -19.5q71 0 102 42zM277 567q-14 0 -23.5 9.5t-9.5 22.5q0 9 8 22l91 97q10 13 29 13q15 0 26.5 -12t11.5 -28t-13 -28l-98 -87q-7 -9 -22 -9z" />
    <glyph glyph-name="acircumflex" unicode="&#xe2;" horiz-adv-x="543" 
d="M480 312v-253q0 -27 -18.5 -46.5t-45.5 -19.5q-24 0 -42.5 16t-21.5 41q-51 -62 -152 -62q-66 0 -117 43t-51 117q0 75 50 114.5t118 39.5q105 0 153 -59v67q0 37 -29 59t-77 22q-55 0 -107 -32q-11 -7 -25 -7q-20 0 -34 14.5t-14 34.5q0 28 23 42q79 52 179 52
q94 0 152 -43q59 -44 59 -140zM353 116v60q-31 42 -102 42q-40 0 -65.5 -20t-25.5 -53q0 -32 25.5 -51.5t65.5 -19.5q71 0 102 42zM338 582l-66 83l-67 -83q-11 -12 -26 -12q-14 0 -23.5 9.5t-9.5 24.5q0 10 4 17l49 75q19 30 56 30h34q35 0 56 -30l48 -75q4 -7 4 -17
q0 -15 -9.5 -24.5t-23.5 -9.5q-16 0 -26 12z" />
    <glyph glyph-name="atilde" unicode="&#xe3;" horiz-adv-x="543" 
d="M480 312v-253q0 -27 -18.5 -46.5t-45.5 -19.5q-24 0 -42.5 16t-21.5 41q-51 -62 -152 -62q-66 0 -117 43t-51 117q0 75 50 114.5t118 39.5q105 0 153 -59v67q0 37 -29 59t-77 22q-55 0 -107 -32q-11 -7 -25 -7q-20 0 -34 14.5t-14 34.5q0 28 23 42q79 52 179 52
q94 0 152 -43q59 -44 59 -140zM353 116v60q-31 42 -102 42q-40 0 -65.5 -20t-25.5 -53q0 -32 25.5 -51.5t65.5 -19.5q71 0 102 42zM251 615q-23 27 -40 27q-28 0 -34 -43q-7 -26 -33 -26q-16 0 -25.5 11.5t-7.5 26.5q14 103 105 103q39 0 75 -41q26 -26 41 -26q26 0 34 42
q2 11 11.5 18.5t21.5 7.5q15 0 25 -11t8 -27q-14 -103 -104 -103q-24 0 -40.5 10t-36.5 31z" />
    <glyph glyph-name="adieresis" unicode="&#xe4;" horiz-adv-x="543" 
d="M480 312v-253q0 -27 -18.5 -46.5t-45.5 -19.5q-24 0 -42.5 16t-21.5 41q-51 -62 -152 -62q-66 0 -117 43t-51 117q0 75 50 114.5t118 39.5q105 0 153 -59v67q0 37 -29 59t-77 22q-55 0 -107 -32q-11 -7 -25 -7q-20 0 -34 14.5t-14 34.5q0 28 23 42q79 52 179 52
q94 0 152 -43q59 -44 59 -140zM353 116v60q-31 42 -102 42q-40 0 -65.5 -20t-25.5 -53q0 -32 25.5 -51.5t65.5 -19.5q71 0 102 42zM98 642q0 28 20 47.5t48 19.5t47.5 -19.5t19.5 -47.5q0 -29 -19.5 -48.5t-47.5 -19.5q-29 0 -48.5 19.5t-19.5 48.5zM309 642q0 28 20 47.5
t48 19.5t48 -19.5t20 -47.5q0 -29 -20 -48.5t-48 -19.5t-48 19.5t-20 48.5z" />
    <glyph glyph-name="aring" unicode="&#xe5;" horiz-adv-x="543" 
d="M480 312v-253q0 -27 -18.5 -46.5t-45.5 -19.5q-24 0 -42.5 16t-21.5 41q-51 -62 -152 -62q-66 0 -117 43t-51 117q0 75 50 114.5t118 39.5q105 0 153 -59v67q0 37 -29 59t-77 22q-55 0 -107 -32q-11 -7 -25 -7q-20 0 -34 14.5t-14 34.5q0 28 23 42q79 52 179 52
q94 0 152 -43q59 -44 59 -140zM353 116v60q-31 42 -102 42q-40 0 -65.5 -20t-25.5 -53q0 -32 25.5 -51.5t65.5 -19.5q71 0 102 42zM271 762q43 0 73.5 -31.5t30.5 -74.5q0 -44 -30.5 -74.5t-73.5 -30.5t-74 31t-31 74t31 74.5t74 31.5zM271 703q-19 0 -33 -14t-14 -33
t14 -33t33 -14t32.5 14t13.5 33q0 20 -13.5 33.5t-32.5 13.5z" />
    <glyph glyph-name="ae" unicode="&#xe6;" horiz-adv-x="870" 
d="M630 92q48 0 88 25q14 6 24 6q21 0 35.5 -15t14.5 -36q0 -29 -26 -44q-70 -40 -145 -40q-125 0 -186 88q-31 -40 -85 -64t-116 -24q-86 0 -144 40t-58 118q0 74 49 116t126 42q109 0 165 -58v65q0 36 -31.5 58t-83.5 22q-61 0 -117 -33q-10 -7 -24 -7q-20 0 -34.5 15
t-14.5 35q0 29 24 42q79 52 181 52q125 0 169 -83q64 83 175 83q97 0 161 -69t64 -165q0 -60 -75 -60h-266q7 -48 41.5 -78.5t88.5 -30.5zM608 394q-48 0 -77 -31t-33 -76h220q-2 45 -31 76t-79 31zM259 218q-44 0 -71.5 -17.5t-27.5 -47.5t27 -47.5t69 -17.5
q45 0 80.5 25.5t35.5 55.5v6q-38 43 -113 43z" />
    <glyph glyph-name="ccedilla" unicode="&#xe7;" horiz-adv-x="493" 
d="M460 80q0 -29 -25 -47q-53 -40 -122 -44l-17 -40q16 10 35 10q29 0 48.5 -19.5t19.5 -50.5q0 -38 -31.5 -61.5t-79.5 -23.5q-50 0 -92 21q-17 8 -17 26q0 12 8.5 20.5t19.5 8.5q7 0 14 -4q30 -18 63 -18q22 0 37 9t15 24q0 26 -30 26q-12 0 -23 -8q-12 -5 -18 -5
q-14 0 -23 9.5t-9 23.5q0 2 2 10l16 43q-97 12 -158 81.5t-61 170.5q0 110 72.5 181.5t183.5 71.5q87 0 147 -45q25 -18 25 -47q0 -23 -17 -40t-40 -17q-19 0 -33 11q-31 25 -76 25q-58 0 -94.5 -38.5t-36.5 -101.5t36.5 -102t94.5 -39q44 0 75 25q14 11 33 11
q24 0 41 -16.5t17 -40.5z" />
    <glyph glyph-name="egrave" unicode="&#xe8;" horiz-adv-x="553" 
d="M282 495q104 0 173 -68.5t69 -165.5q0 -60 -75 -60h-284q6 -49 43.5 -80.5t95.5 -31.5q50 0 98 27q10 6 24 6q20 0 35 -15t15 -35q0 -29 -27 -44q-70 -40 -159 -40q-112 0 -185 70.5t-73 183.5q0 106 71 179.5t179 73.5zM163 287h238q-3 45 -34 76t-85 31q-51 0 -82 -31
t-37 -76zM259 576l-99 87q-12 12 -12 28t11.5 28t26.5 12q19 0 29 -13l90 -97q9 -11 9 -22q0 -13 -9.5 -22.5t-23.5 -9.5q-15 0 -22 9z" />
    <glyph glyph-name="eacute" unicode="&#xe9;" horiz-adv-x="553" 
d="M282 495q104 0 173 -68.5t69 -165.5q0 -60 -75 -60h-284q6 -49 43.5 -80.5t95.5 -31.5q50 0 98 27q10 6 24 6q20 0 35 -15t15 -35q0 -29 -27 -44q-70 -40 -159 -40q-112 0 -185 70.5t-73 183.5q0 106 71 179.5t179 73.5zM163 287h238q-3 45 -34 76t-85 31q-51 0 -82 -31
t-37 -76zM288 567q-14 0 -23.5 9.5t-9.5 22.5q0 9 8 22l91 97q10 13 29 13q15 0 26.5 -12t11.5 -28t-13 -28l-98 -87q-8 -9 -22 -9z" />
    <glyph glyph-name="ecircumflex" unicode="&#xea;" horiz-adv-x="553" 
d="M282 495q104 0 173 -68.5t69 -165.5q0 -60 -75 -60h-284q6 -49 43.5 -80.5t95.5 -31.5q50 0 98 27q10 6 24 6q20 0 35 -15t15 -35q0 -29 -27 -44q-70 -40 -159 -40q-112 0 -185 70.5t-73 183.5q0 106 71 179.5t179 73.5zM163 287h238q-3 45 -34 76t-85 31q-51 0 -82 -31
t-37 -76zM350 582l-66 83l-67 -83q-11 -12 -26 -12q-14 0 -23.5 9.5t-9.5 24.5q0 10 4 17l49 75q19 30 56 30h34q35 0 56 -30l48 -75q4 -7 4 -17q0 -15 -9.5 -24.5t-23.5 -9.5q-16 0 -26 12z" />
    <glyph glyph-name="edieresis" unicode="&#xeb;" horiz-adv-x="553" 
d="M282 495q104 0 173 -68.5t69 -165.5q0 -60 -75 -60h-284q6 -49 43.5 -80.5t95.5 -31.5q50 0 98 27q10 6 24 6q20 0 35 -15t15 -35q0 -29 -27 -44q-70 -40 -159 -40q-112 0 -185 70.5t-73 183.5q0 106 71 179.5t179 73.5zM163 287h238q-3 45 -34 76t-85 31q-51 0 -82 -31
t-37 -76zM109 642q0 28 20 47.5t48 19.5t47.5 -19.5t19.5 -47.5q0 -29 -19.5 -48.5t-47.5 -19.5q-29 0 -48.5 19.5t-19.5 48.5zM320 642q0 28 20 47.5t48 19.5t48 -19.5t20 -47.5q0 -29 -20 -48.5t-48 -19.5t-48 19.5t-20 48.5z" />
    <glyph glyph-name="igrave" unicode="&#xec;" horiz-adv-x="253" 
d="M63 57v369q0 26 18.5 45t45.5 19q26 0 44.5 -19t18.5 -45v-369q0 -26 -19 -45t-45 -19t-44.5 19t-18.5 45zM103 576l-99 87q-12 12 -12 28t11.5 28t26.5 12q19 0 29 -13l90 -97q9 -11 9 -22q0 -13 -9.5 -22.5t-23.5 -9.5q-15 0 -22 9z" />
    <glyph glyph-name="iacute" unicode="&#xed;" horiz-adv-x="253" 
d="M63 57v369q0 26 18.5 45t45.5 19q26 0 44.5 -19t18.5 -45v-369q0 -26 -19 -45t-45 -19t-44.5 19t-18.5 45zM132 567q-14 0 -23.5 9.5t-9.5 22.5q0 9 8 22l91 97q10 13 29 13q15 0 26.5 -12t11.5 -28t-13 -28l-98 -87q-8 -9 -22 -9z" />
    <glyph glyph-name="icircumflex" unicode="&#xee;" horiz-adv-x="253" 
d="M63 57v369q0 26 18.5 45t45.5 19q26 0 44.5 -19t18.5 -45v-369q0 -26 -19 -45t-45 -19t-44.5 19t-18.5 45zM194 582l-66 83l-67 -83q-11 -12 -26 -12q-14 0 -23.5 9.5t-9.5 24.5q0 10 4 17l49 75q19 30 56 30h34q35 0 56 -30l48 -75q4 -7 4 -17q0 -15 -9.5 -24.5
t-23.5 -9.5q-16 0 -26 12z" />
    <glyph glyph-name="idieresis" unicode="&#xef;" horiz-adv-x="253" 
d="M63 57v369q0 26 18.5 45t45.5 19q26 0 44.5 -19t18.5 -45v-369q0 -26 -19 -45t-45 -19t-44.5 19t-18.5 45zM-47 642q0 28 20 47.5t48 19.5t47.5 -19.5t19.5 -47.5q0 -29 -19.5 -48.5t-47.5 -19.5q-29 0 -48.5 19.5t-19.5 48.5zM164 642q0 28 20 47.5t48 19.5t48 -19.5
t20 -47.5q0 -29 -20 -48.5t-48 -19.5t-48 19.5t-20 48.5z" />
    <glyph glyph-name="eth" unicode="&#xf0;" horiz-adv-x="574" 
d="M543 252q0 -119 -69.5 -191.5t-186.5 -72.5q-114 0 -184.5 66.5t-70.5 169.5q0 102 61.5 169t152.5 67q101 0 160 -93q-35 77 -157 166l-122 -54q-6 -2 -14 -2q-13 0 -22.5 9.5t-9.5 22.5q0 20 19 29l86 38l-13 8q-29 19 -29 52q0 26 18 44t43 18q18 0 34 -10
q43 -29 77 -55l81 36q4 2 12 2q13 0 22.5 -9t9.5 -22q0 -22 -19 -30l-50 -22q171 -153 171 -336zM411 224q0 53 -34 88t-90 35t-89.5 -35t-33.5 -88t33.5 -88t89.5 -35t90 35t34 88z" />
    <glyph glyph-name="ntilde" unicode="&#xf1;" 
d="M516 341v-284q0 -26 -18.5 -45t-45.5 -19q-26 0 -44.5 19t-18.5 45v235q0 90 -89 90q-67 0 -110 -57v-268q0 -26 -18.5 -45t-44.5 -19q-27 0 -45.5 19t-18.5 45v369q0 27 18.5 46t44.5 19q27 0 46 -19t19 -46v-4q66 73 168 73q77 0 117 -40.5t40 -113.5zM270 615
q-23 27 -40 27q-28 0 -34 -43q-7 -26 -33 -26q-16 0 -25.5 11.5t-7.5 26.5q14 103 105 103q39 0 75 -41q26 -26 41 -26q27 0 34 42q2 11 11.5 18.5t21.5 7.5q15 0 25 -11t8 -27q-14 -103 -104 -103q-24 0 -40.5 10t-36.5 31z" />
    <glyph glyph-name="ograve" unicode="&#xf2;" horiz-adv-x="574" 
d="M32 242q0 107 70.5 180t184.5 73q115 0 185.5 -73t70.5 -180q0 -108 -70.5 -181t-185.5 -73t-185 73t-70 181zM411 242q0 60 -34 100t-90 40t-89.5 -39.5t-33.5 -100.5t33.5 -101t89.5 -40t90 40t34 101zM263 576l-99 87q-12 12 -12 28t11.5 28t26.5 12q19 0 29 -13
l90 -97q9 -11 9 -22q0 -13 -9.5 -22.5t-23.5 -9.5q-15 0 -22 9z" />
    <glyph glyph-name="oacute" unicode="&#xf3;" horiz-adv-x="574" 
d="M32 242q0 107 70.5 180t184.5 73q115 0 185.5 -73t70.5 -180q0 -108 -70.5 -181t-185.5 -73t-185 73t-70 181zM411 242q0 60 -34 100t-90 40t-89.5 -39.5t-33.5 -100.5t33.5 -101t89.5 -40t90 40t34 101zM293 567q-14 0 -23.5 9.5t-9.5 22.5q0 9 8 22l91 97q10 13 29 13
q15 0 26.5 -12t11.5 -28t-13 -28l-98 -87q-7 -9 -22 -9z" />
    <glyph glyph-name="ocircumflex" unicode="&#xf4;" horiz-adv-x="574" 
d="M32 242q0 107 70.5 180t184.5 73q115 0 185.5 -73t70.5 -180q0 -108 -70.5 -181t-185.5 -73t-185 73t-70 181zM411 242q0 60 -34 100t-90 40t-89.5 -39.5t-33.5 -100.5t33.5 -101t89.5 -40t90 40t34 101zM354 582l-66 83l-67 -83q-11 -12 -26 -12q-14 0 -23.5 9.5
t-9.5 24.5q0 10 4 17l49 75q19 30 56 30h34q35 0 56 -30l48 -75q4 -7 4 -17q0 -15 -9.5 -24.5t-23.5 -9.5q-16 0 -26 12z" />
    <glyph glyph-name="otilde" unicode="&#xf5;" horiz-adv-x="574" 
d="M32 242q0 107 70.5 180t184.5 73q115 0 185.5 -73t70.5 -180q0 -108 -70.5 -181t-185.5 -73t-185 73t-70 181zM411 242q0 60 -34 100t-90 40t-89.5 -39.5t-33.5 -100.5t33.5 -101t89.5 -40t90 40t34 101zM267 615q-23 27 -40 27q-28 0 -34 -43q-7 -26 -33 -26
q-16 0 -25.5 11.5t-7.5 26.5q14 103 105 103q39 0 75 -41q26 -26 41 -26q26 0 34 42q2 11 11.5 18.5t21.5 7.5q15 0 25 -11t8 -27q-14 -103 -104 -103q-24 0 -40.5 10t-36.5 31z" />
    <glyph glyph-name="odieresis" unicode="&#xf6;" horiz-adv-x="574" 
d="M32 242q0 107 70.5 180t184.5 73q115 0 185.5 -73t70.5 -180q0 -108 -70.5 -181t-185.5 -73t-185 73t-70 181zM411 242q0 60 -34 100t-90 40t-89.5 -39.5t-33.5 -100.5t33.5 -101t89.5 -40t90 40t34 101zM114 642q0 28 20 47.5t48 19.5t47.5 -19.5t19.5 -47.5
q0 -29 -19.5 -48.5t-47.5 -19.5q-29 0 -48.5 19.5t-19.5 48.5zM325 642q0 28 20 47.5t48 19.5t48 -19.5t20 -47.5q0 -29 -20 -48.5t-48 -19.5t-48 19.5t-20 48.5z" />
    <glyph glyph-name="divide" unicode="&#xf7;" horiz-adv-x="511" 
d="M194 516q0 25 18 42.5t43 17.5t43 -17.5t18 -42.5q0 -26 -18 -44t-43 -18t-43 18t-18 44zM22 337q0 16 11.5 28t27.5 12h389q16 0 27.5 -12t11.5 -28t-11.5 -27.5t-27.5 -11.5h-389q-16 0 -27.5 11.5t-11.5 27.5zM194 157q0 25 18 43t43 18t43 -18t18 -43t-17.5 -43
t-43.5 -18q-25 0 -43 18t-18 43z" />
    <glyph glyph-name="oslash" unicode="&#xf8;" horiz-adv-x="574" 
d="M543 242q0 -108 -70.5 -181t-185.5 -73q-69 0 -125 29l-36 -51q-11 -14 -26 -14q-11 0 -19.5 8t-8.5 19t7 18l37 51q-84 74 -84 194q0 107 70.5 180t184.5 73q72 0 129 -30l38 52q11 14 25 14q11 0 19 -7.5t8 -18.5q0 -9 -7 -19l-38 -53q82 -73 82 -191zM190 151l156 216
q-26 15 -59 15q-56 0 -89.5 -39.5t-33.5 -100.5q0 -53 26 -91zM411 242q0 51 -24 87l-155 -215q25 -13 55 -13q56 0 90 40t34 101z" />
    <glyph glyph-name="ugrave" unicode="&#xf9;" 
d="M516 426v-369q0 -27 -18.5 -46t-44.5 -19q-27 0 -46 19t-19 46v3q-65 -72 -169 -72q-77 0 -116.5 39.5t-39.5 112.5v286q0 26 18.5 45t45.5 19q26 0 44.5 -19t18.5 -45v-236q0 -89 89 -89q67 0 110 55v270q0 26 18.5 45t44.5 19t45 -19t19 -45zM266 576l-99 87
q-12 12 -12 28t11.5 28t26.5 12q19 0 29 -13l90 -97q9 -11 9 -22q0 -13 -9.5 -22.5t-23.5 -9.5t-22 9z" />
    <glyph glyph-name="uacute" unicode="&#xfa;" 
d="M516 426v-369q0 -27 -18.5 -46t-44.5 -19q-27 0 -46 19t-19 46v3q-65 -72 -169 -72q-77 0 -116.5 39.5t-39.5 112.5v286q0 26 18.5 45t45.5 19q26 0 44.5 -19t18.5 -45v-236q0 -89 89 -89q67 0 110 55v270q0 26 18.5 45t44.5 19t45 -19t19 -45zM295 567q-14 0 -23.5 9.5
t-9.5 22.5q0 9 8 22l91 97q10 13 29 13q15 0 26.5 -12t11.5 -28t-13 -28l-98 -87q-7 -9 -22 -9z" />
    <glyph glyph-name="ucircumflex" unicode="&#xfb;" 
d="M516 426v-369q0 -27 -18.5 -46t-44.5 -19q-27 0 -46 19t-19 46v3q-65 -72 -169 -72q-77 0 -116.5 39.5t-39.5 112.5v286q0 26 18.5 45t45.5 19q26 0 44.5 -19t18.5 -45v-236q0 -89 89 -89q67 0 110 55v270q0 26 18.5 45t44.5 19t45 -19t19 -45zM357 582l-66 83l-67 -83
q-10 -12 -26 -12q-14 0 -23.5 9.5t-9.5 24.5q0 10 4 17l49 75q19 30 56 30h34q35 0 56 -30l48 -75q4 -7 4 -17q0 -15 -9.5 -24.5t-23.5 -9.5q-15 0 -26 12z" />
    <glyph glyph-name="udieresis" unicode="&#xfc;" 
d="M516 426v-369q0 -27 -18.5 -46t-44.5 -19q-27 0 -46 19t-19 46v3q-65 -72 -169 -72q-77 0 -116.5 39.5t-39.5 112.5v286q0 26 18.5 45t45.5 19q26 0 44.5 -19t18.5 -45v-236q0 -89 89 -89q67 0 110 55v270q0 26 18.5 45t44.5 19t45 -19t19 -45zM116 642q0 28 20 47.5
t48 19.5t47.5 -19.5t19.5 -47.5q0 -29 -19.5 -48.5t-47.5 -19.5q-29 0 -48.5 19.5t-19.5 48.5zM327 642q0 28 20 47.5t48 19.5t48 -19.5t20 -47.5q0 -29 -20 -48.5t-48 -19.5t-48 19.5t-20 48.5z" />
    <glyph glyph-name="yacute" unicode="&#xfd;" horiz-adv-x="510" 
d="M97 -84l6 1q50 1 66 35l18 41l-166 411q-4 8 -4 23q0 26 18 44.5t44 18.5q45 0 58 -39l116 -308l115 308q15 39 59 39q27 0 45 -18.5t18 -44.5q0 -11 -5 -24l-196 -482q-45 -115 -175 -117q-11 0 -14 1q-25 1 -41 17t-16 40q0 23 16 38t38 16zM259 567q-14 0 -23.5 9.5
t-9.5 22.5q0 9 8 22l91 97q10 13 29 13q15 0 26.5 -12t11.5 -28t-13 -28l-98 -87q-7 -9 -22 -9z" />
    <glyph glyph-name="thorn" unicode="&#xfe;" horiz-adv-x="585" 
d="M190 62v-189q0 -26 -18.5 -45t-44.5 -19q-27 0 -45.5 19t-18.5 45v737q0 26 18.5 45t44.5 19t45 -19t19 -45v-188q57 73 149 73q95 0 154.5 -68t59.5 -185t-59.5 -185.5t-154.5 -68.5q-90 0 -149 74zM299 382q-31 0 -62 -16t-47 -39v-171q16 -23 47.5 -39t61.5 -16
q55 0 88.5 39t33.5 102q0 62 -33.5 101t-88.5 39z" />
    <glyph glyph-name="ydieresis" unicode="&#xff;" horiz-adv-x="510" 
d="M97 -84l6 1q50 1 66 35l18 41l-166 411q-4 8 -4 23q0 26 18 44.5t44 18.5q45 0 58 -39l116 -308l115 308q15 39 59 39q27 0 45 -18.5t18 -44.5q0 -11 -5 -24l-196 -482q-45 -115 -175 -117q-11 0 -14 1q-25 1 -41 17t-16 40q0 23 16 38t38 16zM80 642q0 28 20 47.5
t48 19.5t47.5 -19.5t19.5 -47.5q0 -29 -19.5 -48.5t-47.5 -19.5q-29 0 -48.5 19.5t-19.5 48.5zM291 642q0 28 20 47.5t48 19.5t48 -19.5t20 -47.5q0 -29 -20 -48.5t-48 -19.5t-48 19.5t-20 48.5z" />
    <glyph glyph-name="Amacron" unicode="&#x100;" horiz-adv-x="678" 
d="M656 65q0 -30 -21.5 -51t-51.5 -21q-23 0 -41.5 13.5t-25.5 34.5l-27 78h-300l-27 -78q-7 -21 -26 -34.5t-42 -13.5q-30 0 -51 21t-21 51q0 7 5 25l195 504q14 36 46 58t71 22t71 -22t46 -58l194 -504q6 -14 6 -25zM233 242h212l-106 302zM165 765q0 15 10.5 25.5
t25.5 10.5h275q15 0 25.5 -10.5t10.5 -25.5t-10.5 -25.5t-25.5 -10.5h-275q-15 0 -25.5 10.5t-10.5 25.5z" />
    <glyph glyph-name="amacron" unicode="&#x101;" horiz-adv-x="543" 
d="M480 312v-253q0 -27 -18.5 -46.5t-45.5 -19.5q-24 0 -42.5 16t-21.5 41q-51 -62 -152 -62q-66 0 -117 43t-51 117q0 75 50 114.5t118 39.5q105 0 153 -59v67q0 37 -29 59t-77 22q-55 0 -107 -32q-11 -7 -25 -7q-20 0 -34 14.5t-14 34.5q0 28 23 42q79 52 179 52
q94 0 152 -43q59 -44 59 -140zM353 116v60q-31 42 -102 42q-40 0 -65.5 -20t-25.5 -53q0 -32 25.5 -51.5t65.5 -19.5q71 0 102 42zM97 618q0 15 10.5 25.5t25.5 10.5h275q15 0 25.5 -10.5t10.5 -25.5t-10.5 -25.5t-25.5 -10.5h-275q-15 0 -25.5 10.5t-10.5 25.5z" />
    <glyph glyph-name="Abreve" unicode="&#x102;" horiz-adv-x="678" 
d="M656 65q0 -30 -21.5 -51t-51.5 -21q-23 0 -41.5 13.5t-25.5 34.5l-27 78h-300l-27 -78q-7 -21 -26 -34.5t-42 -13.5q-30 0 -51 21t-21 51q0 7 5 25l195 504q14 36 46 58t71 22t71 -22t46 -58l194 -504q6 -14 6 -25zM233 242h212l-106 302zM186 783q-12 10 -12 26
q0 15 10.5 26t25.5 11q16 0 26 -10q44 -44 103 -44t102 43q11 11 26 11t25.5 -11t10.5 -26q0 -12 -11 -26q-64 -63 -153 -63t-153 63z" />
    <glyph glyph-name="abreve" unicode="&#x103;" horiz-adv-x="543" 
d="M480 312v-253q0 -27 -18.5 -46.5t-45.5 -19.5q-24 0 -42.5 16t-21.5 41q-51 -62 -152 -62q-66 0 -117 43t-51 117q0 75 50 114.5t118 39.5q105 0 153 -59v67q0 37 -29 59t-77 22q-55 0 -107 -32q-11 -7 -25 -7q-20 0 -34 14.5t-14 34.5q0 28 23 42q79 52 179 52
q94 0 152 -43q59 -44 59 -140zM353 116v60q-31 42 -102 42q-40 0 -65.5 -20t-25.5 -53q0 -32 25.5 -51.5t65.5 -19.5q71 0 102 42zM118 636q-12 10 -12 26q0 15 10.5 26t25.5 11q16 0 26 -10q44 -44 103 -44t102 43q11 11 26 11t25.5 -11t10.5 -26q0 -12 -11 -26
q-64 -63 -153 -63t-153 63z" />
    <glyph glyph-name="Aogonek" unicode="&#x104;" horiz-adv-x="678" 
d="M655 -143q0 -28 -27 -36q-24 -7 -62 -7q-48 0 -80.5 21t-32.5 59q0 33 28.5 60t77.5 43q-31 11 -43 44l-27 78h-300l-27 -78q-7 -21 -26 -34.5t-42 -13.5q-30 0 -51 21t-21 51q0 7 5 25l195 504q14 36 46 58t71 22t71 -22t46 -58l194 -504q6 -14 6 -25q0 -39 -31 -59
q-33 -27 -45.5 -44.5t-12.5 -37.5q0 -14 9.5 -22.5t24.5 -8.5q4 0 8.5 1t6.5 1q17 0 28 -11t11 -27zM233 242h212l-106 302z" />
    <glyph glyph-name="aogonek" unicode="&#x105;" horiz-adv-x="543" 
d="M485 -143q0 -28 -27 -36q-24 -7 -61 -7q-50 0 -82 21t-32 59q0 33 29.5 60.5t78.5 43.5q-34 15 -39 52q-51 -62 -152 -62q-66 0 -117 43t-51 117q0 75 50 114.5t118 39.5q105 0 153 -59v67q0 37 -29 59t-77 22q-55 0 -107 -32q-11 -7 -25 -7q-20 0 -34 14.5t-14 34.5
q0 28 23 42q79 52 179 52q94 0 152 -43q59 -44 59 -140v-253q0 -28 -20 -48l-4 -4q-33 -27 -46 -45t-13 -38q0 -14 9.5 -22.5t24.5 -8.5q4 0 9 1t7 1q16 0 27 -11t11 -27zM353 116v60q-31 42 -102 42q-40 0 -65.5 -20t-25.5 -53q0 -32 25.5 -51.5t65.5 -19.5q71 0 102 42z
" />
    <glyph glyph-name="Cacute" unicode="&#x106;" horiz-adv-x="677" 
d="M34 333q-2 148 101 247.5t249 97.5q148 0 238 -99q17 -17 17 -45t-19.5 -47.5t-47.5 -19.5q-31 0 -51 23q-56 62 -137 62q-87 0 -145.5 -62.5t-58.5 -156.5t58.5 -156.5t145.5 -62.5q83 0 138 63q19 22 50 22q28 0 47.5 -19.5t19.5 -47.5q0 -27 -17 -44
q-91 -100 -238 -100q-146 -3 -249 97t-101 248zM390 714q-14 0 -23.5 9.5t-9.5 22.5q0 9 8 22l91 97q10 13 29 13q15 0 26.5 -12t11.5 -28t-13 -28l-98 -87q-8 -9 -22 -9z" />
    <glyph glyph-name="cacute" unicode="&#x107;" horiz-adv-x="493" 
d="M288 495q87 0 147 -45q25 -18 25 -47q0 -23 -17 -40t-40 -17q-19 0 -33 11q-31 25 -76 25q-58 0 -94.5 -38.5t-36.5 -101.5t36.5 -102t94.5 -39q44 0 75 25q14 11 33 11q24 0 41 -16.5t17 -40.5q0 -29 -25 -47q-60 -45 -147 -45q-111 0 -183.5 71.5t-72.5 182.5
q0 110 72.5 181.5t183.5 71.5zM291 567q-14 0 -23.5 9.5t-9.5 22.5q0 9 8 22l91 97q10 13 29 13q15 0 26.5 -12t11.5 -28t-13 -28l-98 -87q-7 -9 -22 -9z" />
    <glyph glyph-name="Ccircumflex" unicode="&#x108;" horiz-adv-x="677" 
d="M34 333q-2 148 101 247.5t249 97.5q148 0 238 -99q17 -17 17 -45t-19.5 -47.5t-47.5 -19.5q-31 0 -51 23q-56 62 -137 62q-87 0 -145.5 -62.5t-58.5 -156.5t58.5 -156.5t145.5 -62.5q83 0 138 63q19 22 50 22q28 0 47.5 -19.5t19.5 -47.5q0 -27 -17 -44
q-91 -100 -238 -100q-146 -3 -249 97t-101 248zM452 729l-66 83l-67 -83q-11 -12 -26 -12q-14 0 -23.5 9.5t-9.5 24.5q0 10 4 17l49 75q19 30 56 30h34q35 0 56 -30l48 -75q4 -7 4 -17q0 -15 -9.5 -24.5t-23.5 -9.5q-16 0 -26 12z" />
    <glyph glyph-name="ccircumflex" unicode="&#x109;" horiz-adv-x="493" 
d="M288 495q87 0 147 -45q25 -18 25 -47q0 -23 -17 -40t-40 -17q-19 0 -33 11q-31 25 -76 25q-58 0 -94.5 -38.5t-36.5 -101.5t36.5 -102t94.5 -39q44 0 75 25q14 11 33 11q24 0 41 -16.5t17 -40.5q0 -29 -25 -47q-60 -45 -147 -45q-111 0 -183.5 71.5t-72.5 182.5
q0 110 72.5 181.5t183.5 71.5zM353 582l-66 83l-67 -83q-10 -12 -26 -12q-14 0 -23.5 9.5t-9.5 24.5q0 10 4 17l49 75q19 30 56 30h34q35 0 56 -30l48 -75q4 -7 4 -17q0 -15 -9.5 -24.5t-23.5 -9.5q-15 0 -26 12z" />
    <glyph glyph-name="Cdotaccent" unicode="&#x10a;" horiz-adv-x="677" 
d="M34 333q-2 148 101 247.5t249 97.5q148 0 238 -99q17 -17 17 -45t-19.5 -47.5t-47.5 -19.5q-31 0 -51 23q-56 62 -137 62q-87 0 -145.5 -62.5t-58.5 -156.5t58.5 -156.5t145.5 -62.5q83 0 138 63q19 22 50 22q28 0 47.5 -19.5t19.5 -47.5q0 -27 -17 -44
q-91 -100 -238 -100q-146 -3 -249 97t-101 248zM384 856q28 0 47.5 -20t19.5 -48t-19.5 -48t-47.5 -20t-48 20t-20 48t20 48t48 20z" />
    <glyph glyph-name="cdotaccent" unicode="&#x10b;" horiz-adv-x="493" 
d="M288 495q87 0 147 -45q25 -18 25 -47q0 -23 -17 -40t-40 -17q-19 0 -33 11q-31 25 -76 25q-58 0 -94.5 -38.5t-36.5 -101.5t36.5 -102t94.5 -39q44 0 75 25q14 11 33 11q24 0 41 -16.5t17 -40.5q0 -29 -25 -47q-60 -45 -147 -45q-111 0 -183.5 71.5t-72.5 182.5
q0 110 72.5 181.5t183.5 71.5zM285 709q28 0 47.5 -20t19.5 -48t-19.5 -48t-47.5 -20t-48 20t-20 48t20 48t48 20z" />
    <glyph glyph-name="Ccaron" unicode="&#x10c;" horiz-adv-x="677" 
d="M34 333q-2 148 101 247.5t249 97.5q148 0 238 -99q17 -17 17 -45t-19.5 -47.5t-47.5 -19.5q-31 0 -51 23q-56 62 -137 62q-87 0 -145.5 -62.5t-58.5 -156.5t58.5 -156.5t145.5 -62.5q83 0 138 63q19 22 50 22q28 0 47.5 -19.5t19.5 -47.5q0 -27 -17 -44
q-91 -100 -238 -100q-146 -3 -249 97t-101 248zM508 839q0 -12 -4 -16l-48 -76q-21 -30 -56 -30h-34q-37 0 -56 30l-49 76q-4 4 -4 16q0 15 9.5 24.5t23.5 9.5q15 0 26 -11l67 -84l66 84q11 11 26 11q14 0 23.5 -9.5t9.5 -24.5z" />
    <glyph glyph-name="ccaron" unicode="&#x10d;" horiz-adv-x="493" 
d="M288 495q87 0 147 -45q25 -18 25 -47q0 -23 -17 -40t-40 -17q-19 0 -33 11q-31 25 -76 25q-58 0 -94.5 -38.5t-36.5 -101.5t36.5 -102t94.5 -39q44 0 75 25q14 11 33 11q24 0 41 -16.5t17 -40.5q0 -29 -25 -47q-60 -45 -147 -45q-111 0 -183.5 71.5t-72.5 182.5
q0 110 72.5 181.5t183.5 71.5zM409 692q0 -12 -4 -16l-48 -76q-21 -30 -56 -30h-34q-37 0 -56 30l-49 76q-4 4 -4 16q0 15 9.5 24.5t23.5 9.5q15 0 26 -11l67 -84l66 84q11 11 26 11q14 0 23.5 -9.5t9.5 -24.5z" />
    <glyph glyph-name="Dcaron" unicode="&#x10e;" horiz-adv-x="718" 
d="M66 76v516q0 36 19.5 55.5t55.5 19.5h188q157 0 255.5 -92.5t98.5 -241.5t-98.5 -241t-255.5 -92h-188q-36 0 -55.5 19.5t-19.5 56.5zM208 125h121q94 0 151.5 60t57.5 148q0 92 -55 150q-56 59 -154 59h-121v-417zM483 839q0 -12 -4 -16l-48 -76q-21 -30 -56 -30h-34
q-37 0 -56 30l-49 76q-4 4 -4 16q0 15 9.5 24.5t23.5 9.5q15 0 26 -11l67 -84l66 84q11 11 26 11q14 0 23.5 -9.5t9.5 -24.5z" />
    <glyph glyph-name="dcaron" unicode="&#x10f;" horiz-adv-x="690" 
d="M523 610v-553q0 -27 -18.5 -46.5t-45.5 -19.5q-26 0 -45 19t-20 46v4q-60 -72 -148 -72q-94 0 -154 68t-60 185q0 115 60 184.5t154 69.5q90 0 149 -74v189q0 26 19 45t45 19t45 -19t19 -45zM395 156v171q-16 24 -47 39.5t-63 15.5q-54 0 -88 -39t-34 -102q0 -62 34 -101
t88 -39q32 0 63 15.5t47 39.5zM580 477q0 11 12 23q32 28 40 62q-8 -2 -15 -2q-23 0 -38 16t-15 41q0 26 18 44t43 18q30 0 50.5 -22.5t20.5 -58.5q0 -82 -72 -141q-8 -7 -17 -7q-11 0 -19 8t-8 19z" />
    <glyph glyph-name="Dcroat" unicode="&#x110;" horiz-adv-x="742" 
d="M708 333q0 -148 -99 -240.5t-255 -92.5h-188q-76 0 -76 76v200h-33q-23 0 -39.5 15.5t-16.5 38.5q0 22 16.5 38t39.5 16h33v208q0 36 19.5 55.5t56.5 19.5h187q156 2 256 -92t99 -242zM562 333q0 92 -55 150q-54 59 -153 59h-121v-158h103q22 0 37.5 -16t15.5 -38
t-15.5 -38t-37.5 -16h-103v-151h120q94 0 151.5 60t57.5 148z" />
    <glyph glyph-name="dslash" unicode="&#x111;" horiz-adv-x="588" 
d="M588 564q0 -15 -10.5 -25.5t-25.5 -10.5h-29v-471q0 -27 -18.5 -46.5t-45.5 -19.5q-26 0 -45 19t-20 46v4q-60 -72 -148 -72q-94 0 -154 68t-60 185q0 115 60 184.5t154 69.5q90 0 149 -74v107h-117q-15 0 -25.5 10.5t-10.5 25.5t10.5 26t25.5 11h117v9q0 26 19 45t45 19
t45 -19t19 -45v-9h29q15 0 25.5 -11t10.5 -26zM395 156v171q-16 24 -47 39.5t-63 15.5q-54 0 -88 -39t-34 -102q0 -62 34 -101t88 -39q32 0 63 15.5t47 39.5z" />
    <glyph glyph-name="Emacron" unicode="&#x112;" horiz-adv-x="583" 
d="M66 76v516q0 36 19.5 55.5t55.5 19.5h342q26 0 44 -18t18 -44q0 -25 -18 -42.5t-44 -17.5h-275v-145h268q26 0 44 -18t18 -43t-18 -43t-44 -18h-268v-155h275q25 0 43.5 -18t18.5 -43t-18 -43.5t-44 -18.5h-342q-36 0 -55.5 19.5t-19.5 56.5zM134 765q0 15 10.5 25.5
t25.5 10.5h275q15 0 25.5 -10.5t10.5 -25.5t-10.5 -25.5t-25.5 -10.5h-275q-15 0 -25.5 10.5t-10.5 25.5z" />
    <glyph glyph-name="emacron" unicode="&#x113;" horiz-adv-x="553" 
d="M282 495q104 0 173 -68.5t69 -165.5q0 -60 -75 -60h-284q6 -49 43.5 -80.5t95.5 -31.5q50 0 98 27q10 6 24 6q20 0 35 -15t15 -35q0 -29 -27 -44q-70 -40 -159 -40q-112 0 -185 70.5t-73 183.5q0 106 71 179.5t179 73.5zM163 287h238q-3 45 -34 76t-85 31q-51 0 -82 -31
t-37 -76zM108 618q0 15 10.5 25.5t25.5 10.5h275q15 0 25.5 -10.5t10.5 -25.5t-10.5 -25.5t-25.5 -10.5h-275q-15 0 -25.5 10.5t-10.5 25.5z" />
    <glyph glyph-name="Ebreve" unicode="&#x114;" horiz-adv-x="583" 
d="M66 76v516q0 36 19.5 55.5t55.5 19.5h342q26 0 44 -18t18 -44q0 -25 -18 -42.5t-44 -17.5h-275v-145h268q26 0 44 -18t18 -43t-18 -43t-44 -18h-268v-155h275q25 0 43.5 -18t18.5 -43t-18 -43.5t-44 -18.5h-342q-36 0 -55.5 19.5t-19.5 56.5zM155 783q-12 10 -12 26
q0 15 10.5 26t25.5 11q16 0 26 -10q44 -44 103 -44t102 43q11 11 26 11t25.5 -11t10.5 -26q0 -12 -11 -26q-65 -63 -153 -63t-153 63z" />
    <glyph glyph-name="ebreve" unicode="&#x115;" horiz-adv-x="553" 
d="M282 495q104 0 173 -68.5t69 -165.5q0 -60 -75 -60h-284q6 -49 43.5 -80.5t95.5 -31.5q50 0 98 27q10 6 24 6q20 0 35 -15t15 -35q0 -29 -27 -44q-70 -40 -159 -40q-112 0 -185 70.5t-73 183.5q0 106 71 179.5t179 73.5zM163 287h238q-3 45 -34 76t-85 31q-51 0 -82 -31
t-37 -76zM129 636q-12 10 -12 26q0 15 10.5 26t25.5 11q16 0 26 -10q44 -44 103 -44t102 43q11 11 26 11t25.5 -11t10.5 -26q0 -12 -11 -26q-65 -63 -153 -63t-153 63z" />
    <glyph glyph-name="Edotaccent" unicode="&#x116;" horiz-adv-x="583" 
d="M66 76v516q0 36 19.5 55.5t55.5 19.5h342q26 0 44 -18t18 -44q0 -25 -18 -42.5t-44 -17.5h-275v-145h268q26 0 44 -18t18 -43t-18 -43t-44 -18h-268v-155h275q25 0 43.5 -18t18.5 -43t-18 -43.5t-44 -18.5h-342q-36 0 -55.5 19.5t-19.5 56.5zM308 856q28 0 47.5 -20
t19.5 -48t-19.5 -48t-47.5 -20t-48 20t-20 48t20 48t48 20z" />
    <glyph glyph-name="edotaccent" unicode="&#x117;" horiz-adv-x="553" 
d="M282 495q104 0 173 -68.5t69 -165.5q0 -60 -75 -60h-284q6 -49 43.5 -80.5t95.5 -31.5q50 0 98 27q10 6 24 6q20 0 35 -15t15 -35q0 -29 -27 -44q-70 -40 -159 -40q-112 0 -185 70.5t-73 183.5q0 106 71 179.5t179 73.5zM163 287h238q-3 45 -34 76t-85 31q-51 0 -82 -31
t-37 -76zM282 709q28 0 47.5 -20t19.5 -48t-19.5 -48t-47.5 -20t-48 20t-20 48t20 48t48 20z" />
    <glyph glyph-name="Eogonek" unicode="&#x118;" horiz-adv-x="583" 
d="M449 -76q0 -14 9.5 -22.5t24.5 -8.5q4 0 9 1t7 1q16 0 27 -11t11 -27q0 -28 -27 -36q-24 -7 -61 -7q-50 0 -82 21t-32 59q0 35 31 63t84 43h-309q-36 0 -55.5 19.5t-19.5 56.5v516q0 36 19.5 55.5t55.5 19.5h342q26 0 44 -18t18 -44q0 -25 -18 -42.5t-44 -17.5h-275v-145
h268q26 0 44 -18t18 -43t-18 -43t-44 -18h-268v-155h275q25 0 43.5 -18t18.5 -43q0 -20 -11.5 -36t-29.5 -22q-55 -45 -55 -80z" />
    <glyph glyph-name="eogonek" unicode="&#x119;" horiz-adv-x="553" 
d="M32 242q0 106 71 179.5t179 73.5q104 0 173 -68.5t69 -165.5q0 -60 -75 -60h-284q6 -49 43.5 -80.5t95.5 -31.5q47 0 98 27q8 5 22 5q22 0 37.5 -15t15.5 -37q0 -21 -18 -38q-66 -59 -66 -101q0 -18 9.5 -27.5t25.5 -9.5q7 0 8 1q17 2 29.5 -10t12.5 -28q0 -13 -8.5 -23
t-20.5 -13q-26 -6 -56 -6q-48 0 -80.5 21t-32.5 59q0 57 78 101q-31 -7 -68 -7q-112 0 -185 70.5t-73 183.5zM163 287h238q-3 45 -34 76t-85 31q-51 0 -82 -31t-37 -76z" />
    <glyph glyph-name="Ecaron" unicode="&#x11a;" horiz-adv-x="583" 
d="M66 76v516q0 36 19.5 55.5t55.5 19.5h342q26 0 44 -18t18 -44q0 -25 -18 -42.5t-44 -17.5h-275v-145h268q26 0 44 -18t18 -43t-18 -43t-44 -18h-268v-155h275q25 0 43.5 -18t18.5 -43t-18 -43.5t-44 -18.5h-342q-36 0 -55.5 19.5t-19.5 56.5zM432 839q0 -12 -4 -16
l-48 -76q-21 -30 -56 -30h-34q-37 0 -56 30l-49 76q-4 4 -4 16q0 15 9.5 24.5t23.5 9.5q15 0 26 -11l67 -84l66 84q11 11 26 11q14 0 23.5 -9.5t9.5 -24.5z" />
    <glyph glyph-name="ecaron" unicode="&#x11b;" horiz-adv-x="553" 
d="M282 495q104 0 173 -68.5t69 -165.5q0 -60 -75 -60h-284q6 -49 43.5 -80.5t95.5 -31.5q50 0 98 27q10 6 24 6q20 0 35 -15t15 -35q0 -29 -27 -44q-70 -40 -159 -40q-112 0 -185 70.5t-73 183.5q0 106 71 179.5t179 73.5zM163 287h238q-3 45 -34 76t-85 31q-51 0 -82 -31
t-37 -76zM406 692q0 -12 -4 -16l-48 -76q-21 -30 -56 -30h-34q-37 0 -56 30l-49 76q-4 4 -4 16q0 15 9.5 24.5t23.5 9.5q15 0 26 -11l67 -84l66 84q11 11 26 11q14 0 23.5 -9.5t9.5 -24.5z" />
    <glyph glyph-name="Gcircumflex" unicode="&#x11c;" horiz-adv-x="720" 
d="M673 300v-133q0 -60 -39 -92q-103 -88 -245 -88q-148 -2 -252.5 97t-102.5 249q-2 152 102 249.5t253 95.5q131 0 223 -84q21 -20 21 -50q0 -27 -19 -46.5t-47 -19.5q-27 0 -46 19q-56 55 -132 55q-90 0 -149.5 -62.5t-59.5 -156.5t59.5 -156.5t149.5 -62.5q86 0 142 51
v80h-122q-25 0 -43.5 18t-18.5 43t18.5 44t43.5 19h196q31 0 49.5 -19t18.5 -50zM457 729l-66 83l-67 -83q-10 -12 -26 -12q-14 0 -23.5 9.5t-9.5 24.5q0 10 4 17l49 75q19 30 56 30h34q35 0 56 -30l48 -75q4 -7 4 -17q0 -15 -9.5 -24.5t-23.5 -9.5q-16 0 -26 12z" />
    <glyph glyph-name="gcircumflex" unicode="&#x11d;" horiz-adv-x="585" 
d="M522 426v-393q0 -124 -77 -177q-76 -52 -184 -52q-98 0 -170 45q-26 15 -26 45q0 22 15.5 37.5t37.5 15.5q13 0 27 -8q47 -31 116 -31q58 0 95.5 30t37.5 92v48q-62 -75 -149 -75q-95 0 -154 65.5t-59 180.5q0 114 59 180t154 66q90 0 149 -74v8q0 25 19.5 43t45.5 18
t44.5 -19t18.5 -45zM394 171v156q-16 24 -46.5 39.5t-62.5 15.5q-55 0 -88.5 -36.5t-33.5 -96.5t33.5 -96.5t88.5 -36.5q31 0 62 16t47 39zM363 582l-66 83l-67 -83q-10 -12 -26 -12q-14 0 -23.5 9.5t-9.5 24.5q0 10 4 17l49 75q19 30 56 30h34q35 0 56 -30l48 -75
q4 -7 4 -17q0 -15 -9.5 -24.5t-23.5 -9.5q-15 0 -26 12z" />
    <glyph glyph-name="Gbreve" unicode="&#x11e;" horiz-adv-x="720" 
d="M673 300v-133q0 -60 -39 -92q-103 -88 -245 -88q-148 -2 -252.5 97t-102.5 249q-2 152 102 249.5t253 95.5q131 0 223 -84q21 -20 21 -50q0 -27 -19 -46.5t-47 -19.5q-27 0 -46 19q-56 55 -132 55q-90 0 -149.5 -62.5t-59.5 -156.5t59.5 -156.5t149.5 -62.5q86 0 142 51
v80h-122q-25 0 -43.5 18t-18.5 43t18.5 44t43.5 19h196q31 0 49.5 -19t18.5 -50zM236 783q-12 10 -12 26q0 15 10.5 26t25.5 11q16 0 26 -10q44 -44 103 -44t102 43q11 11 26 11t25.5 -11t10.5 -26q0 -12 -11 -26q-64 -63 -153 -63t-153 63z" />
    <glyph glyph-name="gbreve" unicode="&#x11f;" horiz-adv-x="585" 
d="M522 426v-393q0 -124 -77 -177q-76 -52 -184 -52q-98 0 -170 45q-26 15 -26 45q0 22 15.5 37.5t37.5 15.5q13 0 27 -8q47 -31 116 -31q58 0 95.5 30t37.5 92v48q-62 -75 -149 -75q-95 0 -154 65.5t-59 180.5q0 114 59 180t154 66q90 0 149 -74v8q0 25 19.5 43t45.5 18
t44.5 -19t18.5 -45zM394 171v156q-16 24 -46.5 39.5t-62.5 15.5q-55 0 -88.5 -36.5t-33.5 -96.5t33.5 -96.5t88.5 -36.5q31 0 62 16t47 39zM142 636q-12 10 -12 26q0 15 10.5 26t25.5 11q16 0 26 -10q44 -44 103 -44t102 43q11 11 26 11t25.5 -11t10.5 -26q0 -12 -11 -26
q-64 -63 -153 -63t-153 63z" />
    <glyph glyph-name="Gdotaccent" unicode="&#x120;" horiz-adv-x="720" 
d="M673 300v-133q0 -60 -39 -92q-103 -88 -245 -88q-148 -2 -252.5 97t-102.5 249q-2 152 102 249.5t253 95.5q131 0 223 -84q21 -20 21 -50q0 -27 -19 -46.5t-47 -19.5q-27 0 -46 19q-56 55 -132 55q-90 0 -149.5 -62.5t-59.5 -156.5t59.5 -156.5t149.5 -62.5q86 0 142 51
v80h-122q-25 0 -43.5 18t-18.5 43t18.5 44t43.5 19h196q31 0 49.5 -19t18.5 -50zM389 856q28 0 47.5 -20t19.5 -48t-19.5 -48t-47.5 -20t-48 20t-20 48t20 48t48 20z" />
    <glyph glyph-name="gdotaccent" unicode="&#x121;" horiz-adv-x="585" 
d="M522 426v-393q0 -124 -77 -177q-76 -52 -184 -52q-98 0 -170 45q-26 15 -26 45q0 22 15.5 37.5t37.5 15.5q13 0 27 -8q47 -31 116 -31q58 0 95.5 30t37.5 92v48q-62 -75 -149 -75q-95 0 -154 65.5t-59 180.5q0 114 59 180t154 66q90 0 149 -74v8q0 25 19.5 43t45.5 18
t44.5 -19t18.5 -45zM394 171v156q-16 24 -46.5 39.5t-62.5 15.5q-55 0 -88.5 -36.5t-33.5 -96.5t33.5 -96.5t88.5 -36.5q31 0 62 16t47 39zM295 709q28 0 47.5 -20t19.5 -48t-19.5 -48t-47.5 -20t-48 20t-20 48t20 48t48 20z" />
    <glyph glyph-name="uni0122" unicode="&#x122;" horiz-adv-x="720" 
d="M673 300v-133q0 -60 -39 -92q-103 -88 -245 -88q-148 -2 -252.5 97t-102.5 249q-2 152 102 249.5t253 95.5q131 0 223 -84q21 -20 21 -50q0 -27 -19 -46.5t-47 -19.5q-27 0 -46 19q-56 55 -132 55q-90 0 -149.5 -62.5t-59.5 -156.5t59.5 -156.5t149.5 -62.5q86 0 142 51
v80h-122q-25 0 -43.5 18t-18.5 43t18.5 44t43.5 19h196q31 0 49.5 -19t18.5 -50zM344 -259q0 11 12 23q32 28 40 62q-8 -2 -15 -2q-23 0 -38 16t-15 41q0 26 18 44t43 18q30 0 50.5 -22.5t20.5 -58.5q0 -82 -72 -141q-8 -7 -17 -7q-11 0 -19 8t-8 19z" />
    <glyph glyph-name="uni0123" unicode="&#x123;" horiz-adv-x="585" 
d="M225 628q0 82 72 141q7 6 17 6q12 0 20 -7.5t8 -19.5q0 -9 -13 -22q-33 -33 -40 -62q8 2 15 2q23 0 38.5 -16t15.5 -41t-18 -43.5t-44 -18.5q-30 0 -50.5 22.5t-20.5 58.5zM522 426v-393q0 -124 -77 -177q-76 -52 -184 -52q-98 0 -170 45q-26 15 -26 45q0 22 15.5 37.5
t37.5 15.5q13 0 27 -8q47 -31 116 -31q58 0 95.5 30t37.5 92v48q-62 -75 -149 -75q-95 0 -154 65.5t-59 180.5q0 114 59 180t154 66q90 0 149 -74v8q0 25 19.5 43t45.5 18t44.5 -19t18.5 -45zM394 171v156q-16 24 -46.5 39.5t-62.5 15.5q-55 0 -88.5 -36.5t-33.5 -96.5
t33.5 -96.5t88.5 -36.5q31 0 62 16t47 39z" />
    <glyph glyph-name="Hcircumflex" unicode="&#x124;" horiz-adv-x="731" 
d="M523 64v216h-315v-216q0 -29 -20.5 -50t-49.5 -21q-30 0 -51 21t-21 50v539q0 29 21 50t50 21q30 0 50.5 -21t20.5 -50v-198h315v198q0 29 21 50t51 21q29 0 50 -21t21 -50v-539q0 -29 -21 -50t-51 -21q-29 0 -50 21t-21 50zM434 729l-66 83l-67 -83q-11 -12 -26 -12
q-14 0 -23.5 9.5t-9.5 24.5q0 10 4 17l49 75q19 30 56 30h34q35 0 56 -30l48 -75q4 -7 4 -17q0 -15 -9.5 -24.5t-23.5 -9.5q-16 0 -26 12z" />
    <glyph glyph-name="hcircumflex" unicode="&#x125;" horiz-adv-x="580" 
d="M390 57v237q0 47 -22 67.5t-68 20.5q-67 0 -110 -57v-268q0 -26 -18.5 -45t-44.5 -19t-45 19t-19 45v553q0 26 19 45t45 19t44.5 -19t18.5 -45v-190q28 33 73 54t97 21q77 0 117 -39.5t40 -112.5v-286q0 -26 -18.5 -45t-45.5 -19q-26 0 -44.5 19t-18.5 45zM358 729
l-66 83l-67 -83q-11 -12 -26 -12q-14 0 -23.5 9.5t-9.5 24.5q0 10 4 17l49 75q19 30 56 30h34q35 0 56 -30l48 -75q4 -7 4 -17q0 -15 -9.5 -24.5t-23.5 -9.5q-16 0 -26 12z" />
    <glyph glyph-name="Hbar" unicode="&#x126;" horiz-adv-x="748" 
d="M749 534q0 -15 -10.5 -25.5t-25.5 -10.5h-39v-434q0 -29 -21 -50t-51 -21q-29 0 -50 21t-21 50v216h-314v-216q0 -29 -21 -50t-50 -21q-30 0 -51 21t-21 50v434h-37q-14 0 -25 10.5t-11 25.5t11 25.5t25 10.5h37v33q0 29 21 50t50 21q30 0 51 -21t21 -50v-33h314v33
q0 29 21 50t51 21q29 0 50 -21t21 -50v-33h39q15 0 25.5 -10.5t10.5 -25.5zM531 405v93h-314v-93h314z" />
    <glyph glyph-name="hbar" unicode="&#x127;" horiz-adv-x="584" 
d="M521 343v-286q0 -26 -19 -45t-45 -19t-44.5 19t-18.5 45v237q0 88 -90 88q-65 0 -110 -57v-268q0 -26 -18.5 -45t-44.5 -19q-27 0 -45.5 19t-18.5 45v471h-30q-15 0 -25.5 10.5t-10.5 25.5t10.5 26t25.5 11h30v9q0 26 18.5 45t45.5 19q26 0 44.5 -19t18.5 -45v-9h117
q15 0 26 -11t11 -26t-11 -25.5t-26 -10.5h-117v-108q28 33 73 54t97 21q77 0 117 -39.5t40 -112.5z" />
    <glyph glyph-name="Itilde" unicode="&#x128;" horiz-adv-x="274" 
d="M66 64v539q0 29 21 50t51 21q29 0 49.5 -21t20.5 -50v-539q0 -29 -20.5 -50t-49.5 -21q-30 0 -51 21t-21 50zM118 762q-23 27 -40 27q-28 0 -34 -43q-7 -26 -33 -26q-16 0 -25.5 11.5t-7.5 26.5q14 103 105 103q39 0 75 -41q26 -26 41 -26q27 0 34 42q2 11 11.5 18.5
t21.5 7.5q15 0 25 -11t8 -27q-14 -103 -104 -103q-24 0 -40.5 10t-36.5 31z" />
    <glyph glyph-name="itilde" unicode="&#x129;" horiz-adv-x="253" 
d="M63 57v369q0 26 18.5 45t45.5 19q26 0 44.5 -19t18.5 -45v-369q0 -26 -19 -45t-45 -19t-44.5 19t-18.5 45zM106 615q-23 27 -40 27q-28 0 -34 -43q-7 -26 -33 -26q-16 0 -25.5 11.5t-7.5 26.5q14 103 105 103q39 0 75 -41q26 -26 41 -26q27 0 34 42q2 11 11.5 18.5
t21.5 7.5q15 0 25 -11t8 -27q-14 -103 -104 -103q-24 0 -40.5 10t-36.5 31z" />
    <glyph glyph-name="Imacron" unicode="&#x12a;" horiz-adv-x="274" 
d="M66 64v539q0 29 21 50t51 21q29 0 49.5 -21t20.5 -50v-539q0 -29 -20.5 -50t-49.5 -21q-30 0 -51 21t-21 50zM-36 765q0 15 10.5 25.5t25.5 10.5h275q15 0 25.5 -10.5t10.5 -25.5t-10.5 -25.5t-25.5 -10.5h-275q-15 0 -25.5 10.5t-10.5 25.5z" />
    <glyph glyph-name="imacron" unicode="&#x12b;" horiz-adv-x="253" 
d="M63 57v369q0 26 18.5 45t45.5 19q26 0 44.5 -19t18.5 -45v-369q0 -26 -19 -45t-45 -19t-44.5 19t-18.5 45zM-48 618q0 15 10.5 25.5t25.5 10.5h275q15 0 25.5 -10.5t10.5 -25.5t-10.5 -25.5t-25.5 -10.5h-275q-15 0 -25.5 10.5t-10.5 25.5z" />
    <glyph glyph-name="Ibreve" unicode="&#x12c;" horiz-adv-x="274" 
d="M66 64v539q0 29 21 50t51 21q29 0 49.5 -21t20.5 -50v-539q0 -29 -20.5 -50t-49.5 -21q-30 0 -51 21t-21 50zM-15 783q-12 11 -12 26t10.5 26t25.5 11q16 0 26 -10q44 -44 103 -44t102 43q11 11 26 11t25.5 -11t10.5 -26q0 -12 -11 -26q-65 -63 -153 -63t-153 63z" />
    <glyph glyph-name="ibreve" unicode="&#x12d;" horiz-adv-x="253" 
d="M63 57v369q0 26 18.5 45t45.5 19q26 0 44.5 -19t18.5 -45v-369q0 -26 -19 -45t-45 -19t-44.5 19t-18.5 45zM-27 636q-12 10 -12 26q0 15 10.5 26t25.5 11q16 0 26 -10q44 -44 103 -44t102 43q11 11 26 11t25.5 -11t10.5 -26q0 -12 -11 -26q-65 -63 -153 -63t-153 63z" />
    <glyph glyph-name="Iogonek" unicode="&#x12e;" horiz-adv-x="274" 
d="M120 -76q0 -14 9.5 -22.5t24.5 -8.5q4 0 8.5 1t6.5 1q17 0 28 -11t11 -27q0 -28 -27 -36q-24 -7 -62 -7q-48 0 -80.5 21t-32.5 59q0 33 29 60.5t78 42.5q-21 8 -34 26.5t-13 40.5v539q0 29 21 50t51 21q29 0 49.5 -21t20.5 -50v-539q0 -38 -32 -59q-56 -48 -56 -81z" />
    <glyph glyph-name="iogonek" unicode="&#x12f;" horiz-adv-x="253" 
d="M50 638q0 31 22.5 53.5t53.5 22.5q32 0 54 -22t22 -54q0 -31 -22 -53.5t-54 -22.5q-31 0 -53.5 22.5t-22.5 53.5zM190 426v-369q0 -44 -40 -59q-48 -41 -48 -74q0 -14 9.5 -22.5t24.5 -8.5q3 0 8 1t7 1q16 0 27 -11t11 -27q0 -27 -26 -36q-25 -7 -62 -7q-48 0 -81 21
t-33 59q0 34 30.5 61.5t81.5 43.5q-36 19 -36 58v369q0 26 18.5 45t45.5 19q26 0 44.5 -19t18.5 -45z" />
    <glyph glyph-name="Idot" unicode="&#x130;" horiz-adv-x="274" 
d="M66 64v539q0 29 21 50t51 21q29 0 49.5 -21t20.5 -50v-539q0 -29 -20.5 -50t-49.5 -21q-30 0 -51 21t-21 50zM138 856q28 0 47.5 -20t19.5 -48t-19.5 -48t-47.5 -20t-48 20t-20 48t20 48t48 20z" />
    <glyph glyph-name="dotlessi" unicode="&#x131;" horiz-adv-x="253" 
d="M63 57v369q0 26 18.5 45t45.5 19q26 0 44.5 -19t18.5 -45v-369q0 -26 -19 -45t-45 -19t-44.5 19t-18.5 45z" />
    <glyph glyph-name="IJ" unicode="&#x132;" horiz-adv-x="760" 
d="M66 64v539q0 29 21 50t51 21q29 0 49.5 -21t20.5 -50v-539q0 -29 -20.5 -50t-49.5 -21q-30 0 -51 21t-21 50zM293 76q0 26 18.5 44.5t44.5 18.5q15 0 27 -6q29 -19 65 -19q47 0 75.5 29t28.5 78v382q0 29 20.5 50t50.5 21t50.5 -21t20.5 -50v-384q0 -112 -63 -171.5
t-172 -59.5q-73 0 -130 33q-36 19 -36 55z" />
    <glyph glyph-name="ij" unicode="&#x133;" horiz-adv-x="505" 
d="M50 638q0 31 22.5 53.5t53.5 22.5q32 0 54 -22t22 -54q0 -31 -22 -53.5t-54 -22.5q-31 0 -53.5 22.5t-22.5 53.5zM63 57v369q0 26 18.5 45t45.5 19q26 0 44.5 -19t18.5 -45v-369q0 -26 -19 -45t-45 -19t-44.5 19t-18.5 45zM303 638q0 31 22.5 53.5t53.5 22.5q32 0 54 -22
t22 -54q0 -31 -22 -53.5t-54 -22.5q-31 0 -53.5 22.5t-22.5 53.5zM276 -196h-10q-24 0 -40.5 16t-16.5 40q0 19 12 34t30 16h4q61 5 61 77v439q0 26 18.5 45t45.5 19q26 0 44.5 -19t18.5 -45v-439q0 -85 -43.5 -134t-123.5 -49z" />
    <glyph glyph-name="Jcircumflex" unicode="&#x134;" horiz-adv-x="486" 
d="M19 76q0 26 18.5 44.5t44.5 18.5q15 0 27 -6q29 -19 65 -19q47 0 75.5 29t28.5 78v382q0 29 20.5 50t50.5 21t50.5 -21t20.5 -50v-384q0 -112 -63 -171.5t-172 -59.5q-73 0 -130 33q-36 19 -36 55zM419 746l-66 83l-67 -83q-10 -12 -26 -12q-14 0 -23.5 9.5t-9.5 24.5
q0 10 4 17l49 75q19 30 56 30h34q35 0 56 -30l48 -75q4 -7 4 -17q0 -15 -9.5 -24.5t-23.5 -9.5q-15 0 -26 12z" />
    <glyph glyph-name="jcircumflex" unicode="&#x135;" horiz-adv-x="253" 
d="M23 -196h-10q-24 0 -40.5 16t-16.5 40q0 19 12 34t30 16h4q61 5 61 77v439q0 26 18.5 45t45.5 19q26 0 44.5 -19t18.5 -45v-439q0 -85 -43.5 -134t-123.5 -49zM194 582l-66 83l-67 -83q-11 -12 -26 -12q-14 0 -23.5 9.5t-9.5 24.5q0 10 4 17l49 75q19 30 56 30h34
q35 0 56 -30l48 -75q4 -7 4 -17q0 -15 -9.5 -24.5t-23.5 -9.5q-16 0 -26 12z" />
    <glyph glyph-name="uni0136" unicode="&#x136;" horiz-adv-x="636" 
d="M602 62q0 -28 -19 -48.5t-48 -20.5q-33 0 -51 22l-222 250l-54 -60v-141q0 -29 -20.5 -50t-50.5 -21q-29 0 -50 21t-21 50v539q0 29 21 50t50 21q30 0 50.5 -21t20.5 -50v-235l257 284q21 22 50 22q27 0 46.5 -19.5t19.5 -46.5t-17 -44l-202 -214l223 -244q17 -20 17 -44
zM278 -259q0 11 12 23q32 28 40 62q-8 -2 -15 -2q-23 0 -38 16t-15 41q0 26 18 44t43 18q30 0 50.5 -22.5t20.5 -58.5q0 -82 -72 -141q-8 -7 -17 -7q-11 0 -19 8t-8 19z" />
    <glyph glyph-name="uni0137" unicode="&#x137;" horiz-adv-x="535" 
d="M504 57q0 -28 -18 -46t-45 -18q-30 0 -49 22l-142 170l-60 -56v-72q0 -26 -19 -45t-45 -19t-44.5 19t-18.5 45v553q0 26 18.5 45t45.5 19q26 0 44.5 -19t18.5 -45v-340l200 203q17 17 42 17t42 -17.5t17 -41.5q0 -25 -17 -42l-131 -128l148 -165q13 -13 13 -39zM223 -259
q0 11 12 23q32 28 40 62q-8 -2 -15 -2q-23 0 -38 16t-15 41q0 26 18 44t43 18q30 0 50.5 -22.5t20.5 -58.5q0 -82 -72 -141q-8 -7 -17 -7q-11 0 -19 8t-8 19z" />
    <glyph glyph-name="kgreenlandic" unicode="&#x138;" horiz-adv-x="535" 
d="M504 57q0 -28 -18 -46t-45 -18q-30 0 -49 22l-142 170l-60 -56v-72q0 -26 -19 -45t-45 -19t-44.5 19t-18.5 45v369q0 26 18.5 45t45.5 19q26 0 44.5 -19t18.5 -45v-156l200 203q17 17 42 17t42 -17.5t17 -41.5q0 -25 -17 -42l-131 -128l148 -165q13 -13 13 -39z" />
    <glyph glyph-name="Lacute" unicode="&#x139;" horiz-adv-x="523" 
d="M66 76v527q0 29 21 50t51 21q29 0 49.5 -21t20.5 -50v-478h227q26 0 44 -18t18 -44t-18 -44.5t-44 -18.5h-294q-36 0 -55.5 19.5t-19.5 56.5zM144 714q-14 0 -23.5 9.5t-9.5 22.5q0 9 8 22l91 97q10 13 29 13q15 0 26.5 -12t11.5 -28t-13 -28l-98 -87q-7 -9 -22 -9z" />
    <glyph glyph-name="lacute" unicode="&#x13a;" horiz-adv-x="253" 
d="M63 57v553q0 26 18.5 45t45.5 19q26 0 44.5 -19t18.5 -45v-553q0 -26 -18.5 -45t-44.5 -19q-27 0 -45.5 19t-18.5 45zM132 714q-14 0 -23.5 9.5t-9.5 22.5q0 9 8 22l91 97q10 13 29 13q15 0 26.5 -12t11.5 -28t-13 -28l-98 -87q-8 -9 -22 -9z" />
    <glyph glyph-name="uni013B" unicode="&#x13b;" horiz-adv-x="523" 
d="M66 76v527q0 29 21 50t51 21q29 0 49.5 -21t20.5 -50v-478h227q26 0 44 -18t18 -44t-18 -44.5t-44 -18.5h-294q-36 0 -55.5 19.5t-19.5 56.5zM233 -259q0 11 12 23q32 28 40 62q-8 -2 -15 -2q-23 0 -38 16t-15 41q0 26 18 44t43 18q30 0 50.5 -22.5t20.5 -58.5
q0 -82 -72 -141q-8 -7 -17 -7q-11 0 -19 8t-8 19z" />
    <glyph glyph-name="uni013C" unicode="&#x13c;" horiz-adv-x="253" 
d="M63 57v553q0 26 18.5 45t45.5 19q26 0 44.5 -19t18.5 -45v-553q0 -26 -18.5 -45t-44.5 -19q-27 0 -45.5 19t-18.5 45zM81 -259q0 11 12 23q32 28 40 62q-8 -2 -15 -2q-23 0 -38 16t-15 41q0 26 18 44t43 18q30 0 50.5 -22.5t20.5 -58.5q0 -82 -72 -141q-8 -7 -17 -7
q-11 0 -19 8t-8 19z" />
    <glyph glyph-name="Lcaron" unicode="&#x13d;" horiz-adv-x="523" 
d="M66 76v527q0 29 21 50t51 21q29 0 49.5 -21t20.5 -50v-478h227q26 0 44 -18t18 -44t-18 -44.5t-44 -18.5h-294q-36 0 -55.5 19.5t-19.5 56.5zM305 478q0 11 12 23q32 28 40 62q-8 -2 -15 -2q-23 0 -38 16t-15 41q0 26 18 44t43 18q30 0 50.5 -22.5t20.5 -58.5
q0 -82 -72 -141q-8 -7 -17 -7q-11 0 -19 8t-8 19z" />
    <glyph glyph-name="lcaron" unicode="&#x13e;" horiz-adv-x="354" 
d="M63 57v553q0 26 18.5 45t45.5 19q26 0 44.5 -19t18.5 -45v-553q0 -26 -18.5 -45t-44.5 -19q-27 0 -45.5 19t-18.5 45zM247 478q0 11 12 23q32 28 40 62q-8 -2 -15 -2q-23 0 -38 16t-15 41q0 26 18 44t43 18q30 0 50.5 -22.5t20.5 -58.5q0 -82 -72 -141q-8 -7 -17 -7
q-11 0 -19 8t-8 19z" />
    <glyph glyph-name="Ldot" unicode="&#x13f;" horiz-adv-x="542" 
d="M66 76v527q0 29 21 50t51 21q29 0 49.5 -21t20.5 -50v-478h227q26 0 44 -18t18 -44t-18 -44.5t-44 -18.5h-294q-36 0 -55.5 19.5t-19.5 56.5zM326 341q0 33 24 57t57 24t57 -24t24 -57q0 -32 -24 -56t-57 -24t-57 24t-24 56z" />
    <glyph glyph-name="ldot" unicode="&#x140;" horiz-adv-x="384" 
d="M63 57v553q0 26 18.5 45t45.5 19q26 0 44.5 -19t18.5 -45v-553q0 -26 -18.5 -45t-44.5 -19q-27 0 -45.5 19t-18.5 45zM237 244q0 33 24 57t57 24t57 -24t24 -57q0 -32 -24 -56t-57 -24t-57 24t-24 56z" />
    <glyph glyph-name="Lslash" unicode="&#x141;" horiz-adv-x="534" 
d="M511 63q0 -26 -18.5 -44.5t-44.5 -18.5h-293q-36 0 -55.5 19.5t-19.5 56.5v157l-6 -3q-11 -8 -25 -8q-20 0 -35 15t-15 35q0 30 25 45l56 32v254q0 29 21 50t50 21q30 0 50.5 -21t20.5 -50v-172l12 7q11 7 25 7q21 0 35.5 -15t14.5 -35q0 -31 -25 -44l-62 -36v-190h226
q26 0 44.5 -18.5t18.5 -43.5z" />
    <glyph glyph-name="lslash" unicode="&#x142;" horiz-adv-x="308" 
d="M306 399q0 -23 -20 -35l-68 -39v-268q0 -26 -18.5 -45t-44.5 -19q-27 0 -46 19t-19 45v193l-28 -16q-12 -5 -21 -5q-17 0 -28.5 12t-11.5 29q0 22 20 34l69 40v266q0 26 19 45t46 19q26 0 44.5 -19t18.5 -45v-192l28 16q12 5 20 5q17 0 28.5 -11.5t11.5 -28.5z" />
    <glyph glyph-name="Nacute" unicode="&#x143;" horiz-adv-x="729" 
d="M505 30l-297 418v-384q0 -29 -20.5 -50t-49.5 -21q-30 0 -51 21t-21 50v517q0 38 27 65.5t66 27.5q48 0 76 -39l286 -400v368q0 29 20.5 50t50.5 21q29 0 50 -21t21 -50v-523q0 -36 -25.5 -61.5t-61.5 -25.5q-45 0 -71 37zM371 714q-14 0 -23.5 9.5t-9.5 22.5q0 9 8 22
l91 97q10 13 29 13q15 0 26.5 -12t11.5 -28t-13 -28l-98 -87q-7 -9 -22 -9z" />
    <glyph glyph-name="nacute" unicode="&#x144;" 
d="M516 341v-284q0 -26 -18.5 -45t-45.5 -19q-26 0 -44.5 19t-18.5 45v235q0 90 -89 90q-67 0 -110 -57v-268q0 -26 -18.5 -45t-44.5 -19q-27 0 -45.5 19t-18.5 45v369q0 27 18.5 46t44.5 19q27 0 46 -19t19 -46v-4q66 73 168 73q77 0 117 -40.5t40 -113.5zM296 567
q-14 0 -23.5 9.5t-9.5 22.5q0 9 8 22l91 97q10 13 29 13q15 0 26.5 -12t11.5 -28t-13 -28l-98 -87q-8 -9 -22 -9z" />
    <glyph glyph-name="uni0145" unicode="&#x145;" horiz-adv-x="729" 
d="M505 30l-297 418v-384q0 -29 -20.5 -50t-49.5 -21q-30 0 -51 21t-21 50v517q0 38 27 65.5t66 27.5q48 0 76 -39l286 -400v368q0 29 20.5 50t50.5 21q29 0 50 -21t21 -50v-523q0 -36 -25.5 -61.5t-61.5 -25.5q-45 0 -71 37zM319 -259q0 11 12 23q32 28 40 62q-8 -2 -15 -2
q-23 0 -38 16t-15 41q0 26 18 44t43 18q30 0 50.5 -22.5t20.5 -58.5q0 -82 -72 -141q-8 -7 -17 -7q-11 0 -19 8t-8 19z" />
    <glyph glyph-name="uni0146" unicode="&#x146;" 
d="M516 341v-284q0 -26 -18.5 -45t-45.5 -19q-26 0 -44.5 19t-18.5 45v235q0 90 -89 90q-67 0 -110 -57v-268q0 -26 -18.5 -45t-44.5 -19q-27 0 -45.5 19t-18.5 45v369q0 27 18.5 46t44.5 19q27 0 46 -19t19 -46v-4q66 73 168 73q77 0 117 -40.5t40 -113.5zM244 -259
q0 11 12 23q32 28 40 62q-8 -2 -15 -2q-23 0 -38 16t-15 41q0 26 18 44t43 18q30 0 50.5 -22.5t20.5 -58.5q0 -82 -72 -141q-8 -7 -17 -7q-11 0 -19 8t-8 19z" />
    <glyph glyph-name="Ncaron" unicode="&#x147;" horiz-adv-x="729" 
d="M505 30l-297 418v-384q0 -29 -20.5 -50t-49.5 -21q-30 0 -51 21t-21 50v517q0 38 27 65.5t66 27.5q48 0 76 -39l286 -400v368q0 29 20.5 50t50.5 21q29 0 50 -21t21 -50v-523q0 -36 -25.5 -61.5t-61.5 -25.5q-45 0 -71 37zM488 839q0 -12 -4 -16l-48 -76q-21 -30 -56 -30
h-34q-37 0 -56 30l-49 76q-4 4 -4 16q0 15 9.5 24.5t23.5 9.5q15 0 26 -11l67 -84l66 84q11 11 26 11q14 0 23.5 -9.5t9.5 -24.5z" />
    <glyph glyph-name="ncaron" unicode="&#x148;" 
d="M516 341v-284q0 -26 -18.5 -45t-45.5 -19q-26 0 -44.5 19t-18.5 45v235q0 90 -89 90q-67 0 -110 -57v-268q0 -26 -18.5 -45t-44.5 -19q-27 0 -45.5 19t-18.5 45v369q0 27 18.5 46t44.5 19q27 0 46 -19t19 -46v-4q66 73 168 73q77 0 117 -40.5t40 -113.5zM413 692
q0 -12 -4 -16l-48 -76q-21 -30 -56 -30h-34q-37 0 -56 30l-49 76q-4 4 -4 16q0 15 9.5 24.5t23.5 9.5q15 0 26 -11l67 -84l66 84q11 11 26 11q14 0 23.5 -9.5t9.5 -24.5z" />
    <glyph glyph-name="napostrophe" unicode="&#x149;" 
d="M516 341v-284q0 -26 -18.5 -45t-45.5 -19q-26 0 -44.5 19t-18.5 45v235q0 90 -89 90q-67 0 -110 -57v-268q0 -26 -18.5 -45t-44.5 -19q-27 0 -45.5 19t-18.5 45v369q0 27 18.5 46t44.5 19q27 0 46 -19t19 -46v-4q66 73 168 73q77 0 117 -40.5t40 -113.5zM60 562
q0 11 12 23q32 28 40 62q-8 -2 -15 -2q-23 0 -38 16t-15 41q0 26 18 44t43 18q30 0 50.5 -22.5t20.5 -58.5q0 -82 -72 -141q-8 -7 -17 -7q-11 0 -19 8t-8 19z" />
    <glyph glyph-name="Eng" unicode="&#x14a;" horiz-adv-x="729" 
d="M663 603v-569q0 -112 -62.5 -171t-172.5 -59q-72 0 -131 33q-36 19 -36 55q0 26 18.5 44.5t44.5 18.5q16 0 28 -6q28 -19 65 -19q42 0 66.5 23.5t28.5 66.5l-304 428v-384q0 -29 -20.5 -50t-49.5 -21q-30 0 -51 21t-21 50v516q0 39 27.5 66.5t66.5 27.5q50 0 75 -38
l286 -401v368q0 29 20.5 50t50.5 21q29 0 50 -21t21 -50z" />
    <glyph glyph-name="eng" unicode="&#x14b;" 
d="M516 341v-354q0 -85 -43.5 -134t-123.5 -49h-10q-24 0 -40.5 16t-16.5 40q0 19 12 34t30 16h4q61 5 61 77v305q0 90 -89 90q-67 0 -110 -57v-268q0 -26 -18.5 -45t-44.5 -19q-27 0 -45.5 19t-18.5 45v369q0 27 18.5 46t44.5 19q27 0 46 -19t19 -46v-4q66 73 168 73
q77 0 117 -40.5t40 -113.5z" />
    <glyph glyph-name="Omacron" unicode="&#x14c;" horiz-adv-x="765" 
d="M382 678q149 2 250 -97.5t99 -247.5q2 -148 -99 -247.5t-250 -97.5q-148 -2 -249 98t-99 247q-2 147 99 247t249 98zM382 552q-90 0 -146 -62t-56 -157t56 -157t146 -62t146.5 62t56.5 157t-56.5 157t-146.5 62zM208 765q0 15 10.5 25.5t25.5 10.5h275q15 0 25.5 -10.5
t10.5 -25.5t-10.5 -25.5t-25.5 -10.5h-275q-15 0 -25.5 10.5t-10.5 25.5z" />
    <glyph glyph-name="omacron" unicode="&#x14d;" horiz-adv-x="574" 
d="M32 242q0 107 70.5 180t184.5 73q115 0 185.5 -73t70.5 -180q0 -108 -70.5 -181t-185.5 -73t-185 73t-70 181zM411 242q0 60 -34 100t-90 40t-89.5 -39.5t-33.5 -100.5t33.5 -101t89.5 -40t90 40t34 101zM113 618q0 15 10.5 25.5t25.5 10.5h275q15 0 25.5 -10.5
t10.5 -25.5t-10.5 -25.5t-25.5 -10.5h-275q-15 0 -25.5 10.5t-10.5 25.5z" />
    <glyph glyph-name="Obreve" unicode="&#x14e;" horiz-adv-x="765" 
d="M382 678q149 2 250 -97.5t99 -247.5q2 -148 -99 -247.5t-250 -97.5q-148 -2 -249 98t-99 247q-2 147 99 247t249 98zM382 552q-90 0 -146 -62t-56 -157t56 -157t146 -62t146.5 62t56.5 157t-56.5 157t-146.5 62zM229 783q-12 10 -12 26q0 15 10.5 26t25.5 11q16 0 26 -10
q44 -44 103 -44t102 43q11 11 26 11t25.5 -11t10.5 -26q0 -12 -11 -26q-65 -63 -153 -63t-153 63z" />
    <glyph glyph-name="obreve" unicode="&#x14f;" horiz-adv-x="574" 
d="M32 242q0 107 70.5 180t184.5 73q115 0 185.5 -73t70.5 -180q0 -108 -70.5 -181t-185.5 -73t-185 73t-70 181zM411 242q0 60 -34 100t-90 40t-89.5 -39.5t-33.5 -100.5t33.5 -101t89.5 -40t90 40t34 101zM134 636q-12 10 -12 26q0 15 10.5 26t25.5 11q16 0 26 -10
q44 -44 103 -44t102 43q11 11 26 11t25.5 -11t10.5 -26q0 -12 -11 -26q-64 -63 -153 -63t-153 63z" />
    <glyph glyph-name="Ohungarumlaut" unicode="&#x150;" horiz-adv-x="765" 
d="M382 678q149 2 250 -97.5t99 -247.5q2 -148 -99 -247.5t-250 -97.5q-148 -2 -249 98t-99 247q-2 147 99 247t249 98zM382 552q-90 0 -146 -62t-56 -157t56 -157t146 -62t146.5 62t56.5 157t-56.5 157t-146.5 62zM287 748q0 9 5 17l55 90q11 19 33 19q16 0 27.5 -12
t11.5 -28q0 -13 -8 -24l-66 -82q-9 -12 -25 -12q-13 0 -23 9.5t-10 22.5zM436 748q0 9 5 17l55 90q11 19 33 19q16 0 27.5 -12t11.5 -28q0 -13 -8 -24l-66 -82q-9 -12 -25 -12q-13 0 -23 9.5t-10 22.5z" />
    <glyph glyph-name="ohungarumlaut" unicode="&#x151;" horiz-adv-x="574" 
d="M32 242q0 107 70.5 180t184.5 73q115 0 185.5 -73t70.5 -180q0 -108 -70.5 -181t-185.5 -73t-185 73t-70 181zM411 242q0 60 -34 100t-90 40t-89.5 -39.5t-33.5 -100.5t33.5 -101t89.5 -40t90 40t34 101zM192 601q0 9 5 17l55 90q11 19 33 19q16 0 27.5 -12t11.5 -28
q0 -13 -8 -24l-66 -82q-9 -12 -25 -12q-13 0 -23 9.5t-10 22.5zM341 601q0 9 5 17l55 90q11 19 33 19q16 0 27.5 -12t11.5 -28q0 -13 -8 -24l-66 -82q-9 -12 -25 -12q-13 0 -23 9.5t-10 22.5z" />
    <glyph glyph-name="OE" unicode="&#x152;" horiz-adv-x="1084" 
d="M1048 62q0 -25 -18 -43.5t-43 -18.5h-342q-37 0 -56.5 19.5t-19.5 55.5q-32 -41 -87 -64t-114 -23q-144 -2 -240 97t-94 248q-2 149 94 247.5t240 96.5q60 0 115 -22.5t86 -63.5v1q0 36 19.5 55.5t56.5 19.5h342q25 0 43 -18t18 -44q0 -25 -18 -42.5t-43 -17.5h-275v-145
h268q25 0 43 -18t18 -43t-18 -43t-43 -18h-268v-155h275q25 0 43 -18t18 -43zM569 230v206q-24 56 -71 85.5t-110 29.5q-94 0 -151 -61t-57 -157q0 -95 57 -157t151 -62q61 0 109 30.5t72 85.5z" />
    <glyph glyph-name="oe" unicode="&#x153;" horiz-adv-x="931" 
d="M683 89q51 0 98 27q12 5 23 5q21 0 35.5 -14t14.5 -35q0 -30 -27 -44q-70 -40 -158 -40q-121 0 -194 107q-75 -107 -188 -107q-115 0 -185 73t-70 181q0 107 70.5 180t184.5 73q111 0 189 -108q69 108 185 108q108 0 174.5 -74t66.5 -192q0 -28 -75 -28h-283
q7 -49 44 -80.5t95 -31.5zM660 394q-51 0 -82.5 -31t-35.5 -76h238q-3 45 -34.5 76t-85.5 31zM164 242q0 -63 34 -102.5t89 -39.5q56 0 90 39.5t34 102.5t-34 101.5t-90 38.5q-55 0 -89 -39t-34 -101z" />
    <glyph glyph-name="Racute" unicode="&#x154;" horiz-adv-x="643" 
d="M475 259l113 -154q14 -20 14 -45q0 -26 -20 -46.5t-48 -20.5q-38 0 -59 30l-150 216h-117v-175q0 -29 -20.5 -50t-49.5 -21q-30 0 -51 21t-21 50v528q0 36 19.5 55.5t55.5 19.5h237q102 0 163 -60t61 -155q0 -72 -35 -122t-92 -71zM208 545v-184h149q43 0 71.5 25.5
t28.5 66.5t-28.5 66.5t-71.5 25.5h-149zM329 714q-14 0 -23.5 9.5t-9.5 22.5q0 9 8 22l91 97q10 13 29 13q15 0 26.5 -12t11.5 -28t-13 -28l-98 -87q-7 -9 -22 -9z" />
    <glyph glyph-name="racute" unicode="&#x155;" horiz-adv-x="360" 
d="M354 435q0 -25 -16 -42t-44 -21q-29 -3 -59.5 -18t-44.5 -35v-262q0 -26 -18.5 -45t-44.5 -19q-27 0 -45.5 19t-18.5 45v368q0 27 18.5 46t44.5 19q27 0 46 -18.5t19 -45.5l-1 -9q38 51 79 67q21 8 32 8q24 0 38.5 -16t14.5 -41zM207 567q-14 0 -23.5 9.5t-9.5 22.5
q0 9 8 22l91 97q10 13 29 13q15 0 26.5 -12t11.5 -28t-13 -28l-98 -87q-7 -9 -22 -9z" />
    <glyph glyph-name="uni0156" unicode="&#x156;" horiz-adv-x="643" 
d="M475 259l113 -154q14 -20 14 -45q0 -26 -20 -46.5t-48 -20.5q-38 0 -59 30l-150 216h-117v-175q0 -29 -20.5 -50t-49.5 -21q-30 0 -51 21t-21 50v528q0 36 19.5 55.5t55.5 19.5h237q102 0 163 -60t61 -155q0 -72 -35 -122t-92 -71zM208 545v-184h149q43 0 71.5 25.5
t28.5 66.5t-28.5 66.5t-71.5 25.5h-149zM278 -259q0 11 12 23q32 28 40 62q-8 -2 -15 -2q-23 0 -38 16t-15 41q0 26 18 44t43 18q30 0 50.5 -22.5t20.5 -58.5q0 -82 -72 -141q-8 -7 -17 -7q-11 0 -19 8t-8 19z" />
    <glyph glyph-name="uni0157" unicode="&#x157;" horiz-adv-x="360" 
d="M354 435q0 -25 -16 -42t-44 -21q-29 -3 -59.5 -18t-44.5 -35v-262q0 -26 -18.5 -45t-44.5 -19q-27 0 -45.5 19t-18.5 45v368q0 27 18.5 46t44.5 19q27 0 46 -18.5t19 -45.5l-1 -9q38 51 79 67q21 8 32 8q24 0 38.5 -16t14.5 -41zM84 -259q0 11 12 23q32 28 40 62
q-8 -2 -15 -2q-23 0 -38 16t-15 41q0 26 18 44t43 18q30 0 50.5 -22.5t20.5 -58.5q0 -82 -72 -141q-8 -7 -17 -7q-11 0 -19 8t-8 19z" />
    <glyph glyph-name="Rcaron" unicode="&#x158;" horiz-adv-x="643" 
d="M475 259l113 -154q14 -20 14 -45q0 -26 -20 -46.5t-48 -20.5q-38 0 -59 30l-150 216h-117v-175q0 -29 -20.5 -50t-49.5 -21q-30 0 -51 21t-21 50v528q0 36 19.5 55.5t55.5 19.5h237q102 0 163 -60t61 -155q0 -72 -35 -122t-92 -71zM208 545v-184h149q43 0 71.5 25.5
t28.5 66.5t-28.5 66.5t-71.5 25.5h-149zM447 839q0 -12 -4 -16l-48 -76q-21 -30 -56 -30h-34q-37 0 -56 30l-49 76q-4 4 -4 16q0 15 9.5 24.5t23.5 9.5q15 0 26 -11l67 -84l66 84q11 11 26 11q14 0 23.5 -9.5t9.5 -24.5z" />
    <glyph glyph-name="rcaron" unicode="&#x159;" horiz-adv-x="360" 
d="M354 435q0 -25 -16 -42t-44 -21q-29 -3 -59.5 -18t-44.5 -35v-262q0 -26 -18.5 -45t-44.5 -19q-27 0 -45.5 19t-18.5 45v368q0 27 18.5 46t44.5 19q27 0 46 -18.5t19 -45.5l-1 -9q38 51 79 67q21 8 32 8q24 0 38.5 -16t14.5 -41zM325 692q0 -12 -4 -16l-48 -76
q-21 -30 -56 -30h-34q-37 0 -56 30l-49 76q-4 4 -4 16q0 15 9.5 24.5t23.5 9.5q15 0 26 -11l67 -84l66 84q11 11 26 11q14 0 23.5 -9.5t9.5 -24.5z" />
    <glyph glyph-name="Sacute" unicode="&#x15a;" horiz-adv-x="600" 
d="M38 110q0 28 19.5 47.5t46.5 19.5q22 0 38 -12q77 -53 168 -53q53 0 84.5 21.5t31.5 53.5t-31 50t-104 35q-77 18 -127 36q-54 20 -88 62t-34 106q0 87 71.5 144t191.5 57q113 0 207 -55q33 -18 33 -56q0 -27 -19.5 -46.5t-45.5 -19.5q-20 0 -34 10q-76 43 -151 43
q-53 0 -80.5 -18t-27.5 -50q0 -29 28 -43.5t105 -33.5q71 -15 126 -37q124 -46 124 -169q0 -98 -70 -156t-197 -58q-140 0 -235 67q-30 19 -30 55zM301 714q-14 0 -23.5 9.5t-9.5 22.5q0 9 8 22l91 97q10 13 29 13q15 0 26.5 -12t11.5 -28t-13 -28l-98 -87q-7 -9 -22 -9z
" />
    <glyph glyph-name="sacute" unicode="&#x15b;" horiz-adv-x="477" 
d="M32 81q0 22 15.5 37.5t37.5 15.5q14 0 27 -7q66 -41 131 -41q81 0 81 49q0 22 -22.5 34.5t-74.5 22.5q-59 10 -96 24q-94 31 -94 127q0 64 54 108t144 44q89 0 159 -43q25 -13 25 -42q0 -20 -14.5 -34.5t-34.5 -14.5q-15 0 -24 6q-50 31 -110 31q-35 0 -55.5 -12
t-20.5 -33q0 -20 20.5 -31t71.5 -21q51 -9 97 -25q97 -35 97 -133q0 -68 -56 -111.5t-153 -43.5q-101 0 -178 47q-27 15 -27 46zM241 567q-14 0 -23.5 9.5t-9.5 22.5q0 9 8 22l91 97q10 13 29 13q15 0 26.5 -12t11.5 -28t-13 -28l-98 -87q-8 -9 -22 -9z" />
    <glyph glyph-name="Scircumflex" unicode="&#x15c;" horiz-adv-x="600" 
d="M38 110q0 28 19.5 47.5t46.5 19.5q22 0 38 -12q77 -53 168 -53q53 0 84.5 21.5t31.5 53.5t-31 50t-104 35q-77 18 -127 36q-54 20 -88 62t-34 106q0 87 71.5 144t191.5 57q113 0 207 -55q33 -18 33 -56q0 -27 -19.5 -46.5t-45.5 -19.5q-20 0 -34 10q-76 43 -151 43
q-53 0 -80.5 -18t-27.5 -50q0 -29 28 -43.5t105 -33.5q71 -15 126 -37q124 -46 124 -169q0 -98 -70 -156t-197 -58q-140 0 -235 67q-30 19 -30 55zM363 729l-66 83l-67 -83q-10 -12 -26 -12q-14 0 -23.5 9.5t-9.5 24.5q0 10 4 17l49 75q19 30 56 30h34q35 0 56 -30l48 -75
q4 -7 4 -17q0 -15 -9.5 -24.5t-23.5 -9.5q-15 0 -26 12z" />
    <glyph glyph-name="scircumflex" unicode="&#x15d;" horiz-adv-x="477" 
d="M32 81q0 22 15.5 37.5t37.5 15.5q14 0 27 -7q66 -41 131 -41q81 0 81 49q0 22 -22.5 34.5t-74.5 22.5q-59 10 -96 24q-94 31 -94 127q0 64 54 108t144 44q89 0 159 -43q25 -13 25 -42q0 -20 -14.5 -34.5t-34.5 -14.5q-15 0 -24 6q-50 31 -110 31q-35 0 -55.5 -12
t-20.5 -33q0 -20 20.5 -31t71.5 -21q51 -9 97 -25q97 -35 97 -133q0 -68 -56 -111.5t-153 -43.5q-101 0 -178 47q-27 15 -27 46zM303 582l-66 83l-67 -83q-10 -12 -26 -12q-14 0 -23.5 9.5t-9.5 24.5q0 10 4 17l49 75q19 30 56 30h34q35 0 56 -30l48 -75q4 -7 4 -17
q0 -15 -9.5 -24.5t-23.5 -9.5q-15 0 -26 12z" />
    <glyph glyph-name="uni015E" unicode="&#x15e;" horiz-adv-x="600" 
d="M323 -12l-17 -39q16 10 35 10q29 0 48.5 -19.5t19.5 -50.5q0 -38 -31.5 -61.5t-79.5 -23.5q-50 0 -92 21q-17 8 -17 26q0 12 8.5 20.5t19.5 8.5q7 0 14 -4q30 -18 63 -18q22 0 37 9t15 24q0 26 -30 26q-12 0 -23 -8q-15 -5 -18 -5q-14 0 -23 9.5t-9 23.5q0 2 2 10l16 43
q-113 9 -193 65q-30 19 -30 55q0 28 19.5 47.5t46.5 19.5q22 0 38 -12q77 -53 168 -53q53 0 84.5 21.5t31.5 53.5t-31 50t-104 35q-77 18 -127 36q-54 20 -88 62t-34 106q0 87 71.5 144t191.5 57q113 0 207 -55q33 -18 33 -56q0 -27 -19.5 -46.5t-45.5 -19.5q-20 0 -34 10
q-76 43 -151 43q-53 0 -80.5 -18t-27.5 -50q0 -29 28 -43.5t105 -33.5q71 -15 126 -37q124 -46 124 -169q0 -94 -64.5 -151.5t-182.5 -62.5z" />
    <glyph glyph-name="uni015F" unicode="&#x15f;" horiz-adv-x="477" 
d="M263 -11l-17 -40q16 10 35 10q29 0 48.5 -19.5t19.5 -50.5q0 -38 -31.5 -61.5t-79.5 -23.5q-50 0 -92 21q-17 8 -17 26q0 12 8.5 20.5t19.5 8.5q7 0 14 -4q30 -18 63 -18q22 0 37 9t15 24q0 26 -29 26q-13 0 -24 -8q-12 -5 -18 -5q-14 0 -23 9.5t-9 23.5q0 2 2 10l16 43
q-77 6 -142 45q-27 15 -27 46q0 22 15.5 37.5t37.5 15.5q14 0 27 -7q66 -41 131 -41q81 0 81 49q0 22 -22.5 34.5t-74.5 22.5q-59 10 -96 24q-94 31 -94 127q0 64 54 108t144 44q89 0 159 -43q25 -13 25 -42q0 -20 -14.5 -34.5t-34.5 -14.5q-15 0 -24 6q-50 31 -110 31
q-35 0 -55.5 -12t-20.5 -33q0 -20 20.5 -31t71.5 -21q51 -9 97 -25q97 -35 97 -133q0 -64 -49 -106t-134 -48z" />
    <glyph glyph-name="Scaron" unicode="&#x160;" horiz-adv-x="600" 
d="M38 110q0 28 19.5 47.5t46.5 19.5q22 0 38 -12q77 -53 168 -53q53 0 84.5 21.5t31.5 53.5t-31 50t-104 35q-77 18 -127 36q-54 20 -88 62t-34 106q0 87 71.5 144t191.5 57q113 0 207 -55q33 -18 33 -56q0 -27 -19.5 -46.5t-45.5 -19.5q-20 0 -34 10q-76 43 -151 43
q-53 0 -80.5 -18t-27.5 -50q0 -29 28 -43.5t105 -33.5q71 -15 126 -37q124 -46 124 -169q0 -98 -70 -156t-197 -58q-140 0 -235 67q-30 19 -30 55zM419 839q0 -12 -4 -16l-48 -76q-21 -30 -56 -30h-34q-37 0 -56 30l-49 76q-4 4 -4 16q0 15 9.5 24.5t23.5 9.5q15 0 26 -11
l67 -84l66 84q11 11 26 11q14 0 23.5 -9.5t9.5 -24.5z" />
    <glyph glyph-name="scaron" unicode="&#x161;" horiz-adv-x="477" 
d="M32 81q0 22 15.5 37.5t37.5 15.5q14 0 27 -7q66 -41 131 -41q81 0 81 49q0 22 -22.5 34.5t-74.5 22.5q-59 10 -96 24q-94 31 -94 127q0 64 54 108t144 44q89 0 159 -43q25 -13 25 -42q0 -20 -14.5 -34.5t-34.5 -14.5q-15 0 -24 6q-50 31 -110 31q-35 0 -55.5 -12
t-20.5 -33q0 -20 20.5 -31t71.5 -21q51 -9 97 -25q97 -35 97 -133q0 -68 -56 -111.5t-153 -43.5q-101 0 -178 47q-27 15 -27 46zM359 692q0 -12 -4 -16l-48 -76q-21 -30 -56 -30h-34q-37 0 -56 30l-49 76q-4 4 -4 16q0 15 9.5 24.5t23.5 9.5q15 0 26 -11l67 -84l66 84
q11 11 26 11q14 0 23.5 -9.5t9.5 -24.5z" />
    <glyph glyph-name="uni0162" unicode="&#x162;" horiz-adv-x="582" 
d="M220 64v478h-139q-26 0 -44.5 18.5t-18.5 43.5q0 26 18.5 44.5t44.5 18.5h421q26 0 44.5 -18.5t18.5 -44.5q0 -25 -18.5 -43.5t-44.5 -18.5h-139v-478q0 -29 -21 -50t-50 -21q-30 0 -51 21t-21 50zM246 -259q0 11 12 23q32 28 40 62q-8 -2 -15 -2q-23 0 -38 16t-15 41
q0 26 18 44t43 18q30 0 50.5 -22.5t20.5 -58.5q0 -82 -72 -141q-8 -7 -17 -7q-11 0 -19 8t-8 19z" />
    <glyph glyph-name="uni0163" unicode="&#x163;" horiz-adv-x="338" 
d="M329 48q0 -38 -38 -50q-27 -10 -66 -10q-67 0 -102 34t-35 98v252h-31q-23 0 -39.5 16t-16.5 39t16.5 39.5t39.5 16.5h31v75q0 26 19 45t46 19q26 0 44.5 -19t18.5 -45v-75h50q23 0 39 -16.5t16 -39.5q0 -22 -16 -38.5t-39 -16.5h-50v-218q0 -24 11.5 -38.5t31.5 -14.5
q5 0 12 1t9 1q22 -1 35.5 -16.5t13.5 -38.5zM124 -259q0 11 12 23q32 28 40 62q-8 -2 -15 -2q-23 0 -38 16t-15 41q0 26 18 44t43 18q30 0 50.5 -22.5t20.5 -58.5q0 -82 -72 -141q-8 -7 -17 -7q-11 0 -19 8t-8 19z" />
    <glyph glyph-name="Tcaron" unicode="&#x164;" horiz-adv-x="582" 
d="M220 64v478h-139q-26 0 -44.5 18.5t-18.5 43.5q0 26 18.5 44.5t44.5 18.5h421q26 0 44.5 -18.5t18.5 -44.5q0 -25 -18.5 -43.5t-44.5 -18.5h-139v-478q0 -29 -21 -50t-50 -21q-30 0 -51 21t-21 50zM415 839q0 -12 -4 -16l-48 -76q-21 -30 -56 -30h-34q-37 0 -56 30
l-49 76q-4 4 -4 16q0 15 9.5 24.5t23.5 9.5q15 0 26 -11l67 -84l66 84q11 11 26 11q14 0 23.5 -9.5t9.5 -24.5z" />
    <glyph glyph-name="tcaron" unicode="&#x165;" horiz-adv-x="380" 
d="M329 48q0 -38 -38 -50q-27 -10 -66 -10q-67 0 -102 34t-35 98v252h-31q-23 0 -39.5 16t-16.5 39t16.5 39.5t39.5 16.5h31v75q0 26 19 45t46 19q26 0 44.5 -19t18.5 -45v-75h50q23 0 39 -16.5t16 -39.5q0 -22 -16 -38.5t-39 -16.5h-50v-218q0 -24 11.5 -38.5t31.5 -14.5
q5 0 12 1t9 1q22 -1 35.5 -16.5t13.5 -38.5zM286 562q0 11 12 23q32 28 40 62q-8 -2 -15 -2q-23 0 -38 16t-15 41q0 26 18 44t43 18q30 0 50.5 -22.5t20.5 -58.5q0 -82 -72 -141q-8 -7 -17 -7q-11 0 -19 8t-8 19z" />
    <glyph glyph-name="Tbar" unicode="&#x166;" horiz-adv-x="582" 
d="M502 542h-139v-207h105q15 0 25.5 -10.5t10.5 -25.5t-10.5 -25.5t-25.5 -10.5h-105v-199q0 -29 -21 -50t-50 -21q-30 0 -51 21t-21 50v199h-104q-15 0 -26 10.5t-11 25.5t11 25.5t26 10.5h104v207h-139q-26 0 -44.5 18.5t-18.5 43.5q0 26 18.5 44.5t44.5 18.5h421
q26 0 44.5 -18.5t18.5 -44.5q0 -25 -18.5 -43.5t-44.5 -18.5z" />
    <glyph glyph-name="tbar" unicode="&#x167;" horiz-adv-x="338" 
d="M329 48q0 -38 -38 -50q-27 -10 -66 -10q-67 0 -102 34t-35 98v89h-51q-15 0 -25.5 10.5t-10.5 25.5t10.5 25.5t25.5 10.5h51v91h-31q-23 0 -39.5 16t-16.5 39t16.5 39.5t39.5 16.5h31v75q0 26 19 45t46 19q26 0 44.5 -19t18.5 -45v-75h50q23 0 39 -16.5t16 -39.5
q0 -22 -16 -38.5t-39 -16.5h-50v-91h40q15 0 25.5 -10.5t10.5 -25.5t-10.5 -25.5t-25.5 -10.5h-40v-55q0 -24 11.5 -38.5t31.5 -14.5q5 0 12 1t9 1q22 -1 35.5 -16.5t13.5 -38.5z" />
    <glyph glyph-name="Utilde" unicode="&#x168;" horiz-adv-x="728" 
d="M66 266v336q0 30 21 51t51 21t51 -21t21 -51v-331q0 -73 40 -115t115 -42q73 0 113 42t40 115v331q0 30 21 51t51 21t51 -21t21 -51v-335q0 -131 -76 -205t-221 -74t-222 73.5t-77 204.5zM345 762q-23 27 -40 27q-28 0 -34 -43q-7 -26 -33 -26q-16 0 -25.5 11.5
t-7.5 26.5q14 103 105 103q39 0 75 -41q26 -26 41 -26q27 0 34 42q2 11 11.5 18.5t21.5 7.5q15 0 25 -11t8 -27q-14 -103 -104 -103q-24 0 -40.5 10t-36.5 31z" />
    <glyph glyph-name="utilde" unicode="&#x169;" 
d="M516 426v-369q0 -27 -18.5 -46t-44.5 -19q-27 0 -46 19t-19 46v3q-65 -72 -169 -72q-77 0 -116.5 39.5t-39.5 112.5v286q0 26 18.5 45t45.5 19q26 0 44.5 -19t18.5 -45v-236q0 -89 89 -89q67 0 110 55v270q0 26 18.5 45t44.5 19t45 -19t19 -45zM269 615q-23 27 -40 27
q-28 0 -34 -43q-7 -26 -33 -26q-16 0 -25.5 11.5t-7.5 26.5q14 103 105 103q39 0 75 -41q26 -26 41 -26q26 0 34 42q2 11 11.5 18.5t21.5 7.5q15 0 25 -11t8 -27q-14 -103 -104 -103q-24 0 -40.5 10t-36.5 31z" />
    <glyph glyph-name="Umacron" unicode="&#x16a;" horiz-adv-x="728" 
d="M66 266v336q0 30 21 51t51 21t51 -21t21 -51v-331q0 -73 40 -115t115 -42q73 0 113 42t40 115v331q0 30 21 51t51 21t51 -21t21 -51v-335q0 -131 -76 -205t-221 -74t-222 73.5t-77 204.5zM191 765q0 15 10.5 25.5t25.5 10.5h275q15 0 25.5 -10.5t10.5 -25.5t-10.5 -25.5
t-25.5 -10.5h-275q-15 0 -25.5 10.5t-10.5 25.5z" />
    <glyph glyph-name="umacron" unicode="&#x16b;" 
d="M516 426v-369q0 -27 -18.5 -46t-44.5 -19q-27 0 -46 19t-19 46v3q-65 -72 -169 -72q-77 0 -116.5 39.5t-39.5 112.5v286q0 26 18.5 45t45.5 19q26 0 44.5 -19t18.5 -45v-236q0 -89 89 -89q67 0 110 55v270q0 26 18.5 45t44.5 19t45 -19t19 -45zM115 618q0 15 10.5 25.5
t25.5 10.5h275q15 0 25.5 -10.5t10.5 -25.5t-10.5 -25.5t-25.5 -10.5h-275q-15 0 -25.5 10.5t-10.5 25.5z" />
    <glyph glyph-name="Ubreve" unicode="&#x16c;" horiz-adv-x="728" 
d="M66 266v336q0 30 21 51t51 21t51 -21t21 -51v-331q0 -73 40 -115t115 -42q73 0 113 42t40 115v331q0 30 21 51t51 21t51 -21t21 -51v-335q0 -131 -76 -205t-221 -74t-222 73.5t-77 204.5zM212 783q-12 10 -12 26q0 15 10.5 26t25.5 11q16 0 26 -10q44 -44 103 -44t102 43
q11 11 26 11t25.5 -11t10.5 -26q0 -12 -11 -26q-64 -63 -153 -63t-153 63z" />
    <glyph glyph-name="ubreve" unicode="&#x16d;" 
d="M516 426v-369q0 -27 -18.5 -46t-44.5 -19q-27 0 -46 19t-19 46v3q-65 -72 -169 -72q-77 0 -116.5 39.5t-39.5 112.5v286q0 26 18.5 45t45.5 19q26 0 44.5 -19t18.5 -45v-236q0 -89 89 -89q67 0 110 55v270q0 26 18.5 45t44.5 19t45 -19t19 -45zM136 636q-12 10 -12 26
q0 15 10.5 26t25.5 11q16 0 26 -10q44 -44 103 -44t102 43q11 11 26 11t25.5 -11t10.5 -26q0 -12 -11 -26q-64 -63 -153 -63t-153 63z" />
    <glyph glyph-name="Uring" unicode="&#x16e;" horiz-adv-x="728" 
d="M66 266v336q0 30 21 51t51 21t51 -21t21 -51v-331q0 -73 40 -115t115 -42q73 0 113 42t40 115v331q0 30 21 51t51 21t51 -21t21 -51v-335q0 -131 -76 -205t-221 -74t-222 73.5t-77 204.5zM365 909q43 0 73.5 -31.5t30.5 -74.5q0 -44 -30.5 -74.5t-73.5 -30.5t-74 31
t-31 74t31 74.5t74 31.5zM365 850q-19 0 -33 -14t-14 -33t14 -33t33 -14t32.5 14t13.5 33q0 20 -13.5 33.5t-32.5 13.5z" />
    <glyph glyph-name="uring" unicode="&#x16f;" 
d="M516 426v-369q0 -27 -18.5 -46t-44.5 -19q-27 0 -46 19t-19 46v3q-65 -72 -169 -72q-77 0 -116.5 39.5t-39.5 112.5v286q0 26 18.5 45t45.5 19q26 0 44.5 -19t18.5 -45v-236q0 -89 89 -89q67 0 110 55v270q0 26 18.5 45t44.5 19t45 -19t19 -45zM290 762q43 0 73.5 -31.5
t30.5 -74.5q0 -44 -30.5 -74.5t-73.5 -30.5t-74 31t-31 74t31 74.5t74 31.5zM290 703q-19 0 -33 -14t-14 -33t14 -33t33 -14t32.5 14t13.5 33q0 20 -13.5 33.5t-32.5 13.5z" />
    <glyph glyph-name="Uhungarumlaut" unicode="&#x170;" horiz-adv-x="728" 
d="M66 266v336q0 30 21 51t51 21t51 -21t21 -51v-331q0 -73 40 -115t115 -42q73 0 113 42t40 115v331q0 30 21 51t51 21t51 -21t21 -51v-335q0 -131 -76 -205t-221 -74t-222 73.5t-77 204.5zM270 748q0 9 5 17l55 90q11 19 33 19q16 0 27.5 -12t11.5 -28q0 -13 -8 -24
l-66 -82q-9 -12 -25 -12q-13 0 -23 9.5t-10 22.5zM419 748q0 9 5 17l55 90q11 19 33 19q16 0 27.5 -12t11.5 -28q0 -13 -8 -24l-66 -82q-9 -12 -25 -12q-13 0 -23 9.5t-10 22.5z" />
    <glyph glyph-name="uhungarumlaut" unicode="&#x171;" 
d="M516 426v-369q0 -27 -18.5 -46t-44.5 -19q-27 0 -46 19t-19 46v3q-65 -72 -169 -72q-77 0 -116.5 39.5t-39.5 112.5v286q0 26 18.5 45t45.5 19q26 0 44.5 -19t18.5 -45v-236q0 -89 89 -89q67 0 110 55v270q0 26 18.5 45t44.5 19t45 -19t19 -45zM195 601q0 9 5 17l55 90
q11 19 33 19q16 0 27.5 -12t11.5 -28q0 -13 -8 -24l-66 -82q-9 -12 -25 -12q-13 0 -23 9.5t-10 22.5zM344 601q0 9 5 17l55 90q11 19 33 19q16 0 27.5 -12t11.5 -28q0 -13 -8 -24l-66 -82q-9 -12 -25 -12q-13 0 -23 9.5t-10 22.5z" />
    <glyph glyph-name="Uogonek" unicode="&#x172;" horiz-adv-x="728" 
d="M66 266v336q0 30 21 51t51 21t51 -21t21 -51v-331q0 -73 40 -115t115 -42q73 0 113 42t40 115v331q0 30 21 51t51 21t51 -21t21 -51v-335q0 -97 -42 -163.5t-122 -94.5q-100 -36 -100 -85q0 -14 9.5 -22.5t24.5 -8.5q6 0 8 1q16 2 29 -10t13 -28q0 -13 -8.5 -23
t-20.5 -13q-25 -6 -56 -6q-48 0 -81 21t-33 59q0 29 22.5 53.5t62.5 40.5h-3q-145 0 -222 73.5t-77 204.5z" />
    <glyph glyph-name="uogonek" unicode="&#x173;" 
d="M428 -76q0 -14 9.5 -22.5t24.5 -8.5q3 0 8 1t7 1q16 0 27 -11t11 -27q0 -27 -26 -36q-25 -7 -62 -7q-48 0 -81 21t-33 59q0 34 30 61.5t81 43.5q-36 19 -36 58v3q-65 -72 -169 -72q-77 0 -116.5 39.5t-39.5 112.5v286q0 26 18.5 45t45.5 19q26 0 44.5 -19t18.5 -45v-236
q0 -89 89 -89q67 0 110 55v270q0 26 18.5 45t44.5 19t45 -19t19 -45v-369q0 -21 -12 -38t-31 -24q-45 -38 -45 -71z" />
    <glyph glyph-name="Wcircumflex" unicode="&#x174;" horiz-adv-x="918" 
d="M560 66l-101 392l-100 -392q-8 -32 -34 -52.5t-59 -20.5q-32 0 -58 19.5t-34 49.5l-148 516q-2 16 -2 21q0 32 22 53.5t53 21.5q26 0 46.5 -16.5t26.5 -41.5l105 -431l115 438q6 23 24.5 37t43.5 14q24 0 42 -14t24 -37l115 -438l104 431q6 25 26.5 41.5t47.5 16.5
q31 0 53 -22t22 -53q0 -4 -2 -22l-147 -515q-8 -30 -34 -49.5t-59 -19.5t-58.5 20.5t-33.5 52.5zM526 729l-66 83l-67 -83q-11 -12 -26 -12q-14 0 -23.5 9.5t-9.5 24.5q0 10 4 17l49 75q19 30 56 30h34q35 0 56 -30l48 -75q4 -7 4 -17q0 -15 -9.5 -24.5t-23.5 -9.5
q-16 0 -26 12z" />
    <glyph glyph-name="wcircumflex" unicode="&#x175;" horiz-adv-x="769" 
d="M470 56l-85 273l-86 -273q-8 -28 -31 -45.5t-53 -17.5t-53.5 17.5t-31.5 45.5l-108 354q-2 14 -2 18q0 26 18 44t44 18q22 0 38.5 -13t21.5 -33l80 -286l92 281q7 23 26.5 37t44.5 14t44 -14t26 -37l92 -281l80 286q5 20 22 33t39 13q26 0 44 -18.5t18 -44.5q0 -2 -3 -17
l-108 -354q-7 -28 -31 -45.5t-53 -17.5q-30 0 -53.5 17.5t-31.5 45.5zM452 568l-66 83l-67 -83q-11 -12 -26 -12q-14 0 -23.5 9.5t-9.5 24.5q0 10 4 17l49 75q19 30 56 30h34q35 0 56 -30l48 -75q4 -7 4 -17q0 -15 -9.5 -24.5t-23.5 -9.5q-16 0 -26 12z" />
    <glyph glyph-name="Ycircumflex" unicode="&#x176;" horiz-adv-x="644" 
d="M594 564l-200 -289v-211q0 -29 -21 -50t-50 -21q-30 0 -51 21t-21 50v209l-201 291q-14 19 -14 41q0 29 20 49t49 20q37 0 56 -30l162 -246l160 246q21 30 56 30q29 0 49 -20t20 -49q0 -22 -14 -41zM390 729l-66 83l-67 -83q-10 -12 -26 -12q-14 0 -23.5 9.5t-9.5 24.5
q0 10 4 17l49 75q19 30 56 30h34q35 0 56 -30l48 -75q4 -7 4 -17q0 -15 -9.5 -24.5t-23.5 -9.5q-16 0 -26 12z" />
    <glyph glyph-name="ycircumflex" unicode="&#x177;" horiz-adv-x="510" 
d="M97 -84l6 1q50 1 66 35l18 41l-166 411q-4 8 -4 23q0 26 18 44.5t44 18.5q45 0 58 -39l116 -308l115 308q15 39 59 39q27 0 45 -18.5t18 -44.5q0 -11 -5 -24l-196 -482q-45 -115 -175 -117q-11 0 -14 1q-25 1 -41 17t-16 40q0 23 16 38t38 16zM320 582l-66 83l-67 -83
q-11 -12 -26 -12q-14 0 -23.5 9.5t-9.5 24.5q0 10 4 17l49 75q19 30 56 30h34q35 0 56 -30l48 -75q4 -7 4 -17q0 -15 -9.5 -24.5t-23.5 -9.5q-16 0 -26 12z" />
    <glyph glyph-name="Ydieresis" unicode="&#x178;" horiz-adv-x="644" 
d="M594 564l-200 -289v-211q0 -29 -21 -50t-50 -21q-30 0 -51 21t-21 50v209l-201 291q-14 19 -14 41q0 29 20 49t49 20q37 0 56 -30l162 -246l160 246q21 30 56 30q29 0 49 -20t20 -49q0 -22 -14 -41zM150 789q0 28 20 47.5t48 19.5t47.5 -19.5t19.5 -47.5
q0 -29 -19.5 -48.5t-47.5 -19.5q-29 0 -48.5 19.5t-19.5 48.5zM361 789q0 28 20 47.5t48 19.5t48 -19.5t20 -47.5q0 -29 -20 -48.5t-48 -19.5t-48 19.5t-20 48.5z" />
    <glyph glyph-name="Zacute" unicode="&#x179;" horiz-adv-x="592" 
d="M34 79q0 27 16 47l307 416h-260q-26 0 -44.5 18.5t-18.5 43.5q0 26 18.5 44.5t44.5 18.5h374q33 0 56 -23t23 -56q0 -26 -15 -46l-307 -417h266q26 0 44.5 -18.5t18.5 -43.5q0 -26 -18.5 -44.5t-44.5 -18.5h-381q-32 0 -55.5 23t-23.5 56zM303 714q-14 0 -23.5 9.5
t-9.5 22.5q0 9 8 22l91 97q10 13 29 13q15 0 26.5 -12t11.5 -28t-13 -28l-98 -87q-7 -9 -22 -9z" />
    <glyph glyph-name="zacute" unicode="&#x17a;" horiz-adv-x="479" 
d="M35 64q0 23 14 40l211 268h-169q-23 0 -39.5 16t-16.5 39t16.5 39.5t39.5 16.5h287q26 0 43.5 -17.5t17.5 -43.5q0 -24 -13 -38l-215 -273h177q23 0 39 -16t16 -39t-16 -39.5t-39 -16.5h-290q-26 0 -44.5 19t-18.5 45zM246 567q-14 0 -23.5 9.5t-9.5 22.5q0 9 8 22l91 97
q10 13 29 13q15 0 26.5 -12t11.5 -28t-13 -28l-98 -87q-8 -9 -22 -9z" />
    <glyph glyph-name="Zdotaccent" unicode="&#x17b;" horiz-adv-x="592" 
d="M34 79q0 27 16 47l307 416h-260q-26 0 -44.5 18.5t-18.5 43.5q0 26 18.5 44.5t44.5 18.5h374q33 0 56 -23t23 -56q0 -26 -15 -46l-307 -417h266q26 0 44.5 -18.5t18.5 -43.5q0 -26 -18.5 -44.5t-44.5 -18.5h-381q-32 0 -55.5 23t-23.5 56zM297 856q28 0 47.5 -20
t19.5 -48t-19.5 -48t-47.5 -20t-48 20t-20 48t20 48t48 20z" />
    <glyph glyph-name="zdotaccent" unicode="&#x17c;" horiz-adv-x="479" 
d="M35 64q0 23 14 40l211 268h-169q-23 0 -39.5 16t-16.5 39t16.5 39.5t39.5 16.5h287q26 0 43.5 -17.5t17.5 -43.5q0 -24 -13 -38l-215 -273h177q23 0 39 -16t16 -39t-16 -39.5t-39 -16.5h-290q-26 0 -44.5 19t-18.5 45zM240 709q28 0 47.5 -20t19.5 -48t-19.5 -48
t-47.5 -20t-48 20t-20 48t20 48t48 20z" />
    <glyph glyph-name="Zcaron" unicode="&#x17d;" horiz-adv-x="592" 
d="M34 79q0 27 16 47l307 416h-260q-26 0 -44.5 18.5t-18.5 43.5q0 26 18.5 44.5t44.5 18.5h374q33 0 56 -23t23 -56q0 -26 -15 -46l-307 -417h266q26 0 44.5 -18.5t18.5 -43.5q0 -26 -18.5 -44.5t-44.5 -18.5h-381q-32 0 -55.5 23t-23.5 56zM420 839q0 -12 -4 -16l-48 -76
q-21 -30 -56 -30h-34q-37 0 -56 30l-49 76q-4 4 -4 16q0 15 9.5 24.5t23.5 9.5q15 0 26 -11l67 -84l66 84q11 11 26 11q14 0 23.5 -9.5t9.5 -24.5z" />
    <glyph glyph-name="zcaron" unicode="&#x17e;" horiz-adv-x="479" 
d="M35 64q0 23 14 40l211 268h-169q-23 0 -39.5 16t-16.5 39t16.5 39.5t39.5 16.5h287q26 0 43.5 -17.5t17.5 -43.5q0 -24 -13 -38l-215 -273h177q23 0 39 -16t16 -39t-16 -39.5t-39 -16.5h-290q-26 0 -44.5 19t-18.5 45zM363 692q0 -12 -4 -16l-48 -76q-21 -30 -56 -30h-34
q-37 0 -56 30l-49 76q-4 4 -4 16q0 15 9.5 24.5t23.5 9.5q15 0 26 -11l67 -84l66 84q11 11 26 11q14 0 23.5 -9.5t9.5 -24.5z" />
    <glyph glyph-name="longs" unicode="&#x17f;" horiz-adv-x="327" 
d="M344 624q0 -21 -13 -34.5t-34 -13.5l-18 1q-28 0 -44 -18.5t-16 -51.5v-450q0 -26 -19 -45t-45 -19t-45 19t-19 45v315h-31q-23 0 -39.5 16t-16.5 39t16.5 39.5t39.5 16.5h31v26q0 77 45 122.5t118 45.5q27 0 51 -6q17 -4 28 -16.5t11 -30.5z" />
    <glyph glyph-name="uni018F" unicode="&#x18f;" horiz-adv-x="744" 
d="M710 333q2 -150 -98.5 -249t-240.5 -97q-150 -2 -245.5 94.5t-93.5 231.5q0 64 72 64h456q-13 77 -70 126q-55 49 -135 49q-77 0 -133 -56q-20 -20 -47 -20q-28 0 -47 19.5t-19 47.5t20 48q90 87 226 87q149 2 253 -95.5t102 -249.5zM552 258h-370q12 -65 60 -105
t118 -40q69 0 121 39.5t71 105.5z" />
    <glyph glyph-name="uni0192" unicode="&#x192;" horiz-adv-x="454" 
d="M464 610q0 -26 -18.5 -44t-44.5 -18q-2 0 -12 2q-16 2 -17 2q-28 0 -48.5 -17.5t-27.5 -49.5l-30 -135h64q23 0 39.5 -16.5t16.5 -39.5t-16.5 -39.5t-39.5 -16.5h-89l-78 -350q-5 -24 -24.5 -40t-44.5 -16q-29 0 -50 21t-21 50q0 9 3 17l68 318h-3q-23 0 -39.5 17
t-16.5 40q0 22 16.5 38.5t39.5 16.5h27l34 158q16 75 72 122q58 47 131 47q36 0 66 -11q43 -14 43 -56z" />
    <glyph glyph-name="uni019D" unicode="&#x19d;" horiz-adv-x="729" 
d="M592 674q29 0 50 -21t21 -50v-523q0 -36 -25.5 -61.5t-61.5 -25.5q-45 0 -71 37l-297 418v-413q0 -112 -63 -171.5t-172 -59.5h-2q-26 0 -44.5 17.5t-18.5 42.5q0 24 16.5 43.5t38.5 19.5h2q46 1 73.5 30t27.5 77v547q0 38 27 65.5t66 27.5q48 0 76 -39l286 -400v368
q0 29 20.5 50t50.5 21z" />
    <glyph glyph-name="Ohorn" unicode="&#x1a0;" horiz-adv-x="765" 
d="M672 533q59 -86 59 -200q2 -148 -99 -247.5t-250 -97.5q-148 -2 -249 98t-99 247q-2 147 99 247t249 98q161 0 260 -107q35 28 44 63q-6 -2 -14 -2q-20 0 -34 14.5t-14 36.5q0 23 16 39.5t39 16.5q27 0 45 -20t18 -53q0 -79 -70 -133zM585 333q0 95 -56.5 157t-146.5 62
t-146 -62t-56 -157t56 -157t146 -62t146.5 62t56.5 157z" />
    <glyph glyph-name="ohorn" unicode="&#x1a1;" horiz-adv-x="574" 
d="M488 405q55 -68 55 -163q0 -108 -70.5 -181t-185.5 -73t-185 73t-70 181q0 107 70.5 180t184.5 73q99 0 167 -56q34 27 42 62q-6 -2 -14 -2q-21 0 -34.5 14t-13.5 37t16 39.5t39 16.5q27 0 45 -20.5t18 -53.5q0 -76 -64 -127zM411 242q0 60 -34 100t-90 40t-89.5 -39.5
t-33.5 -100.5t33.5 -101t89.5 -40t90 40t34 101z" />
    <glyph glyph-name="Uhorn" unicode="&#x1af;" horiz-adv-x="728" 
d="M662 571v-304q0 -131 -76 -205t-221 -74t-222 73.5t-77 204.5v336q0 30 21 51t51 21t51 -21t21 -51v-331q0 -73 40 -115t115 -42q73 0 113 42t40 115v331q0 30 21 51t51 21q24 0 43 -14.5t26 -37.5q48 28 57 74q-4 -3 -14 -3q-21 0 -34.5 14.5t-13.5 37.5t16 39t39 16
q27 0 45 -20.5t18 -53.5q0 -47 -29.5 -89t-80.5 -66z" />
    <glyph glyph-name="uhorn" unicode="&#x1b0;" 
d="M516 405v-348q0 -27 -18.5 -46t-44.5 -19q-27 0 -46 19t-19 46v3q-65 -72 -169 -72q-77 0 -116.5 39.5t-39.5 112.5v286q0 26 18.5 45t45.5 19q26 0 44.5 -19t18.5 -45v-236q0 -89 89 -89q67 0 110 55v270q0 26 18.5 45t44.5 19q36 0 55 -32q29 26 35 56q-6 -2 -14 -2
q-21 0 -34.5 14t-13.5 37t16 39.5t39 16.5q27 0 45 -20.5t18 -53.5q0 -39 -21.5 -76.5t-60.5 -63.5z" />
    <glyph glyph-name="Gcaron" unicode="&#x1e6;" horiz-adv-x="720" 
d="M673 300v-133q0 -60 -39 -92q-103 -88 -245 -88q-148 -2 -252.5 97t-102.5 249q-2 152 102 249.5t253 95.5q131 0 223 -84q21 -20 21 -50q0 -27 -19 -46.5t-47 -19.5q-27 0 -46 19q-56 55 -132 55q-90 0 -149.5 -62.5t-59.5 -156.5t59.5 -156.5t149.5 -62.5q86 0 142 51
v80h-122q-25 0 -43.5 18t-18.5 43t18.5 44t43.5 19h196q31 0 49.5 -19t18.5 -50zM513 839q0 -12 -4 -16l-48 -76q-21 -30 -56 -30h-34q-37 0 -56 30l-49 76q-4 4 -4 16q0 15 9.5 24.5t23.5 9.5q15 0 26 -11l67 -84l66 84q11 11 26 11q14 0 23.5 -9.5t9.5 -24.5z" />
    <glyph glyph-name="gcaron" unicode="&#x1e7;" horiz-adv-x="585" 
d="M522 426v-393q0 -124 -77 -177q-76 -52 -184 -52q-98 0 -170 45q-26 15 -26 45q0 22 15.5 37.5t37.5 15.5q13 0 27 -8q47 -31 116 -31q58 0 95.5 30t37.5 92v48q-62 -75 -149 -75q-95 0 -154 65.5t-59 180.5q0 114 59 180t154 66q90 0 149 -74v8q0 25 19.5 43t45.5 18
t44.5 -19t18.5 -45zM394 171v156q-16 24 -46.5 39.5t-62.5 15.5q-55 0 -88.5 -36.5t-33.5 -96.5t33.5 -96.5t88.5 -36.5q31 0 62 16t47 39zM419 692q0 -12 -4 -16l-48 -76q-21 -30 -56 -30h-34q-37 0 -56 30l-49 76q-4 4 -4 16q0 15 9.5 24.5t23.5 9.5q15 0 26 -11l67 -84
l66 84q11 11 26 11q14 0 23.5 -9.5t9.5 -24.5z" />
    <glyph glyph-name="uni01EA" unicode="&#x1ea;" horiz-adv-x="765" 
d="M387 -76q0 -14 9.5 -22.5t24.5 -8.5q4 0 9 1t7 1q16 0 27 -11t11 -27q0 -28 -27 -36q-24 -7 -61 -7q-50 0 -82 21t-32 59q0 57 84 95q-141 8 -232 104.5t-91 239.5q-2 147 99 247t249 98q149 2 250 -97.5t99 -247.5q0 -138 -85 -233t-219 -110q-40 -36 -40 -66zM382 114
q90 0 146.5 62t56.5 157t-56.5 157t-146.5 62t-146 -62t-56 -157t56 -157t146 -62z" />
    <glyph glyph-name="uni01EB" unicode="&#x1eb;" horiz-adv-x="574" 
d="M280 -76q0 -14 9.5 -22.5t24.5 -8.5q4 0 8.5 1t6.5 1q16 0 27 -11t11 -27q0 -27 -26 -36q-24 -7 -62 -7q-48 0 -80.5 21t-32.5 59q0 58 86 96q-100 12 -160 82.5t-60 169.5q0 107 70.5 180t184.5 73q115 0 185.5 -73t70.5 -180q0 -100 -61 -171t-163 -81q-39 -38 -39 -66
zM287 101q56 0 90 40t34 101q0 60 -34 100t-90 40t-89.5 -39.5t-33.5 -100.5t33.5 -101t89.5 -40z" />
    <glyph glyph-name="Aringacute" unicode="&#x1fa;" horiz-adv-x="678" 
d="M656 65q0 -30 -21.5 -51t-51.5 -21q-23 0 -41.5 13.5t-25.5 34.5l-27 78h-300l-27 -78q-7 -21 -26 -34.5t-42 -13.5q-30 0 -51 21t-21 51q0 7 5 25l195 504q14 36 46 58t71 22t71 -22t46 -58l194 -504q6 -14 6 -25zM233 242h212l-106 302zM339 909q43 0 73.5 -31.5
t30.5 -74.5q0 -44 -30.5 -74.5t-73.5 -30.5t-74 31t-31 74t31 74.5t74 31.5zM339 850q-19 0 -33 -14t-14 -33t14 -33t33 -14t32.5 14t13.5 33q0 20 -13.5 33.5t-32.5 13.5zM345 926q-14 0 -23.5 9.5t-9.5 22.5q0 9 8 22l91 97q10 13 29 13q15 0 26.5 -12t11.5 -28t-13 -28
l-98 -87q-7 -9 -22 -9z" />
    <glyph glyph-name="aringacute" unicode="&#x1fb;" horiz-adv-x="543" 
d="M480 312v-253q0 -27 -18.5 -46.5t-45.5 -19.5q-24 0 -42.5 16t-21.5 41q-51 -62 -152 -62q-66 0 -117 43t-51 117q0 75 50 114.5t118 39.5q105 0 153 -59v67q0 37 -29 59t-77 22q-55 0 -107 -32q-11 -7 -25 -7q-20 0 -34 14.5t-14 34.5q0 28 23 42q79 52 179 52
q94 0 152 -43q59 -44 59 -140zM353 116v60q-31 42 -102 42q-40 0 -65.5 -20t-25.5 -53q0 -32 25.5 -51.5t65.5 -19.5q71 0 102 42zM271 762q43 0 73.5 -31.5t30.5 -74.5q0 -44 -30.5 -74.5t-73.5 -30.5t-74 31t-31 74t31 74.5t74 31.5zM271 703q-19 0 -33 -14t-14 -33
t14 -33t33 -14t32.5 14t13.5 33q0 20 -13.5 33.5t-32.5 13.5zM277 779q-14 0 -23.5 9.5t-9.5 22.5q0 9 8 22l91 97q10 13 29 13q15 0 26.5 -12t11.5 -28t-13 -28l-98 -87q-7 -9 -22 -9z" />
    <glyph glyph-name="AEacute" unicode="&#x1fc;" horiz-adv-x="962" 
d="M927 62q0 -25 -18 -43.5t-43 -18.5h-342q-76 0 -76 76v43h-240l-53 -93q-19 -33 -57 -33q-27 0 -46.5 19t-19.5 47q0 16 9 34l319 523q31 51 90 51h416q25 0 43 -18t18 -44q0 -25 -18 -42.5t-43 -17.5h-275v-145h268q25 0 43 -18t18 -43t-18 -43t-43 -18h-268v-155h275
q25 0 43 -18t18 -43zM277 242h171v303zM524 714q-14 0 -23.5 9.5t-9.5 22.5q0 9 8 22l91 97q10 13 29 13q15 0 26.5 -12t11.5 -28t-13 -28l-98 -87q-8 -9 -22 -9z" />
    <glyph glyph-name="aeacute" unicode="&#x1fd;" horiz-adv-x="870" 
d="M630 92q48 0 88 25q14 6 24 6q21 0 35.5 -15t14.5 -36q0 -29 -26 -44q-70 -40 -145 -40q-125 0 -186 88q-31 -40 -85 -64t-116 -24q-86 0 -144 40t-58 118q0 74 49 116t126 42q109 0 165 -58v65q0 36 -31.5 58t-83.5 22q-61 0 -117 -33q-10 -7 -24 -7q-20 0 -34.5 15
t-14.5 35q0 29 24 42q79 52 181 52q125 0 169 -83q64 83 175 83q97 0 161 -69t64 -165q0 -60 -75 -60h-266q7 -48 41.5 -78.5t88.5 -30.5zM608 394q-48 0 -77 -31t-33 -76h220q-2 45 -31 76t-79 31zM259 218q-44 0 -71.5 -17.5t-27.5 -47.5t27 -47.5t69 -17.5
q45 0 80.5 25.5t35.5 55.5v6q-38 43 -113 43zM443 567q-14 0 -23.5 9.5t-9.5 22.5q0 9 8 22l91 97q10 13 29 13q15 0 26.5 -12t11.5 -28t-13 -28l-98 -87q-7 -9 -22 -9z" />
    <glyph glyph-name="Oslashacute" unicode="&#x1fe;" horiz-adv-x="765" 
d="M731 333q2 -148 -99 -247.5t-250 -97.5q-99 0 -180 45l-46 -64q-14 -17 -30 -17q-14 0 -24.5 10t-10.5 24q0 13 8 24l46 64q-111 98 -111 259q-2 147 99 247t249 98q96 0 172 -40l43 60q11 17 30 17q14 0 24.5 -10t10.5 -24q0 -12 -9 -24l-41 -57q119 -100 119 -267z
M227 187l249 344q-44 21 -94 21q-90 0 -146 -62t-56 -157q0 -85 47 -146zM585 333q0 93 -54 155l-251 -348q44 -26 102 -26q90 0 146.5 62t56.5 157zM388 714q-14 0 -23.5 9.5t-9.5 22.5q0 9 8 22l91 97q10 13 29 13q15 0 26.5 -12t11.5 -28t-13 -28l-98 -87q-8 -9 -22 -9z
" />
    <glyph glyph-name="oslashacute" unicode="&#x1ff;" horiz-adv-x="574" 
d="M543 242q0 -108 -70.5 -181t-185.5 -73q-69 0 -125 29l-36 -51q-11 -14 -26 -14q-11 0 -19.5 8t-8.5 19t7 18l37 51q-84 74 -84 194q0 107 70.5 180t184.5 73q72 0 129 -30l38 52q11 14 25 14q11 0 19 -7.5t8 -18.5q0 -9 -7 -19l-38 -53q82 -73 82 -191zM190 151l156 216
q-26 15 -59 15q-56 0 -89.5 -39.5t-33.5 -100.5q0 -53 26 -91zM411 242q0 51 -24 87l-155 -215q25 -13 55 -13q56 0 90 40t34 101zM293 567q-14 0 -23.5 9.5t-9.5 22.5q0 9 8 22l91 97q10 13 29 13q15 0 26.5 -12t11.5 -28t-13 -28l-98 -87q-7 -9 -22 -9z" />
    <glyph glyph-name="uni0218" unicode="&#x218;" horiz-adv-x="600" 
d="M38 110q0 28 19.5 47.5t46.5 19.5q22 0 38 -12q77 -53 168 -53q53 0 84.5 21.5t31.5 53.5t-31 50t-104 35q-77 18 -127 36q-54 20 -88 62t-34 106q0 87 71.5 144t191.5 57q113 0 207 -55q33 -18 33 -56q0 -27 -19.5 -46.5t-45.5 -19.5q-20 0 -34 10q-76 43 -151 43
q-53 0 -80.5 -18t-27.5 -50q0 -29 28 -43.5t105 -33.5q71 -15 126 -37q124 -46 124 -169q0 -98 -70 -156t-197 -58q-140 0 -235 67q-30 19 -30 55zM250 -259q0 11 12 23q32 28 40 62q-8 -2 -15 -2q-23 0 -38 16t-15 41q0 26 18 44t43 18q30 0 50.5 -22.5t20.5 -58.5
q0 -82 -72 -141q-8 -7 -17 -7q-11 0 -19 8t-8 19z" />
    <glyph glyph-name="uni0219" unicode="&#x219;" horiz-adv-x="477" 
d="M32 81q0 22 15.5 37.5t37.5 15.5q14 0 27 -7q66 -41 131 -41q81 0 81 49q0 22 -22.5 34.5t-74.5 22.5q-59 10 -96 24q-94 31 -94 127q0 64 54 108t144 44q89 0 159 -43q25 -13 25 -42q0 -20 -14.5 -34.5t-34.5 -14.5q-15 0 -24 6q-50 31 -110 31q-35 0 -55.5 -12
t-20.5 -33q0 -20 20.5 -31t71.5 -21q51 -9 97 -25q97 -35 97 -133q0 -68 -56 -111.5t-153 -43.5q-101 0 -178 47q-27 15 -27 46zM190 -259q0 11 12 23q32 28 40 62q-8 -2 -15 -2q-23 0 -38 16t-15 41q0 26 18 44t43 18q30 0 50.5 -22.5t20.5 -58.5q0 -82 -72 -141
q-8 -7 -17 -7q-11 0 -19 8t-8 19z" />
    <glyph glyph-name="uni021A" unicode="&#x21a;" horiz-adv-x="582" 
d="M220 64v478h-139q-26 0 -44.5 18.5t-18.5 43.5q0 26 18.5 44.5t44.5 18.5h421q26 0 44.5 -18.5t18.5 -44.5q0 -25 -18.5 -43.5t-44.5 -18.5h-139v-478q0 -29 -21 -50t-50 -21q-30 0 -51 21t-21 50zM246 -259q0 11 12 23q32 28 40 62q-8 -2 -15 -2q-23 0 -38 16t-15 41
q0 26 18 44t43 18q30 0 50.5 -22.5t20.5 -58.5q0 -82 -72 -141q-8 -7 -17 -7q-11 0 -19 8t-8 19z" />
    <glyph glyph-name="uni021B" unicode="&#x21b;" horiz-adv-x="338" 
d="M329 48q0 -38 -38 -50q-27 -10 -66 -10q-67 0 -102 34t-35 98v252h-31q-23 0 -39.5 16t-16.5 39t16.5 39.5t39.5 16.5h31v75q0 26 19 45t46 19q26 0 44.5 -19t18.5 -45v-75h50q23 0 39 -16.5t16 -39.5q0 -22 -16 -38.5t-39 -16.5h-50v-218q0 -24 11.5 -38.5t31.5 -14.5
q5 0 12 1t9 1q22 -1 35.5 -16.5t13.5 -38.5zM124 -259q0 11 12 23q32 28 40 62q-8 -2 -15 -2q-23 0 -38 16t-15 41q0 26 18 44t43 18q30 0 50.5 -22.5t20.5 -58.5q0 -82 -72 -141q-8 -7 -17 -7q-11 0 -19 8t-8 19z" />
    <glyph glyph-name="uni0232" unicode="&#x232;" horiz-adv-x="644" 
d="M594 564l-200 -289v-211q0 -29 -21 -50t-50 -21q-30 0 -51 21t-21 50v209l-201 291q-14 19 -14 41q0 29 20 49t49 20q37 0 56 -30l162 -246l160 246q21 30 56 30q29 0 49 -20t20 -49q0 -22 -14 -41zM149 765q0 15 10.5 25.5t25.5 10.5h275q15 0 25.5 -10.5t10.5 -25.5
t-10.5 -25.5t-25.5 -10.5h-275q-15 0 -25.5 10.5t-10.5 25.5z" />
    <glyph glyph-name="uni0233" unicode="&#x233;" horiz-adv-x="510" 
d="M97 -84l6 1q50 1 66 35l18 41l-166 411q-4 8 -4 23q0 26 18 44.5t44 18.5q45 0 58 -39l116 -308l115 308q15 39 59 39q27 0 45 -18.5t18 -44.5q0 -11 -5 -24l-196 -482q-45 -115 -175 -117q-11 0 -14 1q-25 1 -41 17t-16 40q0 23 16 38t38 16zM79 618q0 15 10.5 25.5
t25.5 10.5h275q15 0 25.5 -10.5t10.5 -25.5t-10.5 -25.5t-25.5 -10.5h-275q-15 0 -25.5 10.5t-10.5 25.5z" />
    <glyph glyph-name="uni0237" unicode="&#x237;" horiz-adv-x="253" 
d="M23 -196h-10q-24 0 -40.5 16t-16.5 40q0 19 12 34t30 16h4q61 5 61 77v439q0 26 18.5 45t45.5 19q26 0 44.5 -19t18.5 -45v-439q0 -85 -43.5 -134t-123.5 -49z" />
    <glyph glyph-name="uni0259" unicode="&#x259;" horiz-adv-x="553" 
d="M271 -12q-103 0 -169.5 67.5t-66.5 162.5q0 38 15 51t54 13h284q-6 49 -43.5 80.5t-95.5 31.5q-50 0 -99 -27q-9 -6 -23 -6q-20 0 -35 15t-15 35q0 29 27 44q70 40 159 40q112 0 185 -70.5t73 -183.5q0 -106 -71 -179.5t-179 -73.5zM390 196h-238q1 -40 32 -74
q30 -33 87 -33q51 0 82 31t37 76z" />
    <glyph glyph-name="uni0272" unicode="&#x272;" 
d="M516 341v-284q0 -26 -18.5 -45t-45.5 -19q-26 0 -44.5 19t-18.5 45v235q0 90 -89 90q-67 0 -110 -57v-338q0 -86 -44.5 -134.5t-127.5 -48.5h-9q-22 1 -37.5 16t-15.5 38q0 21 13.5 36.5t32.5 15.5h2q59 2 59 77l-1 439q0 27 19 46t46 19q26 0 45 -19t19 -46v-4
q66 73 168 73q77 0 117 -40.5t40 -113.5z" />
    <glyph glyph-name="uni02B0" unicode="&#x2b0;" horiz-adv-x="411" 
d="M268 365v149q0 56 -57 56q-41 0 -69 -33v-172q0 -19 -13.5 -32.5t-32.5 -13.5t-32.5 13.5t-13.5 32.5v356q0 19 13.5 32.5t32.5 13.5t32.5 -13.5t13.5 -32.5v-121q41 48 112 48q53 0 80 -27t27 -76v-180q0 -19 -13.5 -32.5t-33.5 -13.5q-19 0 -32.5 13.5t-13.5 32.5z" />
    <glyph glyph-name="uni02BC" unicode="&#x2bc;" horiz-adv-x="255" 
d="M107 393q-14 0 -24 10t-10 24q0 15 11 26q42 39 50 76q-5 -4 -19 -4q-29 0 -48.5 20.5t-19.5 51.5q0 33 23 56.5t55 23.5q38 0 64 -28t26 -74q0 -99 -85 -173q-10 -9 -23 -9z" />
    <glyph glyph-name="circumflex" unicode="&#x2c6;" horiz-adv-x="300" 
d="M216 562l-66 83l-67 -83q-11 -12 -26 -12q-14 0 -23.5 9.5t-9.5 24.5q0 10 4 17l49 75q19 30 56 30h34q35 0 56 -30l48 -75q4 -7 4 -17q0 -15 -9.5 -24.5t-23.5 -9.5q-16 0 -26 12z" />
    <glyph glyph-name="caron" unicode="&#x2c7;" horiz-adv-x="300" 
d="M275 672q0 -12 -4 -16l-48 -76q-21 -30 -56 -30h-34q-37 0 -56 30l-49 76q-4 4 -4 16q0 15 9.5 24.5t23.5 9.5q15 0 26 -11l67 -84l66 84q11 11 26 11q14 0 23.5 -9.5t9.5 -24.5z" />
    <glyph glyph-name="uni02C9" unicode="&#x2c9;" horiz-adv-x="363" 
d="M8 627q0 15 10.5 26t25.5 11h275q15 0 25.5 -11t10.5 -26t-10.5 -25.5t-25.5 -10.5h-275q-15 0 -25.5 10.5t-10.5 25.5z" />
    <glyph glyph-name="uni02CB" unicode="&#x2cb;" horiz-adv-x="251" 
d="M163 556l-99 87q-12 12 -12 28t11.5 28t26.5 12q19 0 29 -13l90 -97q9 -11 9 -22q0 -13 -9.5 -22.5t-23.5 -9.5q-15 0 -22 9z" />
    <glyph glyph-name="breve" unicode="&#x2d8;" horiz-adv-x="351" 
d="M23 616q-12 10 -12 26q0 15 10.5 26t25.5 11q16 0 26 -10q44 -44 103 -44t102 43q11 11 26 11t25.5 -11t10.5 -26q0 -12 -11 -26q-65 -63 -153 -63t-153 63z" />
    <glyph glyph-name="dotaccent" unicode="&#x2d9;" horiz-adv-x="159" 
d="M80 689q28 0 47.5 -20t19.5 -48t-19.5 -48t-47.5 -20t-48 20t-20 48t20 48t48 20z" />
    <glyph glyph-name="ring" unicode="&#x2da;" horiz-adv-x="249" 
d="M125 742q43 0 73.5 -31.5t30.5 -74.5q0 -44 -30.5 -74.5t-73.5 -30.5t-74 31t-31 74t31 74.5t74 31.5zM125 683q-19 0 -33 -14t-14 -33t14 -33t33 -14t32.5 14t13.5 33q0 20 -13.5 33.5t-32.5 13.5z" />
    <glyph glyph-name="ogonek" unicode="&#x2db;" horiz-adv-x="220" 
d="M9 -106q0 35 31 62.5t83 43.5q64 19 63 12q0 -2 -4 -5q-33 -27 -46 -45t-13 -38q0 -14 9.5 -22.5t24.5 -8.5q4 0 8.5 1t6.5 1q16 0 27 -11t11 -27q0 -27 -26 -36q-24 -7 -62 -7q-48 0 -80.5 21t-32.5 59z" />
    <glyph glyph-name="tilde" unicode="&#x2dc;" horiz-adv-x="327" 
d="M143 595q-23 27 -40 27q-28 0 -34 -43q-7 -26 -33 -26q-16 0 -25.5 11.5t-7.5 26.5q14 103 105 103q39 0 75 -41q26 -26 41 -26q26 0 34 42q2 11 11.5 18.5t21.5 7.5q15 0 25 -11t8 -27q-14 -103 -104 -103q-24 0 -40.5 10t-36.5 31z" />
    <glyph glyph-name="hungarumlaut" unicode="&#x2dd;" horiz-adv-x="338" 
d="M20 581q0 9 5 17l55 90q11 19 33 19q16 0 27.5 -12t11.5 -28q0 -13 -8 -24l-66 -82q-9 -12 -25 -12q-13 0 -23 9.5t-10 22.5zM169 581q0 9 5 17l55 90q11 19 33 19q16 0 27.5 -12t11.5 -28q0 -13 -8 -24l-66 -82q-9 -12 -25 -12q-13 0 -23 9.5t-10 22.5z" />
    <glyph glyph-name="gravecomb" unicode="&#x300;" horiz-adv-x="0" 
d="M-88 556l-99 87q-12 12 -12 28t11.5 28t26.5 12q19 0 29 -13l90 -97q9 -11 9 -22q0 -13 -9.5 -22.5t-23.5 -9.5t-22 9z" />
    <glyph glyph-name="acutecomb" unicode="&#x301;" horiz-adv-x="0" 
d="M-185 547q-14 0 -23.5 9.5t-9.5 22.5q0 9 8 22l91 97q10 13 29 13q15 0 26.5 -12t11.5 -28t-13 -28l-98 -87q-8 -9 -22 -9z" />
    <glyph glyph-name="uni0302" unicode="&#x302;" horiz-adv-x="0" 
d="M-84 562l-66 83l-67 -83q-11 -12 -26 -12q-14 0 -23.5 9.5t-9.5 24.5q0 10 4 17l49 75q19 30 56 30h34q35 0 56 -30l48 -75q4 -7 4 -17q0 -15 -9.5 -24.5t-23.5 -9.5q-16 0 -26 12z" />
    <glyph glyph-name="tildecomb" unicode="&#x303;" horiz-adv-x="0" 
d="M-184 595q-23 27 -40 27q-28 0 -34 -43q-7 -26 -33 -26q-16 0 -25.5 11.5t-7.5 26.5q14 103 105 103q39 0 75 -41q26 -26 41 -26q27 0 34 42q2 11 11.5 18.5t21.5 7.5q15 0 25 -11t8 -27q-14 -103 -104 -103q-24 0 -40.5 10t-36.5 31z" />
    <glyph glyph-name="uni0304" unicode="&#x304;" horiz-adv-x="0" 
d="M-355 598q0 15 10.5 25.5t25.5 10.5h275q15 0 25.5 -10.5t10.5 -25.5t-10.5 -25.5t-25.5 -10.5h-275q-15 0 -25.5 10.5t-10.5 25.5z" />
    <glyph glyph-name="uni0306" unicode="&#x306;" horiz-adv-x="0" 
d="M-328 616q-12 10 -12 26q0 15 10.5 26t25.5 11q16 0 26 -10q44 -44 103 -44t102 43q11 11 26 11t25.5 -11t10.5 -26q0 -12 -11 -26q-64 -63 -153 -63t-153 63z" />
    <glyph glyph-name="uni0307" unicode="&#x307;" horiz-adv-x="0" 
d="M-79 689q28 0 47.5 -20t19.5 -48t-19.5 -48t-47.5 -20t-48 20t-20 48t20 48t48 20z" />
    <glyph glyph-name="uni0308" unicode="&#x308;" horiz-adv-x="0" 
d="M-385 622q0 28 20 47.5t48 19.5t47.5 -19.5t19.5 -47.5q0 -29 -19.5 -48.5t-47.5 -19.5q-29 0 -48.5 19.5t-19.5 48.5zM-174 622q0 28 20 47.5t48 19.5t48 -19.5t20 -47.5q0 -29 -20 -48.5t-48 -19.5t-48 19.5t-20 48.5z" />
    <glyph glyph-name="uni0309" unicode="&#x309;" horiz-adv-x="0" 
d="M-70 577q0 7 3 17q4 11 4 26q0 40 -38 40q-25 0 -37 -22q-9 -14 -27 -14q-11 0 -20 9t-9 21t11 23q30 39 82 39q46 0 75 -24t29 -69q0 -27 -15 -54q-9 -18 -28 -18q-12 0 -20.5 7.5t-9.5 18.5z" />
    <glyph glyph-name="uni030A" unicode="&#x30a;" horiz-adv-x="0" 
d="M-124 742q43 0 73.5 -31.5t30.5 -74.5q0 -44 -30.5 -74.5t-73.5 -30.5t-74 31t-31 74t31 74.5t74 31.5zM-124 683q-19 0 -33 -14t-14 -33t14 -33t33 -14t32.5 14t13.5 33q0 20 -13.5 33.5t-32.5 13.5z" />
    <glyph glyph-name="uni030B" unicode="&#x30b;" horiz-adv-x="0" 
d="M-318 581q0 9 5 17l55 90q11 19 33 19q16 0 27.5 -12t11.5 -28q0 -13 -8 -24l-66 -82q-9 -12 -25 -12q-13 0 -23 9.5t-10 22.5zM-169 581q0 9 5 17l55 90q11 19 33 19q16 0 27.5 -12t11.5 -28q0 -13 -8 -24l-66 -82q-9 -12 -25 -12q-13 0 -23 9.5t-10 22.5z" />
    <glyph glyph-name="uni030C" unicode="&#x30c;" horiz-adv-x="0" 
d="M-25 672q0 -12 -4 -16l-48 -76q-21 -30 -56 -30h-34q-37 0 -56 30l-49 76q-4 4 -4 16q0 15 9.5 24.5t23.5 9.5q15 0 26 -11l67 -84l66 84q11 11 26 11q14 0 23.5 -9.5t9.5 -24.5z" />
    <glyph glyph-name="dotbelowcomb" unicode="&#x323;" horiz-adv-x="0" 
d="M-79 -51q28 0 47.5 -20t19.5 -48t-19.5 -48t-47.5 -20t-48 20t-20 48t20 48t48 20z" />
    <glyph glyph-name="uni0326" unicode="&#x326;" horiz-adv-x="0" 
d="M-174 -259q0 11 12 23q32 28 40 62q-8 -2 -15 -2q-23 0 -38 16t-15 41q0 26 18 44t43 18q30 0 50.5 -22.5t20.5 -58.5q0 -82 -72 -141q-8 -7 -17 -7q-11 0 -19 8t-8 19z" />
    <glyph glyph-name="uni0327" unicode="&#x327;" horiz-adv-x="0" 
d="M-203 -175q-17 8 -17 26q0 12 8.5 20.5t19.5 8.5q7 0 14 -4q32 -18 63 -18q23 0 37.5 9t14.5 24q0 26 -29 26q-13 0 -24 -8q-12 -5 -18 -5q-13 0 -22 9.5t-9 23.5q0 2 2 10l23 64h63l-26 -62q16 10 36 10q28 0 47.5 -20t19.5 -50q0 -38 -31.5 -61.5t-79.5 -23.5
q-50 0 -92 21z" />
    <glyph glyph-name="uni0328" unicode="&#x328;" horiz-adv-x="0" 
d="M-211 -106q0 35 31 62.5t83 43.5q64 19 63 12q0 -2 -4 -5q-33 -27 -46 -45t-13 -38q0 -14 9.5 -22.5t24.5 -8.5q4 0 8.5 1t6.5 1q16 0 27 -11t11 -27q0 -27 -26 -36q-24 -7 -62 -7q-48 0 -80.5 21t-32.5 59z" />
    <glyph glyph-name="uni037E" unicode="&#x37e;" horiz-adv-x="256" 
d="M47 409q0 33 24 57t57 24t57 -24t24 -57q0 -32 -24 -56.5t-57 -24.5t-57 24.5t-24 56.5zM107 -133q-14 0 -24 10t-10 25q0 16 11 25q42 39 50 76q-5 -4 -19 -4q-29 0 -48.5 20.5t-19.5 51.5q0 33 23 56.5t55 23.5q38 0 64 -28t26 -74q0 -99 -85 -173q-11 -9 -23 -9z" />
    <glyph glyph-name="tonos" unicode="&#x384;" horiz-adv-x="143" 
d="M11 587l15 149q2 18 15 30.5t31 12.5q19 0 33 -14t14 -33q0 -7 -3 -14l-46 -143q-8 -21 -30 -21q-12 0 -21 10t-8 23z" />
    <glyph glyph-name="dieresistonos" unicode="&#x385;" horiz-adv-x="453" 
d="M184 588l14 148q2 18 15.5 30.5t30.5 12.5q19 0 33 -14t14 -33q0 -4 -2 -14l-46 -143q-7 -21 -29 -21q-13 0 -22.5 10t-7.5 24zM9 622q0 28 19.5 47.5t48.5 19.5q28 0 47.5 -19.5t19.5 -47.5q0 -29 -19.5 -48.5t-47.5 -19.5q-29 0 -48.5 19.5t-19.5 48.5zM309 622
q0 28 19.5 47.5t47.5 19.5t48 -19.5t20 -47.5q0 -29 -19.5 -48.5t-48.5 -19.5q-28 0 -47.5 19.5t-19.5 48.5z" />
    <glyph glyph-name="Alphatonos" unicode="&#x386;" horiz-adv-x="678" 
d="M656 65q0 -30 -21.5 -51t-51.5 -21q-23 0 -41.5 13.5t-25.5 34.5l-27 78h-300l-27 -78q-7 -21 -26 -34.5t-42 -13.5q-30 0 -51 21t-21 51q0 7 5 25l195 504q14 36 46 58t71 22t71 -22t46 -58l194 -504q6 -14 6 -25zM233 242h212l-106 302zM55 485l15 149q2 18 15 30.5
t31 12.5q19 0 33 -14t14 -33q0 -6 -3 -14l-46 -143q-8 -21 -30 -21q-12 0 -21 10t-8 23z" />
    <glyph glyph-name="Epsilontonos" unicode="&#x388;" horiz-adv-x="643" 
d="M126 76v516q0 36 19.5 55.5t55.5 19.5h342q26 0 44 -18t18 -44q0 -25 -18 -42.5t-44 -17.5h-275v-145h268q26 0 44 -18t18 -43t-18 -43t-44 -18h-268v-155h275q25 0 43.5 -18t18.5 -43t-18 -43.5t-44 -18.5h-342q-36 0 -55.5 19.5t-19.5 56.5zM-15 485l15 149
q2 18 15 30.5t31 12.5q19 0 33 -14t14 -33q0 -6 -3 -14l-46 -143q-8 -21 -30 -21q-12 0 -21 10t-8 23z" />
    <glyph glyph-name="Etatonos" unicode="&#x389;" horiz-adv-x="792" 
d="M583 64v216h-315v-216q0 -29 -20.5 -50t-49.5 -21q-30 0 -51 21t-21 50v539q0 29 21 50t50 21q30 0 50.5 -21t20.5 -50v-198h315v198q0 29 21 50t51 21q29 0 50 -21t21 -50v-539q0 -29 -21 -50t-51 -21q-29 0 -50 21t-21 50zM-15 485l15 149q2 18 15 30.5t31 12.5
q19 0 33 -14t14 -33q0 -6 -3 -14l-46 -143q-8 -21 -30 -21q-12 0 -21 10t-8 23z" />
    <glyph glyph-name="Iotatonos" unicode="&#x38a;" horiz-adv-x="335" 
d="M126 64v539q0 29 21 50t51 21q29 0 49.5 -21t20.5 -50v-539q0 -29 -20.5 -50t-49.5 -21q-30 0 -51 21t-21 50zM-15 485l15 149q2 18 15 30.5t31 12.5q19 0 33 -14t14 -33q0 -6 -3 -14l-46 -143q-8 -21 -30 -21q-12 0 -21 10t-8 23z" />
    <glyph glyph-name="Omicrontonos" unicode="&#x38c;" horiz-adv-x="799" 
d="M415 678q149 2 250 -97.5t99 -247.5q2 -148 -99 -247.5t-250 -97.5q-148 -2 -249 98t-99 247q-2 147 99 247t249 98zM415 552q-90 0 -146 -62t-56 -157t56 -157t146 -62t146.5 62t56.5 157t-56.5 157t-146.5 62zM-15 485l15 149q2 18 15 30.5t31 12.5q19 0 33 -14t14 -33
q0 -6 -3 -14l-46 -143q-8 -21 -30 -21q-12 0 -21 10t-8 23z" />
    <glyph glyph-name="Upsilontonos" unicode="&#x38e;" horiz-adv-x="724" 
d="M673 564l-200 -289v-211q0 -29 -21 -50t-50 -21q-30 0 -51 21t-21 50v209l-201 291q-14 19 -14 41q0 29 20 49t49 20q36 0 56 -30l162 -246l160 246q21 30 56 30q29 0 49 -20t20 -49q0 -22 -14 -41zM-16 485l15 149q2 18 15 30.5t31 12.5q19 0 33 -14t14 -33q0 -6 -3 -14
l-46 -143q-7 -21 -30 -21q-12 0 -21 10t-8 23z" />
    <glyph glyph-name="Omegatonos" unicode="&#x38f;" horiz-adv-x="809" 
d="M78 366q0 140 98 226t250 86q153 0 251 -86t98 -226q0 -148 -136 -241h63q26 0 44.5 -18.5t18.5 -44.5q0 -25 -18.5 -43.5t-44.5 -18.5h-147q-31 0 -52.5 21.5t-21.5 52.5q0 46 39 66q50 25 79.5 76.5t29.5 117.5q0 90 -53 153.5t-150 63.5t-149.5 -63.5t-52.5 -153.5
q0 -66 29.5 -117.5t79.5 -76.5q39 -20 39 -66q0 -31 -21.5 -52.5t-51.5 -21.5h-148q-26 0 -44 18.5t-18 44.5t18.5 44t43.5 18h64q-137 94 -137 241zM-15 485l15 149q2 18 15 30.5t31 12.5q19 0 33 -14t14 -33q0 -6 -3 -14l-46 -143q-8 -21 -30 -21q-12 0 -21 10t-8 23z" />
    <glyph glyph-name="iotadieresistonos" unicode="&#x390;" horiz-adv-x="267" 
d="M63 120v306q0 26 18.5 45t45.5 19q26 0 44.5 -19t18.5 -45v-281q0 -17 9 -29.5t22 -15.5l5 -1q36 -11 36 -53q0 -25 -15.5 -41t-40.5 -17h-11q-64 0 -98 34t-34 98zM101 608l14 148q2 18 15.5 30.5t30.5 12.5q19 0 33 -14t14 -33q0 -4 -2 -14l-46 -143q-8 -21 -29 -21
q-13 0 -22.5 10t-7.5 24zM-74 642q0 28 19.5 47.5t48.5 19.5q28 0 47.5 -19.5t19.5 -47.5q0 -29 -19.5 -48.5t-47.5 -19.5q-29 0 -48.5 19.5t-19.5 48.5zM226 642q0 28 19.5 47.5t47.5 19.5t48 -19.5t20 -47.5q0 -29 -19.5 -48.5t-48.5 -19.5q-28 0 -47.5 19.5t-19.5 48.5z
" />
    <glyph glyph-name="Alpha" unicode="&#x391;" horiz-adv-x="678" 
d="M656 65q0 -30 -21.5 -51t-51.5 -21q-23 0 -41.5 13.5t-25.5 34.5l-27 78h-300l-27 -78q-7 -21 -26 -34.5t-42 -13.5q-30 0 -51 21t-21 51q0 7 5 25l195 504q14 36 46 58t71 22t71 -22t46 -58l194 -504q6 -14 6 -25zM233 242h212l-106 302z" />
    <glyph glyph-name="Beta" unicode="&#x392;" horiz-adv-x="663" 
d="M66 76v516q0 36 19.5 55.5t55.5 19.5h276q89 0 140.5 -49t51.5 -121q0 -59 -32.5 -101t-82.5 -52q53 -7 91 -55q37 -46 37 -109q0 -80 -52 -130t-142 -50h-287q-36 0 -55.5 19.5t-19.5 56.5zM208 399h178q36 0 57 20.5t21 53.5q0 31 -21.5 52t-56.5 21h-178v-147z
M208 121h183q40 0 63 21.5t23 57.5q0 34 -23.5 56t-62.5 22h-183v-157z" />
    <glyph glyph-name="Gamma" unicode="&#x393;" horiz-adv-x="564" 
d="M66 64v528q0 36 19.5 55.5t55.5 19.5h341q26 0 44.5 -18.5t18.5 -44.5q0 -25 -18.5 -43.5t-44.5 -18.5h-274v-478q0 -29 -20.5 -50t-49.5 -21q-30 0 -51 21t-21 50z" />
    <glyph glyph-name="uni0394" unicode="&#x394;" horiz-adv-x="684" 
d="M21 54q0 18 7 33l196 507q14 36 46 58t72 22q39 0 71 -22t46 -58l196 -507q7 -15 7 -34q0 -25 -17.5 -39t-49.5 -14h-506q-68 0 -68 54zM342 525l-146 -400h292z" />
    <glyph glyph-name="Epsilon" unicode="&#x395;" horiz-adv-x="583" 
d="M66 76v516q0 36 19.5 55.5t55.5 19.5h342q26 0 44 -18t18 -44q0 -25 -18 -42.5t-44 -17.5h-275v-145h268q26 0 44 -18t18 -43t-18 -43t-44 -18h-268v-155h275q25 0 43.5 -18t18.5 -43t-18 -43.5t-44 -18.5h-342q-36 0 -55.5 19.5t-19.5 56.5z" />
    <glyph glyph-name="Zeta" unicode="&#x396;" horiz-adv-x="592" 
d="M34 79q0 27 16 47l307 416h-260q-26 0 -44.5 18.5t-18.5 43.5q0 26 18.5 44.5t44.5 18.5h374q33 0 56 -23t23 -56q0 -26 -15 -46l-307 -417h266q26 0 44.5 -18.5t18.5 -43.5q0 -26 -18.5 -44.5t-44.5 -18.5h-381q-32 0 -55.5 23t-23.5 56z" />
    <glyph glyph-name="Eta" unicode="&#x397;" horiz-adv-x="731" 
d="M523 64v216h-315v-216q0 -29 -20.5 -50t-49.5 -21q-30 0 -51 21t-21 50v539q0 29 21 50t50 21q30 0 50.5 -21t20.5 -50v-198h315v198q0 29 21 50t51 21q29 0 50 -21t21 -50v-539q0 -29 -21 -50t-51 -21q-29 0 -50 21t-21 50z" />
    <glyph glyph-name="Theta" unicode="&#x398;" horiz-adv-x="765" 
d="M382 678q149 2 250 -97.5t99 -247.5q2 -148 -99 -247.5t-250 -97.5q-148 -2 -249 98t-99 247q-2 147 99 247t249 98zM382 552q-90 0 -146 -62t-56 -157t56 -157t146 -62t146.5 62t56.5 157t-56.5 157t-146.5 62zM219 339q0 25 18.5 43.5t44.5 18.5h201q26 0 44.5 -18.5
t18.5 -43.5q0 -26 -18.5 -44.5t-44.5 -18.5h-201q-26 0 -44.5 18.5t-18.5 44.5z" />
    <glyph glyph-name="Iota" unicode="&#x399;" horiz-adv-x="274" 
d="M66 64v539q0 29 21 50t51 21q29 0 49.5 -21t20.5 -50v-539q0 -29 -20.5 -50t-49.5 -21q-30 0 -51 21t-21 50z" />
    <glyph glyph-name="Kappa" unicode="&#x39a;" horiz-adv-x="636" 
d="M602 62q0 -28 -19 -48.5t-48 -20.5q-33 0 -51 22l-222 250l-54 -60v-141q0 -29 -20.5 -50t-50.5 -21q-29 0 -50 21t-21 50v539q0 29 21 50t50 21q30 0 50.5 -21t20.5 -50v-235l257 284q21 22 50 22q27 0 46.5 -19.5t19.5 -46.5t-17 -44l-202 -214l223 -244q17 -20 17 -44
z" />
    <glyph glyph-name="Lambda" unicode="&#x39b;" horiz-adv-x="684" 
d="M511 43l-169 482l-170 -482q-8 -22 -27.5 -36t-43.5 -14q-31 0 -53 22t-22 53q0 14 6 26l193 499q14 36 46 58.5t71 22.5t71 -22.5t46 -58.5l193 -499q5 -15 5 -26q0 -31 -22 -53t-53 -22q-24 0 -43.5 14t-27.5 36z" />
    <glyph glyph-name="Mu" unicode="&#x39c;" horiz-adv-x="855" 
d="M646 64v416l-181 -461q-12 -26 -38 -26t-38 26l-181 461v-416q0 -29 -20.5 -50t-49.5 -21q-30 0 -51 21t-21 50v494q0 48 34 82t82 34q37 0 66.5 -20.5t42.5 -54.5l136 -348l137 348q12 33 42 54t66 21q49 0 83 -34t34 -82v-494q0 -29 -21 -50t-51 -21q-29 0 -50 21
t-21 50z" />
    <glyph glyph-name="Nu" unicode="&#x39d;" horiz-adv-x="729" 
d="M505 30l-297 418v-384q0 -29 -20.5 -50t-49.5 -21q-30 0 -51 21t-21 50v517q0 38 27 65.5t66 27.5q48 0 76 -39l286 -400v368q0 29 20.5 50t50.5 21q29 0 50 -21t21 -50v-523q0 -36 -25.5 -61.5t-61.5 -25.5q-45 0 -71 37z" />
    <glyph glyph-name="Xi" unicode="&#x39e;" horiz-adv-x="624" 
d="M38 606q0 25 18 43t44 18h423q26 0 44 -18t18 -43t-18 -43t-44 -18h-423q-26 0 -44 18t-18 43zM45 338q0 26 18 44t44 18h410q26 0 44 -18t18 -43t-18 -43t-44 -18h-410q-26 0 -44 17.5t-18 42.5zM38 61q0 26 18.5 44t43.5 18h423q26 0 44 -18t18 -44q0 -25 -18.5 -43
t-43.5 -18h-423q-25 0 -43.5 18t-18.5 43z" />
    <glyph glyph-name="Omicron" unicode="&#x39f;" horiz-adv-x="765" 
d="M382 678q149 2 250 -97.5t99 -247.5q2 -148 -99 -247.5t-250 -97.5q-148 -2 -249 98t-99 247q-2 147 99 247t249 98zM382 552q-90 0 -146 -62t-56 -157t56 -157t146 -62t146.5 62t56.5 157t-56.5 157t-146.5 62z" />
    <glyph glyph-name="Pi" unicode="&#x3a0;" horiz-adv-x="731" 
d="M523 64v478h-315v-478q0 -29 -20.5 -50t-49.5 -21q-30 0 -51 21t-21 50v528q0 36 19.5 55.5t55.5 19.5h449q37 0 56.5 -19.5t19.5 -55.5v-528q0 -29 -21 -50t-51 -21q-29 0 -50 21t-21 50z" />
    <glyph glyph-name="Rho" unicode="&#x3a1;" horiz-adv-x="624" 
d="M66 64v528q0 36 19.5 55.5t55.5 19.5h237q103 0 163.5 -61.5t60.5 -153.5q0 -91 -60.5 -152t-163.5 -61h-170v-175q0 -29 -20.5 -50t-49.5 -21q-30 0 -51 21t-21 50zM359 545h-151v-184h151q43 0 70.5 25.5t27.5 66.5t-28 66.5t-70 25.5z" />
    <glyph glyph-name="Sigma" unicode="&#x3a3;" horiz-adv-x="586" 
d="M217 125h268q26 0 44.5 -18.5t18.5 -43.5q0 -26 -18.5 -44.5t-44.5 -18.5h-363q-35 0 -59.5 24.5t-24.5 59.5q0 33 24 58l186 198l-184 185q-25 25 -25 60q0 34 24 58t58 24h364q26 0 44.5 -18.5t18.5 -44.5q0 -25 -18.5 -43.5t-44.5 -18.5h-261l145 -148q26 -26 26 -53
q0 -28 -25 -53z" />
    <glyph glyph-name="Tau" unicode="&#x3a4;" horiz-adv-x="582" 
d="M220 64v478h-139q-26 0 -44.5 18.5t-18.5 43.5q0 26 18.5 44.5t44.5 18.5h421q26 0 44.5 -18.5t18.5 -44.5q0 -25 -18.5 -43.5t-44.5 -18.5h-139v-478q0 -29 -21 -50t-50 -21q-30 0 -51 21t-21 50z" />
    <glyph glyph-name="Upsilon" unicode="&#x3a5;" horiz-adv-x="644" 
d="M594 564l-200 -289v-211q0 -29 -21 -50t-50 -21q-30 0 -51 21t-21 50v209l-201 291q-14 19 -14 41q0 29 20 49t49 20q37 0 56 -30l162 -246l160 246q21 30 56 30q29 0 49 -20t20 -49q0 -22 -14 -41z" />
    <glyph glyph-name="Phi" unicode="&#x3a6;" horiz-adv-x="855" 
d="M498 66v-1q0 -32 -19.5 -52.5t-50.5 -20.5q-32 0 -52 20.5t-20 52.5v1q-153 13 -237.5 83t-84.5 184t84.5 183.5t237.5 83.5v2q0 32 20 52.5t52 20.5q31 0 50.5 -20.5t19.5 -52.5v-2q153 -13 237.5 -83t84.5 -184t-84.5 -184t-237.5 -83zM356 194v279q-86 -10 -131 -46.5
t-45 -93.5t45 -93t131 -46zM675 333q0 57 -45.5 93.5t-131.5 46.5v-279q86 10 131.5 46t45.5 93z" />
    <glyph glyph-name="Chi" unicode="&#x3a7;" horiz-adv-x="668" 
d="M645 62q0 -28 -20 -48.5t-48 -20.5q-34 0 -53 22l-190 225l-190 -225q-19 -22 -53 -22q-28 0 -48 20.5t-20 48.5q0 26 17 45l205 235l-192 218q-16 20 -16 44q0 29 20 49.5t48 20.5q35 0 54 -25l175 -208l175 208q19 25 54 25q28 0 48 -20.5t20 -49.5q0 -22 -13 -41
l-195 -221l205 -235q17 -19 17 -45z" />
    <glyph glyph-name="Psi" unicode="&#x3a8;" horiz-adv-x="866" 
d="M728 674q30 0 51 -21.5t21 -51.5v-198q0 -116 -75.5 -188t-219.5 -87v-64q0 -29 -21 -50t-51 -21q-29 0 -50 21t-21 50v63q-144 15 -220 87t-76 188v200q0 30 21 51t51 21t51 -21t21 -51v-195q0 -63 38.5 -101.5t113.5 -49.5v347q0 29 21 50t51 21q29 0 50 -21t21 -50
v-347q150 23 150 151v194q0 30 21.5 51.5t51.5 21.5z" />
    <glyph glyph-name="uni03A9" unicode="&#x3a9;" horiz-adv-x="765" 
d="M34 366q0 140 98 226t250 86q153 0 251 -86t98 -226q0 -148 -136 -241h63q26 0 44.5 -18.5t18.5 -44.5q0 -25 -18.5 -43.5t-44.5 -18.5h-147q-31 0 -52.5 21.5t-21.5 52.5q0 46 39 66q50 25 79.5 76.5t29.5 117.5q0 90 -53 153.5t-150 63.5t-149.5 -63.5t-52.5 -153.5
q0 -66 29.5 -117.5t79.5 -76.5q39 -20 39 -66q0 -31 -21.5 -52.5t-51.5 -21.5h-148q-26 0 -44 18.5t-18 44.5t18.5 44t43.5 18h64q-137 94 -137 241z" />
    <glyph glyph-name="Iotadieresis" unicode="&#x3aa;" horiz-adv-x="274" 
d="M66 64v539q0 29 21 50t51 21q29 0 49.5 -21t20.5 -50v-539q0 -29 -20.5 -50t-49.5 -21q-30 0 -51 21t-21 50zM-35 789q0 28 20 47.5t48 19.5t47.5 -19.5t19.5 -47.5q0 -29 -19.5 -48.5t-47.5 -19.5q-29 0 -48.5 19.5t-19.5 48.5zM176 789q0 28 20 47.5t48 19.5t48 -19.5
t20 -47.5q0 -29 -20 -48.5t-48 -19.5t-48 19.5t-20 48.5z" />
    <glyph glyph-name="Upsilondieresis" unicode="&#x3ab;" horiz-adv-x="644" 
d="M594 564l-200 -289v-211q0 -29 -21 -50t-50 -21q-30 0 -51 21t-21 50v209l-201 291q-14 19 -14 41q0 29 20 49t49 20q37 0 56 -30l162 -246l160 246q21 30 56 30q29 0 49 -20t20 -49q0 -22 -14 -41zM150 789q0 28 20 47.5t48 19.5t47.5 -19.5t19.5 -47.5
q0 -29 -19.5 -48.5t-47.5 -19.5q-29 0 -48.5 19.5t-19.5 48.5zM361 789q0 28 20 47.5t48 19.5t48 -19.5t20 -47.5q0 -29 -20 -48.5t-48 -19.5t-48 19.5t-20 48.5z" />
    <glyph glyph-name="alphatonos" unicode="&#x3ac;" horiz-adv-x="600" 
d="M594 46q0 -25 -15 -41t-40 -17h-11q-101 0 -125 86q-25 -40 -66.5 -63t-90.5 -23q-94 0 -154 68t-60 185q0 115 60 184.5t154 69.5t149 -76v9q0 26 19 44t45 18t45 -19t19 -45v-281q0 -38 31 -45l5 -1q35 -11 35 -53zM395 156v170q-16 24 -47 39.5t-63 15.5
q-54 0 -88 -38.5t-34 -101.5q0 -62 34 -101t88 -39q32 0 63 15.5t47 39.5zM269 607l15 149q2 18 15 30.5t31 12.5q19 0 33 -14t14 -33q0 -7 -3 -14l-46 -143q-8 -21 -30 -21q-12 0 -21 10t-8 23z" />
    <glyph glyph-name="epsilontonos" unicode="&#x3ad;" horiz-adv-x="489" 
d="M31 133q0 48 41.5 80t91.5 35q-50 8 -87 39q-36 31 -36 75q0 61 57 96.5t158 35.5q103 0 174 -50q21 -15 21 -41q0 -20 -14.5 -34.5t-34.5 -14.5q-15 0 -26 8q-50 32 -114 32q-40 0 -64.5 -14t-24.5 -37q0 -53 91 -53h42q21 0 35.5 -13t14.5 -34q0 -20 -14 -33t-35 -13
h-43q-100 0 -100 -53q0 -25 24 -40.5t68 -15.5q62 0 121 37q11 8 27 8q22 0 37.5 -16t15.5 -38q0 -30 -26 -45q-71 -46 -176 -46q-102 0 -163 39.5t-61 105.5zM232 607l15 149q2 18 15 30.5t31 12.5q19 0 33 -14t14 -33q0 -7 -3 -14l-46 -143q-7 -21 -30 -21q-12 0 -21 10
t-8 23z" />
    <glyph glyph-name="etatonos" unicode="&#x3ae;" 
d="M516 341v-468q0 -26 -18.5 -45t-44.5 -19t-45 19t-19 45v419q0 90 -89 90q-67 0 -110 -57v-268q0 -26 -18.5 -45t-44.5 -19q-27 0 -45.5 19t-18.5 45v369q0 27 18.5 46t44.5 19q27 0 46 -19t19 -46v-4q66 73 168 73q77 0 117 -40.5t40 -113.5zM263 607l15 149
q2 18 15 30.5t31 12.5q19 0 33 -14t14 -33q0 -7 -3 -14l-46 -143q-8 -21 -30 -21q-12 0 -21 10t-8 23z" />
    <glyph glyph-name="iotatonos" unicode="&#x3af;" horiz-adv-x="267" 
d="M63 120v306q0 26 18.5 45t45.5 19q26 0 44.5 -19t18.5 -45v-281q0 -17 9 -29.5t22 -15.5l5 -1q36 -11 36 -53q0 -25 -15.5 -41t-40.5 -17h-11q-64 0 -98 34t-34 98zM100 607l15 149q2 18 15 30.5t31 12.5q19 0 33 -14t14 -33q0 -7 -3 -14l-46 -143q-7 -21 -30 -21
q-12 0 -21 10t-8 23z" />
    <glyph glyph-name="upsilondieresistonos" unicode="&#x3b0;" horiz-adv-x="577" 
d="M63 218v208q0 26 18.5 45t45.5 19q26 0 44.5 -19t18.5 -45v-206q0 -55 26 -87t73 -32q58 0 91 43t33 115q0 81 -30 143q-6 12 -6 25q0 27 19 45.5t45 18.5q40 0 58 -37q46 -85 46 -195q0 -119 -70 -195t-186 -76q-109 0 -167.5 61t-58.5 169zM265 608l14 148
q2 18 15.5 30.5t30.5 12.5q19 0 33 -14t14 -33q0 -4 -2 -14l-46 -143q-8 -21 -29 -21q-13 0 -22.5 10t-7.5 24zM90 642q0 28 19.5 47.5t48.5 19.5q28 0 47.5 -19.5t19.5 -47.5q0 -29 -19.5 -48.5t-47.5 -19.5q-29 0 -48.5 19.5t-19.5 48.5zM390 642q0 28 19.5 47.5
t47.5 19.5t48 -19.5t20 -47.5q0 -29 -19.5 -48.5t-48.5 -19.5q-28 0 -47.5 19.5t-19.5 48.5z" />
    <glyph glyph-name="alpha" unicode="&#x3b1;" horiz-adv-x="600" 
d="M594 46q0 -25 -15 -41t-40 -17h-11q-101 0 -125 86q-25 -40 -66.5 -63t-90.5 -23q-94 0 -154 68t-60 185q0 115 60 184.5t154 69.5t149 -76v9q0 26 19 44t45 18t45 -19t19 -45v-281q0 -38 31 -45l5 -1q35 -11 35 -53zM395 156v170q-16 24 -47 39.5t-63 15.5
q-54 0 -88 -38.5t-34 -101.5q0 -62 34 -101t88 -39q32 0 63 15.5t47 39.5z" />
    <glyph glyph-name="beta" unicode="&#x3b2;" horiz-adv-x="586" 
d="M127 -191q-27 0 -45.5 19t-18.5 45v575q0 111 73 170t174 59q107 0 167.5 -48.5t60.5 -132.5q0 -60 -41 -101t-99 -51q61 -7 108 -53t47 -122q0 -75 -59 -128t-141 -53q-104 0 -163 74v-189q0 -26 -18.5 -45t-44.5 -19zM310 101q53 0 82.5 25t29.5 67q0 75 -103 87
q-27 4 -44 20t-17 38q0 48 57 58q45 9 68 28t23 55q0 38 -26.5 61t-69.5 23q-54 0 -87 -31t-33 -84v-293q46 -54 120 -54z" />
    <glyph glyph-name="gamma" unicode="&#x3b3;" horiz-adv-x="513" 
d="M192 -127v56q0 123 -38 246t-105 227q-9 16 -9 31q0 23 17 40t41 17q30 0 48 -25q48 -68 84 -157q37 -90 44 -161q32 50 57 127q24 75 32 159q2 23 20.5 40t42.5 17q28 0 47.5 -21t15.5 -49q-12 -110 -58 -221q-47 -112 -111 -194v-132q0 -26 -19 -45t-45 -19t-45 18.5
t-19 45.5z" />
    <glyph glyph-name="delta" unicode="&#x3b4;" horiz-adv-x="574" 
d="M543 227q0 -99 -68.5 -169t-180.5 -70q-118 0 -190 71t-72 173q0 64 31 114.5t83 77.5q-57 38 -57 103q0 64 54 108t144 44q87 0 157 -42q26 -15 26 -44q0 -21 -14.5 -36t-36.5 -15q-13 0 -24 7q-49 29 -108 29q-34 0 -55 -13t-21 -33q0 -16 17.5 -25.5t70.5 -25.5
q71 -20 119 -43q55 -26 90 -79t35 -132zM419 227q0 59 -36.5 91.5t-116.5 57.5q-50 -20 -76 -57.5t-26 -86.5q0 -54 34 -92q34 -39 93 -39q57 0 92.5 38t35.5 88z" />
    <glyph glyph-name="epsilon" unicode="&#x3b5;" horiz-adv-x="489" 
d="M31 133q0 48 41.5 80t91.5 35q-50 8 -87 39q-36 31 -36 75q0 61 57 96.5t158 35.5q103 0 174 -50q21 -15 21 -41q0 -20 -14.5 -34.5t-34.5 -14.5q-15 0 -26 8q-50 32 -114 32q-40 0 -64.5 -14t-24.5 -37q0 -53 91 -53h42q21 0 35.5 -13t14.5 -34q0 -20 -14 -33t-35 -13
h-43q-100 0 -100 -53q0 -25 24 -40.5t68 -15.5q62 0 121 37q11 8 27 8q22 0 37.5 -16t15.5 -38q0 -30 -26 -45q-71 -46 -176 -46q-102 0 -163 39.5t-61 105.5z" />
    <glyph glyph-name="zeta" unicode="&#x3b6;" horiz-adv-x="486" 
d="M32 211q0 103 66 192.5t184 152.5h-186q-23 0 -39.5 16.5t-16.5 38.5q0 23 16.5 39.5t39.5 16.5h300q24 0 41 -17t17 -41q0 -31 -28 -49q-114 -66 -190 -157q-73 -88 -73 -182q0 -58 36 -83t110 -25q148 0 148 -117q0 -48 -36 -126q-19 -34 -54 -34q-25 0 -42.5 17
t-17.5 42q0 13 6 24q14 34 14 50q0 13 -9 22t-24 9q-122 0 -192 55t-70 156z" />
    <glyph glyph-name="eta" unicode="&#x3b7;" 
d="M516 341v-468q0 -26 -18.5 -45t-44.5 -19t-45 19t-19 45v419q0 90 -89 90q-67 0 -110 -57v-268q0 -26 -18.5 -45t-44.5 -19q-27 0 -45.5 19t-18.5 45v369q0 27 18.5 46t44.5 19q27 0 46 -19t19 -46v-4q66 73 168 73q77 0 117 -40.5t40 -113.5z" />
    <glyph glyph-name="theta" unicode="&#x3b8;" horiz-adv-x="574" 
d="M543 334q0 -149 -68.5 -247.5t-187.5 -98.5q-118 0 -186.5 98.5t-68.5 247.5t68.5 247t186.5 98q119 0 187.5 -98t68.5 -247zM165 391h244q-13 175 -122 175t-122 -175zM409 279h-244q13 -178 122 -178t122 178z" />
    <glyph glyph-name="iota" unicode="&#x3b9;" horiz-adv-x="267" 
d="M63 120v306q0 26 18.5 45t45.5 19q26 0 44.5 -19t18.5 -45v-281q0 -17 9 -29.5t22 -15.5l5 -1q36 -11 36 -53q0 -25 -15.5 -41t-40.5 -17h-11q-64 0 -98 34t-34 98z" />
    <glyph glyph-name="kappa" unicode="&#x3ba;" horiz-adv-x="535" 
d="M504 57q0 -28 -18 -46t-45 -18q-30 0 -49 22l-142 170l-60 -56v-72q0 -26 -19 -45t-45 -19t-44.5 19t-18.5 45v369q0 26 18.5 45t45.5 19q26 0 44.5 -19t18.5 -45v-156l200 203q17 17 42 17t42 -17.5t17 -41.5q0 -25 -17 -42l-131 -128l148 -165q13 -13 13 -39z" />
    <glyph glyph-name="lambda" unicode="&#x3bb;" horiz-adv-x="513" 
d="M371 32l-115 308l-116 -308q-13 -39 -58 -39q-26 0 -44 18.5t-18 44.5q0 15 4 23l166 410l-18 41q-16 36 -66 36h-7q-21 0 -37 16t-16 39t16.5 39.5t40.5 17.5q3 1 14 1q130 -5 175 -117l196 -482q5 -13 5 -24q0 -26 -18 -44.5t-45 -18.5q-44 0 -59 39z" />
    <glyph glyph-name="uni03BC" unicode="&#x3bc;" horiz-adv-x="593" 
d="M588 46q0 -25 -15.5 -41t-40.5 -17h-11q-102 0 -126 88q-22 -40 -58 -64t-77 -24q-49 0 -70 28v-143q0 -26 -19 -45t-45 -19t-44.5 19t-18.5 45v553q0 26 18.5 45t45.5 19q26 0 44.5 -19t18.5 -45v-236q0 -90 90 -90q65 0 109 56v270q0 26 18.5 45t44.5 19t45 -19t19 -45
v-281q0 -38 31 -45l5 -1q36 -11 36 -53z" />
    <glyph glyph-name="nu" unicode="&#x3bd;" horiz-adv-x="513" 
d="M165 58l-139 347q-5 13 -5 23q0 26 18.5 44t43.5 18q20 0 36 -11.5t23 -29.5l120 -322q88 132 101 306q2 24 20.5 40.5t42.5 16.5q29 0 48 -21t15 -49q-20 -196 -140 -379q-31 -48 -87 -48q-33 0 -59.5 18t-37.5 47z" />
    <glyph glyph-name="xi" unicode="&#x3be;" horiz-adv-x="486" 
d="M153 318q-47 9 -78.5 38.5t-31.5 75.5q0 39 27 73.5t69 50.5h-38q-23 0 -39.5 16.5t-16.5 38.5q0 23 16.5 39.5t39.5 16.5h293q23 0 39.5 -16.5t16.5 -39.5t-16.5 -39t-39.5 -16h-141q-35 -9 -56.5 -32.5t-21.5 -53.5q0 -36 31.5 -56.5t85.5 -20.5h99q22 0 38.5 -16
t16.5 -38q0 -23 -16.5 -39t-38.5 -16h-99q-128 0 -128 -87q0 -84 145 -84q148 0 148 -117q0 -47 -36 -125q-15 -35 -55 -35q-25 0 -43 17.5t-18 42.5q0 10 5 23q16 39 16 59q0 22 -33 22q-128 0 -194.5 43t-66.5 124q0 58 33.5 96.5t87.5 54.5z" />
    <glyph glyph-name="omicron" unicode="&#x3bf;" horiz-adv-x="574" 
d="M32 242q0 107 70.5 180t184.5 73q115 0 185.5 -73t70.5 -180q0 -108 -70.5 -181t-185.5 -73t-185 73t-70 181zM411 242q0 60 -34 100t-90 40t-89.5 -39.5t-33.5 -100.5t33.5 -101t89.5 -40t90 40t34 101z" />
    <glyph glyph-name="pi" unicode="&#x3c0;" horiz-adv-x="631" 
d="M630 427q0 -22 -16 -38.5t-39 -16.5h-32v-315q0 -26 -19 -45t-45 -19t-45 19t-19 45v315h-199v-315q0 -26 -18.5 -45t-44.5 -19q-27 0 -46 19t-19 45v315h-31q-23 0 -39.5 16t-16.5 39t16.5 39.5t39.5 16.5h518q23 0 39 -16.5t16 -39.5z" />
    <glyph glyph-name="rho" unicode="&#x3c1;" horiz-adv-x="583" 
d="M190 62v-189q0 -26 -18.5 -45t-44.5 -19q-27 0 -45.5 19t-18.5 45v369q0 107 67 180t177 73t178 -73t68 -180q0 -117 -59.5 -185.5t-154.5 -68.5q-90 0 -149 74zM306 382q-53 0 -84.5 -39.5t-31.5 -100.5v-86q16 -23 47.5 -39t61.5 -16q55 0 88.5 39t33.5 102
q0 61 -31.5 100.5t-83.5 39.5z" />
    <glyph glyph-name="uni03C2" unicode="&#x3c2;" horiz-adv-x="492" 
d="M288 495q87 0 147 -45q25 -18 25 -47q0 -23 -17 -40t-40 -17q-19 0 -33 11q-31 25 -76 25q-58 0 -94.5 -38t-36.5 -100q0 -65 38.5 -98t106.5 -33q156 0 156 -105q0 -51 -36 -137q-18 -35 -55 -35q-25 0 -42.5 17t-17.5 42q0 8 5 23q17 40 17 60q0 22 -33 22
q-122 0 -196 64.5t-74 177.5q0 110 72.5 181.5t183.5 71.5z" />
    <glyph glyph-name="sigma" unicode="&#x3c3;" horiz-adv-x="574" 
d="M505 370h-41q68 -58 68 -155q0 -98 -65.5 -162.5t-179.5 -64.5q-115 0 -185 73t-70 181q0 104 71.5 172.5t190.5 68.5h211q23 0 40 -16.5t17 -39.5t-17 -40t-40 -17zM411 239q0 87 -70 131h-47q-59 0 -94.5 -37t-35.5 -91q0 -61 33.5 -101t89.5 -40t90 39.5t34 98.5z" />
    <glyph glyph-name="tau" unicode="&#x3c4;" horiz-adv-x="472" 
d="M403 372h-109v-218q0 -23 11.5 -37.5t30.5 -15.5l14 1q8 2 11 1q19 -1 32.5 -17t13.5 -38q0 -38 -38 -50q-27 -10 -65 -10q-67 0 -102 34t-35 98v252h-98q-23 0 -39.5 16.5t-16.5 38.5q0 23 16.5 39.5t39.5 16.5h334q23 0 39 -16.5t16 -39.5q0 -22 -16 -38.5t-39 -16.5z
" />
    <glyph glyph-name="upsilon" unicode="&#x3c5;" horiz-adv-x="577" 
d="M63 218v208q0 26 18.5 45t45.5 19q26 0 44.5 -19t18.5 -45v-206q0 -55 26 -87t73 -32q58 0 91 43t33 115q0 81 -30 143q-6 12 -6 25q0 27 19 45.5t45 18.5q40 0 58 -37q46 -85 46 -195q0 -119 -70 -195t-186 -76q-109 0 -167.5 61t-58.5 169z" />
    <glyph glyph-name="phi" unicode="&#x3c6;" horiz-adv-x="706" 
d="M416 -11l1 -116q0 -26 -19 -45t-45 -19t-45 19t-19 45v116q-121 5 -189 73t-68 188q0 138 122 216q13 10 31 10q25 0 42.5 -17t17.5 -42q0 -26 -22 -45q-59 -47 -59 -122q0 -71 34 -110t91 -39v298q0 38 28 65q29 28 67 26q139 -3 214.5 -69.5t75.5 -184.5
q0 -113 -68.5 -177.5t-189.5 -69.5zM542 236q0 65 -33.5 99.5t-91.5 34.5v-269q57 0 91 35t34 100z" />
    <glyph glyph-name="chi" unicode="&#x3c7;" horiz-adv-x="504" 
d="M492 -128q0 -25 -18.5 -44t-42.5 -19q-35 0 -55 30l-124 203l-125 -203q-18 -30 -54 -30q-24 0 -43 19t-19 44q0 16 10 32l158 253l-148 238q-10 14 -10 32q0 25 18.5 44t44.5 19q35 0 53 -29l115 -187l114 187q18 29 54 29q26 0 44.5 -19t18.5 -44q0 -15 -10 -32
l-148 -238l157 -253q10 -13 10 -32z" />
    <glyph glyph-name="psi" unicode="&#x3c8;" horiz-adv-x="739" 
d="M613 490q26 0 44.5 -19t18.5 -45v-186q0 -113 -57.5 -175t-185.5 -74v-118q0 -26 -18.5 -45t-44.5 -19q-27 0 -45.5 19t-18.5 45v118q-129 12 -186 73.5t-57 175.5v186q0 26 18.5 45t45.5 19q26 0 44.5 -19t18.5 -45v-186q0 -62 26 -93.5t90 -40.5v504q0 26 18.5 45
t45.5 19q26 0 44.5 -19t18.5 -45v-504q62 9 88.5 41t26.5 93v186q0 26 19 45t46 19z" />
    <glyph glyph-name="omega" unicode="&#x3c9;" horiz-adv-x="782" 
d="M391 125q-28 -70 -65 -103.5t-99 -33.5q-91 0 -143 70t-52 174q0 143 74 235q20 24 48 24q25 0 43 -18t18 -43q0 -17 -8 -31q-43 -69 -43 -167q0 -56 21 -93.5t59 -37.5q84 0 84 141v63q0 28 18.5 47t45.5 19t45 -19t18 -47v-63q0 -65 21 -103t62 -38q38 0 59.5 37
t21.5 94q0 99 -43 166q-9 16 -9 31q0 26 18.5 44t43.5 18q30 0 48 -24q74 -94 74 -235q0 -103 -52.5 -173.5t-142.5 -70.5q-63 0 -101 34t-64 103z" />
    <glyph glyph-name="iotadieresis" unicode="&#x3ca;" horiz-adv-x="267" 
d="M63 120v306q0 26 18.5 45t45.5 19q26 0 44.5 -19t18.5 -45v-281q0 -17 9 -29.5t22 -15.5l5 -1q36 -11 36 -53q0 -25 -15.5 -41t-40.5 -17h-11q-64 0 -98 34t-34 98zM-47 642q0 28 20 47.5t48 19.5t47.5 -19.5t19.5 -47.5q0 -29 -19.5 -48.5t-47.5 -19.5q-29 0 -48.5 19.5
t-19.5 48.5zM164 642q0 28 20 47.5t48 19.5t48 -19.5t20 -47.5q0 -29 -20 -48.5t-48 -19.5t-48 19.5t-20 48.5z" />
    <glyph glyph-name="upsilondieresis" unicode="&#x3cb;" horiz-adv-x="577" 
d="M63 218v208q0 26 18.5 45t45.5 19q26 0 44.5 -19t18.5 -45v-206q0 -55 26 -87t73 -32q58 0 91 43t33 115q0 81 -30 143q-6 12 -6 25q0 27 19 45.5t45 18.5q40 0 58 -37q46 -85 46 -195q0 -119 -70 -195t-186 -76q-109 0 -167.5 61t-58.5 169zM116 642q0 28 20 47.5
t48 19.5t47.5 -19.5t19.5 -47.5q0 -29 -19.5 -48.5t-47.5 -19.5q-29 0 -48.5 19.5t-19.5 48.5zM327 642q0 28 20 47.5t48 19.5t48 -19.5t20 -47.5q0 -29 -20 -48.5t-48 -19.5t-48 19.5t-20 48.5z" />
    <glyph glyph-name="omicrontonos" unicode="&#x3cc;" horiz-adv-x="574" 
d="M32 242q0 107 70.5 180t184.5 73q115 0 185.5 -73t70.5 -180q0 -108 -70.5 -181t-185.5 -73t-185 73t-70 181zM411 242q0 60 -34 100t-90 40t-89.5 -39.5t-33.5 -100.5t33.5 -101t89.5 -40t90 40t34 101zM260 607l15 149q2 18 15 30.5t31 12.5q19 0 33 -14t14 -33
q0 -7 -3 -14l-46 -143q-7 -21 -30 -21q-12 0 -21 10t-8 23z" />
    <glyph glyph-name="upsilontonos" unicode="&#x3cd;" horiz-adv-x="577" 
d="M63 218v208q0 26 18.5 45t45.5 19q26 0 44.5 -19t18.5 -45v-206q0 -55 26 -87t73 -32q58 0 91 43t33 115q0 81 -30 143q-6 12 -6 25q0 27 19 45.5t45 18.5q40 0 58 -37q46 -85 46 -195q0 -119 -70 -195t-186 -76q-109 0 -167.5 61t-58.5 169zM263 607l15 149
q2 18 15 30.5t31 12.5q19 0 33 -14t14 -33q0 -7 -3 -14l-46 -143q-8 -21 -30 -21q-12 0 -21 10t-8 23z" />
    <glyph glyph-name="omegatonos" unicode="&#x3ce;" horiz-adv-x="782" 
d="M391 125q-28 -70 -65 -103.5t-99 -33.5q-91 0 -143 70t-52 174q0 143 74 235q20 24 48 24q25 0 43 -18t18 -43q0 -17 -8 -31q-43 -69 -43 -167q0 -56 21 -93.5t59 -37.5q84 0 84 141v63q0 28 18.5 47t45.5 19t45 -19t18 -47v-63q0 -65 21 -103t62 -38q38 0 59.5 37
t21.5 94q0 99 -43 166q-9 16 -9 31q0 26 18.5 44t43.5 18q30 0 48 -24q74 -94 74 -235q0 -103 -52.5 -173.5t-142.5 -70.5q-63 0 -101 34t-64 103zM365 607l15 149q2 18 15 30.5t31 12.5q19 0 33 -14t14 -33q0 -7 -3 -14l-46 -143q-8 -21 -30 -21q-12 0 -21 10t-8 23z" />
    <glyph glyph-name="uni0401" unicode="&#x401;" horiz-adv-x="583" 
d="M66 76v516q0 36 19.5 55.5t55.5 19.5h342q26 0 44 -18t18 -44q0 -25 -18 -42.5t-44 -17.5h-275v-145h268q26 0 44 -18t18 -43t-18 -43t-44 -18h-268v-155h275q25 0 43.5 -18t18.5 -43t-18 -43.5t-44 -18.5h-342q-36 0 -55.5 19.5t-19.5 56.5zM135 789q0 28 20 47.5
t48 19.5t47.5 -19.5t19.5 -47.5q0 -29 -19.5 -48.5t-47.5 -19.5q-29 0 -48.5 19.5t-19.5 48.5zM346 789q0 28 20 47.5t48 19.5t48 -19.5t20 -47.5q0 -29 -20 -48.5t-48 -19.5t-48 19.5t-20 48.5z" />
    <glyph glyph-name="uni0402" unicode="&#x402;" horiz-adv-x="776" 
d="M546 115q66 13 66 82v24q0 89 -123 89q-70 0 -126 -25v-221q0 -29 -21 -50t-51 -21q-29 0 -50 21t-21 50v478h-139q-26 0 -44.5 18.5t-18.5 43.5q0 26 18.5 44.5t44.5 18.5h421q26 0 44.5 -18.5t18.5 -44.5q0 -25 -18.5 -43.5t-44.5 -18.5h-139v-145q84 38 175 38
q108 0 162.5 -54.5t54.5 -156.5v-24q0 -180 -186 -207q-28 -4 -50 14.5t-22 46.5q0 22 14 39t35 22z" />
    <glyph glyph-name="uni0403" unicode="&#x403;" horiz-adv-x="564" 
d="M66 64v528q0 36 19.5 55.5t55.5 19.5h341q26 0 44.5 -18.5t18.5 -44.5q0 -25 -18.5 -43.5t-44.5 -18.5h-274v-478q0 -29 -20.5 -50t-49.5 -21q-30 0 -51 21t-21 50zM331 715q-17 0 -29 12t-12 29q0 13 11 27l73 77q12 15 33 15q19 0 32.5 -13.5t13.5 -32.5q0 -22 -14 -34
l-80 -69q-11 -11 -28 -11z" />
    <glyph glyph-name="uni0404" unicode="&#x404;" horiz-adv-x="687" 
d="M522 177q19 22 50 22q28 0 47.5 -19.5t19.5 -47.5q0 -27 -17 -44q-91 -100 -233 -100q-149 -3 -253.5 96.5t-101.5 248.5q-3 148 101.5 247.5t253.5 97.5q145 0 233 -99q17 -17 17 -45t-19.5 -47.5t-47.5 -19.5q-30 0 -51 23q-56 62 -134 62q-74 0 -127 -41t-71 -111h262
q25 0 43 -18t18 -43t-18 -43t-43 -18h-264q14 -74 68.5 -119t131.5 -45q80 0 135 63z" />
    <glyph glyph-name="uni0405" unicode="&#x405;" horiz-adv-x="600" 
d="M38 110q0 28 19.5 47.5t46.5 19.5q22 0 38 -12q77 -53 168 -53q53 0 84.5 21.5t31.5 53.5t-31 50t-104 35q-77 18 -127 36q-54 20 -88 62t-34 106q0 87 71.5 144t191.5 57q113 0 207 -55q33 -18 33 -56q0 -27 -19.5 -46.5t-45.5 -19.5q-20 0 -34 10q-76 43 -151 43
q-53 0 -80.5 -18t-27.5 -50q0 -29 28 -43.5t105 -33.5q71 -15 126 -37q124 -46 124 -169q0 -98 -70 -156t-197 -58q-140 0 -235 67q-30 19 -30 55z" />
    <glyph glyph-name="uni0406" unicode="&#x406;" horiz-adv-x="274" 
d="M66 64v539q0 29 21 50t51 21q29 0 49.5 -21t20.5 -50v-539q0 -29 -20.5 -50t-49.5 -21q-30 0 -51 21t-21 50z" />
    <glyph glyph-name="uni0407" unicode="&#x407;" horiz-adv-x="274" 
d="M66 64v539q0 29 21 50t51 21q29 0 49.5 -21t20.5 -50v-539q0 -29 -20.5 -50t-49.5 -21q-30 0 -51 21t-21 50zM-35 789q0 28 20 47.5t48 19.5t47.5 -19.5t19.5 -47.5q0 -29 -19.5 -48.5t-47.5 -19.5q-29 0 -48.5 19.5t-19.5 48.5zM176 789q0 28 20 47.5t48 19.5t48 -19.5
t20 -47.5q0 -29 -20 -48.5t-48 -19.5t-48 19.5t-20 48.5z" />
    <glyph glyph-name="uni0408" unicode="&#x408;" horiz-adv-x="486" 
d="M19 76q0 26 18.5 44.5t44.5 18.5q15 0 27 -6q29 -19 65 -19q47 0 75.5 29t28.5 78v382q0 29 20.5 50t50.5 21t50.5 -21t20.5 -50v-384q0 -112 -63 -171.5t-172 -59.5q-73 0 -130 33q-36 19 -36 55z" />
    <glyph glyph-name="uni0409" unicode="&#x409;" horiz-adv-x="1081" 
d="M835 0h-236q-76 0 -76 76v466h-212l-7 -93q-13 -155 -40 -251.5t-64 -140.5t-91 -61q-12 -4 -25 -4q-27 0 -47 20.5t-20 50.5q0 22 12.5 40t32.5 26q92 34 114 333l10 130q6 75 77 75h327q37 0 56.5 -19.5t19.5 -55.5v-162h169q103 0 164 -61.5t61 -153.5t-61 -153.5
t-164 -61.5zM666 305v-180h150q43 0 70.5 24.5t27.5 65.5t-27.5 65.5t-70.5 24.5h-150z" />
    <glyph glyph-name="uni040A" unicode="&#x40a;" horiz-adv-x="1081" 
d="M138 674q29 0 49.5 -21t20.5 -50v-198h315v198q0 29 21 50t51 21q29 0 50 -21t21 -50v-198h182q97 0 154.5 -57.5t57.5 -144.5t-57.5 -145t-154.5 -58h-249q-76 0 -76 76v204h-315v-216q0 -29 -20.5 -50t-50.5 -21q-29 0 -50 21t-21 50v539q0 29 21 50t51 21zM914 203
q0 35 -23.5 56t-60.5 21h-164v-155h164q37 0 60.5 21.5t23.5 56.5z" />
    <glyph glyph-name="uni040B" unicode="&#x40b;" horiz-adv-x="807" 
d="M489 310q-70 0 -126 -25v-221q0 -29 -21 -50t-51 -21q-29 0 -50 21t-21 50v478h-139q-26 0 -44.5 18.5t-18.5 43.5q0 26 18.5 44.5t44.5 18.5h421q26 0 44.5 -18.5t18.5 -44.5q0 -25 -18.5 -43.5t-44.5 -18.5h-139v-145q84 38 175 38q112 0 164.5 -59t52.5 -188v-124
q0 -29 -20.5 -50t-50.5 -21q-29 0 -50.5 21t-21.5 50v124q0 68 -28 95t-95 27z" />
    <glyph glyph-name="uni040C" unicode="&#x40c;" horiz-adv-x="636" 
d="M602 62q0 -28 -19 -48.5t-48 -20.5q-33 0 -51 22l-222 250l-54 -60v-141q0 -29 -20.5 -50t-50.5 -21q-29 0 -50 21t-21 50v539q0 29 21 50t50 21q30 0 50.5 -21t20.5 -50v-235l257 284q21 22 50 22q27 0 46.5 -19.5t19.5 -46.5t-17 -44l-202 -214l223 -244q17 -20 17 -44
zM349 715q-17 0 -29 12t-12 29q0 13 11 27l73 77q12 15 33 15q19 0 32.5 -13.5t13.5 -32.5q0 -22 -14 -34l-80 -69q-11 -11 -28 -11z" />
    <glyph glyph-name="uni040E" unicode="&#x40e;" horiz-adv-x="639" 
d="M613 603q0 -18 -6 -30l-206 -433q-37 -78 -89 -115t-134 -37l-23 1q-25 2 -42 19.5t-17 42.5q0 26 18 44.5t43 19.5l8 -1h5q33 1 54 15t40 47l-219 393q-9 15 -9 35q0 29 21 49.5t50 20.5q45 0 63 -38l169 -324l137 318q18 44 66 44q30 0 50.5 -21t20.5 -50zM170 775
q-15 14 -15 34q0 17 13 30t31 13q16 0 30 -11q40 -37 91 -37t91 37q14 11 29 11q18 0 31 -13t13 -31q0 -20 -15 -33q-64 -58 -149 -58t-150 58z" />
    <glyph glyph-name="uni040F" unicode="&#x40f;" horiz-adv-x="711" 
d="M646 603v-527q0 -76 -76 -76h-152v-71q0 -26 -18 -44.5t-44 -18.5t-44.5 18.5t-18.5 44.5v71h-152q-36 0 -55.5 19.5t-19.5 56.5v527q0 29 21 50t51 21q29 0 49.5 -21t20.5 -50v-478h295v478q0 29 21 50t50 21q30 0 51 -21t21 -50z" />
    <glyph glyph-name="uni0410" unicode="&#x410;" horiz-adv-x="678" 
d="M656 65q0 -30 -21.5 -51t-51.5 -21q-23 0 -41.5 13.5t-25.5 34.5l-27 78h-300l-27 -78q-7 -21 -26 -34.5t-42 -13.5q-30 0 -51 21t-21 51q0 7 5 25l195 504q14 36 46 58t71 22t71 -22t46 -58l194 -504q6 -14 6 -25zM233 242h212l-106 302z" />
    <glyph glyph-name="uni0411" unicode="&#x411;" horiz-adv-x="624" 
d="M560 605q0 -25 -18 -42.5t-44 -17.5h-290v-122h173q101 0 161 -60.5t60 -151.5t-60 -151t-161 -60h-240q-36 0 -55.5 19.5t-19.5 56.5v516q0 36 19.5 55.5t55.5 19.5h357q26 0 44 -18t18 -44zM208 300v-177h154q42 0 68.5 24.5t26.5 63.5q0 40 -26.5 64.5t-68.5 24.5
h-154z" />
    <glyph glyph-name="uni0412" unicode="&#x412;" horiz-adv-x="663" 
d="M66 76v516q0 36 19.5 55.5t55.5 19.5h276q89 0 140.5 -49t51.5 -121q0 -59 -32.5 -101t-82.5 -52q53 -7 91 -55q37 -46 37 -109q0 -80 -52 -130t-142 -50h-287q-36 0 -55.5 19.5t-19.5 56.5zM208 399h178q36 0 57 20.5t21 53.5q0 31 -21.5 52t-56.5 21h-178v-147z
M208 121h183q40 0 63 21.5t23 57.5q0 34 -23.5 56t-62.5 22h-183v-157z" />
    <glyph glyph-name="uni0413" unicode="&#x413;" horiz-adv-x="564" 
d="M66 64v528q0 36 19.5 55.5t55.5 19.5h341q26 0 44.5 -18.5t18.5 -44.5q0 -25 -18.5 -43.5t-44.5 -18.5h-274v-478q0 -29 -20.5 -50t-49.5 -21q-30 0 -51 21t-21 50z" />
    <glyph glyph-name="uni0414" unicode="&#x414;" horiz-adv-x="734" 
d="M717 56v-123q0 -26 -18 -44t-44 -18t-44.5 18t-18.5 44v67h-451v-67q0 -26 -18 -44t-44 -18t-44 18t-18 44v122q0 31 14 50t38 20q74 85 96 358l9 110q6 74 77 74h310q75 0 75 -75v-467h11q32 0 51 -18.5t19 -50.5zM494 125v417h-198l-6 -79q-18 -263 -78 -338h282z" />
    <glyph glyph-name="uni0415" unicode="&#x415;" horiz-adv-x="583" 
d="M66 76v516q0 36 19.5 55.5t55.5 19.5h342q26 0 44 -18t18 -44q0 -25 -18 -42.5t-44 -17.5h-275v-145h268q26 0 44 -18t18 -43t-18 -43t-44 -18h-268v-155h275q25 0 43.5 -18t18.5 -43t-18 -43.5t-44 -18.5h-342q-36 0 -55.5 19.5t-19.5 56.5z" />
    <glyph glyph-name="uni0416" unicode="&#x416;" horiz-adv-x="962" 
d="M928 61q0 -28 -20 -48t-48 -20q-34 0 -56 31l-211 263h-41v-223q0 -29 -20.5 -50t-49.5 -21q-30 0 -51 21t-21 50v223h-41l-210 -263q-24 -31 -57 -31q-28 0 -48 20t-20 48q0 25 14 41l209 245l-190 221q-14 17 -14 39q0 28 20 47.5t47 19.5q34 0 56 -30l192 -245h42v204
q0 29 21 50t51 21q29 0 49.5 -21t20.5 -50v-204h43l191 245q21 30 56 30q28 0 47.5 -19.5t19.5 -47.5q0 -26 -13 -39l-191 -221l210 -245q13 -16 13 -41z" />
    <glyph glyph-name="uni0417" unicode="&#x417;" horiz-adv-x="610" 
d="M37 107q0 25 18.5 43t43.5 18q19 0 32 -9q71 -47 158 -47q65 0 102 23.5t37 62.5q0 79 -147 79h-60q-28 0 -47 17.5t-19 44.5t19 43.5t47 16.5h60q64 0 100 19t36 55q0 38 -37.5 59t-98.5 21q-79 0 -146 -43q-13 -9 -31 -9q-24 0 -41.5 17t-17.5 41q0 30 25 48
q94 70 225 70q118 0 191 -49t73 -132q0 -61 -43 -101q-44 -41 -102 -51q60 -7 107.5 -50t47.5 -110q0 -85 -77.5 -140.5t-196.5 -55.5q-138 0 -231 68q-27 19 -27 51z" />
    <glyph glyph-name="uni0418" unicode="&#x418;" horiz-adv-x="729" 
d="M138 674q29 0 49.5 -21t20.5 -50v-392l286 422q28 41 77 41q38 0 65 -27t27 -65v-518q0 -29 -21 -50t-50 -21q-30 0 -50.5 21t-20.5 50v408l-297 -440q-26 -39 -72 -39q-35 0 -60.5 25.5t-25.5 60.5v524q0 29 21 50t51 21z" />
    <glyph glyph-name="uni0419" unicode="&#x419;" horiz-adv-x="729" 
d="M138 674q29 0 49.5 -21t20.5 -50v-392l286 422q28 41 77 41q38 0 65 -27t27 -65v-518q0 -29 -21 -50t-50 -21q-30 0 -50.5 21t-20.5 50v408l-297 -440q-26 -39 -72 -39q-35 0 -60.5 25.5t-25.5 60.5v524q0 29 21 50t51 21zM214 775q-15 14 -15 34q0 17 13 30t31 13
q16 0 30 -11q40 -37 91 -37t91 37q14 11 29 11q18 0 31 -13t13 -31q0 -20 -15 -33q-64 -58 -149 -58t-150 58z" />
    <glyph glyph-name="uni041A" unicode="&#x41a;" horiz-adv-x="636" 
d="M602 62q0 -28 -19 -48.5t-48 -20.5q-33 0 -51 22l-222 250l-54 -60v-141q0 -29 -20.5 -50t-50.5 -21q-29 0 -50 21t-21 50v539q0 29 21 50t50 21q30 0 50.5 -21t20.5 -50v-235l257 284q21 22 50 22q27 0 46.5 -19.5t19.5 -46.5t-17 -44l-202 -214l223 -244q17 -20 17 -44
z" />
    <glyph glyph-name="uni041B" unicode="&#x41b;" horiz-adv-x="731" 
d="M523 64v478h-212l-7 -93q-13 -155 -40 -251.5t-64 -140.5t-91 -61q-15 -4 -25 -4q-27 0 -47 20.5t-20 50.5q0 22 12.5 40t32.5 26q92 34 114 333l10 130q6 75 77 75h327q37 0 56.5 -19.5t19.5 -55.5v-528q0 -29 -21 -50t-51 -21q-29 0 -50 21t-21 50z" />
    <glyph glyph-name="uni041C" unicode="&#x41c;" horiz-adv-x="855" 
d="M646 64v416l-181 -461q-12 -26 -38 -26t-38 26l-181 461v-416q0 -29 -20.5 -50t-49.5 -21q-30 0 -51 21t-21 50v494q0 48 34 82t82 34q37 0 66.5 -20.5t42.5 -54.5l136 -348l137 348q12 33 42 54t66 21q49 0 83 -34t34 -82v-494q0 -29 -21 -50t-51 -21q-29 0 -50 21
t-21 50z" />
    <glyph glyph-name="uni041D" unicode="&#x41d;" horiz-adv-x="731" 
d="M523 64v216h-315v-216q0 -29 -20.5 -50t-49.5 -21q-30 0 -51 21t-21 50v539q0 29 21 50t50 21q30 0 50.5 -21t20.5 -50v-198h315v198q0 29 21 50t51 21q29 0 50 -21t21 -50v-539q0 -29 -21 -50t-51 -21q-29 0 -50 21t-21 50z" />
    <glyph glyph-name="uni041E" unicode="&#x41e;" horiz-adv-x="765" 
d="M382 678q149 2 250 -97.5t99 -247.5q2 -148 -99 -247.5t-250 -97.5q-148 -2 -249 98t-99 247q-2 147 99 247t249 98zM382 552q-90 0 -146 -62t-56 -157t56 -157t146 -62t146.5 62t56.5 157t-56.5 157t-146.5 62z" />
    <glyph glyph-name="uni041F" unicode="&#x41f;" horiz-adv-x="731" 
d="M523 64v478h-315v-478q0 -29 -20.5 -50t-49.5 -21q-30 0 -51 21t-21 50v528q0 36 19.5 55.5t55.5 19.5h449q37 0 56.5 -19.5t19.5 -55.5v-528q0 -29 -21 -50t-51 -21q-29 0 -50 21t-21 50z" />
    <glyph glyph-name="uni0420" unicode="&#x420;" horiz-adv-x="624" 
d="M66 64v528q0 36 19.5 55.5t55.5 19.5h237q103 0 163.5 -61.5t60.5 -153.5q0 -91 -60.5 -152t-163.5 -61h-170v-175q0 -29 -20.5 -50t-49.5 -21q-30 0 -51 21t-21 50zM359 545h-151v-184h151q43 0 70.5 25.5t27.5 66.5t-28 66.5t-70 25.5z" />
    <glyph glyph-name="uni0421" unicode="&#x421;" horiz-adv-x="677" 
d="M34 333q-2 148 101 247.5t249 97.5q148 0 238 -99q17 -17 17 -45t-19.5 -47.5t-47.5 -19.5q-31 0 -51 23q-56 62 -137 62q-87 0 -145.5 -62.5t-58.5 -156.5t58.5 -156.5t145.5 -62.5q83 0 138 63q19 22 50 22q28 0 47.5 -19.5t19.5 -47.5q0 -27 -17 -44
q-91 -100 -238 -100q-146 -3 -249 97t-101 248z" />
    <glyph glyph-name="uni0422" unicode="&#x422;" horiz-adv-x="582" 
d="M220 64v478h-139q-26 0 -44.5 18.5t-18.5 43.5q0 26 18.5 44.5t44.5 18.5h421q26 0 44.5 -18.5t18.5 -44.5q0 -25 -18.5 -43.5t-44.5 -18.5h-139v-478q0 -29 -21 -50t-50 -21q-30 0 -51 21t-21 50z" />
    <glyph glyph-name="uni0423" unicode="&#x423;" horiz-adv-x="639" 
d="M613 603q0 -18 -6 -30l-206 -433q-37 -78 -89 -115t-134 -37l-23 1q-25 2 -42 19.5t-17 42.5q0 26 18 44.5t43 19.5l8 -1h5q33 1 54 15t40 47l-219 393q-9 15 -9 35q0 29 21 49.5t50 20.5q45 0 63 -38l169 -324l137 318q18 44 66 44q30 0 50.5 -21t20.5 -50z" />
    <glyph glyph-name="uni0424" unicode="&#x424;" horiz-adv-x="855" 
d="M498 66v-1q0 -32 -19.5 -52.5t-50.5 -20.5q-32 0 -52 20.5t-20 52.5v1q-153 13 -237.5 83t-84.5 184t84.5 183.5t237.5 83.5v2q0 32 20 52.5t52 20.5q31 0 50.5 -20.5t19.5 -52.5v-2q153 -13 237.5 -83t84.5 -184t-84.5 -184t-237.5 -83zM356 194v279q-86 -10 -131 -46.5
t-45 -93.5t45 -93t131 -46zM675 333q0 57 -45.5 93.5t-131.5 46.5v-279q86 10 131.5 46t45.5 93z" />
    <glyph glyph-name="uni0425" unicode="&#x425;" horiz-adv-x="668" 
d="M645 62q0 -28 -20 -48.5t-48 -20.5q-34 0 -53 22l-190 225l-190 -225q-19 -22 -53 -22q-28 0 -48 20.5t-20 48.5q0 26 17 45l205 235l-192 218q-16 20 -16 44q0 29 20 49.5t48 20.5q35 0 54 -25l175 -208l175 208q19 25 54 25q28 0 48 -20.5t20 -49.5q0 -22 -13 -41
l-195 -221l205 -235q17 -19 17 -45z" />
    <glyph glyph-name="uni0426" unicode="&#x426;" horiz-adv-x="743" 
d="M726 55v-119q0 -26 -18 -44.5t-44 -18.5t-44.5 18.5t-18.5 44.5v64h-460q-36 0 -55.5 19.5t-19.5 56.5v527q0 29 21 50t51 21q29 0 49.5 -21t20.5 -50v-478h295v478q0 29 21 50t50 21q30 0 51 -21t21 -50v-478h11q32 0 50.5 -19t18.5 -51z" />
    <glyph glyph-name="uni0427" unicode="&#x427;" horiz-adv-x="649" 
d="M314 350q70 0 127 25v228q0 29 20.5 50t50.5 21q29 0 50 -21t21 -50v-539q0 -29 -21 -50t-50 -21q-30 0 -50.5 21t-20.5 50v199q-85 -38 -176 -38q-112 0 -164 58.5t-52 187.5v132q0 29 21 50.5t51 21.5q29 0 49.5 -21.5t20.5 -50.5v-132q0 -66 28.5 -93.5t94.5 -27.5z
" />
    <glyph glyph-name="uni0428" unicode="&#x428;" horiz-adv-x="983" 
d="M917 603v-527q0 -76 -76 -76h-700q-36 0 -55.5 19.5t-19.5 56.5v527q0 29 21 50t51 21q29 0 49.5 -21t20.5 -50v-478h212v478q0 29 21 50t51 21q29 0 50 -21t21 -50v-478h211v478q0 29 21 50t50 21q30 0 51 -21t21 -50z" />
    <glyph glyph-name="uni0429" unicode="&#x429;" horiz-adv-x="1014" 
d="M998 55v-119q0 -26 -18 -44.5t-44 -18.5t-44.5 18.5t-18.5 44.5v64h-732q-36 0 -55.5 19.5t-19.5 56.5v527q0 29 21 50t51 21q29 0 49.5 -21t20.5 -50v-478h212v478q0 29 21 50t51 21q29 0 50 -21t21 -50v-478h211v478q0 29 21 50t50 21q30 0 51 -21t21 -50v-478h11
q32 0 51 -19t19 -51z" />
    <glyph glyph-name="uni042A" unicode="&#x42a;" horiz-adv-x="778" 
d="M220 76v466h-139q-26 0 -44.5 18.5t-18.5 43.5q0 26 18.5 44.5t44.5 18.5h206q37 0 56.5 -19.5t19.5 -55.5v-162h169q103 0 164 -61.5t61 -153.5t-61 -153.5t-164 -61.5h-236q-76 0 -76 76zM363 305v-180h150q43 0 70.5 24.5t27.5 65.5t-27.5 65.5t-70.5 24.5h-150z" />
    <glyph glyph-name="uni042B" unicode="&#x42b;" horiz-adv-x="867" 
d="M208 603v-173h170q103 0 163.5 -61.5t60.5 -153.5t-60.5 -153.5t-163.5 -61.5h-237q-36 0 -55.5 19.5t-19.5 56.5v527q0 29 21 50t51 21q29 0 49.5 -21t20.5 -50zM658 64v539q0 29 21 50t51 21q29 0 50 -21t21 -50v-539q0 -29 -21 -50t-50 -21q-30 0 -51 21t-21 50z
M208 305v-180h151q43 0 70.5 24.5t27.5 65.5t-27.5 65.5t-70.5 24.5h-151z" />
    <glyph glyph-name="uni042C" unicode="&#x42c;" horiz-adv-x="624" 
d="M208 603v-173h170q103 0 163.5 -61.5t60.5 -153.5t-60.5 -153.5t-163.5 -61.5h-237q-36 0 -55.5 19.5t-19.5 56.5v527q0 29 21 50t51 21q29 0 49.5 -21t20.5 -50zM208 305v-180h151q43 0 70.5 24.5t27.5 65.5t-27.5 65.5t-70.5 24.5h-151z" />
    <glyph glyph-name="uni042D" unicode="&#x42d;" horiz-adv-x="687" 
d="M652 333q2 -149 -101 -248t-254 -97q-142 0 -232 100q-18 18 -18 44q0 28 20 47.5t47 19.5q31 0 50 -22q55 -63 136 -63q76 0 130.5 45t69.5 119h-264q-26 0 -44 18t-18 43t18 43t44 18h261q-17 68 -71 110q-52 42 -126 42q-79 0 -135 -62q-18 -23 -51 -23
q-27 0 -47 19.5t-20 47.5q0 27 18 45q89 99 232 99q151 2 254 -97t101 -248z" />
    <glyph glyph-name="uni042E" unicode="&#x42e;" horiz-adv-x="1043" 
d="M1008 333q2 -148 -99 -247.5t-249 -97.5q-136 0 -231.5 81.5t-112.5 210.5h-108v-216q0 -29 -20.5 -50t-49.5 -21q-30 0 -51 21t-21 50v539q0 29 21 50t50 21q30 0 50.5 -21t20.5 -50v-198h111q23 122 116.5 197.5t224.5 75.5q148 2 249 -97.5t99 -247.5zM863 333
q0 95 -56.5 157t-146.5 62q-91 0 -147 -62t-56 -157t56 -157t147 -62q90 0 146.5 62t56.5 157z" />
    <glyph glyph-name="uni042F" unicode="&#x42f;" horiz-adv-x="643" 
d="M577 592v-528q0 -29 -21 -50t-50 -21q-30 0 -50.5 21t-20.5 50v175h-117l-150 -216q-21 -30 -59 -30q-27 0 -47.5 20.5t-20.5 46.5q0 25 14 45l113 154q-57 21 -92 71t-35 122q0 95 61 155t163 60h237q36 0 55.5 -19.5t19.5 -55.5zM435 361v184h-149q-43 0 -71.5 -25.5
t-28.5 -66.5t28.5 -66.5t71.5 -25.5h149z" />
    <glyph glyph-name="uni0430" unicode="&#x430;" horiz-adv-x="543" 
d="M480 312v-253q0 -27 -18.5 -46.5t-45.5 -19.5q-24 0 -42.5 16t-21.5 41q-51 -62 -152 -62q-66 0 -117 43t-51 117q0 75 50 114.5t118 39.5q105 0 153 -59v67q0 37 -29 59t-77 22q-55 0 -107 -32q-11 -7 -25 -7q-20 0 -34 14.5t-14 34.5q0 28 23 42q79 52 179 52
q94 0 152 -43q59 -44 59 -140zM353 116v60q-31 42 -102 42q-40 0 -65.5 -20t-25.5 -53q0 -32 25.5 -51.5t65.5 -19.5q71 0 102 42z" />
    <glyph glyph-name="uni0431" unicode="&#x431;" horiz-adv-x="574" 
d="M348 663l68 10q16 2 17 2q27 0 41.5 -15t14.5 -42q0 -47 -61 -59l-79 -12q-103 -17 -157 -58.5t-67 -111.5q30 44 80.5 68t108.5 24q99 0 163.5 -66.5t64.5 -162.5q0 -107 -70 -179.5t-185 -72.5q-119 0 -187 82t-68 222q0 165 72 255t244 116zM287 382
q-56 0 -89.5 -39.5t-33.5 -98.5q0 -62 33.5 -102.5t89.5 -40.5t90 40.5t34 102.5q0 59 -34 98.5t-90 39.5z" />
    <glyph glyph-name="uni0432" unicode="&#x432;" horiz-adv-x="559" 
d="M63 76v332q0 75 75 75h219q76 0 118 -34.5t42 -89.5q0 -41 -22.5 -70.5t-59.5 -39.5q40 -9 66 -42t26 -76q0 -59 -43 -95t-122 -36h-224q-75 0 -75 76zM341 382h-151v-85h151q21 0 34 12t13 30q0 19 -13 31t-34 12zM346 196h-156v-95h156q24 0 37.5 13t13.5 34t-14 34.5
t-37 13.5z" />
    <glyph glyph-name="uni0433" unicode="&#x433;" horiz-adv-x="454" 
d="M63 57v351q0 75 75 75h250q23 0 39.5 -16.5t16.5 -39.5q0 -22 -16.5 -38.5t-39.5 -16.5h-198v-315q0 -26 -18.5 -45t-44.5 -19q-27 0 -45.5 19t-18.5 45z" />
    </font>
</defs>
</svg>
