<?xml version="1.0" standalone="no"?>
<!DOCTYPE svg PUBLIC "-//W3C//DTD SVG 1.1//EN" "http://www.w3.org/Graphics/SVG/1.1/DTD/svg11.dtd" >
<svg xmlns="http://www.w3.org/2000/svg" xmlns:xlink="http://www.w3.org/1999/xlink" version="1.1">
<metadata>
Created by FontForge 20170731 at Tue Dec 25 03:00:00 2018
 By Aleksey,,,
Copyright (c) 2018 by Mark Simonson. All rights reserved.
</metadata>
<defs>
<font id="ProximaSoft-ExtraBold" horiz-adv-x="576" >
  <font-face 
    font-family="Proxima Soft ExtraBold"
    font-weight="800"
    font-stretch="normal"
    units-per-em="1000"
    panose-1="2 0 5 6 3 0 0 2 0 4"
    ascent="790"
    descent="-210"
    x-height="483"
    cap-height="667"
    bbox="-400 -369 1226 1095"
    underline-thickness="104"
    underline-position="-444"
    unicode-range="U+000D-FB04"
  />
<missing-glyph horiz-adv-x="471" 
d="M60 -48v758q0 19 11.5 30.5t30.5 11.5h267q19 0 30.5 -11.5t11.5 -30.5v-758q0 -19 -11.5 -30.5t-30.5 -11.5h-267q-19 0 -30.5 11.5t-11.5 30.5zM379 722h-288v-782h288v782z" />
    <glyph glyph-name="f_f_j" unicode="ffj" horiz-adv-x="964" 
d="M743 634q0 37 25.5 62.5t62.5 25.5t62.5 -25.5t25.5 -62.5t-25.5 -63t-62.5 -26t-62.5 26t-25.5 63zM349 416q0 -27 -19.5 -47t-46.5 -20h-40v-281q0 -31 -22.5 -54t-54.5 -23t-54.5 22.5t-22.5 54.5v281h-22q-27 0 -47 20t-20 47q0 28 20 47.5t47 19.5h22v24
q0 75 48.5 122.5t124.5 47.5q30 0 55 -6q46 -12 46 -54q0 -24 -16.5 -41t-41.5 -16h-9q-24 0 -38.5 -15t-14.5 -42v-20h40q27 0 46.5 -19.5t19.5 -47.5zM632 349h-40v-281q0 -31 -22.5 -54t-54.5 -23t-54.5 22.5t-22.5 54.5v281h-22q-27 0 -47 20t-20 47q0 28 20 47.5
t47 19.5h22v24q0 75 48.5 122.5t124.5 47.5q30 0 55 -6q46 -12 46 -54q0 -24 -16.5 -41t-41.5 -16h-9q-24 0 -38.5 -15t-14.5 -42v-20h40q27 0 46.5 -19.5t19.5 -47.5q0 -27 -19.5 -47t-46.5 -20zM908 415v-411q0 -92 -46.5 -146t-129.5 -54h-7q-33 0 -53.5 18.5t-20.5 50.5
q0 22 13 38.5t32 18.5l6 1q52 5 52 73v411q0 32 23 54.5t54 22.5q32 0 54.5 -22.5t22.5 -54.5z" />
    <glyph glyph-name="f_j" unicode="fj" horiz-adv-x="615" 
d="M349 416q0 -27 -19.5 -47t-46.5 -20h-40v-281q0 -31 -22.5 -54t-54.5 -23t-54.5 22.5t-22.5 54.5v281h-22q-27 0 -47 20t-20 47q0 28 20 47.5t47 19.5h22v24q0 75 48.5 122.5t124.5 47.5q30 0 55 -6q46 -12 46 -54q0 -24 -16.5 -41t-41.5 -16h-9q-24 0 -38.5 -15
t-14.5 -42v-20h40q27 0 46.5 -19.5t19.5 -47.5zM394 634q0 37 25.5 62.5t62.5 25.5t62.5 -25.5t25.5 -62.5t-25.5 -63t-62.5 -26t-62.5 26t-25.5 63zM383 -196h-7q-33 0 -53.5 18.5t-20.5 50.5q0 22 13 38.5t32 18.5l6 1q52 5 52 73v411q0 32 23 54.5t54 22.5
q32 0 54.5 -22.5t22.5 -54.5v-411q0 -92 -46.5 -146t-129.5 -54z" />
    <glyph glyph-name="f_f" unicode="ff" horiz-adv-x="698" 
d="M349 416q0 -27 -19.5 -47t-46.5 -20h-40v-281q0 -31 -22.5 -54t-54.5 -23t-54.5 22.5t-22.5 54.5v281h-22q-27 0 -47 20t-20 47q0 28 20 47.5t47 19.5h22v24q0 75 48.5 122.5t124.5 47.5q30 0 55 -6q46 -12 46 -54q0 -24 -16.5 -41t-41.5 -16h-9q-24 0 -38.5 -15
t-14.5 -42v-20h40q27 0 46.5 -19.5t19.5 -47.5zM698 416q0 -27 -19.5 -47t-46.5 -20h-40v-281q0 -31 -22.5 -54t-54.5 -23t-54.5 22.5t-22.5 54.5v281h-22q-27 0 -47 20t-20 47q0 28 20 47.5t47 19.5h22v24q0 75 48.5 122.5t124.5 47.5q30 0 55 -6q46 -12 46 -54
q0 -24 -16.5 -41t-41.5 -16h-9q-24 0 -38.5 -15t-14.5 -42v-20h40q27 0 46.5 -19.5t19.5 -47.5z" />
    <glyph glyph-name="fi" unicode="fi" horiz-adv-x="615" 
d="M349 416q0 -27 -19.5 -47t-46.5 -20h-40v-281q0 -31 -22.5 -54t-54.5 -23t-54.5 22.5t-22.5 54.5v281h-22q-27 0 -47 20t-20 47q0 28 20 47.5t47 19.5h22v24q0 75 48.5 122.5t124.5 47.5q30 0 55 -6q46 -12 46 -54q0 -24 -16.5 -41t-41.5 -16h-9q-24 0 -38.5 -15
t-14.5 -42v-20h40q27 0 46.5 -19.5t19.5 -47.5zM394 634q0 37 25.5 62.5t62.5 25.5t62.5 -25.5t25.5 -62.5t-25.5 -63t-62.5 -26t-62.5 26t-25.5 63zM405 68v347q0 32 23 54.5t54 22.5q32 0 54.5 -22.5t22.5 -54.5v-347q0 -32 -22.5 -54.5t-54.5 -22.5q-31 0 -54 23t-23 54z
" />
    <glyph glyph-name="fl" unicode="fl" horiz-adv-x="615" 
d="M349 416q0 -27 -19.5 -47t-46.5 -20h-40v-281q0 -31 -22.5 -54t-54.5 -23t-54.5 22.5t-22.5 54.5v281h-22q-27 0 -47 20t-20 47q0 28 20 47.5t47 19.5h22v24q0 75 48.5 122.5t124.5 47.5q30 0 55 -6q46 -12 46 -54q0 -24 -16.5 -41t-41.5 -16h-9q-24 0 -38.5 -15
t-14.5 -42v-20h40q27 0 46.5 -19.5t19.5 -47.5zM405 68v531q0 32 23 54.5t54 22.5q32 0 54.5 -22.5t22.5 -54.5v-531q0 -32 -22.5 -54.5t-54.5 -22.5q-31 0 -54 23t-23 54z" />
    <glyph glyph-name="f_f_i" unicode="ffi" horiz-adv-x="964" 
d="M743 634q0 37 25.5 62.5t62.5 25.5t62.5 -25.5t25.5 -62.5t-25.5 -63t-62.5 -26t-62.5 26t-25.5 63zM349 416q0 -27 -19.5 -47t-46.5 -20h-40v-281q0 -31 -22.5 -54t-54.5 -23t-54.5 22.5t-22.5 54.5v281h-22q-27 0 -47 20t-20 47q0 28 20 47.5t47 19.5h22v24
q0 75 48.5 122.5t124.5 47.5q30 0 55 -6q46 -12 46 -54q0 -24 -16.5 -41t-41.5 -16h-9q-24 0 -38.5 -15t-14.5 -42v-20h40q27 0 46.5 -19.5t19.5 -47.5zM592 503v-20h40q27 0 46.5 -19.5t19.5 -47.5q0 -27 -19.5 -47t-46.5 -20h-40v-281q0 -31 -22.5 -54t-54.5 -23
t-54.5 22.5t-22.5 54.5v281h-22q-27 0 -47 20t-20 47q0 28 20 47.5t47 19.5h22v24q0 75 48.5 122.5t124.5 47.5q30 0 55 -6q46 -12 46 -54q0 -24 -16.5 -41t-41.5 -16h-9q-24 0 -38.5 -15t-14.5 -42zM908 415v-347q0 -32 -22.5 -54.5t-54.5 -22.5q-31 0 -54 23t-23 54v347
q0 32 23 54.5t54 22.5q32 0 54.5 -22.5t22.5 -54.5z" />
    <glyph glyph-name="f_f_l" unicode="ffl" horiz-adv-x="964" 
d="M349 416q0 -27 -19.5 -47t-46.5 -20h-40v-281q0 -31 -22.5 -54t-54.5 -23t-54.5 22.5t-22.5 54.5v281h-22q-27 0 -47 20t-20 47q0 28 20 47.5t47 19.5h22v24q0 75 48.5 122.5t124.5 47.5q30 0 55 -6q46 -12 46 -54q0 -24 -16.5 -41t-41.5 -16h-9q-24 0 -38.5 -15
t-14.5 -42v-20h40q27 0 46.5 -19.5t19.5 -47.5zM592 503v-20h40q27 0 46.5 -19.5t19.5 -47.5q0 -27 -19.5 -47t-46.5 -20h-40v-281q0 -31 -22.5 -54t-54.5 -23t-54.5 22.5t-22.5 54.5v281h-22q-27 0 -47 20t-20 47q0 28 20 47.5t47 19.5h22v24q0 75 48.5 122.5t124.5 47.5
q30 0 55 -6q46 -12 46 -54q0 -24 -16.5 -41t-41.5 -16h-9q-24 0 -38.5 -15t-14.5 -42zM908 599v-531q0 -32 -22.5 -54.5t-54.5 -22.5q-31 0 -54 23t-23 54v531q0 32 23 54.5t54 22.5q32 0 54.5 -22.5t22.5 -54.5z" />
    <glyph glyph-name="f_b" unicode="fb" horiz-adv-x="940" 
d="M349 416q0 -27 -19.5 -47t-46.5 -20h-40v-281q0 -31 -22.5 -54t-54.5 -23t-54.5 22.5t-22.5 54.5v281h-22q-27 0 -47 20t-20 47q0 28 20 47.5t47 19.5h22v24q0 75 48.5 122.5t124.5 47.5q30 0 55 -6q46 -12 46 -54q0 -24 -16.5 -41t-41.5 -16h-9q-24 0 -38.5 -15
t-14.5 -42v-20h40q27 0 46.5 -19.5t19.5 -47.5zM915 242q0 -117 -60 -185.5t-153 -68.5q-84 0 -141 66q-4 -27 -27 -45t-52 -18q-31 0 -54 23t-23 54v531q0 32 23 54.5t54 22.5q32 0 54.5 -22.5t22.5 -54.5v-173q53 69 143 69q92 0 152.5 -69t60.5 -184zM758 242
q0 53 -29.5 85t-77.5 32q-25 0 -51.5 -12.5t-40.5 -31.5v-148q14 -19 40.5 -31t51.5 -12q48 0 77.5 32t29.5 86z" />
    <glyph glyph-name="f_h" unicode="fh" horiz-adv-x="943" 
d="M349 416q0 -27 -19.5 -47t-46.5 -20h-40v-281q0 -31 -22.5 -54t-54.5 -23t-54.5 22.5t-22.5 54.5v281h-22q-27 0 -47 20t-20 47q0 28 20 47.5t47 19.5h22v24q0 75 48.5 122.5t124.5 47.5q30 0 55 -6q46 -12 46 -54q0 -24 -16.5 -41t-41.5 -16h-9q-24 0 -38.5 -15
t-14.5 -42v-20h40q27 0 46.5 -19.5t19.5 -47.5zM733 68v213q0 78 -80 78q-55 0 -93 -47v-244q0 -31 -22.5 -54t-54.5 -23t-54.5 22.5t-22.5 54.5v531q0 32 22.5 54.5t54.5 22.5t54.5 -22.5t22.5 -54.5v-175q59 71 167 71q79 0 119.5 -40t40.5 -111v-276q0 -31 -22.5 -54
t-54.5 -23t-54.5 22.5t-22.5 54.5z" />
    <glyph glyph-name="f_k" unicode="fk" horiz-adv-x="895" 
d="M349 416q0 -27 -19.5 -47t-46.5 -20h-40v-281q0 -31 -22.5 -54t-54.5 -23t-54.5 22.5t-22.5 54.5v281h-22q-27 0 -47 20t-20 47q0 28 20 47.5t47 19.5h22v24q0 75 48.5 122.5t124.5 47.5q30 0 55 -6q46 -12 46 -54q0 -24 -16.5 -41t-41.5 -16h-9q-24 0 -38.5 -15
t-14.5 -42v-20h40q27 0 46.5 -19.5t19.5 -47.5zM870 68q0 -33 -22.5 -55t-54.5 -22q-38 0 -60 28l-124 152l-50 -47v-56q0 -32 -22.5 -54.5t-54.5 -22.5q-31 0 -54 23t-23 54v531q0 32 23 54.5t54 22.5q32 0 54.5 -22.5t22.5 -54.5v-305l170 176q22 22 52 22q31 0 51.5 -21
t20.5 -51t-22 -52l-110 -107l135 -148q14 -16 14 -45z" />
    <glyph glyph-name=".notdef" horiz-adv-x="471" 
d="M60 -48v758q0 19 11.5 30.5t30.5 11.5h267q19 0 30.5 -11.5t11.5 -30.5v-758q0 -19 -11.5 -30.5t-30.5 -11.5h-267q-19 0 -30.5 11.5t-11.5 30.5zM379 722h-288v-782h288v782z" />
    <glyph glyph-name=".null" horiz-adv-x="0" 
 />
    <glyph glyph-name="nonmarkingreturn" horiz-adv-x="333" 
 />
    <glyph glyph-name="CR" unicode="&#xd;" horiz-adv-x="0" 
 />
    <glyph glyph-name="space" unicode=" " horiz-adv-x="256" 
 />
    <glyph glyph-name="exclam" unicode="!" horiz-adv-x="268" 
d="M62 292l-16 292q-1 37 24 64q25 28 64 28q37 0 63 -27t24 -65l-15 -292q-2 -29 -22.5 -48.5t-49.5 -19.5t-50 20t-22 48zM134 176q38 0 66 -28t28 -66t-28 -65.5t-66 -27.5t-65.5 27.5t-27.5 65.5t27.5 66t65.5 28z" />
    <glyph glyph-name="quotedbl" unicode="&#x22;" horiz-adv-x="438" 
d="M82 378l-31 144q-12 64 -12 75q0 33 23.5 56.5t56.5 23.5t57 -23.5t24 -56.5q0 -13 -13 -75q-12 -63 -30 -144q-7 -29 -38 -29q-14 0 -24.5 8.5t-12.5 20.5zM282 378q-43 197 -43 219q0 33 23 56.5t57 23.5q33 0 56.5 -23.5t23.5 -56.5q0 -22 -43 -219q-7 -29 -37 -29
q-15 0 -25 8.5t-12 20.5z" />
    <glyph glyph-name="numbersign" unicode="#" horiz-adv-x="632" 
d="M611 454q0 -19 -14 -33t-33 -14h-70l-50 -148h41q20 0 33.5 -13.5t13.5 -33.5q0 -21 -13.5 -34.5t-33.5 -13.5h-73l-45 -137q-5 -16 -19 -26t-31 -10q-22 0 -37 15.5t-15 37.5q0 2 2 16l35 104h-87l-45 -137q-12 -36 -50 -36q-21 0 -36.5 15.5t-15.5 37.5q0 8 3 16
l34 104h-35q-20 0 -33.5 13.5t-13.5 33.5t13.5 34t33.5 14h68l48 148h-37q-19 0 -33 14t-14 33q0 20 14 33.5t33 13.5h70l46 139q12 36 49 36q22 0 37.5 -15.5t15.5 -37.5q0 -9 -3 -16l-35 -106h86l46 139q5 16 19 26t31 10q22 0 37 -15.5t15 -37.5q0 -2 -2 -16l-36 -106h39
q19 0 33 -13.5t14 -33.5zM333 259l50 148h-86l-49 -148h85z" />
    <glyph glyph-name="dollar" unicode="$" horiz-adv-x="625" 
d="M375 -9v-44q0 -23 -16.5 -39.5t-38.5 -16.5q-23 0 -39.5 16.5t-16.5 39.5v44q-104 11 -179 58q-39 24 -39 67q0 32 23 55.5t55 23.5q24 0 42 -12q76 -48 163 -48q42 0 68.5 16t26.5 41q0 26 -26 40.5t-89 27.5q-79 16 -132 33q-51 17 -92 60q-39 42 -39 115
q0 80 58 136.5t160 68.5v48q0 23 16.5 39.5t39.5 16.5q22 0 38.5 -16.5t16.5 -39.5v-47q83 -9 153 -45q19 -9 31 -28t12 -41q0 -32 -23 -55t-55 -23q-18 0 -36 9q-84 39 -147 39q-89 0 -89 -52q0 -23 25 -36t90 -25q83 -18 130 -35q53 -20 92 -60q40 -40 40 -111
q0 -91 -58 -149t-165 -71z" />
    <glyph glyph-name="percent" unicode="%" horiz-adv-x="771" 
d="M23 509q0 72 48.5 120t124.5 48q78 0 127 -48t49 -120q0 -71 -49 -118.5t-127 -47.5q-76 0 -124.5 47.5t-48.5 118.5zM155 28q0 10 6 19l390 612q13 17 31 17q15 0 25.5 -11t10.5 -26q0 -10 -5 -20l-391 -611q-12 -17 -31 -17q-15 0 -25.5 11t-10.5 26zM265 509
q0 40 -19 62.5t-50 22.5t-49.5 -22.5t-18.5 -62.5q0 -39 18.5 -61.5t49.5 -22.5t50 22.5t19 61.5zM400 154q0 72 48.5 120t124.5 48q77 0 126 -48t49 -120q0 -71 -49 -118.5t-126 -47.5q-76 0 -124.5 47.5t-48.5 118.5zM642 154q0 40 -19 62.5t-50 22.5t-49 -22.5t-18 -62.5
t18 -62t49 -22q32 0 50.5 22t18.5 62z" />
    <glyph glyph-name="ampersand" unicode="&#x26;" horiz-adv-x="649" 
d="M608 64q0 -30 -21.5 -51.5t-50.5 -21.5q-26 0 -43 13q-37 26 -60 47q-85 -63 -188 -63q-99 0 -163 51t-64 146q0 66 36 110.5t106 79.5q-41 77 -41 139q0 69 57.5 116t144.5 47q77 0 132 -40.5t55 -105.5q-2 -69 -40 -106.5t-120 -74.5l47 -61q17 -23 47 -54q19 31 35 64
q17 36 57 36q26 0 45 -18.5t19 -44.5q0 -14 -9 -31q-33 -58 -56 -88l42 -30q33 -20 33 -59zM295 434q82 38 82 88q0 21 -13.5 33.5t-34.5 12.5q-25 0 -41.5 -16t-16.5 -41q0 -33 24 -77zM344 131q-50 48 -68 71q-7 8 -59 78q-38 -33 -38 -80q0 -41 25.5 -67t62.5 -26t77 24z
" />
    <glyph glyph-name="quotesingle" unicode="'" horiz-adv-x="239" 
d="M82 378l-31 144q-12 64 -12 75q0 33 23.5 56.5t56.5 23.5t57 -23.5t24 -56.5q0 -13 -13 -75q-12 -63 -30 -144q-7 -29 -38 -29q-14 0 -24.5 8.5t-12.5 20.5z" />
    <glyph glyph-name="parenleft" unicode="(" horiz-adv-x="322" 
d="M166 -153q-59 80 -94 187q-33 106 -33 209q0 104 34 209q35 109 94 188q19 27 54 27q28 0 48 -19.5t20 -47.5q0 -17 -8 -31q-77 -150 -77 -326q0 -173 77 -324q8 -18 8 -32q0 -28 -20 -48t-48 -20q-35 0 -55 28z" />
    <glyph glyph-name="parenright" unicode=")" horiz-adv-x="322" 
d="M33 -113q0 19 7 32q77 144 77 324q0 179 -77 326q-7 13 -7 31q0 28 19.5 47.5t47.5 19.5q35 0 54 -27q59 -79 94 -188q35 -108 35 -209q0 -103 -34 -208.5t-94 -187.5q-20 -28 -55 -28q-28 0 -47.5 20t-19.5 48z" />
    <glyph glyph-name="asterisk" unicode="*" horiz-adv-x="357" 
d="M143 380l4 83l-68 -44q-12 -6 -19 -6q-13 0 -23 10t-10 24q0 23 16 32l75 37l-75 37q-16 9 -16 30q0 14 10 24.5t23 10.5q11 0 19 -5l68 -45l-4 83q-1 14 10 24.5t25 10.5q15 0 25.5 -10t9.5 -25l-4 -83l68 45q8 5 19 5q14 0 24 -10.5t10 -24.5q0 -22 -18 -30l-73 -37
l73 -37q18 -8 18 -32q0 -13 -10 -23.5t-24 -10.5q-12 0 -19 6l-68 44l4 -83q1 -13 -10 -23.5t-25 -10.5q-15 0 -25.5 10t-9.5 24z" />
    <glyph glyph-name="plus" unicode="+" horiz-adv-x="507" 
d="M304 291v-156q0 -20 -15 -35t-35 -15q-21 0 -36 15t-15 35v156h-137q-19 0 -32.5 14t-13.5 33t13.5 32t32.5 13h137v149q0 20 15 35t36 15q20 0 35 -15t15 -35v-149h137q19 0 32.5 -13t13.5 -32t-13.5 -33t-32.5 -14h-137z" />
    <glyph glyph-name="comma" unicode="," horiz-adv-x="268" 
d="M115 -137q-17 0 -28 11t-11 28q0 16 13 29q41 37 52 72q-9 -4 -23 -4q-33 0 -55.5 24.5t-22.5 60.5q0 38 27 65t65 27q43 0 72.5 -31.5t29.5 -83.5q0 -107 -93 -189q-9 -9 -26 -9z" />
    <glyph glyph-name="hyphen" unicode="-" horiz-adv-x="300" 
d="M20 242q0 27 19.5 46t45.5 19h130q26 0 45.5 -19t19.5 -46q0 -26 -19.5 -45t-45.5 -19h-130q-26 0 -45.5 19t-19.5 45z" />
    <glyph glyph-name="period" unicode="." horiz-adv-x="270" 
d="M134 176q38 0 66 -28t28 -66t-28 -66t-66 -28t-66 28t-28 66t28 66t66 28z" />
    <glyph glyph-name="slash" unicode="/" horiz-adv-x="346" 
d="M17 23q0 9 3 16l208 622q12 35 49 35q22 0 36.5 -15t14.5 -37q0 -2 -2 -16l-209 -622q-5 -15 -18.5 -25t-29.5 -10q-22 0 -37 15t-15 37z" />
    <glyph glyph-name="zero" unicode="0" horiz-adv-x="624" 
d="M312 677q135 0 210.5 -99.5t75.5 -244.5q1 -144 -75.5 -245.5t-210.5 -99.5q-134 -2 -210.5 99.5t-75.5 245.5q0 145 75.5 244.5t210.5 99.5zM312 525q-112 0 -112 -192q0 -193 112 -193t112 193q0 192 -112 192z" />
    <glyph glyph-name="one" unicode="1" horiz-adv-x="440" 
d="M208 78v369l-67 -68q-23 -20 -50 -20q-29 0 -49.5 20.5t-20.5 49.5t21 51l169 167q32 29 70 29q41 0 70.5 -29.5t29.5 -70.5v-498q0 -35 -25.5 -61t-60.5 -26q-36 0 -61.5 26t-25.5 61z" />
    <glyph glyph-name="two" unicode="2" horiz-adv-x="597" 
d="M26 88q0 48 38 73q115 81 202 148q63 50 87 81.5t24 64.5q0 32 -26.5 51t-68.5 19q-69 0 -130 -39q-16 -12 -40 -12q-32 0 -54 22.5t-22 54.5q0 42 36 64q91 62 210 62t194.5 -61.5t75.5 -160.5q0 -76 -59 -147q-60 -72 -193 -158h191q31 0 53 -22t22 -53t-22 -53
t-53 -22h-377q-36 0 -62 25.5t-26 62.5z" />
    <glyph glyph-name="three" unicode="3" horiz-adv-x="582" 
d="M52 47q-35 25 -35 63q0 31 21.5 52.5t52.5 21.5q23 0 36 -10q67 -40 139 -40q52 0 81.5 19t29.5 50q0 32 -27.5 46.5t-91.5 14.5h-25q-30 0 -51.5 21.5t-21.5 51.5q0 29 21.5 50.5t51.5 21.5h25q108 0 108 57q0 30 -30 47t-81 17q-63 0 -126 -36q-16 -10 -35 -10
q-29 0 -49.5 20.5t-20.5 49.5q0 37 30 58q92 65 219 65q125 0 195 -49t70 -134q0 -57 -43 -99q-42 -41 -103 -51q61 -7 108.5 -50t47.5 -108q0 -88 -76.5 -143t-199.5 -55q-128 0 -220 59z" />
    <glyph glyph-name="four" unicode="4" horiz-adv-x="616" 
d="M604 198q0 -32 -23 -54t-56 -22h-11v-44q0 -35 -25.5 -61t-60.5 -26q-36 0 -61.5 26t-25.5 61v44h-235q-38 0 -65.5 27.5t-27.5 66.5q0 25 14 48l210 340q21 33 55 52.5t72 19.5q62 0 106 -44.5t44 -105.5v-253h10q33 0 56.5 -21.5t23.5 -53.5zM189 273h152v244z" />
    <glyph glyph-name="five" unicode="5" horiz-adv-x="617" 
d="M65 105q0 31 22 52.5t52 21.5q19 0 36 -9q61 -36 132 -36q50 0 79.5 23.5t29.5 58.5q0 37 -27 59t-77 22q-61 0 -105 -32q-24 -18 -55 -18q-38 0 -64.5 27t-26.5 65v237q0 91 91 91h329q30 0 51.5 -21.5t21.5 -51.5q0 -29 -21.5 -50.5t-51.5 -21.5h-254v-137
q65 54 149 54q90 0 152.5 -60t62.5 -156q0 -108 -76.5 -171.5t-205.5 -63.5q-119 0 -206 51q-38 21 -38 66z" />
    <glyph glyph-name="six" unicode="6" horiz-adv-x="617" 
d="M356 677q74 0 137 -28q46 -18 46 -68q0 -30 -21 -51.5t-52 -21.5q-15 0 -27 6q-40 17 -83 17q-66 0 -111 -46t-45 -115v-8q25 34 69.5 55.5t94.5 21.5q96 0 163.5 -59t67.5 -158q0 -102 -75 -168t-191 -66q-149 0 -226 94.5t-77 249.5q0 159 89.5 252t240.5 93zM312 298
q-67 0 -112 -45q4 -51 35 -85t86 -34q44 0 72 24t28 57q0 40 -30.5 61.5t-78.5 21.5z" />
    <glyph glyph-name="seven" unicode="7" horiz-adv-x="566" 
d="M168 77q0 17 7 35l177 405h-258q-31 0 -53 22t-22 53t22 53t53 22h383q34 0 58 -24t24 -58q0 -19 -6 -32l-219 -509q-10 -24 -31.5 -38.5t-48.5 -14.5q-35 0 -60.5 25.5t-25.5 60.5z" />
    <glyph glyph-name="eight" unicode="8" horiz-adv-x="618" 
d="M161 344q-124 46 -124 155q0 87 79 132.5t193 45.5t193 -45.5t79 -132.5q0 -108 -125 -155q61 -24 98 -69t37 -99q0 -90 -81 -139t-201 -49t-201.5 48.5t-81.5 139.5q0 54 37 99t98 69zM309 534q-44 0 -70.5 -16.5t-26.5 -43.5q0 -25 28.5 -43t68.5 -25q40 7 68 25t28 43
q0 27 -26.5 43.5t-69.5 16.5zM309 270q-38 -6 -74 -26q-34 -19 -34 -49q0 -29 30 -46.5t78 -17.5t78 17.5t30 46.5t-35 49q-36 20 -73 26z" />
    <glyph glyph-name="nine" unicode="9" horiz-adv-x="617" 
d="M77 85q0 30 21.5 51.5t51.5 21.5q10 0 27 -6q40 -17 83 -17q67 0 111.5 46t44.5 115v8q-25 -34 -70 -55.5t-93 -21.5q-97 0 -164.5 59t-67.5 158q0 102 75 168t191 66q149 0 226 -94.5t77 -249.5q0 -158 -89.5 -251.5t-240.5 -93.5q-71 0 -137 29q-46 19 -46 67zM295 532
q-44 0 -71.5 -24t-27.5 -57q0 -40 30.5 -61.5t77.5 -21.5q67 0 112 45q-3 51 -34.5 85t-86.5 34z" />
    <glyph glyph-name="colon" unicode=":" horiz-adv-x="270" 
d="M134 490q38 0 66 -28t28 -66t-28 -66t-66 -28t-66 28t-28 66t28 66t66 28zM134 176q38 0 66 -28t28 -66t-28 -66t-66 -28t-66 28t-28 66t28 66t66 28z" />
    <glyph glyph-name="semicolon" unicode=";" horiz-adv-x="268" 
d="M40 397q0 38 28 65.5t66 27.5t66 -27.5t28 -65.5t-28 -66.5t-66 -28.5t-66 28.5t-28 66.5zM115 -137q-16 0 -27.5 11.5t-11.5 27.5q0 18 12 30q43 40 53 74q-9 -4 -23 -4q-33 0 -55.5 23.5t-22.5 59.5q0 38 27 65t65 27q44 0 73 -32t29 -84q0 -105 -93 -188
q-11 -10 -26 -10z" />
    <glyph glyph-name="less" unicode="&#x3c;" horiz-adv-x="507" 
d="M20 335q0 24 13.5 43.5t34.5 28.5l349 148q11 4 19 4q21 0 36 -15t15 -36q0 -34 -33 -47l-321 -127l322 -126q32 -12 32 -46q0 -21 -15 -36t-35 -15q-9 0 -20 4l-349 148q-21 9 -34.5 28.5t-13.5 43.5z" />
    <glyph glyph-name="equal" unicode="=" horiz-adv-x="507" 
d="M20 427q0 19 13.5 32.5t32.5 13.5h375q19 0 32.5 -14t13.5 -33q0 -18 -13.5 -31.5t-32.5 -13.5h-375q-19 0 -32.5 13.5t-13.5 32.5zM20 241q0 19 13.5 32.5t32.5 13.5h375q19 0 32.5 -13.5t13.5 -32.5t-13.5 -32.5t-32.5 -13.5h-375q-19 0 -32.5 13.5t-13.5 32.5z" />
    <glyph glyph-name="greater" unicode="&#x3e;" horiz-adv-x="507" 
d="M70 111q-20 0 -35 15t-15 36q0 34 32 46l322 126l-321 127q-33 13 -33 47q0 21 15 36t35 15q11 0 20 -4l349 -148q21 -9 34.5 -28.5t13.5 -43.5t-13.5 -43.5t-34.5 -28.5l-349 -148q-9 -4 -20 -4z" />
    <glyph glyph-name="question" unicode="?" horiz-adv-x="453" 
d="M220 434q25 17 35 28t10 24q0 39 -59 39q-35 0 -67 -22q-15 -9 -36 -9q-30 0 -51.5 21.5t-21.5 52.5q0 45 37 64q72 45 158 45q98 0 156 -44t58 -116q-1 -39 -15 -68t-29 -43.5t-51 -42.5q-33 -23 -46 -38t-14 -34l1 -8v-8q-5 -24 -26.5 -41.5t-48.5 -17.5
q-26 0 -46 17.5t-24 43.5q-5 17 -5 29q0 43 20.5 71t64.5 57zM227 176q38 0 66 -28t28 -66t-28 -66t-66 -28t-66 28t-28 66t28 66t66 28z" />
    <glyph glyph-name="at" unicode="@" horiz-adv-x="783" 
d="M618 415l-32 -154q-4 -15 -4 -33q0 -41 32 -41q34 0 60.5 40.5t26.5 109.5q0 117 -74.5 188t-198.5 71q-89 2 -171.5 -47.5t-132 -131.5t-47.5 -170q0 -118 80 -197t200 -79q90 0 167 46q6 3 11 3q19 0 19 -20q0 -12 -10 -16q-91 -54 -192 -54q-132 -2 -225.5 91
t-91.5 223q-3 100 54 193t150.5 148t192.5 53q139 0 227 -87t88 -214q2 -114 -65.5 -184t-144.5 -68q-82 0 -101 70l-1 7q-55 -77 -137 -77q-71 0 -113.5 47.5t-42.5 123.5q-2 93 68 168.5t154 72.5q85 0 122 -59q7 25 25.5 40t41.5 15q30 0 48.5 -17t18.5 -44q0 -1 -2 -17z
M447 245l22 106q-23 40 -70 40q-50 0 -83.5 -37t-33.5 -86q0 -35 19.5 -55.5t53.5 -20.5q51 0 92 53z" />
    <glyph glyph-name="A" unicode="A" horiz-adv-x="684" 
d="M667 78q0 -36 -25.5 -61.5t-61.5 -25.5q-28 0 -51 17.5t-31 43.5l-19 57h-274l-19 -57q-8 -27 -31 -44t-51 -17q-36 0 -61.5 25.5t-25.5 61.5q0 16 6 30l177 470q17 45 55.5 71.5t86.5 26.5q47 0 86 -27.5t55 -70.5l178 -470q6 -18 6 -30zM254 254h176l-88 263z" />
    <glyph glyph-name="B" unicode="B" horiz-adv-x="680" 
d="M60 91v485q0 91 91 91h287q91 0 143 -50t52 -120q0 -59 -32 -100t-82 -53q53 -7 90 -55q37 -46 37 -108q0 -78 -51.5 -129.5t-144.5 -51.5h-299q-91 0 -91 91zM232 409h167q26 0 42.5 16.5t16.5 41.5t-16.5 41t-42.5 16h-167v-115zM232 143h173q30 0 48 17t18 44t-18 45
t-48 18h-173v-124z" />
    <glyph glyph-name="C" unicode="C" horiz-adv-x="682" 
d="M26 333q-2 149 102 248t254 97q152 0 242 -99q22 -23 22 -55q0 -33 -24 -57t-58 -24q-37 0 -61 27q-46 56 -121 56q-77 0 -129 -56t-52 -137t52 -137t129 -56q72 0 122 56q24 27 60 27q33 0 57 -23.5t24 -57.5q0 -30 -21 -54q-93 -100 -242 -100q-149 -3 -254 97
t-102 248z" />
    <glyph glyph-name="D" unicode="D" horiz-adv-x="727" 
d="M60 91v485q0 91 91 91h189q160 0 260.5 -91t100.5 -242q0 -152 -100.5 -243t-259.5 -91h-190q-91 0 -91 91zM232 150h108q84 0 134.5 53t50.5 131q0 83 -49 133t-135 50h-109v-367z" />
    <glyph glyph-name="E" unicode="E" horiz-adv-x="589" 
d="M60 91v485q0 91 91 91h334q29 0 50.5 -21.5t21.5 -51.5q0 -29 -21.5 -50.5t-50.5 -21.5h-253v-111h246q29 0 50.5 -21.5t21.5 -51.5t-21.5 -51.5t-50.5 -21.5h-246v-120h253q29 0 50.5 -21t21.5 -51t-21.5 -51.5t-50.5 -21.5h-334q-91 0 -91 91z" />
    <glyph glyph-name="F" unicode="F" horiz-adv-x="582" 
d="M60 78v498q0 91 91 91h334q29 0 50.5 -21.5t21.5 -51.5q0 -29 -21.5 -50.5t-50.5 -21.5h-253v-111h246q29 0 50.5 -21.5t21.5 -51.5t-21.5 -51.5t-50.5 -21.5h-246v-187q0 -36 -25 -61.5t-61 -25.5t-61 25.5t-25 61.5z" />
    <glyph glyph-name="G" unicode="G" horiz-adv-x="723" 
d="M682 304v-120q0 -71 -48 -111q-103 -85 -247 -85q-152 -2 -257.5 95.5t-103.5 249.5q-2 152 103.5 249.5t257.5 95.5q131 0 217 -78q29 -23 29 -61q0 -34 -23.5 -57t-56.5 -23t-55 21q-49 46 -111 46q-80 0 -133 -55.5t-53 -137.5t53 -137.5t133 -55.5t123 40v52h-87
q-29 0 -50.5 22t-21.5 52t21.5 53.5t50.5 23.5h182q33 0 55 -23t22 -56z" />
    <glyph glyph-name="H" unicode="H" horiz-adv-x="741" 
d="M509 78v190h-277v-190q0 -36 -25 -61.5t-61 -25.5t-61 25.5t-25 61.5v511q0 36 25 61.5t61 25.5t61 -25.5t25 -61.5v-171h277v171q0 36 25 61.5t61 25.5t61 -25.5t25 -61.5v-511q0 -36 -25 -61.5t-61 -25.5t-61 25.5t-25 61.5z" />
    <glyph glyph-name="I" unicode="I" horiz-adv-x="292" 
d="M60 78v511q0 36 25 61.5t61 25.5t61 -25.5t25 -61.5v-511q0 -36 -25 -61.5t-61 -25.5t-61 25.5t-25 61.5z" />
    <glyph glyph-name="J" unicode="J" horiz-adv-x="492" 
d="M21 81q0 31 22 53.5t53 22.5q12 0 25 -5q25 -12 50 -12q41 0 65 24.5t24 66.5v358q0 36 25 61.5t61 25.5t61 -25.5t25 -61.5v-360q0 -118 -65 -179.5t-181 -61.5q-61 0 -115 23q-22 8 -36 27t-14 43z" />
    <glyph glyph-name="K" unicode="K" horiz-adv-x="654" 
d="M620 75q0 -34 -23.5 -59t-58.5 -25q-39 0 -63 28l-195 230l-48 -55v-116q0 -36 -25 -61.5t-61 -25.5t-61 25.5t-25 61.5v511q0 36 25 61.5t61 25.5t61 -25.5t25 -61.5v-196l228 256q24 27 60 27q33 0 56.5 -24.5t23.5 -56.5q0 -33 -19 -53l-178 -189l198 -224
q19 -22 19 -54z" />
    <glyph glyph-name="L" unicode="L" horiz-adv-x="529" 
d="M60 91v498q0 36 25 61.5t61 25.5t61 -25.5t25 -61.5v-439h201q31 0 53 -22t22 -53t-22 -53t-53 -22h-282q-91 0 -91 91z" />
    <glyph glyph-name="M" unicode="M" horiz-adv-x="877" 
d="M645 78v372l-160 -426q-12 -33 -47 -33q-34 0 -46 33l-160 426v-372q0 -36 -25 -61.5t-61 -25.5t-61 25.5t-25 61.5v459q0 57 41 98t98 41q44 0 80 -25.5t50 -66.5l109 -295l110 295q15 41 51 66.5t80 25.5q56 0 97 -41.5t41 -97.5v-459q0 -36 -25 -61.5t-61 -25.5
t-61 25.5t-25 61.5z" />
    <glyph glyph-name="N" unicode="N" horiz-adv-x="740" 
d="M488 36l-256 367v-325q0 -36 -25 -61.5t-61 -25.5t-61 25.5t-25 61.5v485q0 46 33 79q33 34 80 34q59 0 92 -49l242 -344v306q0 35 25.5 61t60.5 26q36 0 61.5 -26t25.5 -61v-493q0 -43 -31 -74t-75 -31q-54 0 -86 45z" />
    <glyph glyph-name="O" unicode="O" horiz-adv-x="766" 
d="M383 678q151 2 254.5 -97.5t101.5 -247.5q2 -148 -101.5 -247.5t-254.5 -97.5q-152 -2 -255.5 97.5t-101.5 247.5q-2 148 101.5 247.5t255.5 97.5zM383 526q-81 0 -131.5 -55.5t-50.5 -137.5t50.5 -137.5t131.5 -55.5q80 0 130.5 55.5t50.5 137.5t-50.5 137.5
t-130.5 55.5z" />
    <glyph glyph-name="P" unicode="P" horiz-adv-x="643" 
d="M60 78v498q0 91 91 91h243q107 0 169.5 -63t62.5 -159q0 -95 -62.5 -157t-169.5 -62h-162v-148q0 -36 -25 -61.5t-61 -25.5t-61 25.5t-25 61.5zM371 522h-139v-150h139q35 0 57.5 20.5t22.5 53.5q0 34 -22.5 55t-57.5 21z" />
    <glyph glyph-name="Q" unicode="Q" horiz-adv-x="766" 
d="M667 73q2 -16 2 -17q0 -27 -16 -47.5t-42 -26.5q-11 -3 -20 -3q-32 0 -57 28l-6 8q-66 -27 -145 -27q-152 -2 -255.5 97.5t-101.5 247.5q-2 148 101.5 247.5t255.5 97.5q151 2 254.5 -97.5t101.5 -247.5q0 -135 -84 -230q9 -13 12 -30zM421 144l-22 27q-11 14 -15 31
q-2 16 -2 17q0 33 22 55.5t55 22.5q37 0 58 -28l26 -31q21 42 21 95q0 82 -50.5 137.5t-130.5 55.5q-81 0 -131.5 -55.5t-50.5 -137.5t50.5 -137.5t131.5 -55.5q23 0 38 4z" />
    <glyph glyph-name="R" unicode="R" horiz-adv-x="661" 
d="M512 252l93 -122q18 -26 18 -54q0 -35 -25.5 -60t-59.5 -25q-44 0 -70 36l-139 199h-97v-148q0 -36 -25 -61.5t-61 -25.5t-61 25.5t-25 61.5v498q0 91 91 91h243q106 0 169 -62.5t63 -159.5q0 -69 -31.5 -118.5t-82.5 -74.5zM232 522v-150h136q36 0 59.5 21t23.5 54
t-23.5 54t-59.5 21h-136z" />
    <glyph glyph-name="S" unicode="S" horiz-adv-x="606" 
d="M34 116q0 32 23 55.5t55 23.5q24 0 42 -12q76 -48 162 -48q42 0 68.5 16t26.5 41q0 26 -25.5 40.5t-88.5 27.5q-82 17 -133 33q-51 17 -92 60q-39 42 -39 115q0 89 74 149t202 60q114 0 207 -48q19 -9 31 -28t12 -41q0 -32 -23 -55t-55 -23q-17 0 -37 9q-82 39 -146 39
q-89 0 -89 -52q0 -23 25 -36t90 -25q83 -18 130 -35q53 -20 92 -60q40 -40 40 -111q0 -103 -73.5 -163t-204.5 -60q-138 0 -236 61q-38 24 -38 67z" />
    <glyph glyph-name="T" unicode="T" horiz-adv-x="589" 
d="M209 78v439h-121q-31 0 -53 22t-22 53t22 53t53 22h412q31 0 53.5 -22t22.5 -53t-22.5 -53t-53.5 -22h-119v-439q0 -35 -25.5 -61t-60.5 -26q-36 0 -61 25.5t-25 61.5z" />
    <glyph glyph-name="U" unicode="U" horiz-adv-x="739" 
d="M60 270v319q0 36 26 61.5t62 25.5t61.5 -26t25.5 -61v-313q0 -63 34.5 -99.5t100.5 -36.5q65 0 99.5 36t34.5 100v313q0 35 25.5 61t61.5 26q37 0 62.5 -25.5t25.5 -61.5v-318q0 -133 -78.5 -208t-230.5 -75t-231 75t-79 207z" />
    <glyph glyph-name="V" unicode="V" horiz-adv-x="671" 
d="M194 89l-176 464q-6 23 -6 32q0 38 27 64.5t64 26.5q29 0 52.5 -17.5t33.5 -44.5l146 -428l147 428q9 27 33 44.5t53 17.5q38 0 64.5 -26.5t26.5 -64.5q0 -14 -7 -32l-175 -464q-16 -43 -55 -70.5t-87 -27.5q-47 0 -86 27.5t-55 70.5z" />
    <glyph glyph-name="W" unicode="W" horiz-adv-x="936" 
d="M551 80l-83 338l-83 -338q-8 -39 -39 -64t-72 -25q-39 0 -69.5 23.5t-40.5 59.5l-139 486q-3 12 -3 25q0 38 26.5 64.5t63.5 26.5q33 0 57.5 -20.5t31.5 -50.5l87 -383l101 392q7 27 29 44.5t50 17.5t50 -17.5t29 -44.5l101 -392l86 382q7 31 32 51.5t57 20.5
q38 0 64.5 -26.5t26.5 -64.5q0 -14 -3 -26l-139 -485q-10 -36 -40.5 -59.5t-69.5 -23.5q-40 0 -71.5 25.5t-39.5 63.5z" />
    <glyph glyph-name="X" unicode="X" horiz-adv-x="676" 
d="M654 76q0 -35 -24.5 -60t-59.5 -25q-38 0 -63 28l-169 201l-169 -201q-25 -28 -63 -28q-35 0 -59.5 25t-24.5 60q0 30 21 54l187 212l-174 194q-21 24 -21 56q0 35 25 59.5t59 24.5q41 0 65 -32l154 -186l154 186q24 32 65 32q35 0 59.5 -24.5t24.5 -59.5q0 -33 -15 -48
l-180 -202l187 -212q21 -24 21 -54z" />
    <glyph glyph-name="Y" unicode="Y" horiz-adv-x="653" 
d="M607 538l-194 -269v-191q0 -35 -25.5 -61t-60.5 -26q-36 0 -61 25.5t-25 61.5v191l-195 268q-21 25 -21 55q0 35 25 59.5t59 24.5q44 0 68 -35l150 -222l149 222q24 35 68 35q34 0 58.5 -24.5t24.5 -59.5q0 -28 -20 -54z" />
    <glyph glyph-name="Z" unicode="Z" horiz-adv-x="596" 
d="M30 95q0 31 19 56l274 366h-217q-31 0 -53.5 22t-22.5 53t22.5 53t53.5 22h359q38 0 66 -27.5t28 -66.5q0 -31 -19 -56l-275 -367h225q31 0 53.5 -22t22.5 -53t-22.5 -53t-53.5 -22h-366q-38 0 -66 28t-28 67z" />
    <glyph glyph-name="bracketleft" unicode="[" horiz-adv-x="298" 
d="M51 -129v746q0 25 17.5 43t42.5 18h129q21 0 35 -14.5t14 -35.5q0 -20 -14 -34.5t-35 -14.5h-81v-670h81q21 0 35 -14.5t14 -34.5q0 -21 -14 -35.5t-34 -14.5h-130q-25 0 -42.5 18t-17.5 43z" />
    <glyph glyph-name="backslash" unicode="\" horiz-adv-x="346" 
d="M228 6l-208 622q-3 8 -3 16q0 22 15 37t37 15q16 0 29.5 -10t18.5 -25l209 -622q2 -14 2 -16q0 -22 -14.5 -37t-36.5 -15q-37 0 -49 35z" />
    <glyph glyph-name="bracketright" unicode="]" horiz-adv-x="298" 
d="M9 -140q0 20 14.5 34.5t34.5 14.5h82v670h-82q-20 0 -34.5 14.5t-14.5 34.5q0 21 14.5 35.5t34.5 14.5h129q26 0 43.5 -17.5t17.5 -43.5v-746q0 -26 -17.5 -43.5t-43.5 -17.5h-129q-20 0 -34.5 14.5t-14.5 35.5z" />
    <glyph glyph-name="asciicircum" unicode="^" horiz-adv-x="445" 
d="M308 356l-85 208l-84 -208q-12 -32 -47 -32q-21 0 -35.5 15t-14.5 35q0 10 4 21l105 233q22 48 73 48q23 0 43 -13.5t29 -34.5l104 -233q4 -7 4 -21q0 -20 -14.5 -35t-35.5 -15q-34 0 -46 32z" />
    <glyph glyph-name="underscore" unicode="_" horiz-adv-x="564" 
d="M-12 -90q0 21 15 35.5t35 14.5h488q20 0 35 -14.5t15 -35.5q0 -20 -15 -34.5t-35 -14.5h-488q-20 0 -35 14.5t-15 34.5z" />
    <glyph glyph-name="grave" unicode="`" horiz-adv-x="263" 
d="M161 554l-91 82q-14 14 -14 33q0 20 13.5 33.5t31.5 13.5q22 0 35 -16l83 -94q9 -10 9 -24q0 -16 -12 -27.5t-27 -11.5q-17 0 -28 11z" />
    <glyph glyph-name="a" unicode="a" horiz-adv-x="551" 
d="M495 302v-230q0 -33 -22 -57t-55 -24q-27 0 -48.5 16t-29.5 41q-22 -27 -62.5 -43.5t-86.5 -16.5q-64 0 -115 43t-51 116q0 80 50 116t116 36q106 0 150 -56v61q0 32 -26 51t-72 19q-50 0 -99 -26q-13 -7 -26 -7q-23 0 -40 17t-17 40q0 34 30 50q83 47 179 47
q99 0 162 -45q63 -44 63 -148zM341 124v43q-26 34 -86 34q-34 0 -55.5 -15t-21.5 -41t21.5 -41t55.5 -15q62 0 86 35z" />
    <glyph glyph-name="b" unicode="b" horiz-adv-x="591" 
d="M566 242q0 -117 -60 -185.5t-153 -68.5q-84 0 -141 66q-4 -27 -27 -45t-52 -18q-31 0 -54 23t-23 54v531q0 32 23 54.5t54 22.5q32 0 54.5 -22.5t22.5 -54.5v-173q53 69 143 69q92 0 152.5 -69t60.5 -184zM409 242q0 53 -29.5 85t-77.5 32q-25 0 -51.5 -12.5t-40.5 -31.5
v-148q14 -19 40.5 -31t51.5 -12q48 0 77.5 32t29.5 86z" />
    <glyph glyph-name="c" unicode="c" horiz-adv-x="487" 
d="M288 495q83 0 139 -38q35 -20 35 -58q0 -28 -20 -48.5t-49 -20.5q-20 0 -36 10q-25 19 -62 19q-50 0 -81.5 -32t-31.5 -85t32 -85.5t81 -32.5q37 0 62 19q19 11 35 11q29 0 49 -20.5t20 -49.5q0 -39 -34 -58q-56 -38 -139 -38q-114 0 -189 71t-75 183q0 111 75.5 182
t188.5 71z" />
    <glyph glyph-name="d" unicode="d" horiz-adv-x="591" 
d="M534 599v-531q0 -33 -22 -56.5t-55 -23.5q-28 0 -50.5 19t-27.5 47q-57 -66 -141 -66q-93 0 -153.5 68.5t-60.5 185.5q0 115 60.5 184t153.5 69q88 0 143 -69v173q0 32 22.5 54.5t53.5 22.5q32 0 54.5 -22.5t22.5 -54.5zM381 168v148q-15 19 -41.5 31t-51.5 12
q-47 0 -76.5 -32t-29.5 -85t30 -85.5t76 -32.5q25 0 51.5 12.5t41.5 31.5z" />
    <glyph glyph-name="e" unicode="e" horiz-adv-x="548" 
d="M281 495q105 0 176 -67t71 -160q0 -75 -92 -75h-252q7 -37 40 -61.5t83 -24.5q41 0 84 20q11 6 25 6q24 0 41 -17t17 -42q0 -37 -35 -53q-67 -33 -151 -33q-114 0 -189 70t-75 184q0 106 73 179.5t184 73.5zM182 293h199q-4 35 -29.5 59t-70.5 24q-42 0 -67 -23.5
t-32 -59.5z" />
    <glyph glyph-name="f" unicode="f" horiz-adv-x="349" 
d="M349 416q0 -27 -19.5 -47t-46.5 -20h-40v-281q0 -31 -22.5 -54t-54.5 -23t-54.5 22.5t-22.5 54.5v281h-22q-27 0 -47 20t-20 47q0 28 20 47.5t47 19.5h22v24q0 75 48.5 122.5t124.5 47.5q30 0 55 -6q46 -12 46 -54q0 -24 -16.5 -41t-41.5 -16h-9q-24 0 -38.5 -15
t-14.5 -42v-20h40q27 0 46.5 -19.5t19.5 -47.5z" />
    <glyph glyph-name="g" unicode="g" horiz-adv-x="590" 
d="M533 415v-372q0 -134 -82 -186q-82 -53 -194 -53q-95 0 -166 40q-34 19 -34 55q0 26 19 45t45 19q16 0 29 -7q46 -26 107 -26q48 0 85 25q38 26 38 86v38q-59 -71 -143 -71q-94 0 -153.5 64t-59.5 180q0 114 59 178.5t154 64.5q86 0 141 -67q3 27 26.5 45.5t52.5 18.5
q31 0 53.5 -22.5t22.5 -54.5zM380 187v129q-14 19 -40.5 31t-51.5 12q-48 0 -77 -28.5t-29 -78.5q0 -51 29 -79.5t77 -28.5q25 0 51.5 12t40.5 31z" />
    <glyph glyph-name="h" unicode="h" horiz-adv-x="594" 
d="M384 68v213q0 78 -80 78q-55 0 -93 -47v-244q0 -31 -22.5 -54t-54.5 -23t-54.5 22.5t-22.5 54.5v531q0 32 22.5 54.5t54.5 22.5t54.5 -22.5t22.5 -54.5v-175q59 71 167 71q79 0 119.5 -40t40.5 -111v-276q0 -31 -22.5 -54t-54.5 -23t-54.5 22.5t-22.5 54.5z" />
    <glyph glyph-name="i" unicode="i" horiz-adv-x="266" 
d="M45 634q0 37 25.5 62.5t62.5 25.5t62.5 -25.5t25.5 -62.5t-25.5 -63t-62.5 -26t-62.5 26t-25.5 63zM56 68v347q0 32 23 54.5t54 22.5q32 0 54.5 -22.5t22.5 -54.5v-347q0 -32 -22.5 -54.5t-54.5 -22.5q-31 0 -54 23t-23 54z" />
    <glyph glyph-name="j" unicode="j" horiz-adv-x="266" 
d="M45 634q0 37 25.5 62.5t62.5 25.5t62.5 -25.5t25.5 -62.5t-25.5 -63t-62.5 -26t-62.5 26t-25.5 63zM34 -196h-7q-33 0 -53.5 18.5t-20.5 50.5q0 22 13 38.5t32 18.5l6 1q52 5 52 73v411q0 32 23 54.5t54 22.5q32 0 54.5 -22.5t22.5 -54.5v-411q0 -92 -46.5 -146
t-129.5 -54z" />
    <glyph glyph-name="k" unicode="k" horiz-adv-x="546" 
d="M521 68q0 -33 -22.5 -55t-54.5 -22q-38 0 -60 28l-124 152l-50 -47v-56q0 -32 -22.5 -54.5t-54.5 -22.5q-31 0 -54 23t-23 54v531q0 32 23 54.5t54 22.5q32 0 54.5 -22.5t22.5 -54.5v-305l170 176q22 22 52 22q31 0 51.5 -21t20.5 -51t-22 -52l-110 -107l135 -148
q14 -16 14 -45z" />
    <glyph glyph-name="l" unicode="l" horiz-adv-x="266" 
d="M56 68v531q0 32 23 54.5t54 22.5q32 0 54.5 -22.5t22.5 -54.5v-531q0 -32 -22.5 -54.5t-54.5 -22.5q-31 0 -54 23t-23 54z" />
    <glyph glyph-name="m" unicode="m" horiz-adv-x="875" 
d="M818 350v-282q0 -32 -22.5 -54.5t-54.5 -22.5q-31 0 -53.5 22.5t-22.5 54.5v226q0 65 -64 65q-51 0 -87 -47v-244q0 -31 -22.5 -54t-54.5 -23q-31 0 -54 23t-23 54v226q0 65 -64 65q-48 0 -86 -47v-244q0 -32 -22.5 -54.5t-54.5 -22.5q-31 0 -54 23t-23 54v347
q0 33 22 56t55 23q31 0 53 -20t25 -49q18 24 63 47q44 23 95 23q106 0 137 -86q24 37 70 61.5t97 24.5q70 0 107.5 -37t37.5 -108z" />
    <glyph glyph-name="n" unicode="n" horiz-adv-x="593" 
d="M537 342v-274q0 -31 -22.5 -54t-54.5 -23t-54.5 22.5t-22.5 54.5v211q0 80 -79 80q-56 0 -94 -47v-244q0 -32 -22.5 -54.5t-54.5 -22.5q-31 0 -54 23t-23 54v347q0 33 22 56t55 23q30 0 52 -19.5t26 -49.5q61 70 166 70q79 0 119.5 -40.5t40.5 -112.5z" />
    <glyph glyph-name="o" unicode="o" 
d="M24 242q0 106 73 179.5t190 73.5q118 0 191 -73t73 -180t-73 -180.5t-191 -73.5q-117 0 -190 74t-73 180zM393 242q0 51 -29 84t-77 33t-76 -33t-28 -84q0 -52 28 -85t76 -33t77 33t29 85z" />
    <glyph glyph-name="p" unicode="p" horiz-adv-x="590" 
d="M565 242q0 -119 -59 -186.5t-153 -67.5q-86 0 -143 68v-172q0 -32 -22.5 -54.5t-54.5 -22.5q-31 0 -54 22.5t-23 54.5v531q0 33 22 56.5t55 23.5q28 0 51 -19t28 -47q56 66 141 66q94 0 153 -68t59 -185zM408 242q0 53 -30 85t-76 32q-25 0 -51.5 -12.5t-40.5 -31.5v-147
q14 -19 40.5 -31.5t51.5 -12.5q46 0 76 32.5t30 85.5z" />
    <glyph glyph-name="q" unicode="q" horiz-adv-x="590" 
d="M533 415v-531q0 -32 -22.5 -54.5t-54.5 -22.5q-31 0 -53.5 22.5t-22.5 54.5v172q-57 -68 -143 -68q-95 0 -154 67.5t-59 186.5q0 118 59 185.5t154 67.5q87 0 142 -66q3 27 26 45t51 18q32 0 54.5 -22.5t22.5 -54.5zM380 168v147q-14 19 -40.5 31.5t-51.5 12.5
q-46 0 -76 -32t-30 -85t30 -85.5t76 -32.5q24 0 51 12.5t41 31.5z" />
    <glyph glyph-name="r" unicode="r" horiz-adv-x="375" 
d="M373 426q0 -32 -17.5 -52.5t-49.5 -24.5q-73 -9 -96 -43v-238q0 -32 -22.5 -54.5t-54.5 -22.5q-31 0 -54 23t-23 54v344q0 33 22 56.5t55 23.5q31 0 53 -19t25 -49q31 45 62 60q19 9 35 9q29 0 47 -19.5t18 -47.5z" />
    <glyph glyph-name="s" unicode="s" horiz-adv-x="484" 
d="M29 86q0 26 18 44t44 18q15 0 28 -7q73 -37 130 -37q65 0 65 36q0 17 -19.5 26t-63.5 16q-64 11 -100 22q-98 33 -98 132q0 68 56 113.5t151 45.5q83 0 157 -38q32 -15 32 -51q0 -24 -17 -41t-40 -17q-14 0 -27 7q-51 27 -104 27q-28 0 -44.5 -9t-16.5 -24t17 -23.5
t60 -15.5q61 -11 101 -24q103 -32 103 -138q0 -71 -59.5 -115.5t-160.5 -44.5q-98 0 -178 43q-34 19 -34 55z" />
    <glyph glyph-name="t" unicode="t" horiz-adv-x="360" 
d="M351 58q0 -23 -14 -40t-35 -22q-29 -8 -63 -8q-151 0 -151 142v219h-22q-28 0 -47.5 20t-19.5 47q0 28 19.5 47.5t47.5 19.5h22v64q0 32 22.5 54.5t54.5 22.5q31 0 53.5 -22.5t22.5 -54.5v-64h40q28 0 47.5 -19.5t19.5 -47.5q0 -27 -19.5 -47t-47.5 -20h-40v-176
q0 -21 11 -34.5t29 -14.5h15q24 -1 39.5 -20t15.5 -46z" />
    <glyph glyph-name="u" unicode="u" horiz-adv-x="592" 
d="M536 415v-347q0 -33 -22 -56t-55 -23q-30 0 -52 19t-26 48q-61 -68 -166 -68q-79 0 -119 40t-40 111v276q0 32 23 54.5t54 22.5q32 0 54.5 -22.5t22.5 -54.5v-213q0 -78 80 -78q54 0 92 47v244q0 32 23 54.5t54 22.5q32 0 54.5 -22.5t22.5 -54.5z" />
    <glyph glyph-name="v" unicode="v" horiz-adv-x="524" 
d="M506 416q0 -14 -7 -29l-130 -323q-13 -32 -42.5 -52.5t-64.5 -20.5q-36 0 -65 20t-42 53l-131 323q-6 18 -6 29q0 32 22 54t53 22q23 0 42.5 -13t27.5 -35l99 -268l98 268q8 22 27.5 35t42.5 13q33 0 54.5 -22t21.5 -54z" />
    <glyph glyph-name="w" unicode="w" horiz-adv-x="787" 
d="M463 68l-70 231l-70 -231q-10 -34 -38.5 -55.5t-64.5 -21.5t-64.5 22t-38.5 55l-98 327q-2 16 -2 22q0 31 22 53t53 22q26 0 46.5 -16t26.5 -41l65 -248l78 242q8 28 31.5 45.5t53.5 17.5t54 -17.5t32 -45.5l78 -242l65 248q6 24 26.5 40.5t46.5 16.5q31 0 53 -22.5
t22 -53.5q0 -12 -3 -21l-97 -327q-10 -34 -38.5 -55.5t-64.5 -21.5t-65 22t-39 55z" />
    <glyph glyph-name="x" unicode="x" horiz-adv-x="499" 
d="M477 62q0 -28 -21 -49.5t-50 -21.5q-36 0 -52 22l-105 133l-104 -132q-18 -23 -52 -23q-29 0 -49.5 21.5t-20.5 49.5q0 25 20 47l117 138l-110 127q-18 22 -18 47q0 29 21 50t51 21q33 0 51 -24l95 -116l94 116q20 24 52 24q29 0 50 -21.5t21 -49.5q0 -25 -18 -47
l-110 -126l117 -139q21 -21 21 -47z" />
    <glyph glyph-name="y" unicode="y" horiz-adv-x="517" 
d="M95 -61l7 1q54 5 63 27l11 26l-158 394q-7 15 -7 29q0 32 22 54t53 22q25 0 44 -12.5t26 -35.5l100 -276l98 276q7 22 26.5 35t43.5 13q32 0 54 -22t22 -54q0 -9 -7 -29l-183 -456q-52 -127 -187 -127h-12q-33 1 -54 21t-21 50q0 26 17 44t42 20z" />
    <glyph glyph-name="z" unicode="z" horiz-adv-x="483" 
d="M29 76q0 25 17 48l186 225h-136q-28 0 -47.5 20t-19.5 47q0 28 19.5 47.5t47.5 19.5h281q30 0 51 -21t21 -51q0 -27 -17 -47l-189 -231h143q28 0 47.5 -19t19.5 -47t-19.5 -47.5t-47.5 -19.5h-282q-31 0 -53 22.5t-22 53.5z" />
    <glyph glyph-name="braceleft" unicode="{" horiz-adv-x="302" 
d="M55 -19v156q0 46 -32 60q-31 13 -31 47t31 47q32 14 32 60v155q0 76 50 124t120 48h20q20 0 35 -14.5t15 -35.5q0 -20 -15 -34.5t-35 -14.5h-20q-27 0 -44.5 -20t-17.5 -53v-172q0 -71 -46 -90q46 -19 46 -90v-172q0 -32 17.5 -52.5t44.5 -20.5h20q20 0 35 -14.5
t15 -34.5q0 -21 -15 -35.5t-35 -14.5h-20q-70 0 -120 47.5t-50 123.5z" />
    <glyph glyph-name="bar" unicode="|" horiz-adv-x="219" 
d="M60 21v625q0 20 14.5 35t35.5 15q20 0 34.5 -15t14.5 -35v-625q0 -20 -14.5 -35t-34.5 -15q-21 0 -35.5 15t-14.5 35z" />
    <glyph glyph-name="braceright" unicode="}" horiz-adv-x="302" 
d="M77 -190h-20q-20 0 -35 14.5t-15 35.5q0 20 15 34.5t35 14.5h20q27 0 44.5 20.5t17.5 52.5v172q0 71 46 90q-46 19 -46 90v172q0 33 -17.5 53t-44.5 20h-20q-20 0 -35 14.5t-15 34.5q0 21 15 35.5t35 14.5h20q70 0 120 -48t50 -124v-155q0 -46 32 -60q31 -13 31 -47
t-31 -47q-32 -14 -32 -60v-156q0 -76 -50 -123.5t-120 -47.5z" />
    <glyph glyph-name="asciitilde" unicode="~" horiz-adv-x="514" 
d="M484 613q-12 -101 -46.5 -153.5t-102.5 -52.5q-54 2 -77 29t-40 84q-10 32 -18 44t-20 12q-35 0 -48 -127q-2 -20 -17 -33t-35 -13q-23 0 -38.5 18t-11.5 40q26 206 150 206q38 0 61 -17q22 -16 32.5 -35.5t24.5 -62.5q9 -31 16.5 -43t20.5 -12q36 0 49 127q2 20 16.5 33
t34.5 13q22 0 36.5 -17t12.5 -40z" />
    <glyph glyph-name="uni00A0" unicode="&#xa0;" horiz-adv-x="256" 
 />
    <glyph glyph-name="exclamdown" unicode="&#xa1;" horiz-adv-x="268" 
d="M226 401q0 -38 -27.5 -66t-65.5 -28t-65.5 28t-27.5 66t27.5 65.5t65.5 27.5t65.5 -27.5t27.5 -65.5zM133 259q29 0 50 -19.5t23 -48.5l15 -292q2 -37 -23.5 -64.5t-63.5 -27.5t-63.5 27.5t-23.5 64.5l14 292q2 29 23 48.5t49 19.5z" />
    <glyph glyph-name="cent" unicode="&#xa2;" horiz-adv-x="500" 
d="M461 84q0 -39 -34 -58q-36 -24 -83 -33v-47q0 -22 -16 -38.5t-38 -16.5q-23 0 -39 16.5t-16 38.5v46q-96 17 -153 83q-58 67 -58 167q0 98 58 165t153 84v28q0 22 16 38.5t39 16.5q22 0 38 -16.5t16 -38.5v-29q47 -9 83 -33q35 -20 35 -58q0 -28 -20 -48.5t-49 -20.5
q-20 0 -36 10q-25 19 -62 19q-50 0 -81.5 -32t-31.5 -85t32 -85.5t81 -32.5q37 0 62 19q19 11 35 11q29 0 49 -20.5t20 -49.5z" />
    <glyph glyph-name="sterling" unicode="&#xa3;" horiz-adv-x="565" 
d="M540 73q0 -26 -15 -45.5t-39 -26.5q-32 -13 -86 -13q-50 0 -114 25q-41 18 -68 18q-32 0 -67 -24q-19 -15 -41 -15q-25 0 -44 20t-19 48q0 35 27 54q69 52 69 104q0 25 -10 51h-70q-19 0 -33 14t-14 34t14 34t33 14h14q-34 58 -34 100q-3 92 77 152.5t175 59.5
q119 0 184 -52q31 -24 31 -61q0 -32 -22 -54t-53 -22t-53 22q-28 28 -65 28t-61 -21.5t-24 -54.5q0 -37 29 -87l6 -10h100q20 0 34 -14t14 -34q0 -19 -14 -33.5t-34 -14.5h-71v-7q0 -30 -17 -58.5t-43 -42.5q22 8 48 8q29 0 67 -15q31 -14 55 -14q20 0 37 5q10 3 22 3
q31 0 53 -22t22 -53z" />
    <glyph glyph-name="currency" unicode="&#xa4;" horiz-adv-x="635" 
d="M595 120q0 -26 -19 -44.5t-45 -18.5q-29 0 -45 19l-37 37q-59 -30 -131 -30t-131 30l-37 -37q-16 -19 -45 -19q-26 0 -44.5 18.5t-18.5 44.5q0 28 18 45l33 33q-38 59 -38 135q0 74 38 136l-33 33q-18 18 -18 45q0 26 18.5 44.5t44.5 18.5q27 0 45 -18l38 -38
q60 29 130 29t130 -29l38 38q18 18 45 18q26 0 45 -18.5t19 -44.5t-19 -45l-33 -33q38 -62 38 -136q0 -76 -38 -135l33 -33q19 -18 19 -45zM428 333q0 50 -30 81.5t-80 31.5t-80 -32t-30 -81q0 -50 30 -82t80 -32t80 32t30 82z" />
    <glyph glyph-name="yen" unicode="&#xa5;" horiz-adv-x="655" 
d="M629 592q0 -28 -20 -54l-128 -177h114q19 0 32.5 -13.5t13.5 -32.5t-13.5 -32.5t-32.5 -13.5h-181v-66h181q19 0 32.5 -14t13.5 -33q0 -18 -13.5 -31.5t-32.5 -13.5h-181v-33q0 -36 -25 -61.5t-61 -25.5t-61 25.5t-25 61.5v33h-181q-19 0 -32 13.5t-13 32.5t13 32.5
t32 13.5h181v66h-181q-19 0 -32 13.5t-13 32.5t13 32.5t32 13.5h113l-127 176q-20 26 -20 55q0 35 24.5 59.5t58.5 24.5q42 0 68 -35l150 -223l150 223q24 35 67 35q34 0 59 -24.5t25 -59.5z" />
    <glyph glyph-name="brokenbar" unicode="&#xa6;" horiz-adv-x="219" 
d="M60 412v234q0 20 14.5 35t35.5 15q20 0 34.5 -15t14.5 -35v-234q0 -20 -14.5 -35t-34.5 -15q-21 0 -35.5 15t-14.5 35zM60 21v234q0 20 14.5 35t35.5 15q20 0 34.5 -15t14.5 -35v-234q0 -20 -14.5 -35t-34.5 -15q-21 0 -35.5 15t-14.5 35z" />
    <glyph glyph-name="section" unicode="&#xa7;" horiz-adv-x="492" 
d="M461 80q0 -74 -62 -118q-61 -43 -158 -43q-100 0 -183 50q-28 18 -28 49q0 24 17 40.5t40 16.5q15 0 29 -9q68 -42 125 -42q73 0 73 42q0 21 -22 32.5t-75 21.5q-55 14 -93 27q-91 35 -91 130q0 42 26 74.5t63 48.5q-89 38 -89 128q0 63 58.5 106t147.5 43q94 0 162 -38
q28 -16 28 -47q0 -23 -15.5 -39t-38.5 -16q-15 0 -25 6q-50 28 -103 28q-67 0 -67 -40q0 -18 19.5 -26.5t71.5 -19.5q53 -10 96 -25q94 -31 94 -129q0 -40 -21 -74t-59 -54q80 -38 80 -123zM180 302q0 -26 20 -40t63 -24q47 19 47 62q0 46 -69 63q-61 -15 -61 -61z" />
    <glyph glyph-name="dieresis" unicode="&#xa8;" horiz-adv-x="428" 
d="M28 620q0 32 23 55t56 23t55.5 -23t22.5 -55q0 -33 -22.5 -56t-55.5 -23t-56 23t-23 56zM242 620q0 32 23 55t56 23q32 0 55.5 -23t23.5 -55q0 -33 -23.5 -56t-55.5 -23q-33 0 -56 23t-23 56z" />
    <glyph glyph-name="copyright" unicode="&#xa9;" horiz-adv-x="778" 
d="M389 679q139 2 243 -101.5t102 -243.5q2 -140 -102 -244t-243 -101q-139 -3 -243.5 101.5t-101.5 243.5q-3 139 101 243t244 102zM389 640q-123 2 -215.5 -90.5t-90.5 -215.5q-2 -123 90.5 -215.5t215.5 -90.5q123 -2 215.5 90.5t90.5 215.5q2 123 -90.5 215.5
t-215.5 90.5zM396 544q82 0 140 -58q5 -5 5 -14q0 -10 -7 -17t-17 -7t-17 7q-43 46 -104 46q-66 0 -112 -47t-46 -119q0 -71 46 -119.5t112 -48.5q61 0 104 46q8 8 17 8t17 -7t8 -16q0 -7 -5 -15q-56 -59 -141 -59q-86 0 -147 61t-61 150t61 149t147 60z" />
    <glyph glyph-name="ordfeminine" unicode="&#xaa;" horiz-adv-x="389" 
d="M343 516v-144q0 -24 -15.5 -41t-38.5 -17q-20 0 -35 12t-20 30q-36 -38 -99 -38q-45 0 -77.5 28t-32.5 75t32.5 74t77.5 27q70 0 99 -35v31q0 22 -16.5 35.5t-46.5 13.5q-32 0 -64 -20q-12 -5 -20 -5q-16 0 -27.5 11.5t-11.5 27.5q0 24 21 36q58 31 121 31
q153 0 153 -132zM234 409v25q-16 23 -53 23q-21 0 -34.5 -9.5t-13.5 -26.5t13.5 -26.5t34.5 -9.5q39 0 53 24z" />
    <glyph glyph-name="guillemotleft" unicode="&#xab;" horiz-adv-x="571" 
d="M182 72l-95 108q-27 30 -27 62t27 64l95 106q14 17 39 17q21 0 36 -15t15 -37q0 -20 -13 -34l-90 -100l91 -103q12 -13 12 -34t-14.5 -36t-36.5 -15t-39 17zM395 72l-95 108q-27 30 -27 62t27 64l95 106q15 17 39 17q21 0 36 -15t15 -37q0 -20 -13 -34l-90 -100l91 -103
q12 -13 12 -34t-15 -36t-36 -15q-22 0 -39 17z" />
    <glyph glyph-name="logicalnot" unicode="&#xac;" horiz-adv-x="521" 
d="M431 186q-19 0 -33 14t-14 33v148h-318q-18 0 -32 13.5t-14 32.5t14 32.5t32 13.5h328q40 0 62 -22t22 -62v-156q0 -19 -14 -33t-33 -14z" />
    <glyph glyph-name="uni00AD" unicode="&#xad;" horiz-adv-x="300" 
d="M20 242q0 27 19.5 46t45.5 19h130q26 0 45.5 -19t19.5 -46q0 -26 -19.5 -45t-45.5 -19h-130q-26 0 -45.5 19t-19.5 45z" />
    <glyph glyph-name="registered" unicode="&#xae;" horiz-adv-x="494" 
d="M247 677q88 0 150 -62t62 -150t-62 -150t-150 -62t-150 62t-62 150t62 150t150 62zM247 643q-74 0 -126.5 -52t-52.5 -126t52.5 -126.5t126.5 -52.5q73 0 125.5 52.5t52.5 126.5t-52 126t-126 52zM311 347l-60 92h-50v-82q0 -7 -5 -12t-12 -5q-8 0 -13.5 5t-5.5 12v209
q0 8 6 14t14 6h79q33 0 57 -21t24 -53q0 -28 -15.5 -46t-38.5 -25l50 -74q3 -5 3 -10q0 -7 -5 -12.5t-13 -5.5q-9 0 -15 8zM264 556h-63v-86h63q18 0 31 12t13 30t-13 31t-31 13z" />
    <glyph glyph-name="overscore" unicode="&#xaf;" horiz-adv-x="363" 
d="M1 599q0 17 12.5 29.5t29.5 12.5h278q17 0 29 -12.5t12 -29.5q0 -18 -12 -30.5t-29 -12.5h-278q-17 0 -29.5 12.5t-12.5 30.5z" />
    <glyph glyph-name="degree" unicode="&#xb0;" horiz-adv-x="321" 
d="M18 535q0 59 42 100.5t100 41.5t100 -41.5t42 -100.5t-42 -100.5t-100 -41.5t-100 41.5t-42 100.5zM99 535q0 -26 18 -44t43 -18q26 0 44.5 18.5t18.5 43.5q0 26 -18.5 44.5t-44.5 18.5q-25 0 -43 -18.5t-18 -44.5z" />
    <glyph glyph-name="plusminus" unicode="&#xb1;" horiz-adv-x="507" 
d="M304 327v-156q0 -21 -15 -36t-35 -15q-21 0 -36 15t-15 36v156h-137q-19 0 -32.5 13.5t-13.5 31.5q0 19 13.5 33t32.5 14h137v148q0 21 15 36t36 15q20 0 35 -15t15 -36v-148h137q19 0 32.5 -13.5t13.5 -32.5t-13.5 -32.5t-32.5 -13.5h-137zM20 46q0 19 13.5 32.5
t32.5 13.5h375q19 0 32.5 -14t13.5 -33q0 -18 -13.5 -31.5t-32.5 -13.5h-375q-19 0 -32.5 13.5t-13.5 32.5z" />
    <glyph glyph-name="uni00B2" unicode="&#xb2;" horiz-adv-x="375" 
d="M14 471q0 30 35 54q99 66 143 106q37 34 37 59q0 22 -15.5 34.5t-42.5 12.5q-43 0 -83 -28q-11 -8 -25 -8q-19 0 -33 14t-14 33q0 25 22 39q56 40 135 40q78 0 124 -34t46 -94q0 -43 -35.5 -85t-122.5 -103h120q21 0 34.5 -12.5t14.5 -31.5q0 -19 -14 -32.5t-35 -13.5
h-242q-21 0 -35 14.5t-14 35.5z" />
    <glyph glyph-name="uni00B3" unicode="&#xb3;" horiz-adv-x="380" 
d="M38 450q-22 14 -22 41q0 20 14 33.5t33 13.5q13 0 24 -7q43 -27 86 -27q30 0 47.5 10.5t17.5 26.5q0 22 -18.5 30t-62.5 8h-12q-17 0 -30 13t-13 31t13 30.5t30 12.5h11q40 0 57.5 8t17.5 28q0 35 -65 35q-43 0 -80 -24q-9 -6 -23 -6q-18 0 -30.5 12.5t-12.5 31.5
q0 22 19 36q58 40 139 40q79 0 122.5 -29.5t43.5 -80.5q0 -33 -25.5 -58.5t-63.5 -31.5q39 -3 67.5 -29.5t28.5 -64.5q0 -53 -47.5 -86t-125.5 -33t-140 36z" />
    <glyph glyph-name="acute" unicode="&#xb4;" horiz-adv-x="263" 
d="M74 543q-16 0 -27.5 11.5t-11.5 27.5q0 14 9 24l83 94q13 16 34 16q18 0 32 -13.5t14 -33.5q0 -19 -14 -33l-91 -82q-11 -11 -28 -11z" />
    <glyph glyph-name="uni00B5" unicode="&#xb5;" horiz-adv-x="606" 
d="M607 60q0 -33 -18.5 -52.5t-51.5 -19.5h-12q-105 0 -135 88q-42 -88 -126 -88q-36 0 -54 18v-122q0 -32 -22.5 -54.5t-54.5 -22.5q-31 0 -54 22.5t-23 54.5v531q0 32 23 54.5t54 22.5q32 0 54.5 -22.5t22.5 -54.5v-213q0 -78 80 -78q54 0 92 47v244q0 32 23 54.5t54 22.5
q32 0 54.5 -22.5t22.5 -54.5v-253q0 -28 31 -40l5 -2q35 -14 35 -60z" />
    <glyph glyph-name="paragraph" unicode="&#xb6;" horiz-adv-x="449" 
d="M344 -72v668h-74v-669q0 -14 -10.5 -24t-25.5 -10q-14 0 -24.5 10.5t-10.5 24.5v395q-71 0 -121.5 50.5t-50.5 121.5t50.5 121.5t121.5 50.5h125q91 0 91 -91v-648q0 -14 -10.5 -24.5t-25.5 -10.5t-25 10.5t-10 24.5z" />
    <glyph glyph-name="middot" unicode="&#xb7;" horiz-adv-x="270" 
d="M41 244q0 38 27.5 66t65.5 28t66 -28t28 -66t-28 -65.5t-66 -27.5t-65.5 27.5t-27.5 65.5z" />
    <glyph glyph-name="cedilla" unicode="&#xb8;" horiz-adv-x="229" 
d="M22 -179q-20 11 -20 30q0 13 9.5 23t22.5 10q8 0 15 -4q32 -17 61 -17q19 0 33 8t14 20q0 22 -25 22q-10 0 -20 -6q-12 -6 -20 -6q-14 0 -25 11.5t-11 27.5q0 3 2 11l23 60h71l-25 -60q16 10 34 10q28 0 48 -21t20 -51q0 -39 -32.5 -63t-82.5 -24q-51 0 -92 19z" />
    <glyph glyph-name="uni00B9" unicode="&#xb9;" horiz-adv-x="294" 
d="M133 470v206l-41 -41q-12 -14 -33 -14q-19 0 -33 13.5t-14 32.5q0 21 15 34l113 111q18 18 44 18t44.5 -19t18.5 -45v-296q0 -24 -16.5 -41t-40.5 -17q-23 0 -40 17.5t-17 40.5z" />
    <glyph glyph-name="ordmasculine" unicode="&#xba;" horiz-adv-x="405" 
d="M202 648q80 0 129 -48t49 -117t-49 -117t-129 -48q-79 0 -128 48t-49 117t49 117t128 48zM202 559q-30 0 -47 -20t-17 -56q0 -37 17 -57.5t47 -20.5q31 0 48.5 20.5t17.5 57.5q0 36 -17.5 56t-48.5 20z" />
    <glyph glyph-name="guillemotright" unicode="&#xbb;" horiz-adv-x="571" 
d="M86 106q0 20 13 34l91 103l-90 100q-13 14 -13 34q0 22 15 37t36 15q22 0 39 -17l94 -106q28 -31 28 -64q0 -31 -28 -62l-94 -108q-17 -17 -39 -17t-37 15t-15 36zM299 106q0 20 12 34l92 103l-91 100q-12 14 -12 34q0 22 15 37t35 15q23 0 40 -17l94 -106q28 -31 28 -64
q0 -31 -28 -62l-94 -108q-17 -17 -40 -17q-21 0 -36 15t-15 36z" />
    <glyph glyph-name="onequarter" unicode="&#xbc;" horiz-adv-x="814" 
d="M133 316v206l-41 -41q-12 -14 -33 -14q-19 0 -33 13.5t-14 32.5q0 21 15 34l113 111q18 18 44 18t44.5 -19t18.5 -45v-296q0 -24 -16.5 -41t-40.5 -17q-23 0 -40 17.5t-17 40.5zM192 -9q-15 0 -25.5 11t-10.5 26q0 7 5 20l390 611q12 17 32 17q15 0 25.5 -11t10.5 -26
q0 -10 -5 -20l-391 -611q-11 -17 -31 -17zM812 123q0 -19 -13.5 -32t-31.5 -13h-14v-30q0 -23 -16.5 -40t-39.5 -17q-24 0 -40.5 17t-16.5 40v30h-157q-20 0 -34 14.5t-14 34.5q0 13 6 25l129 209q28 48 85 48q40 0 69 -29t29 -70v-143h14q18 0 31.5 -13t13.5 -31zM555 167
h85v138z" />
    <glyph glyph-name="onehalf" unicode="&#xbd;" horiz-adv-x="848" 
d="M133 316v206l-41 -41q-12 -14 -33 -14q-19 0 -33 13.5t-14 32.5q0 21 15 34l113 111q18 18 44 18t44.5 -19t18.5 -45v-296q0 -24 -16.5 -41t-40.5 -17q-23 0 -40 17.5t-17 40.5zM192 -9q-15 0 -25.5 11t-10.5 26q0 7 5 20l390 611q12 17 32 17q15 0 25.5 -11t10.5 -26
q0 -10 -5 -20l-391 -611q-11 -17 -31 -17zM487 50q0 30 35 54q99 66 143 106q37 34 37 59q0 22 -15.5 34.5t-42.5 12.5q-43 0 -83 -28q-11 -8 -25 -8q-19 0 -33 14t-14 33q0 25 22 39q56 40 135 40q78 0 124 -34t46 -94q0 -43 -35.5 -85t-122.5 -103h120q21 0 34.5 -12.5
t14.5 -31.5q0 -19 -14 -32.5t-35 -13.5h-242q-21 0 -35 14.5t-14 35.5z" />
    <glyph glyph-name="threequarters" unicode="&#xbe;" horiz-adv-x="891" 
d="M38 296q-22 14 -22 41q0 20 14 33.5t33 13.5q13 0 24 -7q43 -27 86 -27q30 0 47.5 10.5t17.5 26.5q0 22 -18.5 30t-62.5 8h-12q-17 0 -30 13t-13 31t13 30.5t30 12.5h11q40 0 57.5 8t17.5 28q0 35 -65 35q-43 0 -80 -24q-9 -6 -23 -6q-18 0 -30.5 12.5t-12.5 31.5
q0 22 19 36q58 40 139 40q79 0 122.5 -29.5t43.5 -80.5q0 -33 -25.5 -58.5t-63.5 -31.5q39 -3 67.5 -29.5t28.5 -64.5q0 -53 -47.5 -86t-125.5 -33t-140 36zM269 -9q-15 0 -25.5 11t-10.5 26q0 7 5 20l390 611q12 17 32 17q15 0 25.5 -11t10.5 -26q0 -10 -5 -20l-391 -611
q-11 -17 -31 -17zM889 123q0 -19 -13.5 -32t-31.5 -13h-14v-30q0 -23 -16.5 -40t-39.5 -17q-24 0 -40.5 17t-16.5 40v30h-157q-20 0 -34 14.5t-14 34.5q0 13 6 25l129 209q28 48 85 48q40 0 69 -29t29 -70v-143h14q18 0 31.5 -13t13.5 -31zM632 167h85v138z" />
    <glyph glyph-name="questiondown" unicode="&#xbf;" horiz-adv-x="399" 
d="M226 306q-38 0 -66 28t-28 66t28 66t66 28t66 -28t28 -66t-28 -66t-66 -28zM233 48q-26 -17 -35.5 -27.5t-9.5 -23.5q0 -39 59 -39q36 0 67 22q15 9 35 9q31 0 52.5 -21.5t21.5 -52.5q0 -45 -37 -64q-72 -45 -158 -45q-98 0 -156 43.5t-58 115.5q0 51 22.5 84t72.5 70
q25 19 34.5 28t17.5 20.5t8 24.5l-1 7v8q5 25 26.5 42t47.5 17q27 0 47 -17t23 -43q5 -13 5 -29q-1 -33 -13.5 -57.5t-26.5 -37t-44 -34.5z" />
    <glyph glyph-name="Agrave" unicode="&#xc0;" horiz-adv-x="684" 
d="M667 78q0 -36 -25.5 -61.5t-61.5 -25.5q-28 0 -51 17.5t-31 43.5l-19 57h-274l-19 -57q-8 -27 -31 -44t-51 -17q-36 0 -61.5 25.5t-25.5 61.5q0 16 6 30l177 470q17 45 55.5 71.5t86.5 26.5q47 0 86 -27.5t55 -70.5l178 -470q6 -18 6 -30zM254 254h176l-88 263zM313 721
l-91 82q-14 14 -14 33q0 20 13.5 33.5t31.5 13.5q22 0 35 -16l83 -94q9 -11 9 -24q0 -16 -12 -27.5t-27 -11.5q-17 0 -28 11z" />
    <glyph glyph-name="Aacute" unicode="&#xc1;" horiz-adv-x="684" 
d="M667 78q0 -36 -25.5 -61.5t-61.5 -25.5q-28 0 -51 17.5t-31 43.5l-19 57h-274l-19 -57q-8 -27 -31 -44t-51 -17q-36 0 -61.5 25.5t-25.5 61.5q0 16 6 30l177 470q17 45 55.5 71.5t86.5 26.5q47 0 86 -27.5t55 -70.5l178 -470q6 -18 6 -30zM254 254h176l-88 263zM346 710
q-16 0 -27.5 11.5t-11.5 27.5q0 13 9 24l83 94q13 16 34 16q18 0 32 -13.5t14 -33.5q0 -19 -14 -33l-91 -82q-11 -11 -28 -11z" />
    <glyph glyph-name="Acircumflex" unicode="&#xc2;" horiz-adv-x="684" 
d="M667 78q0 -36 -25.5 -61.5t-61.5 -25.5q-28 0 -51 17.5t-31 43.5l-19 57h-274l-19 -57q-8 -27 -31 -44t-51 -17q-36 0 -61.5 25.5t-25.5 61.5q0 16 6 30l177 470q17 45 55.5 71.5t86.5 26.5q47 0 86 -27.5t55 -70.5l178 -470q6 -18 6 -30zM254 254h176l-88 263zM403 730
l-61 74l-61 -74q-10 -13 -30 -13q-15 0 -27 11.5t-12 27.5q0 12 5 20l38 61q26 36 67 36h41q40 0 66 -36l38 -61q6 -9 6 -20q0 -16 -12 -27.5t-28 -11.5q-18 0 -30 13z" />
    <glyph glyph-name="Atilde" unicode="&#xc3;" horiz-adv-x="684" 
d="M667 78q0 -36 -25.5 -61.5t-61.5 -25.5q-28 0 -51 17.5t-31 43.5l-19 57h-274l-19 -57q-8 -27 -31 -44t-51 -17q-36 0 -61.5 25.5t-25.5 61.5q0 16 6 30l177 470q17 45 55.5 71.5t86.5 26.5q47 0 86 -27.5t55 -70.5l178 -470q6 -18 6 -30zM254 254h176l-88 263zM319 755
q-22 21 -36 21q-21 0 -27 -29q-9 -29 -39 -29q-18 0 -30 14.5t-8 32.5q17 96 109 96q23 0 39 -7.5t38 -26.5q22 -21 36 -21q21 0 27 29q9 29 38 29q18 0 30.5 -14.5t8.5 -32.5q-16 -96 -109 -96q-23 0 -39 7.5t-38 26.5z" />
    <glyph glyph-name="Adieresis" unicode="&#xc4;" horiz-adv-x="684" 
d="M667 78q0 -36 -25.5 -61.5t-61.5 -25.5q-28 0 -51 17.5t-31 43.5l-19 57h-274l-19 -57q-8 -27 -31 -44t-51 -17q-36 0 -61.5 25.5t-25.5 61.5q0 16 6 30l177 470q17 45 55.5 71.5t86.5 26.5q47 0 86 -27.5t55 -70.5l178 -470q6 -18 6 -30zM254 254h176l-88 263zM156 787
q0 32 23 55t56 23t55.5 -23t22.5 -55q0 -33 -22.5 -56t-55.5 -23t-56 23t-23 56zM370 787q0 32 23 55t56 23q32 0 55.5 -23t23.5 -55q0 -33 -23.5 -56t-55.5 -23q-33 0 -56 23t-23 56z" />
    <glyph glyph-name="Aring" unicode="&#xc5;" horiz-adv-x="684" 
d="M667 78q0 -36 -25.5 -61.5t-61.5 -25.5q-28 0 -51 17.5t-31 43.5l-19 57h-274l-19 -57q-8 -27 -31 -44t-51 -17q-36 0 -61.5 25.5t-25.5 61.5q0 16 6 30l177 470q17 45 55.5 71.5t86.5 26.5q47 0 86 -27.5t55 -70.5l178 -470q6 -18 6 -30zM254 254h176l-88 263zM344 909
q43 0 75 -32q31 -31 31 -77q0 -45 -31 -76q-32 -32 -75 -32q-45 0 -77 32t-32 76q0 45 32 77t77 32zM344 841q-17 0 -29 -12t-12 -29t12 -28.5t29 -11.5q16 0 27.5 11.5t11.5 28.5t-11.5 29t-27.5 12z" />
    <glyph glyph-name="AE" unicode="&#xc6;" horiz-adv-x="966" 
d="M938 73q0 -30 -21.5 -51.5t-51.5 -21.5h-333q-91 0 -91 91v18h-223l-42 -76q-10 -18 -29.5 -30t-40.5 -12q-34 0 -57 23.5t-23 56.5q0 21 11 41l296 493q36 62 110 62h422q30 0 51.5 -21.5t21.5 -51.5q0 -29 -21.5 -50.5t-51.5 -21.5h-252v-111h245q30 0 51.5 -21.5
t21.5 -51.5t-21.5 -51.5t-51.5 -21.5h-245v-120h252q30 0 51.5 -21t21.5 -51zM297 254h144v263z" />
    <glyph glyph-name="Ccedilla" unicode="&#xc7;" horiz-adv-x="682" 
d="M645 142q0 -30 -21 -54q-85 -91 -215 -99l-16 -38q16 10 35 10q28 0 48 -21t20 -51q0 -39 -33 -63t-82 -24q-51 0 -92 19q-20 11 -20 30q0 14 9.5 23.5t22.5 9.5q8 0 15 -4q29 -17 61 -17q19 0 33 8t14 20q0 22 -25 22q-9 0 -20 -6q-12 -6 -20 -6q-14 0 -25 11.5
t-11 27.5q0 3 2 11l14 39q-136 14 -224.5 109.5t-88.5 233.5q-2 149 102 248t254 97q152 0 242 -99q22 -23 22 -55q0 -33 -24 -57t-58 -24q-37 0 -61 27q-46 56 -121 56q-77 0 -129 -56t-52 -137t52 -137t129 -56q72 0 122 56q24 27 60 27q33 0 57 -23.5t24 -57.5z" />
    <glyph glyph-name="Egrave" unicode="&#xc8;" horiz-adv-x="589" 
d="M60 91v485q0 91 91 91h334q29 0 50.5 -21.5t21.5 -51.5q0 -29 -21.5 -50.5t-50.5 -21.5h-253v-111h246q29 0 50.5 -21.5t21.5 -51.5t-21.5 -51.5t-50.5 -21.5h-246v-120h253q29 0 50.5 -21t21.5 -51t-21.5 -51.5t-50.5 -21.5h-334q-91 0 -91 91zM282 721l-91 82
q-14 14 -14 33q0 20 13.5 33.5t31.5 13.5q22 0 35 -16l83 -94q9 -11 9 -24q0 -16 -12 -27.5t-27 -11.5q-17 0 -28 11z" />
    <glyph glyph-name="Eacute" unicode="&#xc9;" horiz-adv-x="589" 
d="M60 91v485q0 91 91 91h334q29 0 50.5 -21.5t21.5 -51.5q0 -29 -21.5 -50.5t-50.5 -21.5h-253v-111h246q29 0 50.5 -21.5t21.5 -51.5t-21.5 -51.5t-50.5 -21.5h-246v-120h253q29 0 50.5 -21t21.5 -51t-21.5 -51.5t-50.5 -21.5h-334q-91 0 -91 91zM316 710
q-16 0 -27.5 11.5t-11.5 27.5q0 13 9 24l83 94q13 16 34 16q18 0 32 -13.5t14 -33.5q0 -19 -14 -33l-91 -82q-11 -11 -28 -11z" />
    <glyph glyph-name="Ecircumflex" unicode="&#xca;" horiz-adv-x="589" 
d="M60 91v485q0 91 91 91h334q29 0 50.5 -21.5t21.5 -51.5q0 -29 -21.5 -50.5t-50.5 -21.5h-253v-111h246q29 0 50.5 -21.5t21.5 -51.5t-21.5 -51.5t-50.5 -21.5h-246v-120h253q29 0 50.5 -21t21.5 -51t-21.5 -51.5t-50.5 -21.5h-334q-91 0 -91 91zM372 730l-61 74l-61 -74
q-10 -13 -30 -13q-15 0 -27 11.5t-12 27.5q0 12 5 20l38 61q26 36 67 36h41q40 0 66 -36l38 -61q6 -9 6 -20q0 -16 -12 -27.5t-28 -11.5q-18 0 -30 13z" />
    <glyph glyph-name="Edieresis" unicode="&#xcb;" horiz-adv-x="589" 
d="M60 91v485q0 91 91 91h334q29 0 50.5 -21.5t21.5 -51.5q0 -29 -21.5 -50.5t-50.5 -21.5h-253v-111h246q29 0 50.5 -21.5t21.5 -51.5t-21.5 -51.5t-50.5 -21.5h-246v-120h253q29 0 50.5 -21t21.5 -51t-21.5 -51.5t-50.5 -21.5h-334q-91 0 -91 91zM126 787q0 32 23 55
t56 23t55.5 -23t22.5 -55q0 -33 -22.5 -56t-55.5 -23t-56 23t-23 56zM340 787q0 32 23 55t56 23q32 0 55.5 -23t23.5 -55q0 -33 -23.5 -56t-55.5 -23q-33 0 -56 23t-23 56z" />
    <glyph glyph-name="Igrave" unicode="&#xcc;" horiz-adv-x="292" 
d="M60 78v511q0 36 25 61.5t61 25.5t61 -25.5t25 -61.5v-511q0 -36 -25 -61.5t-61 -25.5t-61 25.5t-25 61.5zM118 721l-91 82q-14 14 -14 33q0 20 13.5 33.5t31.5 13.5q22 0 35 -16l83 -94q9 -11 9 -24q0 -16 -12 -27.5t-27 -11.5q-17 0 -28 11z" />
    <glyph glyph-name="Iacute" unicode="&#xcd;" horiz-adv-x="292" 
d="M60 78v511q0 36 25 61.5t61 25.5t61 -25.5t25 -61.5v-511q0 -36 -25 -61.5t-61 -25.5t-61 25.5t-25 61.5zM151 710q-16 0 -27.5 11.5t-11.5 27.5q0 13 9 24l83 94q13 16 34 16q18 0 32 -13.5t14 -33.5q0 -19 -14 -33l-91 -82q-11 -11 -28 -11z" />
    <glyph glyph-name="Icircumflex" unicode="&#xce;" horiz-adv-x="292" 
d="M60 78v511q0 36 25 61.5t61 25.5t61 -25.5t25 -61.5v-511q0 -36 -25 -61.5t-61 -25.5t-61 25.5t-25 61.5zM208 730l-61 74l-61 -74q-10 -13 -30 -13q-15 0 -27 11.5t-12 27.5q0 12 5 20l38 61q26 36 67 36h41q40 0 66 -36l38 -61q6 -9 6 -20q0 -16 -12 -27.5t-28 -11.5
q-18 0 -30 13z" />
    <glyph glyph-name="Idieresis" unicode="&#xcf;" horiz-adv-x="292" 
d="M60 78v511q0 36 25 61.5t61 25.5t61 -25.5t25 -61.5v-511q0 -36 -25 -61.5t-61 -25.5t-61 25.5t-25 61.5zM-39 787q0 32 23 55t56 23t55.5 -23t22.5 -55q0 -33 -22.5 -56t-55.5 -23t-56 23t-23 56zM175 787q0 32 23 55t56 23q32 0 55.5 -23t23.5 -55q0 -33 -23.5 -56
t-55.5 -23q-33 0 -56 23t-23 56z" />
    <glyph glyph-name="Eth" unicode="&#xd0;" horiz-adv-x="750" 
d="M723 334q0 -152 -100 -243t-259 -91h-190q-91 0 -91 91v174h-14q-29 0 -49.5 19.5t-20.5 47.5t20.5 47t49.5 19h14v178q0 91 91 91h189q159 0 259.5 -91t100.5 -242zM548 334q0 83 -49 133t-135 50h-109v-119h81q28 0 47.5 -19.5t19.5 -47.5q0 -27 -19.5 -46.5
t-47.5 -19.5h-81v-115h108q84 0 134.5 53t50.5 131z" />
    <glyph glyph-name="Ntilde" unicode="&#xd1;" horiz-adv-x="740" 
d="M488 36l-256 367v-325q0 -36 -25 -61.5t-61 -25.5t-61 25.5t-25 61.5v485q0 46 33 79q33 34 80 34q59 0 92 -49l242 -344v306q0 35 25.5 61t60.5 26q36 0 61.5 -26t25.5 -61v-493q0 -43 -31 -74t-75 -31q-54 0 -86 45zM347 755q-22 21 -36 21q-21 0 -27 -29
q-9 -29 -39 -29q-18 0 -30 14.5t-8 32.5q17 96 109 96q23 0 39 -7.5t38 -26.5q22 -21 36 -21q21 0 27 29q9 29 38 29q18 0 30.5 -14.5t8.5 -32.5q-17 -96 -109 -96q-23 0 -39 7.5t-38 26.5z" />
    <glyph glyph-name="Ograve" unicode="&#xd2;" horiz-adv-x="766" 
d="M383 678q151 2 254.5 -97.5t101.5 -247.5q2 -148 -101.5 -247.5t-254.5 -97.5q-152 -2 -255.5 97.5t-101.5 247.5q-2 148 101.5 247.5t255.5 97.5zM383 526q-81 0 -131.5 -55.5t-50.5 -137.5t50.5 -137.5t131.5 -55.5q80 0 130.5 55.5t50.5 137.5t-50.5 137.5
t-130.5 55.5zM354 721l-91 82q-14 14 -14 33q0 20 13.5 33.5t31.5 13.5q22 0 35 -16l83 -94q9 -11 9 -24q0 -16 -12 -27.5t-27 -11.5q-17 0 -28 11z" />
    <glyph glyph-name="Oacute" unicode="&#xd3;" horiz-adv-x="766" 
d="M383 678q151 2 254.5 -97.5t101.5 -247.5q2 -148 -101.5 -247.5t-254.5 -97.5q-152 -2 -255.5 97.5t-101.5 247.5q-2 148 101.5 247.5t255.5 97.5zM383 526q-81 0 -131.5 -55.5t-50.5 -137.5t50.5 -137.5t131.5 -55.5q80 0 130.5 55.5t50.5 137.5t-50.5 137.5
t-130.5 55.5zM387 710q-16 0 -27.5 11.5t-11.5 27.5q0 13 9 24l83 94q13 16 34 16q18 0 32 -13.5t14 -33.5q0 -19 -14 -33l-91 -82q-11 -11 -28 -11z" />
    <glyph glyph-name="Ocircumflex" unicode="&#xd4;" horiz-adv-x="766" 
d="M383 678q151 2 254.5 -97.5t101.5 -247.5q2 -148 -101.5 -247.5t-254.5 -97.5q-152 -2 -255.5 97.5t-101.5 247.5q-2 148 101.5 247.5t255.5 97.5zM383 526q-81 0 -131.5 -55.5t-50.5 -137.5t50.5 -137.5t131.5 -55.5q80 0 130.5 55.5t50.5 137.5t-50.5 137.5
t-130.5 55.5zM444 730l-61 74l-61 -74q-10 -13 -30 -13q-15 0 -27 11.5t-12 27.5q0 12 5 20l38 61q26 36 67 36h41q40 0 66 -36l38 -61q6 -9 6 -20q0 -16 -12 -27.5t-28 -11.5q-18 0 -30 13z" />
    <glyph glyph-name="Otilde" unicode="&#xd5;" horiz-adv-x="766" 
d="M383 678q151 2 254.5 -97.5t101.5 -247.5q2 -148 -101.5 -247.5t-254.5 -97.5q-152 -2 -255.5 97.5t-101.5 247.5q-2 148 101.5 247.5t255.5 97.5zM383 526q-81 0 -131.5 -55.5t-50.5 -137.5t50.5 -137.5t131.5 -55.5q80 0 130.5 55.5t50.5 137.5t-50.5 137.5
t-130.5 55.5zM360 755q-22 21 -36 21q-21 0 -27 -29q-9 -29 -39 -29q-18 0 -30 14.5t-8 32.5q16 96 109 96q23 0 39 -7.5t38 -26.5q22 -21 36 -21q21 0 27 29q9 29 38 29q18 0 30.5 -14.5t8.5 -32.5q-16 -96 -109 -96q-23 0 -39 7.5t-38 26.5z" />
    <glyph glyph-name="Odieresis" unicode="&#xd6;" horiz-adv-x="766" 
d="M383 678q151 2 254.5 -97.5t101.5 -247.5q2 -148 -101.5 -247.5t-254.5 -97.5q-152 -2 -255.5 97.5t-101.5 247.5q-2 148 101.5 247.5t255.5 97.5zM383 526q-81 0 -131.5 -55.5t-50.5 -137.5t50.5 -137.5t131.5 -55.5q80 0 130.5 55.5t50.5 137.5t-50.5 137.5
t-130.5 55.5zM197 787q0 32 23 55t56 23t55.5 -23t22.5 -55q0 -33 -22.5 -56t-55.5 -23t-56 23t-23 56zM411 787q0 32 23 55t56 23q32 0 55.5 -23t23.5 -55q0 -33 -23.5 -56t-55.5 -23q-33 0 -56 23t-23 56z" />
    <glyph glyph-name="multiply" unicode="&#xd7;" horiz-adv-x="507" 
d="M254 269l-111 -111q-14 -14 -33 -14t-32.5 13.5t-13.5 32.5t14 33l111 111l-111 111q-14 14 -14 32q0 19 13.5 33t32.5 14t33 -14l111 -111l111 111q13 13 32 13q20 0 33 -13t13 -33q0 -18 -14 -32l-110 -111l110 -111q14 -14 14 -33t-13.5 -32t-32.5 -13t-32 13z" />
    <glyph glyph-name="Oslash" unicode="&#xd8;" horiz-adv-x="766" 
d="M739 333q2 -148 -101.5 -247.5t-254.5 -97.5q-98 0 -175 40l-41 -56q-14 -20 -36 -20q-18 0 -30.5 12t-12.5 30q0 15 10 28l39 54q-111 98 -111 257q-2 148 101.5 247.5t255.5 97.5q88 0 164 -35l37 52q17 20 36 20q17 0 30 -12.5t13 -29.5q0 -16 -10 -29l-34 -46
q120 -99 120 -265zM236 214l217 299q-33 13 -70 13q-81 0 -131.5 -55.5t-50.5 -137.5q0 -67 35 -119zM564 333q0 77 -42 129l-221 -304q36 -18 82 -18q80 0 130.5 55.5t50.5 137.5z" />
    <glyph glyph-name="Ugrave" unicode="&#xd9;" horiz-adv-x="739" 
d="M60 270v319q0 36 26 61.5t62 25.5t61.5 -26t25.5 -61v-313q0 -63 34.5 -99.5t100.5 -36.5q65 0 99.5 36t34.5 100v313q0 35 25.5 61t61.5 26q37 0 62.5 -25.5t25.5 -61.5v-318q0 -133 -78.5 -208t-230.5 -75t-231 75t-79 207zM341 721l-91 82q-14 14 -14 33
q0 20 13.5 33.5t31.5 13.5q22 0 35 -16l83 -94q9 -11 9 -24q0 -16 -12 -27.5t-27 -11.5q-17 0 -28 11z" />
    <glyph glyph-name="Uacute" unicode="&#xda;" horiz-adv-x="739" 
d="M60 270v319q0 36 26 61.5t62 25.5t61.5 -26t25.5 -61v-313q0 -63 34.5 -99.5t100.5 -36.5q65 0 99.5 36t34.5 100v313q0 35 25.5 61t61.5 26q37 0 62.5 -25.5t25.5 -61.5v-318q0 -133 -78.5 -208t-230.5 -75t-231 75t-79 207zM374 710q-16 0 -27.5 11.5t-11.5 27.5
q0 13 9 24l83 94q13 16 34 16q18 0 32 -13.5t14 -33.5q0 -19 -14 -33l-91 -82q-11 -11 -28 -11z" />
    <glyph glyph-name="Ucircumflex" unicode="&#xdb;" horiz-adv-x="739" 
d="M60 270v319q0 36 26 61.5t62 25.5t61.5 -26t25.5 -61v-313q0 -63 34.5 -99.5t100.5 -36.5q65 0 99.5 36t34.5 100v313q0 35 25.5 61t61.5 26q37 0 62.5 -25.5t25.5 -61.5v-318q0 -133 -78.5 -208t-230.5 -75t-231 75t-79 207zM431 730l-61 74l-61 -74q-10 -13 -30 -13
q-15 0 -27 11.5t-12 27.5q0 12 5 20l38 61q26 36 67 36h41q40 0 66 -36l38 -61q6 -9 6 -20q0 -16 -12 -27.5t-28 -11.5q-18 0 -30 13z" />
    <glyph glyph-name="Udieresis" unicode="&#xdc;" horiz-adv-x="739" 
d="M60 270v319q0 36 26 61.5t62 25.5t61.5 -26t25.5 -61v-313q0 -63 34.5 -99.5t100.5 -36.5q65 0 99.5 36t34.5 100v313q0 35 25.5 61t61.5 26q37 0 62.5 -25.5t25.5 -61.5v-318q0 -133 -78.5 -208t-230.5 -75t-231 75t-79 207zM184 787q0 32 23 55t56 23t55.5 -23
t22.5 -55q0 -33 -22.5 -56t-55.5 -23t-56 23t-23 56zM398 787q0 32 23 55t56 23q32 0 55.5 -23t23.5 -55q0 -33 -23.5 -56t-55.5 -23q-33 0 -56 23t-23 56z" />
    <glyph glyph-name="Yacute" unicode="&#xdd;" horiz-adv-x="653" 
d="M607 538l-194 -269v-191q0 -35 -25.5 -61t-60.5 -26q-36 0 -61 25.5t-25 61.5v191l-195 268q-21 25 -21 55q0 35 25 59.5t59 24.5q44 0 68 -35l150 -222l149 222q24 35 68 35q34 0 58.5 -24.5t24.5 -59.5q0 -28 -20 -54zM331 710q-16 0 -27.5 11.5t-11.5 27.5q0 13 9 24
l83 94q13 16 34 16q18 0 32 -13.5t14 -33.5q0 -19 -14 -33l-91 -82q-11 -11 -28 -11z" />
    <glyph glyph-name="Thorn" unicode="&#xde;" horiz-adv-x="643" 
d="M60 78v511q0 36 25 61.5t61 25.5t61 -25.5t25 -61.5v-24h162q107 0 169.5 -63.5t62.5 -159.5q0 -95 -62.5 -157.5t-169.5 -62.5h-162v-44q0 -36 -25 -61.5t-61 -25.5t-61 25.5t-25 61.5zM366 420h-134v-153h134q39 0 62 21t23 55t-23 55.5t-62 21.5z" />
    <glyph glyph-name="germandbls" unicode="&#xdf;" horiz-adv-x="589" 
d="M561 179q0 -87 -55 -139t-136 -52q-40 0 -76 11q-21 6 -34.5 22.5t-13.5 37.5q0 26 17.5 44.5t42.5 18.5q3 0 13.5 -2t17.5 -2q29 0 48 21.5t19 56.5q0 33 -23.5 55.5t-68.5 29.5q-24 5 -39 23t-15 42q0 20 12.5 37t31.5 26q58 16 58 67q0 29 -19 47t-48 18
q-38 0 -60 -25.5t-22 -71.5v-375q0 -31 -22.5 -54t-54.5 -23t-54.5 22.5t-22.5 54.5v377q0 100 66.5 165.5t165.5 65.5q94 0 159.5 -52.5t65.5 -131.5q0 -44 -25 -81.5t-65 -56.5q60 -18 98 -67q39 -50 39 -109z" />
    <glyph glyph-name="agrave" unicode="&#xe0;" horiz-adv-x="551" 
d="M495 302v-230q0 -33 -22 -57t-55 -24q-27 0 -48.5 16t-29.5 41q-22 -27 -62.5 -43.5t-86.5 -16.5q-64 0 -115 43t-51 116q0 80 50 116t116 36q106 0 150 -56v61q0 32 -26 51t-72 19q-50 0 -99 -26q-13 -7 -26 -7q-23 0 -40 17t-17 40q0 34 30 50q83 47 179 47
q99 0 162 -45q63 -44 63 -148zM341 124v43q-26 34 -86 34q-34 0 -55.5 -15t-21.5 -41t21.5 -41t55.5 -15q62 0 86 35zM245 574l-91 82q-14 14 -14 33q0 20 13.5 33.5t31.5 13.5q22 0 35 -16l83 -94q9 -10 9 -24q0 -16 -12 -27.5t-27 -11.5q-17 0 -28 11z" />
    <glyph glyph-name="aacute" unicode="&#xe1;" horiz-adv-x="551" 
d="M495 302v-230q0 -33 -22 -57t-55 -24q-27 0 -48.5 16t-29.5 41q-22 -27 -62.5 -43.5t-86.5 -16.5q-64 0 -115 43t-51 116q0 80 50 116t116 36q106 0 150 -56v61q0 32 -26 51t-72 19q-50 0 -99 -26q-13 -7 -26 -7q-23 0 -40 17t-17 40q0 34 30 50q83 47 179 47
q99 0 162 -45q63 -44 63 -148zM341 124v43q-26 34 -86 34q-34 0 -55.5 -15t-21.5 -41t21.5 -41t55.5 -15q62 0 86 35zM278 563q-16 0 -27.5 11.5t-11.5 27.5q0 14 9 24l83 94q13 16 34 16q18 0 32 -13.5t14 -33.5q0 -19 -14 -33l-91 -82q-11 -11 -28 -11z" />
    <glyph glyph-name="acircumflex" unicode="&#xe2;" horiz-adv-x="551" 
d="M495 302v-230q0 -33 -22 -57t-55 -24q-27 0 -48.5 16t-29.5 41q-22 -27 -62.5 -43.5t-86.5 -16.5q-64 0 -115 43t-51 116q0 80 50 116t116 36q106 0 150 -56v61q0 32 -26 51t-72 19q-50 0 -99 -26q-13 -7 -26 -7q-23 0 -40 17t-17 40q0 34 30 50q83 47 179 47
q99 0 162 -45q63 -44 63 -148zM341 124v43q-26 34 -86 34q-34 0 -55.5 -15t-21.5 -41t21.5 -41t55.5 -15q62 0 86 35zM335 583l-61 74l-61 -74q-10 -13 -30 -13q-15 0 -27 11.5t-12 27.5q0 12 5 20l38 61q26 36 67 36h41q40 0 66 -36l38 -61q6 -9 6 -20q0 -16 -12 -27.5
t-28 -11.5q-18 0 -30 13z" />
    <glyph glyph-name="atilde" unicode="&#xe3;" horiz-adv-x="551" 
d="M495 302v-230q0 -33 -22 -57t-55 -24q-27 0 -48.5 16t-29.5 41q-22 -27 -62.5 -43.5t-86.5 -16.5q-64 0 -115 43t-51 116q0 80 50 116t116 36q106 0 150 -56v61q0 32 -26 51t-72 19q-50 0 -99 -26q-13 -7 -26 -7q-23 0 -40 17t-17 40q0 34 30 50q83 47 179 47
q99 0 162 -45q63 -44 63 -148zM341 124v43q-26 34 -86 34q-34 0 -55.5 -15t-21.5 -41t21.5 -41t55.5 -15q62 0 86 35zM251 608q-22 21 -36 21q-21 0 -27 -29q-9 -29 -39 -29q-18 0 -30 14.5t-8 32.5q17 96 109 96q23 0 39 -7.5t38 -26.5q22 -21 36 -21q21 0 27 29
q9 29 38 29q18 0 30.5 -14.5t8.5 -32.5q-17 -96 -109 -96q-23 0 -39 7.5t-38 26.5z" />
    <glyph glyph-name="adieresis" unicode="&#xe4;" horiz-adv-x="551" 
d="M495 302v-230q0 -33 -22 -57t-55 -24q-27 0 -48.5 16t-29.5 41q-22 -27 -62.5 -43.5t-86.5 -16.5q-64 0 -115 43t-51 116q0 80 50 116t116 36q106 0 150 -56v61q0 32 -26 51t-72 19q-50 0 -99 -26q-13 -7 -26 -7q-23 0 -40 17t-17 40q0 34 30 50q83 47 179 47
q99 0 162 -45q63 -44 63 -148zM341 124v43q-26 34 -86 34q-34 0 -55.5 -15t-21.5 -41t21.5 -41t55.5 -15q62 0 86 35zM88 640q0 32 23 55t56 23t55.5 -23t22.5 -55q0 -33 -22.5 -56t-55.5 -23t-56 23t-23 56zM302 640q0 32 23 55t56 23q32 0 55.5 -23t23.5 -55
q0 -33 -23.5 -56t-55.5 -23q-33 0 -56 23t-23 56z" />
    <glyph glyph-name="aring" unicode="&#xe5;" horiz-adv-x="551" 
d="M495 302v-230q0 -33 -22 -57t-55 -24q-27 0 -48.5 16t-29.5 41q-22 -27 -62.5 -43.5t-86.5 -16.5q-64 0 -115 43t-51 116q0 80 50 116t116 36q106 0 150 -56v61q0 32 -26 51t-72 19q-50 0 -99 -26q-13 -7 -26 -7q-23 0 -40 17t-17 40q0 34 30 50q83 47 179 47
q99 0 162 -45q63 -44 63 -148zM341 124v43q-26 34 -86 34q-34 0 -55.5 -15t-21.5 -41t21.5 -41t55.5 -15q62 0 86 35zM276 762q43 0 75 -32q31 -31 31 -77q0 -45 -31 -76q-32 -32 -75 -32q-45 0 -77 32t-32 76q0 45 32 77t77 32zM276 694q-17 0 -29 -12t-12 -29t12 -28.5
t29 -11.5q16 0 27.5 11.5t11.5 28.5t-11.5 29t-27.5 12z" />
    <glyph glyph-name="ae" unicode="&#xe6;" horiz-adv-x="860" 
d="M627 110q37 0 74 19q13 5 25 5q25 0 42.5 -17t17.5 -42q0 -18 -10 -33t-26 -22q-67 -32 -138 -32q-116 0 -181 77q-74 -77 -199 -77q-93 0 -150 40.5t-57 116.5q0 74 48 115.5t124 41.5q109 0 158 -54v56q0 31 -28.5 50.5t-75.5 19.5q-53 0 -107 -27q-10 -7 -25 -7
q-24 0 -40.5 17t-16.5 41q0 35 29 50q83 47 181 47q115 0 162 -71q66 71 173 71q97 0 165 -67t68 -160q0 -75 -91 -75h-239q9 -37 39.5 -60t77.5 -23zM600 376q-39 0 -62.5 -23.5t-29.5 -59.5h185q-4 35 -27.5 59t-65.5 24zM261 201q-36 0 -59.5 -13.5t-23.5 -36.5
q0 -24 21.5 -37t53.5 -13q39 0 70.5 19t31.5 41v5q-13 16 -39.5 25.5t-54.5 9.5z" />
    <glyph glyph-name="ccedilla" unicode="&#xe7;" horiz-adv-x="487" 
d="M461 84q0 -39 -34 -58q-44 -31 -114 -37l-16 -38q16 10 35 10q28 0 47.5 -20.5t19.5 -51.5q0 -39 -32.5 -63t-81.5 -24q-51 0 -92 19q-21 11 -21 30q0 13 9.5 23t22.5 10q8 0 15 -4q32 -17 62 -17q19 0 32.5 8t13.5 20q0 22 -25 22q-10 0 -20 -6t-20 -6q-14 0 -24.5 11.5
t-10.5 27.5q0 3 2 11l15 40q-98 14 -159 82.5t-61 168.5q0 111 75.5 182t188.5 71q83 0 139 -38q35 -20 35 -58q0 -28 -20 -48.5t-49 -20.5q-20 0 -36 10q-25 19 -62 19q-50 0 -81.5 -32t-31.5 -85t32 -85.5t81 -32.5q37 0 62 19q19 11 35 11q29 0 49 -20.5t20 -49.5z" />
    <glyph glyph-name="egrave" unicode="&#xe8;" horiz-adv-x="548" 
d="M281 495q105 0 176 -67t71 -160q0 -75 -92 -75h-252q7 -37 40 -61.5t83 -24.5q41 0 84 20q11 6 25 6q24 0 41 -17t17 -42q0 -37 -35 -53q-67 -33 -151 -33q-114 0 -189 70t-75 184q0 106 73 179.5t184 73.5zM182 293h199q-4 35 -29.5 59t-70.5 24q-42 0 -67 -23.5
t-32 -59.5zM252 574l-91 82q-14 14 -14 33q0 20 13.5 33.5t31.5 13.5q22 0 35 -16l83 -94q9 -10 9 -24q0 -16 -12 -27.5t-27 -11.5q-17 0 -28 11z" />
    <glyph glyph-name="eacute" unicode="&#xe9;" horiz-adv-x="548" 
d="M281 495q105 0 176 -67t71 -160q0 -75 -92 -75h-252q7 -37 40 -61.5t83 -24.5q41 0 84 20q11 6 25 6q24 0 41 -17t17 -42q0 -37 -35 -53q-67 -33 -151 -33q-114 0 -189 70t-75 184q0 106 73 179.5t184 73.5zM182 293h199q-4 35 -29.5 59t-70.5 24q-42 0 -67 -23.5
t-32 -59.5zM286 563q-16 0 -27.5 11.5t-11.5 27.5q0 14 9 24l83 94q13 16 34 16q18 0 32 -13.5t14 -33.5q0 -19 -14 -33l-91 -82q-11 -11 -28 -11z" />
    <glyph glyph-name="ecircumflex" unicode="&#xea;" horiz-adv-x="548" 
d="M281 495q105 0 176 -67t71 -160q0 -75 -92 -75h-252q7 -37 40 -61.5t83 -24.5q41 0 84 20q11 6 25 6q24 0 41 -17t17 -42q0 -37 -35 -53q-67 -33 -151 -33q-114 0 -189 70t-75 184q0 106 73 179.5t184 73.5zM182 293h199q-4 35 -29.5 59t-70.5 24q-42 0 -67 -23.5
t-32 -59.5zM342 583l-61 74l-61 -74q-10 -13 -30 -13q-15 0 -27 11.5t-12 27.5q0 12 5 20l38 61q26 36 67 36h41q40 0 66 -36l38 -61q6 -9 6 -20q0 -16 -12 -27.5t-28 -11.5q-18 0 -30 13z" />
    <glyph glyph-name="edieresis" unicode="&#xeb;" horiz-adv-x="548" 
d="M281 495q105 0 176 -67t71 -160q0 -75 -92 -75h-252q7 -37 40 -61.5t83 -24.5q41 0 84 20q11 6 25 6q24 0 41 -17t17 -42q0 -37 -35 -53q-67 -33 -151 -33q-114 0 -189 70t-75 184q0 106 73 179.5t184 73.5zM182 293h199q-4 35 -29.5 59t-70.5 24q-42 0 -67 -23.5
t-32 -59.5zM96 640q0 32 23 55t56 23t55.5 -23t22.5 -55q0 -33 -22.5 -56t-55.5 -23t-56 23t-23 56zM310 640q0 32 23 55t56 23q32 0 55.5 -23t23.5 -55q0 -33 -23.5 -56t-55.5 -23q-33 0 -56 23t-23 56z" />
    <glyph glyph-name="igrave" unicode="&#xec;" horiz-adv-x="266" 
d="M56 68v347q0 32 23 54.5t54 22.5q32 0 54.5 -22.5t22.5 -54.5v-347q0 -32 -22.5 -54.5t-54.5 -22.5q-31 0 -54 23t-23 54zM104 574l-91 82q-14 14 -14 33q0 20 13.5 33.5t31.5 13.5q22 0 35 -16l83 -94q9 -10 9 -24q0 -16 -12 -27.5t-27 -11.5q-17 0 -28 11z" />
    <glyph glyph-name="iacute" unicode="&#xed;" horiz-adv-x="266" 
d="M56 68v347q0 32 23 54.5t54 22.5q32 0 54.5 -22.5t22.5 -54.5v-347q0 -32 -22.5 -54.5t-54.5 -22.5q-31 0 -54 23t-23 54zM138 563q-16 0 -27.5 11.5t-11.5 27.5q0 14 9 24l83 94q13 16 34 16q18 0 32 -13.5t14 -33.5q0 -19 -14 -33l-91 -82q-11 -11 -28 -11z" />
    <glyph glyph-name="icircumflex" unicode="&#xee;" horiz-adv-x="266" 
d="M56 68v347q0 32 23 54.5t54 22.5q32 0 54.5 -22.5t22.5 -54.5v-347q0 -32 -22.5 -54.5t-54.5 -22.5q-31 0 -54 23t-23 54zM194 583l-61 74l-61 -74q-10 -13 -30 -13q-15 0 -27 11.5t-12 27.5q0 12 5 20l38 61q26 36 67 36h41q40 0 66 -36l38 -61q6 -9 6 -20
q0 -16 -12 -27.5t-28 -11.5q-18 0 -30 13z" />
    <glyph glyph-name="idieresis" unicode="&#xef;" horiz-adv-x="266" 
d="M56 68v347q0 32 23 54.5t54 22.5q32 0 54.5 -22.5t22.5 -54.5v-347q0 -32 -22.5 -54.5t-54.5 -22.5q-31 0 -54 23t-23 54zM-52 640q0 32 23 55t56 23t55.5 -23t22.5 -55q0 -33 -22.5 -56t-55.5 -23t-56 23t-23 56zM162 640q0 32 23 55t56 23q32 0 55.5 -23t23.5 -55
q0 -33 -23.5 -56t-55.5 -23q-33 0 -56 23t-23 56z" />
    <glyph glyph-name="eth" unicode="&#xf0;" 
d="M551 255q0 -122 -70.5 -194.5t-193.5 -72.5q-116 0 -189.5 65t-73.5 167q0 100 61 165t151 65q105 0 160 -94q-29 75 -155 164l-121 -54q-6 -3 -15 -3q-15 0 -26 11t-11 26q0 25 22 34l78 34q-32 21 -32 60q0 30 21.5 52t51.5 22q24 0 41 -13q42 -28 74 -52l76 33
q6 3 14 3q15 0 26 -10.5t11 -25.5q0 -22 -22 -34l-42 -19q164 -150 164 -329zM393 220q0 42 -29 68.5t-77 26.5t-76 -26.5t-28 -68.5q0 -43 28 -69.5t76 -26.5q49 0 77.5 26.5t28.5 69.5z" />
    <glyph glyph-name="ntilde" unicode="&#xf1;" horiz-adv-x="593" 
d="M537 342v-274q0 -31 -22.5 -54t-54.5 -23t-54.5 22.5t-22.5 54.5v211q0 80 -79 80q-56 0 -94 -47v-244q0 -32 -22.5 -54.5t-54.5 -22.5q-31 0 -54 23t-23 54v347q0 33 22 56t55 23q30 0 52 -19.5t26 -49.5q61 70 166 70q79 0 119.5 -40.5t40.5 -112.5zM274 608
q-22 21 -36 21q-21 0 -27 -29q-9 -29 -39 -29q-18 0 -30 14.5t-8 32.5q16 96 109 96q23 0 39 -7.5t38 -26.5q22 -21 36 -21q21 0 27 29q9 29 38 29q18 0 30.5 -14.5t8.5 -32.5q-16 -96 -109 -96q-23 0 -39 7.5t-38 26.5z" />
    <glyph glyph-name="ograve" unicode="&#xf2;" 
d="M24 242q0 106 73 179.5t190 73.5q118 0 191 -73t73 -180t-73 -180.5t-191 -73.5q-117 0 -190 74t-73 180zM393 242q0 51 -29 84t-77 33t-76 -33t-28 -84q0 -52 28 -85t76 -33t77 33t29 85zM259 574l-91 82q-14 14 -14 33q0 20 13.5 33.5t31.5 13.5q22 0 35 -16l83 -94
q9 -10 9 -24q0 -16 -12 -27.5t-27 -11.5q-17 0 -28 11z" />
    <glyph glyph-name="oacute" unicode="&#xf3;" 
d="M24 242q0 106 73 179.5t190 73.5q118 0 191 -73t73 -180t-73 -180.5t-191 -73.5q-117 0 -190 74t-73 180zM393 242q0 51 -29 84t-77 33t-76 -33t-28 -84q0 -52 28 -85t76 -33t77 33t29 85zM292 563q-16 0 -27.5 11.5t-11.5 27.5q0 14 9 24l83 94q13 16 34 16
q18 0 32 -13.5t14 -33.5q0 -19 -14 -33l-91 -82q-11 -11 -28 -11z" />
    <glyph glyph-name="ocircumflex" unicode="&#xf4;" 
d="M24 242q0 106 73 179.5t190 73.5q118 0 191 -73t73 -180t-73 -180.5t-191 -73.5q-117 0 -190 74t-73 180zM393 242q0 51 -29 84t-77 33t-76 -33t-28 -84q0 -52 28 -85t76 -33t77 33t29 85zM349 583l-61 74l-61 -74q-10 -13 -30 -13q-15 0 -27 11.5t-12 27.5q0 12 5 20
l38 61q26 36 67 36h41q40 0 66 -36l38 -61q6 -9 6 -20q0 -16 -12 -27.5t-28 -11.5q-18 0 -30 13z" />
    <glyph glyph-name="otilde" unicode="&#xf5;" 
d="M24 242q0 106 73 179.5t190 73.5q118 0 191 -73t73 -180t-73 -180.5t-191 -73.5q-117 0 -190 74t-73 180zM393 242q0 51 -29 84t-77 33t-76 -33t-28 -84q0 -52 28 -85t76 -33t77 33t29 85zM265 608q-22 21 -36 21q-21 0 -27 -29q-9 -29 -39 -29q-18 0 -30 14.5t-8 32.5
q17 96 109 96q23 0 39 -7.5t38 -26.5q22 -21 36 -21q21 0 27 29q9 29 38 29q18 0 30.5 -14.5t8.5 -32.5q-17 -96 -109 -96q-23 0 -39 7.5t-38 26.5z" />
    <glyph glyph-name="odieresis" unicode="&#xf6;" 
d="M24 242q0 106 73 179.5t190 73.5q118 0 191 -73t73 -180t-73 -180.5t-191 -73.5q-117 0 -190 74t-73 180zM393 242q0 51 -29 84t-77 33t-76 -33t-28 -84q0 -52 28 -85t76 -33t77 33t29 85zM102 640q0 32 23 55t56 23t55.5 -23t22.5 -55q0 -33 -22.5 -56t-55.5 -23t-56 23
t-23 56zM316 640q0 32 23 55t56 23q32 0 55.5 -23t23.5 -55q0 -33 -23.5 -56t-55.5 -23q-33 0 -56 23t-23 56z" />
    <glyph glyph-name="divide" unicode="&#xf7;" horiz-adv-x="511" 
d="M187 510q0 29 20 48.5t48 19.5q29 0 49 -20t20 -48t-20 -48.5t-49 -20.5q-28 0 -48 20t-20 49zM20 338q0 19 13.5 32t32.5 13h379q19 0 32.5 -13.5t13.5 -32.5t-13.5 -32.5t-32.5 -13.5h-379q-19 0 -32.5 14t-13.5 33zM187 163q0 29 20 49t48 20q29 0 49 -20t20 -49
q0 -28 -20.5 -48t-48.5 -20t-48 20t-20 48z" />
    <glyph glyph-name="oslash" unicode="&#xf8;" 
d="M551 242q0 -107 -73 -180.5t-191 -73.5q-67 0 -122 26l-33 -46q-10 -16 -29 -16q-13 0 -23 9.5t-10 22.5q0 10 7 20l33 45q-86 75 -86 193q0 106 73 179.5t190 73.5q69 0 126 -27l34 47q12 16 29 16q13 0 22.5 -9t9.5 -22q0 -8 -8 -22l-33 -45q84 -74 84 -191zM200 173
l128 178q-21 8 -41 8q-48 0 -76 -33t-28 -84q0 -37 17 -69zM393 242q0 38 -16 66l-128 -178q17 -6 38 -6q48 0 77 33t29 85z" />
    <glyph glyph-name="ugrave" unicode="&#xf9;" horiz-adv-x="592" 
d="M536 415v-347q0 -33 -22 -56t-55 -23q-30 0 -52 19t-26 48q-61 -68 -166 -68q-79 0 -119 40t-40 111v276q0 32 23 54.5t54 22.5q32 0 54.5 -22.5t22.5 -54.5v-213q0 -78 80 -78q54 0 92 47v244q0 32 23 54.5t54 22.5q32 0 54.5 -22.5t22.5 -54.5zM267 574l-91 82
q-14 14 -14 33q0 20 13.5 33.5t31.5 13.5q22 0 35 -16l83 -94q9 -10 9 -24q0 -16 -12 -27.5t-27 -11.5q-17 0 -28 11z" />
    <glyph glyph-name="uacute" unicode="&#xfa;" horiz-adv-x="592" 
d="M536 415v-347q0 -33 -22 -56t-55 -23q-30 0 -52 19t-26 48q-61 -68 -166 -68q-79 0 -119 40t-40 111v276q0 32 23 54.5t54 22.5q32 0 54.5 -22.5t22.5 -54.5v-213q0 -78 80 -78q54 0 92 47v244q0 32 23 54.5t54 22.5q32 0 54.5 -22.5t22.5 -54.5zM301 563
q-16 0 -27.5 11.5t-11.5 27.5q0 14 9 24l83 94q13 16 34 16q18 0 32 -13.5t14 -33.5q0 -19 -14 -33l-91 -82q-11 -11 -28 -11z" />
    <glyph glyph-name="ucircumflex" unicode="&#xfb;" horiz-adv-x="592" 
d="M536 415v-347q0 -33 -22 -56t-55 -23q-30 0 -52 19t-26 48q-61 -68 -166 -68q-79 0 -119 40t-40 111v276q0 32 23 54.5t54 22.5q32 0 54.5 -22.5t22.5 -54.5v-213q0 -78 80 -78q54 0 92 47v244q0 32 23 54.5t54 22.5q32 0 54.5 -22.5t22.5 -54.5zM357 583l-61 74l-61 -74
q-10 -13 -30 -13q-15 0 -27 11.5t-12 27.5q0 12 5 20l38 61q26 36 67 36h41q40 0 66 -36l38 -61q6 -9 6 -20q0 -16 -12 -27.5t-28 -11.5q-18 0 -30 13z" />
    <glyph glyph-name="udieresis" unicode="&#xfc;" horiz-adv-x="592" 
d="M536 415v-347q0 -33 -22 -56t-55 -23q-30 0 -52 19t-26 48q-61 -68 -166 -68q-79 0 -119 40t-40 111v276q0 32 23 54.5t54 22.5q32 0 54.5 -22.5t22.5 -54.5v-213q0 -78 80 -78q54 0 92 47v244q0 32 23 54.5t54 22.5q32 0 54.5 -22.5t22.5 -54.5zM111 640q0 32 23 55
t56 23t55.5 -23t22.5 -55q0 -33 -22.5 -56t-55.5 -23t-56 23t-23 56zM325 640q0 32 23 55t56 23q32 0 55.5 -23t23.5 -55q0 -33 -23.5 -56t-55.5 -23q-33 0 -56 23t-23 56z" />
    <glyph glyph-name="yacute" unicode="&#xfd;" horiz-adv-x="517" 
d="M95 -61l7 1q54 5 63 27l11 26l-158 394q-7 15 -7 29q0 32 22 54t53 22q25 0 44 -12.5t26 -35.5l100 -276l98 276q7 22 26.5 35t43.5 13q32 0 54 -22t22 -54q0 -9 -7 -29l-183 -456q-52 -127 -187 -127h-12q-33 1 -54 21t-21 50q0 26 17 44t42 20zM259 563
q-16 0 -27.5 11.5t-11.5 27.5q0 14 9 24l83 94q13 16 34 16q18 0 32 -13.5t14 -33.5q0 -19 -14 -33l-91 -82q-11 -11 -28 -11z" />
    <glyph glyph-name="thorn" unicode="&#xfe;" horiz-adv-x="590" 
d="M210 57v-173q0 -32 -22.5 -54.5t-54.5 -22.5q-31 0 -54 22.5t-23 54.5v715q0 32 23 54.5t54 22.5q32 0 54.5 -22.5t22.5 -54.5v-172q56 68 143 68q94 0 153 -68t59 -185q0 -119 -59 -186.5t-153 -67.5q-84 0 -143 69zM302 359q-25 0 -51.5 -12.5t-40.5 -31.5v-147
q14 -19 40.5 -31.5t51.5 -12.5q46 0 76 32.5t30 85.5t-30 85t-76 32z" />
    <glyph glyph-name="ydieresis" unicode="&#xff;" horiz-adv-x="517" 
d="M95 -61l7 1q54 5 63 27l11 26l-158 394q-7 15 -7 29q0 32 22 54t53 22q25 0 44 -12.5t26 -35.5l100 -276l98 276q7 22 26.5 35t43.5 13q32 0 54 -22t22 -54q0 -9 -7 -29l-183 -456q-52 -127 -187 -127h-12q-33 1 -54 21t-21 50q0 26 17 44t42 20zM69 640q0 32 23 55
t56 23t55.5 -23t22.5 -55q0 -33 -22.5 -56t-55.5 -23t-56 23t-23 56zM283 640q0 32 23 55t56 23q32 0 55.5 -23t23.5 -55q0 -33 -23.5 -56t-55.5 -23q-33 0 -56 23t-23 56z" />
    <glyph glyph-name="Amacron" unicode="&#x100;" horiz-adv-x="684" 
d="M667 78q0 -36 -25.5 -61.5t-61.5 -25.5q-28 0 -51 17.5t-31 43.5l-19 57h-274l-19 -57q-8 -27 -31 -44t-51 -17q-36 0 -61.5 25.5t-25.5 61.5q0 16 6 30l177 470q17 45 55.5 71.5t86.5 26.5q47 0 86 -27.5t55 -70.5l178 -470q6 -18 6 -30zM254 254h176l-88 263zM161 766
q0 17 12.5 29.5t29.5 12.5h278q17 0 29 -12.5t12 -29.5q0 -18 -12 -30.5t-29 -12.5h-278q-17 0 -29.5 12.5t-12.5 30.5z" />
    <glyph glyph-name="amacron" unicode="&#x101;" horiz-adv-x="551" 
d="M495 302v-230q0 -33 -22 -57t-55 -24q-27 0 -48.5 16t-29.5 41q-22 -27 -62.5 -43.5t-86.5 -16.5q-64 0 -115 43t-51 116q0 80 50 116t116 36q106 0 150 -56v61q0 32 -26 51t-72 19q-50 0 -99 -26q-13 -7 -26 -7q-23 0 -40 17t-17 40q0 34 30 50q83 47 179 47
q99 0 162 -45q63 -44 63 -148zM341 124v43q-26 34 -86 34q-34 0 -55.5 -15t-21.5 -41t21.5 -41t55.5 -15q62 0 86 35zM93 619q0 17 12.5 29.5t29.5 12.5h278q17 0 29 -12.5t12 -29.5q0 -18 -12 -30.5t-29 -12.5h-278q-17 0 -29.5 12.5t-12.5 30.5z" />
    <glyph glyph-name="Abreve" unicode="&#x102;" horiz-adv-x="684" 
d="M667 78q0 -36 -25.5 -61.5t-61.5 -25.5q-28 0 -51 17.5t-31 43.5l-19 57h-274l-19 -57q-8 -27 -31 -44t-51 -17q-36 0 -61.5 25.5t-25.5 61.5q0 16 6 30l177 470q17 45 55.5 71.5t86.5 26.5q47 0 86 -27.5t55 -70.5l178 -470q6 -18 6 -30zM254 254h176l-88 263zM194 777
q-14 14 -14 32q0 17 12 29.5t30 12.5t29 -11q40 -37 91 -37q50 0 91 36q12 12 29 12t29.5 -12.5t12.5 -29.5t-14 -31q-63 -60 -148 -60q-86 0 -148 59z" />
    <glyph glyph-name="abreve" unicode="&#x103;" horiz-adv-x="551" 
d="M495 302v-230q0 -33 -22 -57t-55 -24q-27 0 -48.5 16t-29.5 41q-22 -27 -62.5 -43.5t-86.5 -16.5q-64 0 -115 43t-51 116q0 80 50 116t116 36q106 0 150 -56v61q0 32 -26 51t-72 19q-50 0 -99 -26q-13 -7 -26 -7q-23 0 -40 17t-17 40q0 34 30 50q83 47 179 47
q99 0 162 -45q63 -44 63 -148zM341 124v43q-26 34 -86 34q-34 0 -55.5 -15t-21.5 -41t21.5 -41t55.5 -15q62 0 86 35zM126 630q-14 14 -14 32q0 17 12 29.5t30 12.5t29 -11q40 -37 91 -37q50 0 91 36q12 12 29 12t29.5 -12.5t12.5 -29.5t-14 -31q-63 -60 -148 -60
q-86 0 -148 59z" />
    <glyph glyph-name="Aogonek" unicode="&#x104;" horiz-adv-x="684" 
d="M667 -138q0 -16 -9 -27t-22 -14q-27 -7 -67 -7q-52 0 -87.5 21.5t-35.5 62.5q0 32 27.5 58t76.5 41q-41 15 -52 55l-19 57h-274l-19 -57q-8 -27 -31 -44t-51 -17q-36 0 -61.5 25.5t-25.5 61.5q0 16 6 30l177 470q17 45 55.5 71.5t86.5 26.5q47 0 86 -27.5t55 -70.5
l178 -470q6 -18 6 -30q0 -51 -43 -75q-43 -37 -43 -70q0 -14 10 -22t23 -8l9 1q20 0 32 -12t12 -30zM254 254h176l-88 263z" />
    <glyph glyph-name="aogonek" unicode="&#x105;" horiz-adv-x="551" 
d="M501 -138q0 -16 -9 -27t-22 -14q-25 -7 -67 -7q-52 0 -87.5 21.5t-35.5 62.5q0 33 28 58.5t78 40.5q-35 15 -46 51q-22 -27 -62.5 -43.5t-86.5 -16.5q-64 0 -115 43t-51 116q0 80 50 116t116 36q106 0 150 -56v61q0 32 -26 51t-72 19q-50 0 -99 -26q-13 -7 -26 -7
q-23 0 -40 17t-17 40q0 34 30 50q83 47 179 47q99 0 162 -45q63 -44 63 -148v-230q0 -43 -35 -68q-45 -38 -45 -71q0 -14 10 -22t23 -8l9 1q20 0 32 -12t12 -30zM341 124v43q-26 34 -86 34q-34 0 -55.5 -15t-21.5 -41t21.5 -41t55.5 -15q62 0 86 35z" />
    <glyph glyph-name="Cacute" unicode="&#x106;" horiz-adv-x="682" 
d="M26 333q-2 149 102 248t254 97q152 0 242 -99q22 -23 22 -55q0 -33 -24 -57t-58 -24q-37 0 -61 27q-46 56 -121 56q-77 0 -129 -56t-52 -137t52 -137t129 -56q72 0 122 56q24 27 60 27q33 0 57 -23.5t24 -57.5q0 -30 -21 -54q-93 -100 -242 -100q-149 -3 -254 97
t-102 248zM387 710q-16 0 -27.5 11.5t-11.5 27.5q0 13 9 24l83 94q13 16 34 16q18 0 32 -13.5t14 -33.5q0 -19 -14 -33l-91 -82q-11 -11 -28 -11z" />
    <glyph glyph-name="cacute" unicode="&#x107;" horiz-adv-x="487" 
d="M288 495q83 0 139 -38q35 -20 35 -58q0 -28 -20 -48.5t-49 -20.5q-20 0 -36 10q-25 19 -62 19q-50 0 -81.5 -32t-31.5 -85t32 -85.5t81 -32.5q37 0 62 19q19 11 35 11q29 0 49 -20.5t20 -49.5q0 -39 -34 -58q-56 -38 -139 -38q-114 0 -189 71t-75 183q0 111 75.5 182
t188.5 71zM289 563q-16 0 -27.5 11.5t-11.5 27.5q0 14 9 24l83 94q13 16 34 16q18 0 32 -13.5t14 -33.5q0 -19 -14 -33l-91 -82q-11 -11 -28 -11z" />
    <glyph glyph-name="Ccircumflex" unicode="&#x108;" horiz-adv-x="682" 
d="M26 333q-2 149 102 248t254 97q152 0 242 -99q22 -23 22 -55q0 -33 -24 -57t-58 -24q-37 0 -61 27q-46 56 -121 56q-77 0 -129 -56t-52 -137t52 -137t129 -56q72 0 122 56q24 27 60 27q33 0 57 -23.5t24 -57.5q0 -30 -21 -54q-93 -100 -242 -100q-149 -3 -254 97
t-102 248zM443 730l-61 74l-61 -74q-10 -13 -30 -13q-15 0 -27 11.5t-12 27.5q0 12 5 20l38 61q26 36 67 36h41q40 0 66 -36l38 -61q6 -9 6 -20q0 -16 -12 -27.5t-28 -11.5q-18 0 -30 13z" />
    <glyph glyph-name="ccircumflex" unicode="&#x109;" horiz-adv-x="487" 
d="M288 495q83 0 139 -38q35 -20 35 -58q0 -28 -20 -48.5t-49 -20.5q-20 0 -36 10q-25 19 -62 19q-50 0 -81.5 -32t-31.5 -85t32 -85.5t81 -32.5q37 0 62 19q19 11 35 11q29 0 49 -20.5t20 -49.5q0 -39 -34 -58q-56 -38 -139 -38q-114 0 -189 71t-75 183q0 111 75.5 182
t188.5 71zM345 583l-61 74l-61 -74q-10 -13 -30 -13q-15 0 -27 11.5t-12 27.5q0 12 5 20l38 61q26 36 67 36h41q40 0 66 -36l38 -61q6 -9 6 -20q0 -16 -12 -27.5t-28 -11.5q-18 0 -30 13z" />
    <glyph glyph-name="Cdotaccent" unicode="&#x10a;" horiz-adv-x="682" 
d="M26 333q-2 149 102 248t254 97q152 0 242 -99q22 -23 22 -55q0 -33 -24 -57t-58 -24q-37 0 -61 27q-46 56 -121 56q-77 0 -129 -56t-52 -137t52 -137t129 -56q72 0 122 56q24 27 60 27q33 0 57 -23.5t24 -57.5q0 -30 -21 -54q-93 -100 -242 -100q-149 -3 -254 97
t-102 248zM382 866q32 0 55 -23.5t23 -55.5t-23 -55t-55 -23t-55 23t-23 55t23 55.5t55 23.5z" />
    <glyph glyph-name="cdotaccent" unicode="&#x10b;" horiz-adv-x="487" 
d="M288 495q83 0 139 -38q35 -20 35 -58q0 -28 -20 -48.5t-49 -20.5q-20 0 -36 10q-25 19 -62 19q-50 0 -81.5 -32t-31.5 -85t32 -85.5t81 -32.5q37 0 62 19q19 11 35 11q29 0 49 -20.5t20 -49.5q0 -39 -34 -58q-56 -38 -139 -38q-114 0 -189 71t-75 183q0 111 75.5 182
t188.5 71zM284 719q32 0 55 -23.5t23 -55.5t-23 -55t-55 -23t-55 23t-23 55t23 55.5t55 23.5z" />
    <glyph glyph-name="Ccaron" unicode="&#x10c;" horiz-adv-x="682" 
d="M26 333q-2 149 102 248t254 97q152 0 242 -99q22 -23 22 -55q0 -33 -24 -57t-58 -24q-37 0 -61 27q-46 56 -121 56q-77 0 -129 -56t-52 -137t52 -137t129 -56q72 0 122 56q24 27 60 27q33 0 57 -23.5t24 -57.5q0 -30 -21 -54q-93 -100 -242 -100q-149 -3 -254 97
t-102 248zM510 834q0 -11 -6 -20l-38 -61q-26 -36 -66 -36h-41q-41 0 -67 36l-38 61q-5 8 -5 20q0 16 12 27.5t27 11.5q20 0 30 -13l61 -74l61 74q12 13 30 13q16 0 28 -11.5t12 -27.5z" />
    <glyph glyph-name="ccaron" unicode="&#x10d;" horiz-adv-x="487" 
d="M288 495q83 0 139 -38q35 -20 35 -58q0 -28 -20 -48.5t-49 -20.5q-20 0 -36 10q-25 19 -62 19q-50 0 -81.5 -32t-31.5 -85t32 -85.5t81 -32.5q37 0 62 19q19 11 35 11q29 0 49 -20.5t20 -49.5q0 -39 -34 -58q-56 -38 -139 -38q-114 0 -189 71t-75 183q0 111 75.5 182
t188.5 71zM412 687q0 -11 -6 -20l-38 -61q-26 -36 -66 -36h-41q-41 0 -67 36l-38 61q-5 8 -5 20q0 16 12 27.5t27 11.5q20 0 30 -13l61 -74l61 74q12 13 30 13q16 0 28 -11.5t12 -27.5z" />
    <glyph glyph-name="Dcaron" unicode="&#x10e;" horiz-adv-x="727" 
d="M60 91v485q0 91 91 91h189q160 0 260.5 -91t100.5 -242q0 -152 -100.5 -243t-259.5 -91h-190q-91 0 -91 91zM232 150h108q84 0 134.5 53t50.5 131q0 83 -49 133t-135 50h-109v-367zM491 834q0 -11 -6 -20l-38 -61q-26 -36 -66 -36h-41q-41 0 -67 36l-38 61q-5 8 -5 20
q0 16 12 27.5t27 11.5q20 0 30 -13l61 -74l61 74q12 13 30 13q16 0 28 -11.5t12 -27.5z" />
    <glyph glyph-name="dcaron" unicode="&#x10f;" horiz-adv-x="713" 
d="M534 599v-531q0 -33 -22 -56.5t-55 -23.5q-28 0 -50.5 19t-27.5 47q-57 -66 -141 -66q-93 0 -153.5 68.5t-60.5 185.5q0 115 60.5 184t153.5 69q88 0 143 -69v173q0 32 22.5 54.5t53.5 22.5q32 0 54.5 -22.5t22.5 -54.5zM381 168v148q-15 19 -41.5 31t-51.5 12
q-47 0 -76.5 -32t-29.5 -85t30 -85.5t76 -32.5q25 0 51.5 12.5t41.5 31.5zM593 465q0 13 12 24q33 28 41 59q-6 -3 -17 -3q-25 0 -42 18t-17 45q0 29 20.5 50t48.5 21q34 0 56.5 -24.5t22.5 -64.5q0 -87 -76 -149q-8 -6 -19 -6q-13 0 -21.5 9t-8.5 21z" />
    <glyph glyph-name="Dcroat" unicode="&#x110;" horiz-adv-x="750" 
d="M723 334q0 -152 -100 -243t-259 -91h-190q-91 0 -91 91v174h-14q-29 0 -49.5 19.5t-20.5 47.5t20.5 47t49.5 19h14v178q0 91 91 91h189q159 0 259.5 -91t100.5 -242zM548 334q0 83 -49 133t-135 50h-109v-119h81q28 0 47.5 -19.5t19.5 -47.5q0 -27 -19.5 -46.5
t-47.5 -19.5h-81v-115h108q84 0 134.5 53t50.5 131z" />
    <glyph glyph-name="dslash" unicode="&#x111;" horiz-adv-x="592" 
d="M595 567q0 -17 -12.5 -29.5t-29.5 -12.5h-19v-457q0 -33 -22 -56.5t-55 -23.5q-28 0 -50.5 19t-27.5 47q-57 -66 -141 -66q-93 0 -153.5 68.5t-60.5 185.5q0 115 60.5 184t153.5 69q88 0 143 -69v99h-109q-18 0 -30 12.5t-12 29.5t12 29.5t30 12.5h110q4 28 25 47.5
t50 19.5t50.5 -19.5t25.5 -47.5h20q17 0 29.5 -12.5t12.5 -29.5zM381 168v148q-15 19 -41.5 31t-51.5 12q-47 0 -76.5 -32t-29.5 -85t30 -85.5t76 -32.5q25 0 51.5 12.5t41.5 31.5z" />
    <glyph glyph-name="Emacron" unicode="&#x112;" horiz-adv-x="589" 
d="M60 91v485q0 91 91 91h334q29 0 50.5 -21.5t21.5 -51.5q0 -29 -21.5 -50.5t-50.5 -21.5h-253v-111h246q29 0 50.5 -21.5t21.5 -51.5t-21.5 -51.5t-50.5 -21.5h-246v-120h253q29 0 50.5 -21t21.5 -51t-21.5 -51.5t-50.5 -21.5h-334q-91 0 -91 91zM130 766q0 17 12.5 29.5
t29.5 12.5h278q17 0 29 -12.5t12 -29.5q0 -18 -12 -30.5t-29 -12.5h-278q-17 0 -29.5 12.5t-12.5 30.5z" />
    <glyph glyph-name="emacron" unicode="&#x113;" horiz-adv-x="548" 
d="M281 495q105 0 176 -67t71 -160q0 -75 -92 -75h-252q7 -37 40 -61.5t83 -24.5q41 0 84 20q11 6 25 6q24 0 41 -17t17 -42q0 -37 -35 -53q-67 -33 -151 -33q-114 0 -189 70t-75 184q0 106 73 179.5t184 73.5zM182 293h199q-4 35 -29.5 59t-70.5 24q-42 0 -67 -23.5
t-32 -59.5zM100 619q0 17 12.5 29.5t29.5 12.5h278q17 0 29 -12.5t12 -29.5q0 -18 -12 -30.5t-29 -12.5h-278q-17 0 -29.5 12.5t-12.5 30.5z" />
    <glyph glyph-name="Ebreve" unicode="&#x114;" horiz-adv-x="589" 
d="M60 91v485q0 91 91 91h334q29 0 50.5 -21.5t21.5 -51.5q0 -29 -21.5 -50.5t-50.5 -21.5h-253v-111h246q29 0 50.5 -21.5t21.5 -51.5t-21.5 -51.5t-50.5 -21.5h-246v-120h253q29 0 50.5 -21t21.5 -51t-21.5 -51.5t-50.5 -21.5h-334q-91 0 -91 91zM163 777q-14 14 -14 32
q0 17 12 29.5t30 12.5t29 -11q40 -37 91 -37t91 36q12 12 29 12t29.5 -12.5t12.5 -29.5t-14 -31q-63 -60 -148 -60q-86 0 -148 59z" />
    <glyph glyph-name="ebreve" unicode="&#x115;" horiz-adv-x="548" 
d="M281 495q105 0 176 -67t71 -160q0 -75 -92 -75h-252q7 -37 40 -61.5t83 -24.5q41 0 84 20q11 6 25 6q24 0 41 -17t17 -42q0 -37 -35 -53q-67 -33 -151 -33q-114 0 -189 70t-75 184q0 106 73 179.5t184 73.5zM182 293h199q-4 35 -29.5 59t-70.5 24q-42 0 -67 -23.5
t-32 -59.5zM133 630q-14 14 -14 32q0 17 12 29.5t30 12.5t29 -11q40 -37 91 -37t91 36q12 12 29 12t29.5 -12.5t12.5 -29.5t-14 -31q-63 -60 -148 -60q-86 0 -148 59z" />
    <glyph glyph-name="Edotaccent" unicode="&#x116;" horiz-adv-x="589" 
d="M60 91v485q0 91 91 91h334q29 0 50.5 -21.5t21.5 -51.5q0 -29 -21.5 -50.5t-50.5 -21.5h-253v-111h246q29 0 50.5 -21.5t21.5 -51.5t-21.5 -51.5t-50.5 -21.5h-246v-120h253q29 0 50.5 -21t21.5 -51t-21.5 -51.5t-50.5 -21.5h-334q-91 0 -91 91zM311 866q32 0 55 -23.5
t23 -55.5t-23 -55t-55 -23t-55 23t-23 55t23 55.5t55 23.5z" />
    <glyph glyph-name="edotaccent" unicode="&#x117;" horiz-adv-x="548" 
d="M281 495q105 0 176 -67t71 -160q0 -75 -92 -75h-252q7 -37 40 -61.5t83 -24.5q41 0 84 20q11 6 25 6q24 0 41 -17t17 -42q0 -37 -35 -53q-67 -33 -151 -33q-114 0 -189 70t-75 184q0 106 73 179.5t184 73.5zM182 293h199q-4 35 -29.5 59t-70.5 24q-42 0 -67 -23.5
t-32 -59.5zM281 719q32 0 55 -23.5t23 -55.5t-23 -55t-55 -23t-55 23t-23 55t23 55.5t55 23.5z" />
    <glyph glyph-name="Eogonek" unicode="&#x118;" horiz-adv-x="589" 
d="M461 -67q0 -14 10 -22t23 -8l9 1q20 0 32 -12t12 -30q0 -16 -9 -27t-22 -14q-27 -7 -67 -7q-52 0 -87.5 21.5t-35.5 62.5q0 35 31 61t85 41h-291q-91 0 -91 91v485q0 91 91 91h334q29 0 50.5 -21.5t21.5 -51.5q0 -29 -21.5 -50.5t-50.5 -21.5h-253v-111h246
q29 0 50.5 -21.5t21.5 -51.5t-21.5 -51.5t-50.5 -21.5h-246v-120h253q29 0 50.5 -21t21.5 -51q0 -24 -15 -43.5t-37 -26.5q-44 -35 -44 -70z" />
    <glyph glyph-name="eogonek" unicode="&#x119;" horiz-adv-x="548" 
d="M24 242q0 106 73 179.5t184 73.5q105 0 176 -67t71 -160q0 -75 -92 -75h-252q7 -37 39.5 -61.5t81.5 -24.5q37 0 85 20q10 5 23 5q26 0 44.5 -18.5t18.5 -44.5t-20 -46q-56 -51 -56 -87q0 -15 10 -24t25 -9q3 0 4 1q18 1 31.5 -12t13.5 -31q0 -33 -32 -41q-22 -6 -63 -6
q-52 0 -87.5 21.5t-35.5 62.5q0 58 77 94q-31 -4 -55 -4q-114 0 -189 70t-75 184zM182 293h199q-4 35 -29.5 59t-70.5 24q-42 0 -67 -23.5t-32 -59.5z" />
    <glyph glyph-name="Ecaron" unicode="&#x11a;" horiz-adv-x="589" 
d="M60 91v485q0 91 91 91h334q29 0 50.5 -21.5t21.5 -51.5q0 -29 -21.5 -50.5t-50.5 -21.5h-253v-111h246q29 0 50.5 -21.5t21.5 -51.5t-21.5 -51.5t-50.5 -21.5h-246v-120h253q29 0 50.5 -21t21.5 -51t-21.5 -51.5t-50.5 -21.5h-334q-91 0 -91 91zM439 834q0 -11 -6 -20
l-38 -61q-26 -36 -66 -36h-41q-41 0 -67 36l-38 61q-5 8 -5 20q0 16 12 27.5t27 11.5q20 0 30 -13l61 -74l61 74q12 13 30 13q16 0 28 -11.5t12 -27.5z" />
    <glyph glyph-name="ecaron" unicode="&#x11b;" horiz-adv-x="548" 
d="M281 495q105 0 176 -67t71 -160q0 -75 -92 -75h-252q7 -37 40 -61.5t83 -24.5q41 0 84 20q11 6 25 6q24 0 41 -17t17 -42q0 -37 -35 -53q-67 -33 -151 -33q-114 0 -189 70t-75 184q0 106 73 179.5t184 73.5zM182 293h199q-4 35 -29.5 59t-70.5 24q-42 0 -67 -23.5
t-32 -59.5zM409 687q0 -11 -6 -20l-38 -61q-26 -36 -66 -36h-41q-41 0 -67 36l-38 61q-5 8 -5 20q0 16 12 27.5t27 11.5q20 0 30 -13l61 -74l61 74q12 13 30 13q16 0 28 -11.5t12 -27.5z" />
    <glyph glyph-name="Gcircumflex" unicode="&#x11c;" horiz-adv-x="723" 
d="M682 304v-120q0 -71 -48 -111q-103 -85 -247 -85q-152 -2 -257.5 95.5t-103.5 249.5q-2 152 103.5 249.5t257.5 95.5q131 0 217 -78q29 -23 29 -61q0 -34 -23.5 -57t-56.5 -23t-55 21q-49 46 -111 46q-80 0 -133 -55.5t-53 -137.5t53 -137.5t133 -55.5t123 40v52h-87
q-29 0 -50.5 22t-21.5 52t21.5 53.5t50.5 23.5h182q33 0 55 -23t22 -56zM448 730l-61 74l-61 -74q-10 -13 -30 -13q-15 0 -27 11.5t-12 27.5q0 12 5 20l38 61q26 36 67 36h41q40 0 66 -36l38 -61q6 -9 6 -20q0 -16 -12 -27.5t-28 -11.5q-18 0 -30 13z" />
    <glyph glyph-name="gcircumflex" unicode="&#x11d;" horiz-adv-x="590" 
d="M533 415v-372q0 -134 -82 -186q-82 -53 -194 -53q-95 0 -166 40q-34 19 -34 55q0 26 19 45t45 19q16 0 29 -7q46 -26 107 -26q48 0 85 25q38 26 38 86v38q-59 -71 -143 -71q-94 0 -153.5 64t-59.5 180q0 114 59 178.5t154 64.5q86 0 141 -67q3 27 26.5 45.5t52.5 18.5
q31 0 53.5 -22.5t22.5 -54.5zM380 187v129q-14 19 -40.5 31t-51.5 12q-48 0 -77 -28.5t-29 -78.5q0 -51 29 -79.5t77 -28.5q25 0 51.5 12t40.5 31zM359 583l-61 74l-61 -74q-10 -13 -30 -13q-15 0 -27 11.5t-12 27.5q0 12 5 20l38 61q26 36 67 36h41q40 0 66 -36l38 -61
q6 -9 6 -20q0 -16 -12 -27.5t-28 -11.5q-18 0 -30 13z" />
    <glyph glyph-name="Gbreve" unicode="&#x11e;" horiz-adv-x="723" 
d="M682 304v-120q0 -71 -48 -111q-103 -85 -247 -85q-152 -2 -257.5 95.5t-103.5 249.5q-2 152 103.5 249.5t257.5 95.5q131 0 217 -78q29 -23 29 -61q0 -34 -23.5 -57t-56.5 -23t-55 21q-49 46 -111 46q-80 0 -133 -55.5t-53 -137.5t53 -137.5t133 -55.5t123 40v52h-87
q-29 0 -50.5 22t-21.5 52t21.5 53.5t50.5 23.5h182q33 0 55 -23t22 -56zM239 777q-14 14 -14 32q0 17 12 29.5t30 12.5t29 -11q40 -37 91 -37t91 36q12 12 29 12t29.5 -12.5t12.5 -29.5t-14 -31q-63 -60 -148 -60q-86 0 -148 59z" />
    <glyph glyph-name="gbreve" unicode="&#x11f;" horiz-adv-x="590" 
d="M533 415v-372q0 -134 -82 -186q-82 -53 -194 -53q-95 0 -166 40q-34 19 -34 55q0 26 19 45t45 19q16 0 29 -7q46 -26 107 -26q48 0 85 25q38 26 38 86v38q-59 -71 -143 -71q-94 0 -153.5 64t-59.5 180q0 114 59 178.5t154 64.5q86 0 141 -67q3 27 26.5 45.5t52.5 18.5
q31 0 53.5 -22.5t22.5 -54.5zM380 187v129q-14 19 -40.5 31t-51.5 12q-48 0 -77 -28.5t-29 -78.5q0 -51 29 -79.5t77 -28.5q25 0 51.5 12t40.5 31zM150 630q-14 14 -14 32q0 17 12 29.5t30 12.5t29 -11q40 -37 91 -37q50 0 91 36q12 12 29 12t29.5 -12.5t12.5 -29.5t-14 -31
q-63 -60 -148 -60q-86 0 -148 59z" />
    <glyph glyph-name="Gdotaccent" unicode="&#x120;" horiz-adv-x="723" 
d="M682 304v-120q0 -71 -48 -111q-103 -85 -247 -85q-152 -2 -257.5 95.5t-103.5 249.5q-2 152 103.5 249.5t257.5 95.5q131 0 217 -78q29 -23 29 -61q0 -34 -23.5 -57t-56.5 -23t-55 21q-49 46 -111 46q-80 0 -133 -55.5t-53 -137.5t53 -137.5t133 -55.5t123 40v52h-87
q-29 0 -50.5 22t-21.5 52t21.5 53.5t50.5 23.5h182q33 0 55 -23t22 -56zM387 866q32 0 55 -23.5t23 -55.5t-23 -55t-55 -23t-55 23t-23 55t23 55.5t55 23.5z" />
    <glyph glyph-name="gdotaccent" unicode="&#x121;" horiz-adv-x="590" 
d="M533 415v-372q0 -134 -82 -186q-82 -53 -194 -53q-95 0 -166 40q-34 19 -34 55q0 26 19 45t45 19q16 0 29 -7q46 -26 107 -26q48 0 85 25q38 26 38 86v38q-59 -71 -143 -71q-94 0 -153.5 64t-59.5 180q0 114 59 178.5t154 64.5q86 0 141 -67q3 27 26.5 45.5t52.5 18.5
q31 0 53.5 -22.5t22.5 -54.5zM380 187v129q-14 19 -40.5 31t-51.5 12q-48 0 -77 -28.5t-29 -78.5q0 -51 29 -79.5t77 -28.5q25 0 51.5 12t40.5 31zM298 719q32 0 55 -23.5t23 -55.5t-23 -55t-55 -23t-55 23t-23 55t23 55.5t55 23.5z" />
    <glyph glyph-name="uni0122" unicode="&#x122;" horiz-adv-x="723" 
d="M682 304v-120q0 -71 -48 -111q-103 -85 -247 -85q-152 -2 -257.5 95.5t-103.5 249.5q-2 152 103.5 249.5t257.5 95.5q131 0 217 -78q29 -23 29 -61q0 -34 -23.5 -57t-56.5 -23t-55 21q-49 46 -111 46q-80 0 -133 -55.5t-53 -137.5t53 -137.5t133 -55.5t123 40v52h-87
q-29 0 -50.5 22t-21.5 52t21.5 53.5t50.5 23.5h182q33 0 55 -23t22 -56zM340 -263q0 13 12 24q33 28 41 59q-6 -3 -17 -3q-25 0 -42 18t-17 45q0 29 20.5 50t48.5 21q34 0 56.5 -24.5t22.5 -64.5q0 -87 -76 -149q-7 -6 -19 -6q-13 0 -21.5 9t-8.5 21z" />
    <glyph glyph-name="uni0123" unicode="&#x123;" horiz-adv-x="590" 
d="M218 623q0 87 76 149q8 6 19 6q13 0 21.5 -9t8.5 -21q0 -14 -12 -24q-33 -28 -41 -59q9 3 17 3q25 0 42 -18t17 -45q0 -29 -20.5 -50t-48.5 -21q-34 0 -56.5 24.5t-22.5 64.5zM533 415v-372q0 -134 -82 -186q-82 -53 -194 -53q-95 0 -166 40q-34 19 -34 55q0 26 19 45
t45 19q16 0 29 -7q46 -26 107 -26q48 0 85 25q38 26 38 86v38q-59 -71 -143 -71q-94 0 -153.5 64t-59.5 180q0 114 59 178.5t154 64.5q86 0 141 -67q3 27 26.5 45.5t52.5 18.5q31 0 53.5 -22.5t22.5 -54.5zM380 187v129q-14 19 -40.5 31t-51.5 12q-48 0 -77 -28.5t-29 -78.5
q0 -51 29 -79.5t77 -28.5q25 0 51.5 12t40.5 31z" />
    <glyph glyph-name="Hcircumflex" unicode="&#x124;" horiz-adv-x="741" 
d="M509 78v190h-277v-190q0 -36 -25 -61.5t-61 -25.5t-61 25.5t-25 61.5v511q0 36 25 61.5t61 25.5t61 -25.5t25 -61.5v-171h277v171q0 36 25 61.5t61 25.5t61 -25.5t25 -61.5v-511q0 -36 -25 -61.5t-61 -25.5t-61 25.5t-25 61.5zM432 730l-61 74l-61 -74q-10 -13 -30 -13
q-15 0 -27 11.5t-12 27.5q0 12 5 20l38 61q26 36 67 36h41q40 0 66 -36l38 -61q6 -9 6 -20q0 -16 -12 -27.5t-28 -11.5q-18 0 -30 13z" />
    <glyph glyph-name="hcircumflex" unicode="&#x125;" horiz-adv-x="594" 
d="M384 68v213q0 78 -80 78q-55 0 -93 -47v-244q0 -31 -22.5 -54t-54.5 -23t-54.5 22.5t-22.5 54.5v531q0 32 22.5 54.5t54.5 22.5t54.5 -22.5t22.5 -54.5v-175q59 71 167 71q79 0 119.5 -40t40.5 -111v-276q0 -31 -22.5 -54t-54.5 -23t-54.5 22.5t-22.5 54.5zM358 730
l-61 74l-61 -74q-10 -13 -30 -13q-15 0 -27 11.5t-12 27.5q0 12 5 20l38 61q26 36 67 36h41q40 0 66 -36l38 -61q6 -9 6 -20q0 -16 -12 -27.5t-28 -11.5q-18 0 -30 13z" />
    <glyph glyph-name="Hbar" unicode="&#x126;" horiz-adv-x="757" 
d="M759 542q0 -18 -12.5 -30.5t-29.5 -12.5h-28v-421q0 -36 -25 -61.5t-61 -25.5t-61 25.5t-25 61.5v190h-277v-190q0 -36 -25 -61.5t-61 -25.5t-61 25.5t-25 61.5v421h-27q-17 0 -29.5 12.5t-12.5 30.5q0 17 12.5 29.5t29.5 12.5h27v5q0 36 25 61.5t61 25.5t61 -25.5
t25 -61.5v-5h277v5q0 36 25 61.5t61 25.5t61 -25.5t25 -61.5v-5h28q17 0 29.5 -12.5t12.5 -29.5zM517 418v81h-277v-81h277z" />
    <glyph glyph-name="hbar" unicode="&#x127;" horiz-adv-x="598" 
d="M542 344v-276q0 -32 -22.5 -54.5t-54.5 -22.5q-31 0 -54 23t-23 54v213q0 78 -80 78q-52 0 -93 -47v-244q0 -32 -22.5 -54.5t-54.5 -22.5q-31 0 -54 23t-23 54v457h-20q-17 0 -30 12.5t-13 29.5t13 29.5t30 12.5h21q4 28 25.5 47.5t50.5 19.5t50.5 -19.5t25.5 -47.5h108
q18 0 30.5 -12.5t12.5 -29.5t-12.5 -29.5t-30.5 -12.5h-107v-101q59 71 168 71q77 0 118 -40t41 -111z" />
    <glyph glyph-name="Itilde" unicode="&#x128;" horiz-adv-x="292" 
d="M60 78v511q0 36 25 61.5t61 25.5t61 -25.5t25 -61.5v-511q0 -36 -25 -61.5t-61 -25.5t-61 25.5t-25 61.5zM124 755q-22 21 -36 21q-21 0 -27 -29q-9 -29 -39 -29q-18 0 -30 14.5t-8 32.5q16 96 109 96q23 0 39 -7.5t38 -26.5q22 -21 36 -21q21 0 27 29q9 29 38 29
q18 0 30.5 -14.5t8.5 -32.5q-16 -96 -109 -96q-23 0 -39 7.5t-38 26.5z" />
    <glyph glyph-name="itilde" unicode="&#x129;" horiz-adv-x="266" 
d="M56 68v347q0 32 23 54.5t54 22.5q32 0 54.5 -22.5t22.5 -54.5v-347q0 -32 -22.5 -54.5t-54.5 -22.5q-31 0 -54 23t-23 54zM111 608q-22 21 -36 21q-21 0 -27 -29q-9 -29 -39 -29q-18 0 -30 14.5t-8 32.5q16 96 109 96q23 0 39 -7.5t38 -26.5q22 -21 36 -21q21 0 27 29
q9 29 38 29q18 0 30.5 -14.5t8.5 -32.5q-17 -96 -109 -96q-23 0 -39 7.5t-38 26.5z" />
    <glyph glyph-name="Imacron" unicode="&#x12a;" horiz-adv-x="292" 
d="M60 78v511q0 36 25 61.5t61 25.5t61 -25.5t25 -61.5v-511q0 -36 -25 -61.5t-61 -25.5t-61 25.5t-25 61.5zM-35 766q0 17 12.5 29.5t29.5 12.5h278q17 0 29 -12.5t12 -29.5q0 -18 -12 -30.5t-29 -12.5h-278q-17 0 -29.5 12.5t-12.5 30.5z" />
    <glyph glyph-name="imacron" unicode="&#x12b;" horiz-adv-x="266" 
d="M56 68v347q0 32 23 54.5t54 22.5q32 0 54.5 -22.5t22.5 -54.5v-347q0 -32 -22.5 -54.5t-54.5 -22.5q-31 0 -54 23t-23 54zM-48 619q0 17 12.5 29.5t29.5 12.5h278q17 0 29 -12.5t12 -29.5q0 -18 -12 -30.5t-29 -12.5h-278q-17 0 -29.5 12.5t-12.5 30.5z" />
    <glyph glyph-name="Ibreve" unicode="&#x12c;" horiz-adv-x="292" 
d="M60 78v511q0 36 25 61.5t61 25.5t61 -25.5t25 -61.5v-511q0 -36 -25 -61.5t-61 -25.5t-61 25.5t-25 61.5zM-2 777q-14 14 -14 32q0 17 12 29.5t30 12.5t29 -11q40 -37 91 -37q50 0 91 36q12 12 29 12t29.5 -12.5t12.5 -29.5t-14 -31q-63 -60 -148 -60q-86 0 -148 59z" />
    <glyph glyph-name="ibreve" unicode="&#x12d;" horiz-adv-x="266" 
d="M56 68v347q0 32 23 54.5t54 22.5q32 0 54.5 -22.5t22.5 -54.5v-347q0 -32 -22.5 -54.5t-54.5 -22.5q-31 0 -54 23t-23 54zM-15 630q-14 14 -14 32q0 17 12 29.5t30 12.5t29 -11q40 -37 91 -37q50 0 91 36q12 12 29 12t29.5 -12.5t12.5 -29.5t-14 -31q-63 -60 -148 -60
q-86 0 -148 59z" />
    <glyph glyph-name="Iogonek" unicode="&#x12e;" horiz-adv-x="292" 
d="M145 -67q0 -14 9 -22t24 -8l8 1q20 0 32 -12t12 -30q0 -16 -9 -27t-22 -14q-25 -7 -66 -7q-52 0 -87.5 21.5t-35.5 62.5q0 33 27.5 58.5t77.5 40.5q-24 10 -39.5 32t-15.5 49v511q0 36 25 61.5t61 25.5t61 -25.5t25 -61.5v-511q0 -52 -47 -77q-40 -36 -40 -68z" />
    <glyph glyph-name="iogonek" unicode="&#x12f;" horiz-adv-x="266" 
d="M45 634q0 37 25.5 62.5t62.5 25.5t62.5 -25.5t25.5 -62.5t-25.5 -63t-62.5 -26t-62.5 26t-25.5 63zM210 415v-347q0 -25 -15 -45t-38 -28q-35 -32 -35 -62q0 -14 10 -22t23 -8l9 1q20 0 32 -12t12 -30q0 -16 -9 -27t-22 -14q-25 -7 -66 -7q-52 0 -87.5 21.5t-35.5 62.5
q0 69 112 101q-44 20 -44 69v347q0 32 23 54.5t54 22.5q32 0 54.5 -22.5t22.5 -54.5z" />
    <glyph glyph-name="Idot" unicode="&#x130;" horiz-adv-x="292" 
d="M60 78v511q0 36 25 61.5t61 25.5t61 -25.5t25 -61.5v-511q0 -36 -25 -61.5t-61 -25.5t-61 25.5t-25 61.5zM146 866q32 0 55 -23.5t23 -55.5t-23 -55t-55 -23t-55 23t-23 55t23 55.5t55 23.5z" />
    <glyph glyph-name="dotlessi" unicode="&#x131;" horiz-adv-x="266" 
d="M56 68v347q0 32 23 54.5t54 22.5q32 0 54.5 -22.5t22.5 -54.5v-347q0 -32 -22.5 -54.5t-54.5 -22.5q-31 0 -54 23t-23 54z" />
    <glyph glyph-name="IJ" unicode="&#x132;" horiz-adv-x="784" 
d="M60 78v511q0 36 25 61.5t61 25.5t61 -25.5t25 -61.5v-511q0 -36 -25 -61.5t-61 -25.5t-61 25.5t-25 61.5zM313 81q0 31 22 53.5t53 22.5q12 0 25 -5q26 -12 50 -12q41 0 65 24.5t24 66.5v358q0 36 25 61.5t61 25.5t61 -25.5t25 -61.5v-360q0 -118 -65 -179.5t-181 -61.5
q-61 0 -115 23q-22 8 -36 27t-14 43z" />
    <glyph glyph-name="ij" unicode="&#x133;" horiz-adv-x="533" 
d="M45 634q0 37 25.5 62.5t62.5 25.5t62.5 -25.5t25.5 -62.5t-25.5 -63t-62.5 -26t-62.5 26t-25.5 63zM56 68v347q0 32 23 54.5t54 22.5q32 0 54.5 -22.5t22.5 -54.5v-347q0 -32 -22.5 -54.5t-54.5 -22.5q-31 0 -54 23t-23 54zM311 634q0 37 25.5 62.5t62.5 25.5t62.5 -25.5
t25.5 -62.5t-25.5 -63t-62.5 -26t-62.5 26t-25.5 63zM300 -196h-7q-33 0 -53.5 18.5t-20.5 50.5q0 22 13 38.5t32 18.5l6 1q52 5 52 73v411q0 32 23 54.5t54 22.5q32 0 54.5 -22.5t22.5 -54.5v-411q0 -92 -46.5 -146t-129.5 -54z" />
    <glyph glyph-name="Jcircumflex" unicode="&#x134;" horiz-adv-x="492" 
d="M21 81q0 31 22 53.5t53 22.5q12 0 25 -5q25 -12 50 -12q41 0 65 24.5t24 66.5v358q0 36 25 61.5t61 25.5t61 -25.5t25 -61.5v-360q0 -118 -65 -179.5t-181 -61.5q-61 0 -115 23q-22 8 -36 27t-14 43zM409 747l-61 74l-61 -74q-10 -13 -30 -13q-15 0 -27 11.5t-12 27.5
q0 12 5 20l38 61q26 36 67 36h41q40 0 66 -36l38 -61q6 -9 6 -20q0 -16 -12 -27.5t-28 -11.5q-18 0 -30 13z" />
    <glyph glyph-name="jcircumflex" unicode="&#x135;" horiz-adv-x="266" 
d="M34 -196h-7q-33 0 -53.5 18.5t-20.5 50.5q0 22 13 38.5t32 18.5l6 1q52 5 52 73v411q0 32 23 54.5t54 22.5q32 0 54.5 -22.5t22.5 -54.5v-411q0 -92 -46.5 -146t-129.5 -54zM194 583l-61 74l-61 -74q-10 -13 -30 -13q-15 0 -27 11.5t-12 27.5q0 12 5 20l38 61
q26 36 67 36h41q40 0 66 -36l38 -61q6 -9 6 -20q0 -16 -12 -27.5t-28 -11.5q-18 0 -30 13z" />
    <glyph glyph-name="uni0136" unicode="&#x136;" horiz-adv-x="654" 
d="M620 75q0 -34 -23.5 -59t-58.5 -25q-39 0 -63 28l-195 230l-48 -55v-116q0 -36 -25 -61.5t-61 -25.5t-61 25.5t-25 61.5v511q0 36 25 61.5t61 25.5t61 -25.5t25 -61.5v-196l228 256q24 27 60 27q33 0 56.5 -24.5t23.5 -56.5q0 -33 -19 -53l-178 -189l198 -224
q19 -22 19 -54zM287 -263q0 13 12 24q33 28 41 59q-6 -3 -17 -3q-25 0 -42 18t-17 45q0 29 20.5 50t48.5 21q34 0 56.5 -24.5t22.5 -64.5q0 -87 -76 -149q-8 -6 -19 -6q-13 0 -21.5 9t-8.5 21z" />
    <glyph glyph-name="uni0137" unicode="&#x137;" horiz-adv-x="546" 
d="M521 68q0 -33 -22.5 -55t-54.5 -22q-38 0 -60 28l-124 152l-50 -47v-56q0 -32 -22.5 -54.5t-54.5 -22.5q-31 0 -54 23t-23 54v531q0 32 23 54.5t54 22.5q32 0 54.5 -22.5t22.5 -54.5v-305l170 176q22 22 52 22q31 0 51.5 -21t20.5 -51t-22 -52l-110 -107l135 -148
q14 -16 14 -45zM226 -263q0 13 12 24q33 28 41 59q-6 -3 -17 -3q-25 0 -42 18t-17 45q0 29 20.5 50t48.5 21q34 0 56.5 -24.5t22.5 -64.5q0 -87 -76 -149q-7 -6 -19 -6q-13 0 -21.5 9t-8.5 21z" />
    <glyph glyph-name="kgreenlandic" unicode="&#x138;" horiz-adv-x="546" 
d="M521 68q0 -33 -22.5 -55t-54.5 -22q-38 0 -60 28l-124 152l-50 -47v-56q0 -32 -22.5 -54.5t-54.5 -22.5q-31 0 -54 23t-23 54v347q0 32 23 54.5t54 22.5q32 0 54.5 -22.5t22.5 -54.5v-121l170 176q22 22 52 22q31 0 51.5 -21t20.5 -51t-22 -52l-110 -107l135 -148
q14 -16 14 -45z" />
    <glyph glyph-name="Lacute" unicode="&#x139;" horiz-adv-x="529" 
d="M60 91v498q0 36 25 61.5t61 25.5t61 -25.5t25 -61.5v-439h201q31 0 53 -22t22 -53t-22 -53t-53 -22h-282q-91 0 -91 91zM151 710q-16 0 -27.5 11.5t-11.5 27.5q0 13 9 24l83 94q13 16 34 16q18 0 32 -13.5t14 -33.5q0 -19 -14 -33l-91 -82q-11 -11 -28 -11z" />
    <glyph glyph-name="lacute" unicode="&#x13a;" horiz-adv-x="266" 
d="M56 68v531q0 32 23 54.5t54 22.5q32 0 54.5 -22.5t22.5 -54.5v-531q0 -32 -22.5 -54.5t-54.5 -22.5q-31 0 -54 23t-23 54zM138 710q-16 0 -27.5 11.5t-11.5 27.5q0 13 9 24l83 94q13 16 34 16q18 0 32 -13.5t14 -33.5q0 -19 -14 -33l-91 -82q-11 -11 -28 -11z" />
    <glyph glyph-name="uni013B" unicode="&#x13b;" horiz-adv-x="529" 
d="M60 91v498q0 36 25 61.5t61 25.5t61 -25.5t25 -61.5v-439h201q31 0 53 -22t22 -53t-22 -53t-53 -22h-282q-91 0 -91 91zM234 -263q0 13 12 24q33 28 41 59q-6 -3 -17 -3q-25 0 -42 18t-17 45q0 29 20.5 50t48.5 21q34 0 56.5 -24.5t22.5 -64.5q0 -87 -76 -149
q-8 -6 -19 -6q-13 0 -21.5 9t-8.5 21z" />
    <glyph glyph-name="uni013C" unicode="&#x13c;" horiz-adv-x="266" 
d="M56 68v531q0 32 23 54.5t54 22.5q32 0 54.5 -22.5t22.5 -54.5v-531q0 -32 -22.5 -54.5t-54.5 -22.5q-31 0 -54 23t-23 54zM86 -263q0 13 12 24q33 28 41 59q-6 -3 -17 -3q-25 0 -42 18t-17 45q0 29 20.5 50t48.5 21q34 0 56.5 -24.5t22.5 -64.5q0 -87 -76 -149
q-7 -6 -19 -6q-13 0 -21.5 9t-8.5 21z" />
    <glyph glyph-name="Lcaron" unicode="&#x13d;" horiz-adv-x="529" 
d="M60 91v498q0 36 25 61.5t61 25.5t61 -25.5t25 -61.5v-439h201q31 0 53 -22t22 -53t-22 -53t-53 -22h-282q-91 0 -91 91zM328 467q0 13 12 24q33 28 41 59q-6 -3 -17 -3q-25 0 -42 18t-17 45q0 29 20.5 50t48.5 21q34 0 56.5 -24.5t22.5 -64.5q0 -87 -76 -149
q-7 -6 -19 -6q-13 0 -21.5 9t-8.5 21z" />
    <glyph glyph-name="lcaron" unicode="&#x13e;" horiz-adv-x="386" 
d="M56 68v531q0 32 23 54.5t54 22.5q32 0 54.5 -22.5t22.5 -54.5v-531q0 -32 -22.5 -54.5t-54.5 -22.5q-31 0 -54 23t-23 54zM269 469q0 13 12 24q33 28 41 59q-6 -3 -17 -3q-25 0 -42 18t-17 45q0 29 20.5 50t48.5 21q34 0 56.5 -24.5t22.5 -64.5q0 -87 -76 -149
q-8 -6 -19 -6q-13 0 -21.5 9t-8.5 21z" />
    <glyph glyph-name="Ldot" unicode="&#x13f;" horiz-adv-x="570" 
d="M60 91v498q0 36 25 61.5t61 25.5t61 -25.5t25 -61.5v-439h201q31 0 53 -22t22 -53t-22 -53t-53 -22h-282q-91 0 -91 91zM338 342q0 38 27.5 66t65.5 28t66 -28t28 -66t-28 -65.5t-66 -27.5t-65.5 27.5t-27.5 65.5z" />
    <glyph glyph-name="ldot" unicode="&#x140;" horiz-adv-x="423" 
d="M56 68v531q0 32 23 54.5t54 22.5q32 0 54.5 -22.5t22.5 -54.5v-531q0 -32 -22.5 -54.5t-54.5 -22.5q-31 0 -54 23t-23 54zM251 244q0 38 27.5 66t65.5 28t66 -28t28 -66t-28 -65.5t-66 -27.5t-65.5 27.5t-27.5 65.5z" />
    <glyph glyph-name="Lslash" unicode="&#x141;" horiz-adv-x="535" 
d="M520 75q0 -31 -22.5 -53t-53.5 -22h-281q-44 0 -68 23.5t-24 67.5v124q-9 -3 -18 -3q-24 0 -41.5 17.5t-17.5 42.5q0 36 30 52l47 27v238q0 35 25.5 61t61.5 26q35 0 60.5 -26t25.5 -61v-138q13 5 21 5q25 0 42.5 -18t17.5 -42q0 -34 -30 -53l-51 -29v-164h200
q31 0 53.5 -22t22.5 -53z" />
    <glyph glyph-name="lslash" unicode="&#x142;" horiz-adv-x="319" 
d="M320 399q0 -27 -24 -40l-60 -35v-256q0 -32 -22.5 -54.5t-53.5 -22.5q-32 0 -54.5 22.5t-22.5 54.5v168l-13 -8q-10 -6 -24 -6q-19 0 -33 14t-14 33q0 27 24 41l60 35v254q0 32 22.5 54.5t54.5 22.5q31 0 53.5 -22.5t22.5 -54.5v-166l13 7q11 6 24 6q20 0 33.5 -13.5
t13.5 -33.5z" />
    <glyph glyph-name="Nacute" unicode="&#x143;" horiz-adv-x="740" 
d="M488 36l-256 367v-325q0 -36 -25 -61.5t-61 -25.5t-61 25.5t-25 61.5v485q0 46 33 79q33 34 80 34q59 0 92 -49l242 -344v306q0 35 25.5 61t60.5 26q36 0 61.5 -26t25.5 -61v-493q0 -43 -31 -74t-75 -31q-54 0 -86 45zM374 710q-16 0 -27.5 11.5t-11.5 27.5q0 13 9 24
l83 94q13 16 34 16q18 0 32 -13.5t14 -33.5q0 -19 -14 -33l-91 -82q-11 -11 -28 -11z" />
    <glyph glyph-name="nacute" unicode="&#x144;" horiz-adv-x="593" 
d="M537 342v-274q0 -31 -22.5 -54t-54.5 -23t-54.5 22.5t-22.5 54.5v211q0 80 -79 80q-56 0 -94 -47v-244q0 -32 -22.5 -54.5t-54.5 -22.5q-31 0 -54 23t-23 54v347q0 33 22 56t55 23q30 0 52 -19.5t26 -49.5q61 70 166 70q79 0 119.5 -40.5t40.5 -112.5zM301 563
q-16 0 -27.5 11.5t-11.5 27.5q0 14 9 24l83 94q13 16 34 16q18 0 32 -13.5t14 -33.5q0 -19 -14 -33l-91 -82q-11 -11 -28 -11z" />
    <glyph glyph-name="uni0145" unicode="&#x145;" horiz-adv-x="740" 
d="M488 36l-256 367v-325q0 -36 -25 -61.5t-61 -25.5t-61 25.5t-25 61.5v485q0 46 33 79q33 34 80 34q59 0 92 -49l242 -344v306q0 35 25.5 61t60.5 26q36 0 61.5 -26t25.5 -61v-493q0 -43 -31 -74t-75 -31q-54 0 -86 45zM323 -263q0 13 12 24q33 28 41 59q-6 -3 -17 -3
q-25 0 -42 18t-17 45q0 29 20.5 50t48.5 21q34 0 56.5 -24.5t22.5 -64.5q0 -87 -76 -149q-8 -6 -19 -6q-13 0 -21.5 9t-8.5 21z" />
    <glyph glyph-name="uni0146" unicode="&#x146;" horiz-adv-x="593" 
d="M537 342v-274q0 -31 -22.5 -54t-54.5 -23t-54.5 22.5t-22.5 54.5v211q0 80 -79 80q-56 0 -94 -47v-244q0 -32 -22.5 -54.5t-54.5 -22.5q-31 0 -54 23t-23 54v347q0 33 22 56t55 23q30 0 52 -19.5t26 -49.5q61 70 166 70q79 0 119.5 -40.5t40.5 -112.5zM250 -263
q0 13 12 24q33 28 41 59q-6 -3 -17 -3q-25 0 -42 18t-17 45q0 29 20.5 50t48.5 21q34 0 56.5 -24.5t22.5 -64.5q0 -87 -76 -149q-7 -6 -19 -6q-13 0 -21.5 9t-8.5 21z" />
    <glyph glyph-name="Ncaron" unicode="&#x147;" horiz-adv-x="740" 
d="M488 36l-256 367v-325q0 -36 -25 -61.5t-61 -25.5t-61 25.5t-25 61.5v485q0 46 33 79q33 34 80 34q59 0 92 -49l242 -344v306q0 35 25.5 61t60.5 26q36 0 61.5 -26t25.5 -61v-493q0 -43 -31 -74t-75 -31q-54 0 -86 45zM498 834q0 -11 -6 -20l-38 -61q-26 -36 -66 -36h-41
q-41 0 -67 36l-38 61q-5 8 -5 20q0 16 12 27.5t27 11.5q20 0 30 -13l61 -74l61 74q12 13 30 13q16 0 28 -11.5t12 -27.5z" />
    <glyph glyph-name="ncaron" unicode="&#x148;" horiz-adv-x="593" 
d="M537 342v-274q0 -31 -22.5 -54t-54.5 -23t-54.5 22.5t-22.5 54.5v211q0 80 -79 80q-56 0 -94 -47v-244q0 -32 -22.5 -54.5t-54.5 -22.5q-31 0 -54 23t-23 54v347q0 33 22 56t55 23q30 0 52 -19.5t26 -49.5q61 70 166 70q79 0 119.5 -40.5t40.5 -112.5zM425 687
q0 -11 -6 -20l-38 -61q-26 -36 -66 -36h-41q-41 0 -67 36l-38 61q-5 8 -5 20q0 16 12 27.5t27 11.5q20 0 30 -13l61 -74l61 74q12 13 30 13q16 0 28 -11.5t12 -27.5z" />
    <glyph glyph-name="napostrophe" unicode="&#x149;" horiz-adv-x="593" 
d="M537 342v-274q0 -31 -22.5 -54t-54.5 -23t-54.5 22.5t-22.5 54.5v211q0 80 -79 80q-56 0 -94 -47v-244q0 -32 -22.5 -54.5t-54.5 -22.5q-31 0 -54 23t-23 54v347q0 33 22 56t55 23q30 0 52 -19.5t26 -49.5q61 70 166 70q79 0 119.5 -40.5t40.5 -112.5zM57 561q0 13 12 24
q33 28 41 59q-6 -3 -17 -3q-25 0 -42 18t-17 45q0 29 20.5 50t48.5 21q34 0 56.5 -24.5t22.5 -64.5q0 -87 -76 -149q-7 -6 -19 -6q-13 0 -21.5 9t-8.5 21z" />
    <glyph glyph-name="Eng" unicode="&#x14a;" horiz-adv-x="740" 
d="M680 589v-545q0 -117 -65.5 -178.5t-181.5 -61.5q-61 0 -115 23q-22 8 -36 27t-14 43q0 31 22 53.5t53 22.5q13 0 26 -5q25 -12 49 -12q70 0 79 67l-265 380v-325q0 -36 -25 -61.5t-61 -25.5t-61 25.5t-25 61.5v484q0 47 33 80q34 34 80 34q60 0 92 -47l242 -346v306
q0 35 25.5 61t60.5 26q36 0 61.5 -26t25.5 -61z" />
    <glyph glyph-name="eng" unicode="&#x14b;" horiz-adv-x="593" 
d="M537 342v-338q0 -92 -46.5 -146t-129.5 -54h-7q-33 0 -53.5 18.5t-20.5 50.5q0 22 13 38.5t32 18.5l6 1q52 5 52 73v275q0 80 -79 80q-56 0 -94 -47v-244q0 -32 -22.5 -54.5t-54.5 -22.5q-31 0 -54 23t-23 54v347q0 33 22 56t55 23q30 0 52 -19.5t26 -49.5q61 70 166 70
q79 0 119.5 -40.5t40.5 -112.5z" />
    <glyph glyph-name="Omacron" unicode="&#x14c;" horiz-adv-x="766" 
d="M383 678q151 2 254.5 -97.5t101.5 -247.5q2 -148 -101.5 -247.5t-254.5 -97.5q-152 -2 -255.5 97.5t-101.5 247.5q-2 148 101.5 247.5t255.5 97.5zM383 526q-81 0 -131.5 -55.5t-50.5 -137.5t50.5 -137.5t131.5 -55.5q80 0 130.5 55.5t50.5 137.5t-50.5 137.5
t-130.5 55.5zM201 766q0 17 12.5 29.5t29.5 12.5h278q17 0 29 -12.5t12 -29.5q0 -18 -12 -30.5t-29 -12.5h-278q-17 0 -29.5 12.5t-12.5 30.5z" />
    <glyph glyph-name="omacron" unicode="&#x14d;" 
d="M24 242q0 106 73 179.5t190 73.5q118 0 191 -73t73 -180t-73 -180.5t-191 -73.5q-117 0 -190 74t-73 180zM393 242q0 51 -29 84t-77 33t-76 -33t-28 -84q0 -52 28 -85t76 -33t77 33t29 85zM106 619q0 17 12.5 29.5t29.5 12.5h278q17 0 29 -12.5t12 -29.5q0 -18 -12 -30.5
t-29 -12.5h-278q-17 0 -29.5 12.5t-12.5 30.5z" />
    <glyph glyph-name="Obreve" unicode="&#x14e;" horiz-adv-x="766" 
d="M383 678q151 2 254.5 -97.5t101.5 -247.5q2 -148 -101.5 -247.5t-254.5 -97.5q-152 -2 -255.5 97.5t-101.5 247.5q-2 148 101.5 247.5t255.5 97.5zM383 526q-81 0 -131.5 -55.5t-50.5 -137.5t50.5 -137.5t131.5 -55.5q80 0 130.5 55.5t50.5 137.5t-50.5 137.5
t-130.5 55.5zM234 777q-14 14 -14 32q0 17 12 29.5t30 12.5t29 -11q40 -37 91 -37q50 0 91 36q12 12 29 12t29.5 -12.5t12.5 -29.5t-14 -31q-63 -60 -148 -60q-86 0 -148 59z" />
    <glyph glyph-name="obreve" unicode="&#x14f;" 
d="M24 242q0 106 73 179.5t190 73.5q118 0 191 -73t73 -180t-73 -180.5t-191 -73.5q-117 0 -190 74t-73 180zM393 242q0 51 -29 84t-77 33t-76 -33t-28 -84q0 -52 28 -85t76 -33t77 33t29 85zM139 630q-14 14 -14 32q0 17 12 29.5t30 12.5t29 -11q40 -37 91 -37t91 36
q12 12 29 12t29.5 -12.5t12.5 -29.5t-14 -31q-63 -60 -148 -60q-86 0 -148 59z" />
    <glyph glyph-name="Ohungarumlaut" unicode="&#x150;" horiz-adv-x="766" 
d="M383 678q151 2 254.5 -97.5t101.5 -247.5q2 -148 -101.5 -247.5t-254.5 -97.5q-152 -2 -255.5 97.5t-101.5 247.5q-2 148 101.5 247.5t255.5 97.5zM383 526q-81 0 -131.5 -55.5t-50.5 -137.5t50.5 -137.5t131.5 -55.5q80 0 130.5 55.5t50.5 137.5t-50.5 137.5
t-130.5 55.5zM284 755q0 7 5 19l46 78q14 22 38 22q19 0 32 -13.5t13 -32.5q0 -16 -9 -28l-57 -70q-11 -14 -29 -14q-16 0 -27.5 11t-11.5 28zM437 755q0 11 5 19l45 78q15 22 39 22q18 0 31.5 -13.5t13.5 -32.5q0 -18 -10 -28l-56 -70q-11 -14 -29 -14q-16 0 -27.5 11
t-11.5 28z" />
    <glyph glyph-name="ohungarumlaut" unicode="&#x151;" 
d="M24 242q0 106 73 179.5t190 73.5q118 0 191 -73t73 -180t-73 -180.5t-191 -73.5q-117 0 -190 74t-73 180zM393 242q0 51 -29 84t-77 33t-76 -33t-28 -84q0 -52 28 -85t76 -33t77 33t29 85zM189 608q0 7 5 19l46 78q14 22 38 22q19 0 32 -13.5t13 -32.5q0 -16 -9 -28
l-57 -70q-11 -14 -29 -14q-16 0 -27.5 11t-11.5 28zM342 608q0 11 5 19l45 78q15 22 39 22q18 0 31.5 -13.5t13.5 -32.5q0 -18 -10 -28l-56 -70q-11 -14 -29 -14q-16 0 -27.5 11t-11.5 28z" />
    <glyph glyph-name="OE" unicode="&#x152;" horiz-adv-x="1073" 
d="M1045 73q0 -30 -21.5 -51.5t-51.5 -21.5h-333q-70 0 -87 59q-30 -33 -81.5 -52t-106.5 -19q-144 -2 -242 96.5t-96 248.5q-2 149 95.5 247.5t242.5 96.5q55 0 107 -18.5t81 -50.5q17 59 87 59h333q30 0 51.5 -21.5t21.5 -51.5q0 -29 -21.5 -50.5t-51.5 -21.5h-252v-111
h245q30 0 51.5 -21.5t21.5 -51.5t-21.5 -51.5t-51.5 -21.5h-245v-120h252q30 0 51.5 -21t21.5 -51zM548 234v199q-22 44 -63.5 68t-95.5 24q-85 0 -136.5 -54t-51.5 -138q0 -85 51.5 -139t136.5 -54q53 0 95 25t64 69z" />
    <glyph glyph-name="oe" unicode="&#x153;" horiz-adv-x="916" 
d="M677 107q39 0 81 20q15 5 24 5q25 0 42.5 -17t17.5 -41q0 -17 -10 -31.5t-26 -21.5q-66 -33 -150 -33q-61 0 -103.5 22.5t-82.5 68.5q-77 -91 -183 -91q-117 0 -190 74t-73 180t73 179.5t190 73.5q58 0 101 -23.5t83 -68.5q74 92 179 92q108 0 177 -74t69 -195
q0 -33 -92 -33h-252q10 -38 42.5 -62t82.5 -24zM649 377q-42 0 -67 -24t-31 -60h198q-4 35 -29.5 59.5t-70.5 24.5zM183 242q0 -54 29 -86.5t75 -32.5q48 0 77 32.5t29 86.5t-29 85.5t-77 31.5q-46 0 -75 -32t-29 -85z" />
    <glyph glyph-name="Racute" unicode="&#x154;" horiz-adv-x="661" 
d="M512 252l93 -122q18 -26 18 -54q0 -35 -25.5 -60t-59.5 -25q-44 0 -70 36l-139 199h-97v-148q0 -36 -25 -61.5t-61 -25.5t-61 25.5t-25 61.5v498q0 91 91 91h243q106 0 169 -62.5t63 -159.5q0 -69 -31.5 -118.5t-82.5 -74.5zM232 522v-150h136q36 0 59.5 21t23.5 54
t-23.5 54t-59.5 21h-136zM338 710q-16 0 -27.5 11.5t-11.5 27.5q0 13 9 24l83 94q13 16 34 16q18 0 32 -13.5t14 -33.5q0 -19 -14 -33l-91 -82q-11 -11 -28 -11z" />
    <glyph glyph-name="racute" unicode="&#x155;" horiz-adv-x="375" 
d="M373 426q0 -32 -17.5 -52.5t-49.5 -24.5q-73 -9 -96 -43v-238q0 -32 -22.5 -54.5t-54.5 -22.5q-31 0 -54 23t-23 54v344q0 33 22 56.5t55 23.5q31 0 53 -19t25 -49q31 45 62 60q19 9 35 9q29 0 47 -19.5t18 -47.5zM213 563q-16 0 -27.5 11.5t-11.5 27.5q0 14 9 24l83 94
q13 16 34 16q18 0 32 -13.5t14 -33.5q0 -19 -14 -33l-91 -82q-11 -11 -28 -11z" />
    <glyph glyph-name="uni0156" unicode="&#x156;" horiz-adv-x="661" 
d="M512 252l93 -122q18 -26 18 -54q0 -35 -25.5 -60t-59.5 -25q-44 0 -70 36l-139 199h-97v-148q0 -36 -25 -61.5t-61 -25.5t-61 25.5t-25 61.5v498q0 91 91 91h243q106 0 169 -62.5t63 -159.5q0 -69 -31.5 -118.5t-82.5 -74.5zM232 522v-150h136q36 0 59.5 21t23.5 54
t-23.5 54t-59.5 21h-136zM287 -263q0 13 12 24q33 28 41 59q-6 -3 -17 -3q-25 0 -42 18t-17 45q0 29 20.5 50t48.5 21q34 0 56.5 -24.5t22.5 -64.5q0 -87 -76 -149q-8 -6 -19 -6q-13 0 -21.5 9t-8.5 21z" />
    <glyph glyph-name="uni0157" unicode="&#x157;" horiz-adv-x="375" 
d="M373 426q0 -32 -17.5 -52.5t-49.5 -24.5q-73 -9 -96 -43v-238q0 -32 -22.5 -54.5t-54.5 -22.5q-31 0 -54 23t-23 54v344q0 33 22 56.5t55 23.5q31 0 53 -19t25 -49q31 45 62 60q19 9 35 9q29 0 47 -19.5t18 -47.5zM89 -263q0 13 12 24q33 28 41 59q-6 -3 -17 -3
q-25 0 -42 18t-17 45q0 29 20.5 50t48.5 21q34 0 56.5 -24.5t22.5 -64.5q0 -87 -76 -149q-8 -6 -19 -6q-13 0 -21.5 9t-8.5 21z" />
    <glyph glyph-name="Rcaron" unicode="&#x158;" horiz-adv-x="661" 
d="M512 252l93 -122q18 -26 18 -54q0 -35 -25.5 -60t-59.5 -25q-44 0 -70 36l-139 199h-97v-148q0 -36 -25 -61.5t-61 -25.5t-61 25.5t-25 61.5v498q0 91 91 91h243q106 0 169 -62.5t63 -159.5q0 -69 -31.5 -118.5t-82.5 -74.5zM232 522v-150h136q36 0 59.5 21t23.5 54
t-23.5 54t-59.5 21h-136zM462 834q0 -11 -6 -20l-38 -61q-26 -36 -66 -36h-41q-41 0 -67 36l-38 61q-5 8 -5 20q0 16 12 27.5t27 11.5q20 0 30 -13l61 -74l61 74q12 13 30 13q16 0 28 -11.5t12 -27.5z" />
    <glyph glyph-name="rcaron" unicode="&#x159;" horiz-adv-x="375" 
d="M373 426q0 -32 -17.5 -52.5t-49.5 -24.5q-73 -9 -96 -43v-238q0 -32 -22.5 -54.5t-54.5 -22.5q-31 0 -54 23t-23 54v344q0 33 22 56.5t55 23.5q31 0 53 -19t25 -49q31 45 62 60q19 9 35 9q29 0 47 -19.5t18 -47.5zM336 687q0 -11 -6 -20l-38 -61q-26 -36 -66 -36h-41
q-41 0 -67 36l-38 61q-5 8 -5 20q0 16 12 27.5t27 11.5q20 0 30 -13l61 -74l61 74q12 13 30 13q16 0 28 -11.5t12 -27.5z" />
    <glyph glyph-name="Sacute" unicode="&#x15a;" horiz-adv-x="606" 
d="M34 116q0 32 23 55.5t55 23.5q24 0 42 -12q76 -48 162 -48q42 0 68.5 16t26.5 41q0 26 -25.5 40.5t-88.5 27.5q-82 17 -133 33q-51 17 -92 60q-39 42 -39 115q0 89 74 149t202 60q114 0 207 -48q19 -9 31 -28t12 -41q0 -32 -23 -55t-55 -23q-17 0 -37 9q-82 39 -146 39
q-89 0 -89 -52q0 -23 25 -36t90 -25q83 -18 130 -35q53 -20 92 -60q40 -40 40 -111q0 -103 -73.5 -163t-204.5 -60q-138 0 -236 61q-38 24 -38 67zM303 710q-16 0 -27.5 11.5t-11.5 27.5q0 13 9 24l83 94q13 16 34 16q18 0 32 -13.5t14 -33.5q0 -19 -14 -33l-91 -82
q-11 -11 -28 -11z" />
    <glyph glyph-name="sacute" unicode="&#x15b;" horiz-adv-x="484" 
d="M29 86q0 26 18 44t44 18q15 0 28 -7q73 -37 130 -37q65 0 65 36q0 17 -19.5 26t-63.5 16q-64 11 -100 22q-98 33 -98 132q0 68 56 113.5t151 45.5q83 0 157 -38q32 -15 32 -51q0 -24 -17 -41t-40 -17q-14 0 -27 7q-51 27 -104 27q-28 0 -44.5 -9t-16.5 -24t17 -23.5
t60 -15.5q61 -11 101 -24q103 -32 103 -138q0 -71 -59.5 -115.5t-160.5 -44.5q-98 0 -178 43q-34 19 -34 55zM245 563q-16 0 -27.5 11.5t-11.5 27.5q0 14 9 24l83 94q13 16 34 16q18 0 32 -13.5t14 -33.5q0 -19 -14 -33l-91 -82q-11 -11 -28 -11z" />
    <glyph glyph-name="Scircumflex" unicode="&#x15c;" horiz-adv-x="606" 
d="M34 116q0 32 23 55.5t55 23.5q24 0 42 -12q76 -48 162 -48q42 0 68.5 16t26.5 41q0 26 -25.5 40.5t-88.5 27.5q-82 17 -133 33q-51 17 -92 60q-39 42 -39 115q0 89 74 149t202 60q114 0 207 -48q19 -9 31 -28t12 -41q0 -32 -23 -55t-55 -23q-17 0 -37 9q-82 39 -146 39
q-89 0 -89 -52q0 -23 25 -36t90 -25q83 -18 130 -35q53 -20 92 -60q40 -40 40 -111q0 -103 -73.5 -163t-204.5 -60q-138 0 -236 61q-38 24 -38 67zM360 730l-61 74l-61 -74q-10 -13 -30 -13q-15 0 -27 11.5t-12 27.5q0 12 5 20l38 61q26 36 67 36h41q40 0 66 -36l38 -61
q6 -9 6 -20q0 -16 -12 -27.5t-28 -11.5q-18 0 -30 13z" />
    <glyph glyph-name="scircumflex" unicode="&#x15d;" horiz-adv-x="484" 
d="M29 86q0 26 18 44t44 18q15 0 28 -7q73 -37 130 -37q65 0 65 36q0 17 -19.5 26t-63.5 16q-64 11 -100 22q-98 33 -98 132q0 68 56 113.5t151 45.5q83 0 157 -38q32 -15 32 -51q0 -24 -17 -41t-40 -17q-14 0 -27 7q-51 27 -104 27q-28 0 -44.5 -9t-16.5 -24t17 -23.5
t60 -15.5q61 -11 101 -24q103 -32 103 -138q0 -71 -59.5 -115.5t-160.5 -44.5q-98 0 -178 43q-34 19 -34 55zM301 583l-61 74l-61 -74q-10 -13 -30 -13q-15 0 -27 11.5t-12 27.5q0 12 5 20l38 61q26 36 67 36h41q40 0 66 -36l38 -61q6 -9 6 -20q0 -16 -12 -27.5t-28 -11.5
q-18 0 -30 13z" />
    <glyph glyph-name="uni015E" unicode="&#x15e;" horiz-adv-x="606" 
d="M327 -12l-16 -37q16 10 35 10q28 0 48 -21t20 -51q0 -39 -32.5 -63t-82.5 -24q-51 0 -92 19q-20 11 -20 30q0 14 9.5 23.5t22.5 9.5q8 0 15 -4q32 -17 61 -17q19 0 33 8t14 20q0 22 -25 22q-9 0 -20 -6q-12 -6 -20 -6q-14 0 -25 11.5t-11 27.5q0 3 2 11l15 39
q-103 7 -186 59q-38 24 -38 67q0 32 23 55.5t55 23.5q24 0 42 -12q76 -48 162 -48q42 0 68.5 16t26.5 41q0 26 -25.5 40.5t-88.5 27.5q-82 17 -133 33q-51 17 -92 60q-39 42 -39 115q0 89 74 149t202 60q114 0 207 -48q19 -9 31 -28t12 -41q0 -32 -23 -55t-55 -23
q-17 0 -37 9q-82 39 -146 39q-89 0 -89 -52q0 -23 25 -36t90 -25q83 -18 130 -35q53 -20 92 -60q40 -40 40 -111q0 -99 -68 -158.5t-191 -64.5z" />
    <glyph glyph-name="uni015F" unicode="&#x15f;" horiz-adv-x="484" 
d="M269 -11l-16 -38q16 10 35 10q28 0 47.5 -20.5t19.5 -51.5q0 -39 -32.5 -63t-81.5 -24q-51 0 -92 19q-21 11 -21 30q0 13 10 23t23 10q7 0 14 -4q32 -17 62 -17q19 0 32.5 8t13.5 20q0 22 -25 22q-10 0 -20 -6t-19 -6q-14 0 -25 11.5t-11 27.5q0 3 2 11l14 39
q-75 7 -136 41q-34 19 -34 55q0 26 18 44t44 18q15 0 28 -7q73 -37 130 -37q65 0 65 36q0 17 -19.5 26t-63.5 16q-64 11 -100 22q-98 33 -98 132q0 68 56 113.5t151 45.5q83 0 157 -38q32 -15 32 -51q0 -24 -17 -41t-40 -17q-14 0 -27 7q-51 27 -104 27q-28 0 -44.5 -9
t-16.5 -24t17 -23.5t60 -15.5q61 -11 101 -24q103 -32 103 -138q0 -67 -51.5 -110t-140.5 -49z" />
    <glyph glyph-name="Scaron" unicode="&#x160;" horiz-adv-x="606" 
d="M34 116q0 32 23 55.5t55 23.5q24 0 42 -12q76 -48 162 -48q42 0 68.5 16t26.5 41q0 26 -25.5 40.5t-88.5 27.5q-82 17 -133 33q-51 17 -92 60q-39 42 -39 115q0 89 74 149t202 60q114 0 207 -48q19 -9 31 -28t12 -41q0 -32 -23 -55t-55 -23q-17 0 -37 9q-82 39 -146 39
q-89 0 -89 -52q0 -23 25 -36t90 -25q83 -18 130 -35q53 -20 92 -60q40 -40 40 -111q0 -103 -73.5 -163t-204.5 -60q-138 0 -236 61q-38 24 -38 67zM427 834q0 -11 -6 -20l-38 -61q-26 -36 -66 -36h-41q-41 0 -67 36l-38 61q-5 8 -5 20q0 16 12 27.5t27 11.5q20 0 30 -13
l61 -74l61 74q12 13 30 13q16 0 28 -11.5t12 -27.5z" />
    <glyph glyph-name="scaron" unicode="&#x161;" horiz-adv-x="484" 
d="M29 86q0 26 18 44t44 18q15 0 28 -7q73 -37 130 -37q65 0 65 36q0 17 -19.5 26t-63.5 16q-64 11 -100 22q-98 33 -98 132q0 68 56 113.5t151 45.5q83 0 157 -38q32 -15 32 -51q0 -24 -17 -41t-40 -17q-14 0 -27 7q-51 27 -104 27q-28 0 -44.5 -9t-16.5 -24t17 -23.5
t60 -15.5q61 -11 101 -24q103 -32 103 -138q0 -71 -59.5 -115.5t-160.5 -44.5q-98 0 -178 43q-34 19 -34 55zM368 687q0 -11 -6 -20l-38 -61q-26 -36 -66 -36h-41q-41 0 -67 36l-38 61q-5 8 -5 20q0 16 12 27.5t27 11.5q20 0 30 -13l61 -74l61 74q12 13 30 13q16 0 28 -11.5
t12 -27.5z" />
    <glyph glyph-name="uni0162" unicode="&#x162;" horiz-adv-x="589" 
d="M209 78v439h-121q-31 0 -53 22t-22 53t22 53t53 22h412q31 0 53.5 -22t22.5 -53t-22.5 -53t-53.5 -22h-119v-439q0 -35 -25.5 -61t-60.5 -26q-36 0 -61 25.5t-25 61.5zM248 -263q0 13 12 24q33 28 41 59q-6 -3 -17 -3q-25 0 -42 18t-17 45q0 29 20.5 50t48.5 21
q34 0 56.5 -24.5t22.5 -64.5q0 -87 -76 -149q-7 -6 -19 -6q-13 0 -21.5 9t-8.5 21z" />
    <glyph glyph-name="uni0163" unicode="&#x163;" horiz-adv-x="360" 
d="M351 58q0 -23 -14 -40t-35 -22q-29 -8 -63 -8q-151 0 -151 142v219h-22q-28 0 -47.5 20t-19.5 47q0 28 19.5 47.5t47.5 19.5h22v64q0 32 22.5 54.5t54.5 22.5q31 0 53.5 -22.5t22.5 -54.5v-64h40q28 0 47.5 -19.5t19.5 -47.5q0 -27 -19.5 -47t-47.5 -20h-40v-176
q0 -21 11 -34.5t29 -14.5h15q24 -1 39.5 -20t15.5 -46zM133 -263q0 13 12 24q33 28 41 59q-6 -3 -17 -3q-25 0 -42 18t-17 45q0 29 20.5 50t48.5 21q34 0 56.5 -24.5t22.5 -64.5q0 -87 -76 -149q-7 -6 -19 -6q-13 0 -21.5 9t-8.5 21z" />
    <glyph glyph-name="Tcaron" unicode="&#x164;" horiz-adv-x="589" 
d="M209 78v439h-121q-31 0 -53 22t-22 53t22 53t53 22h412q31 0 53.5 -22t22.5 -53t-22.5 -53t-53.5 -22h-119v-439q0 -35 -25.5 -61t-60.5 -26q-36 0 -61 25.5t-25 61.5zM423 834q0 -11 -6 -20l-38 -61q-26 -36 -66 -36h-41q-41 0 -67 36l-38 61q-5 8 -5 20q0 16 12 27.5
t27 11.5q20 0 30 -13l61 -74l61 74q12 13 30 13q16 0 28 -11.5t12 -27.5z" />
    <glyph glyph-name="tcaron" unicode="&#x165;" horiz-adv-x="413" 
d="M351 58q0 -23 -14 -40t-35 -22q-29 -8 -63 -8q-151 0 -151 142v219h-22q-28 0 -47.5 20t-19.5 47q0 28 19.5 47.5t47.5 19.5h22v64q0 32 22.5 54.5t54.5 22.5q31 0 53.5 -22.5t22.5 -54.5v-64h40q28 0 47.5 -19.5t19.5 -47.5q0 -27 -19.5 -47t-47.5 -20h-40v-176
q0 -21 11 -34.5t29 -14.5h15q24 -1 39.5 -20t15.5 -46zM315 561q0 13 12 24q33 28 41 59q-6 -3 -17 -3q-25 0 -42 18t-17 45q0 29 20.5 50t48.5 21q34 0 56.5 -24.5t22.5 -64.5q0 -87 -76 -149q-8 -6 -19 -6q-13 0 -21.5 9t-8.5 21z" />
    <glyph glyph-name="Tbar" unicode="&#x166;" horiz-adv-x="589" 
d="M500 517h-119v-185h92q17 0 29.5 -13t12.5 -30t-12.5 -29.5t-29.5 -12.5h-92v-169q0 -35 -25.5 -61t-60.5 -26q-36 0 -61 25.5t-25 61.5v169h-92q-17 0 -29.5 12.5t-12.5 29.5t12.5 30t29.5 13h92v185h-121q-31 0 -53 22t-22 53t22 53t53 22h412q31 0 53.5 -22t22.5 -53
t-22.5 -53t-53.5 -22z" />
    <glyph glyph-name="tbar" unicode="&#x167;" horiz-adv-x="360" 
d="M351 58q0 -23 -14 -40t-35 -22q-29 -8 -63 -8q-151 0 -151 142v70h-47q-17 0 -29.5 12.5t-12.5 29.5t12.5 30t29.5 13h47v64h-22q-28 0 -47.5 20t-19.5 47q0 28 19.5 47.5t47.5 19.5h22v64q0 32 22.5 54.5t54.5 22.5q31 0 53.5 -22.5t22.5 -54.5v-64h40q28 0 47.5 -19.5
t19.5 -47.5q0 -27 -19.5 -47t-47.5 -20h-40v-64h36q17 0 29.5 -13t12.5 -30t-12.5 -29.5t-29.5 -12.5h-36v-27q0 -21 11 -34.5t29 -14.5h15q24 -1 39.5 -20t15.5 -46z" />
    <glyph glyph-name="Utilde" unicode="&#x168;" horiz-adv-x="739" 
d="M60 270v319q0 36 26 61.5t62 25.5t61.5 -26t25.5 -61v-313q0 -63 34.5 -99.5t100.5 -36.5q65 0 99.5 36t34.5 100v313q0 35 25.5 61t61.5 26q37 0 62.5 -25.5t25.5 -61.5v-318q0 -133 -78.5 -208t-230.5 -75t-231 75t-79 207zM347 755q-22 21 -36 21q-21 0 -27 -29
q-9 -29 -39 -29q-18 0 -30 14.5t-8 32.5q17 96 109 96q23 0 39 -7.5t38 -26.5q22 -21 36 -21q21 0 27 29q9 29 38 29q18 0 30.5 -14.5t8.5 -32.5q-17 -96 -109 -96q-23 0 -39 7.5t-38 26.5z" />
    <glyph glyph-name="utilde" unicode="&#x169;" horiz-adv-x="592" 
d="M536 415v-347q0 -33 -22 -56t-55 -23q-30 0 -52 19t-26 48q-61 -68 -166 -68q-79 0 -119 40t-40 111v276q0 32 23 54.5t54 22.5q32 0 54.5 -22.5t22.5 -54.5v-213q0 -78 80 -78q54 0 92 47v244q0 32 23 54.5t54 22.5q32 0 54.5 -22.5t22.5 -54.5zM274 608q-22 21 -36 21
q-21 0 -27 -29q-9 -29 -39 -29q-18 0 -30 14.5t-8 32.5q16 96 109 96q23 0 39 -7.5t38 -26.5q22 -21 36 -21q21 0 27 29q9 29 38 29q18 0 30.5 -14.5t8.5 -32.5q-16 -96 -109 -96q-23 0 -39 7.5t-38 26.5z" />
    <glyph glyph-name="Umacron" unicode="&#x16a;" horiz-adv-x="739" 
d="M60 270v319q0 36 26 61.5t62 25.5t61.5 -26t25.5 -61v-313q0 -63 34.5 -99.5t100.5 -36.5q65 0 99.5 36t34.5 100v313q0 35 25.5 61t61.5 26q37 0 62.5 -25.5t25.5 -61.5v-318q0 -133 -78.5 -208t-230.5 -75t-231 75t-79 207zM189 766q0 17 12.5 29.5t29.5 12.5h278
q17 0 29 -12.5t12 -29.5q0 -18 -12 -30.5t-29 -12.5h-278q-17 0 -29.5 12.5t-12.5 30.5z" />
    <glyph glyph-name="umacron" unicode="&#x16b;" horiz-adv-x="592" 
d="M536 415v-347q0 -33 -22 -56t-55 -23q-30 0 -52 19t-26 48q-61 -68 -166 -68q-79 0 -119 40t-40 111v276q0 32 23 54.5t54 22.5q32 0 54.5 -22.5t22.5 -54.5v-213q0 -78 80 -78q54 0 92 47v244q0 32 23 54.5t54 22.5q32 0 54.5 -22.5t22.5 -54.5zM115 619q0 17 12.5 29.5
t29.5 12.5h278q17 0 29 -12.5t12 -29.5q0 -18 -12 -30.5t-29 -12.5h-278q-17 0 -29.5 12.5t-12.5 30.5z" />
    <glyph glyph-name="Ubreve" unicode="&#x16c;" horiz-adv-x="739" 
d="M60 270v319q0 36 26 61.5t62 25.5t61.5 -26t25.5 -61v-313q0 -63 34.5 -99.5t100.5 -36.5q65 0 99.5 36t34.5 100v313q0 35 25.5 61t61.5 26q37 0 62.5 -25.5t25.5 -61.5v-318q0 -133 -78.5 -208t-230.5 -75t-231 75t-79 207zM222 777q-14 14 -14 32q0 17 12 29.5
t30 12.5t29 -11q40 -37 91 -37q50 0 91 36q12 12 29 12t29.5 -12.5t12.5 -29.5t-14 -31q-63 -60 -148 -60q-86 0 -148 59z" />
    <glyph glyph-name="ubreve" unicode="&#x16d;" horiz-adv-x="592" 
d="M536 415v-347q0 -33 -22 -56t-55 -23q-30 0 -52 19t-26 48q-61 -68 -166 -68q-79 0 -119 40t-40 111v276q0 32 23 54.5t54 22.5q32 0 54.5 -22.5t22.5 -54.5v-213q0 -78 80 -78q54 0 92 47v244q0 32 23 54.5t54 22.5q32 0 54.5 -22.5t22.5 -54.5zM148 630q-14 14 -14 32
q0 17 12 29.5t30 12.5t29 -11q40 -37 91 -37q50 0 91 36q12 12 29 12t29.5 -12.5t12.5 -29.5t-14 -31q-63 -60 -148 -60q-86 0 -148 59z" />
    <glyph glyph-name="Uring" unicode="&#x16e;" horiz-adv-x="739" 
d="M60 270v319q0 36 26 61.5t62 25.5t61.5 -26t25.5 -61v-313q0 -63 34.5 -99.5t100.5 -36.5q65 0 99.5 36t34.5 100v313q0 35 25.5 61t61.5 26q37 0 62.5 -25.5t25.5 -61.5v-318q0 -133 -78.5 -208t-230.5 -75t-231 75t-79 207zM372 909q43 0 75 -32q31 -31 31 -77
q0 -45 -31 -76q-32 -32 -75 -32q-45 0 -77 32t-32 76q0 45 32 77t77 32zM372 841q-17 0 -29 -12t-12 -29t12 -28.5t29 -11.5q16 0 27.5 11.5t11.5 28.5t-11.5 29t-27.5 12z" />
    <glyph glyph-name="uring" unicode="&#x16f;" horiz-adv-x="592" 
d="M536 415v-347q0 -33 -22 -56t-55 -23q-30 0 -52 19t-26 48q-61 -68 -166 -68q-79 0 -119 40t-40 111v276q0 32 23 54.5t54 22.5q32 0 54.5 -22.5t22.5 -54.5v-213q0 -78 80 -78q54 0 92 47v244q0 32 23 54.5t54 22.5q32 0 54.5 -22.5t22.5 -54.5zM298 762q43 0 75 -32
q31 -31 31 -77q0 -45 -31 -76q-32 -32 -75 -32q-45 0 -77 32t-32 76q0 45 32 77t77 32zM298 694q-17 0 -29 -12t-12 -29t12 -28.5t29 -11.5q16 0 27.5 11.5t11.5 28.5t-11.5 29t-27.5 12z" />
    <glyph glyph-name="Uhungarumlaut" unicode="&#x170;" horiz-adv-x="739" 
d="M60 270v319q0 36 26 61.5t62 25.5t61.5 -26t25.5 -61v-313q0 -63 34.5 -99.5t100.5 -36.5q65 0 99.5 36t34.5 100v313q0 35 25.5 61t61.5 26q37 0 62.5 -25.5t25.5 -61.5v-318q0 -133 -78.5 -208t-230.5 -75t-231 75t-79 207zM272 755q0 7 5 19l46 78q14 22 38 22
q19 0 32 -13.5t13 -32.5q0 -16 -9 -28l-57 -70q-11 -14 -29 -14q-16 0 -27.5 11t-11.5 28zM425 755q0 11 5 19l45 78q15 22 39 22q18 0 31.5 -13.5t13.5 -32.5q0 -18 -10 -28l-56 -70q-11 -14 -29 -14q-16 0 -27.5 11t-11.5 28z" />
    <glyph glyph-name="uhungarumlaut" unicode="&#x171;" horiz-adv-x="592" 
d="M536 415v-347q0 -33 -22 -56t-55 -23q-30 0 -52 19t-26 48q-61 -68 -166 -68q-79 0 -119 40t-40 111v276q0 32 23 54.5t54 22.5q32 0 54.5 -22.5t22.5 -54.5v-213q0 -78 80 -78q54 0 92 47v244q0 32 23 54.5t54 22.5q32 0 54.5 -22.5t22.5 -54.5zM198 608q0 7 5 19l46 78
q14 22 38 22q19 0 32 -13.5t13 -32.5q0 -16 -9 -28l-57 -70q-11 -14 -29 -14q-16 0 -27.5 11t-11.5 28zM351 608q0 11 5 19l45 78q15 22 39 22q18 0 31.5 -13.5t13.5 -32.5q0 -18 -10 -28l-56 -70q-11 -14 -29 -14q-16 0 -27.5 11t-11.5 28z" />
    <glyph glyph-name="Uogonek" unicode="&#x172;" horiz-adv-x="739" 
d="M60 270v319q0 36 26 61.5t62 25.5t61.5 -26t25.5 -61v-313q0 -63 34.5 -99.5t100.5 -36.5q65 0 99.5 36t34.5 100v313q0 35 25.5 61t61.5 26q37 0 62.5 -25.5t25.5 -61.5v-318q0 -198 -158 -258q-95 -34 -95 -80q0 -14 9.5 -22t24.5 -8q4 0 5 1q17 1 30.5 -12t13.5 -31
q0 -15 -9 -26t-22 -15q-24 -6 -63 -6q-52 0 -87.5 21.5t-35.5 62.5q0 58 81 90h-3q-152 0 -231 75t-79 207z" />
    <glyph glyph-name="uogonek" unicode="&#x173;" horiz-adv-x="592" 
d="M448 -67q0 -14 10 -22t23 -8l9 1q20 0 32 -12t12 -30q0 -16 -9 -27t-22 -14q-25 -7 -66 -7q-52 0 -87.5 21.5t-35.5 62.5q0 33 28.5 59t79.5 41q-35 18 -41 58q-61 -68 -166 -68q-79 0 -119 40t-40 111v276q0 32 23 54.5t54 22.5q32 0 54.5 -22.5t22.5 -54.5v-213
q0 -78 80 -78q54 0 92 47v244q0 32 23 54.5t54 22.5q32 0 54.5 -22.5t22.5 -54.5v-347q0 -27 -16 -48t-41 -28q-31 -31 -31 -59z" />
    <glyph glyph-name="Wcircumflex" unicode="&#x174;" horiz-adv-x="936" 
d="M551 80l-83 338l-83 -338q-8 -39 -39 -64t-72 -25q-39 0 -69.5 23.5t-40.5 59.5l-139 486q-3 12 -3 25q0 38 26.5 64.5t63.5 26.5q33 0 57.5 -20.5t31.5 -50.5l87 -383l101 392q7 27 29 44.5t50 17.5t50 -17.5t29 -44.5l101 -392l86 382q7 31 32 51.5t57 20.5
q38 0 64.5 -26.5t26.5 -64.5q0 -14 -3 -26l-139 -485q-10 -36 -40.5 -59.5t-69.5 -23.5q-40 0 -71.5 25.5t-39.5 63.5zM529 730l-61 74l-61 -74q-10 -13 -30 -13q-15 0 -27 11.5t-12 27.5q0 12 5 20l38 61q26 36 67 36h41q40 0 66 -36l38 -61q6 -9 6 -20q0 -16 -12 -27.5
t-28 -11.5q-18 0 -30 13z" />
    <glyph glyph-name="wcircumflex" unicode="&#x175;" horiz-adv-x="787" 
d="M463 68l-70 231l-70 -231q-10 -34 -38.5 -55.5t-64.5 -21.5t-64.5 22t-38.5 55l-98 327q-2 16 -2 22q0 31 22 53t53 22q26 0 46.5 -16t26.5 -41l65 -248l78 242q8 28 31.5 45.5t53.5 17.5t54 -17.5t32 -45.5l78 -242l65 248q6 24 26.5 40.5t46.5 16.5q31 0 53 -22.5
t22 -53.5q0 -12 -3 -21l-97 -327q-10 -34 -38.5 -55.5t-64.5 -21.5t-65 22t-39 55zM455 576l-61 74l-61 -74q-10 -13 -30 -13q-15 0 -27 11.5t-12 27.5q0 12 5 20l38 61q26 36 67 36h41q40 0 66 -36l38 -61q6 -9 6 -20q0 -16 -12 -27.5t-28 -11.5q-18 0 -30 13z" />
    <glyph glyph-name="Ycircumflex" unicode="&#x176;" horiz-adv-x="653" 
d="M607 538l-194 -269v-191q0 -35 -25.5 -61t-60.5 -26q-36 0 -61 25.5t-25 61.5v191l-195 268q-21 25 -21 55q0 35 25 59.5t59 24.5q44 0 68 -35l150 -222l149 222q24 35 68 35q34 0 58.5 -24.5t24.5 -59.5q0 -28 -20 -54zM388 730l-61 74l-61 -74q-10 -13 -30 -13
q-15 0 -27 11.5t-12 27.5q0 12 5 20l38 61q26 36 67 36h41q40 0 66 -36l38 -61q6 -9 6 -20q0 -16 -12 -27.5t-28 -11.5q-18 0 -30 13z" />
    <glyph glyph-name="ycircumflex" unicode="&#x177;" horiz-adv-x="517" 
d="M95 -61l7 1q54 5 63 27l11 26l-158 394q-7 15 -7 29q0 32 22 54t53 22q25 0 44 -12.5t26 -35.5l100 -276l98 276q7 22 26.5 35t43.5 13q32 0 54 -22t22 -54q0 -9 -7 -29l-183 -456q-52 -127 -187 -127h-12q-33 1 -54 21t-21 50q0 26 17 44t42 20zM316 583l-61 74l-61 -74
q-10 -13 -30 -13q-15 0 -27 11.5t-12 27.5q0 12 5 20l38 61q26 36 67 36h41q40 0 66 -36l38 -61q6 -9 6 -20q0 -16 -12 -27.5t-28 -11.5q-18 0 -30 13z" />
    <glyph glyph-name="Ydieresis" unicode="&#x178;" horiz-adv-x="653" 
d="M607 538l-194 -269v-191q0 -35 -25.5 -61t-60.5 -26q-36 0 -61 25.5t-25 61.5v191l-195 268q-21 25 -21 55q0 35 25 59.5t59 24.5q44 0 68 -35l150 -222l149 222q24 35 68 35q34 0 58.5 -24.5t24.5 -59.5q0 -28 -20 -54zM141 787q0 32 23 55t56 23t55.5 -23t22.5 -55
q0 -33 -22.5 -56t-55.5 -23t-56 23t-23 56zM355 787q0 32 23 55t56 23q32 0 55.5 -23t23.5 -55q0 -33 -23.5 -56t-55.5 -23q-33 0 -56 23t-23 56z" />
    <glyph glyph-name="Zacute" unicode="&#x179;" horiz-adv-x="596" 
d="M30 95q0 31 19 56l274 366h-217q-31 0 -53.5 22t-22.5 53t22.5 53t53.5 22h359q38 0 66 -27.5t28 -66.5q0 -31 -19 -56l-275 -367h225q31 0 53.5 -22t22.5 -53t-22.5 -53t-53.5 -22h-366q-38 0 -66 28t-28 67zM303 710q-16 0 -27.5 11.5t-11.5 27.5q0 13 9 24l83 94
q13 16 34 16q18 0 32 -13.5t14 -33.5q0 -19 -14 -33l-91 -82q-11 -11 -28 -11z" />
    <glyph glyph-name="zacute" unicode="&#x17a;" horiz-adv-x="483" 
d="M29 76q0 25 17 48l186 225h-136q-28 0 -47.5 20t-19.5 47q0 28 19.5 47.5t47.5 19.5h281q30 0 51 -21t21 -51q0 -27 -17 -47l-189 -231h143q28 0 47.5 -19t19.5 -47t-19.5 -47.5t-47.5 -19.5h-282q-31 0 -53 22.5t-22 53.5zM246 563q-16 0 -27.5 11.5t-11.5 27.5
q0 14 9 24l83 94q13 16 34 16q18 0 32 -13.5t14 -33.5q0 -19 -14 -33l-91 -82q-11 -11 -28 -11z" />
    <glyph glyph-name="Zdotaccent" unicode="&#x17b;" horiz-adv-x="596" 
d="M30 95q0 31 19 56l274 366h-217q-31 0 -53.5 22t-22.5 53t22.5 53t53.5 22h359q38 0 66 -27.5t28 -66.5q0 -31 -19 -56l-275 -367h225q31 0 53.5 -22t22.5 -53t-22.5 -53t-53.5 -22h-366q-38 0 -66 28t-28 67zM298 866q32 0 55 -23.5t23 -55.5t-23 -55t-55 -23t-55 23
t-23 55t23 55.5t55 23.5z" />
    <glyph glyph-name="zdotaccent" unicode="&#x17c;" horiz-adv-x="483" 
d="M29 76q0 25 17 48l186 225h-136q-28 0 -47.5 20t-19.5 47q0 28 19.5 47.5t47.5 19.5h281q30 0 51 -21t21 -51q0 -27 -17 -47l-189 -231h143q28 0 47.5 -19t19.5 -47t-19.5 -47.5t-47.5 -19.5h-282q-31 0 -53 22.5t-22 53.5zM241 719q32 0 55 -23.5t23 -55.5t-23 -55
t-55 -23t-55 23t-23 55t23 55.5t55 23.5z" />
    <glyph glyph-name="Zcaron" unicode="&#x17d;" horiz-adv-x="596" 
d="M30 95q0 31 19 56l274 366h-217q-31 0 -53.5 22t-22.5 53t22.5 53t53.5 22h359q38 0 66 -27.5t28 -66.5q0 -31 -19 -56l-275 -367h225q31 0 53.5 -22t22.5 -53t-22.5 -53t-53.5 -22h-366q-38 0 -66 28t-28 67zM427 834q0 -11 -6 -20l-38 -61q-26 -36 -66 -36h-41
q-41 0 -67 36l-38 61q-5 8 -5 20q0 16 12 27.5t27 11.5q20 0 30 -13l61 -74l61 74q12 13 30 13q16 0 28 -11.5t12 -27.5z" />
    <glyph glyph-name="zcaron" unicode="&#x17e;" horiz-adv-x="483" 
d="M29 76q0 25 17 48l186 225h-136q-28 0 -47.5 20t-19.5 47q0 28 19.5 47.5t47.5 19.5h281q30 0 51 -21t21 -51q0 -27 -17 -47l-189 -231h143q28 0 47.5 -19t19.5 -47t-19.5 -47.5t-47.5 -19.5h-282q-31 0 -53 22.5t-22 53.5zM370 687q0 -11 -6 -20l-38 -61
q-26 -36 -66 -36h-41q-41 0 -67 36l-38 61q-5 8 -5 20q0 16 12 27.5t27 11.5q20 0 30 -13l61 -74l61 74q12 13 30 13q16 0 28 -11.5t12 -27.5z" />
    <glyph glyph-name="longs" unicode="&#x17f;" horiz-adv-x="349" 
d="M363 617q0 -24 -16.5 -41t-41.5 -16h-9q-24 0 -38.5 -15t-14.5 -42v-435q0 -31 -22.5 -54t-54.5 -23t-54.5 22.5t-22.5 54.5v281h-22q-27 0 -47 20t-20 47q0 28 20 47.5t47 19.5h22v24q0 75 48.5 122.5t124.5 47.5q30 0 55 -6q46 -12 46 -54z" />
    <glyph glyph-name="uni018F" unicode="&#x18f;" horiz-adv-x="742" 
d="M716 333q2 -151 -100 -249t-242 -96q-81 -1 -149.5 27.5t-111 76t-65.5 105t-22 114.5q0 36 22.5 56t65.5 20h419q-15 63 -63.5 101t-114.5 38q-61 0 -111 -47q-24 -24 -58 -24q-33 0 -56.5 23t-23.5 57t26 60q91 83 223 83q152 2 257.5 -95.5t103.5 -249.5zM525 249
h-317q12 -50 53 -80.5t99 -30.5q59 0 102.5 30t62.5 81z" />
    <glyph glyph-name="uni0192" unicode="&#x192;" horiz-adv-x="465" 
d="M477 600q0 -32 -22.5 -54t-53.5 -22q-2 0 -10 2l-12 1q-22 0 -39.5 -14.5t-24.5 -40.5l-24 -107h42q27 0 47 -19.5t20 -47.5t-20 -47.5t-47 -19.5h-72l-74 -333q-6 -29 -29 -48.5t-54 -19.5q-35 0 -60.5 25t-25.5 60q0 1 0.5 4t1 8t0.5 9l63 297q-23 5 -38 23t-15 42
q0 28 19.5 47.5t47.5 19.5h14l27 130q15 81 77 131.5t142 50.5q35 0 64 -8q24 -7 40 -26t16 -43z" />
    <glyph glyph-name="uni019D" unicode="&#x19d;" horiz-adv-x="740" 
d="M593 676q36 0 61.5 -26t25.5 -61v-493q0 -43 -31 -74t-75 -31q-54 0 -86 45l-256 367v-358q0 -118 -65 -179.5t-181 -61.5h-5q-31 1 -52.5 21t-21.5 50q0 29 20 52t47 23h2q37 1 60.5 25.5t23.5 65.5v522q0 46 33 79q33 34 80 34q59 0 92 -49l242 -344v306q0 35 25.5 61
t60.5 26z" />
    <glyph glyph-name="Ohorn" unicode="&#x1a0;" horiz-adv-x="766" 
d="M681 530q58 -85 58 -197q2 -148 -101.5 -247.5t-254.5 -97.5q-152 -2 -255.5 97.5t-101.5 247.5q-2 148 101.5 247.5t255.5 97.5q164 0 264 -106q35 26 43 58q-3 -3 -15 -3q-23 0 -38 15.5t-15 40.5q0 26 18 44.5t44 18.5q30 0 49.5 -22t19.5 -58q0 -80 -72 -136z
M564 333q0 82 -50.5 137.5t-130.5 55.5q-81 0 -131.5 -55.5t-50.5 -137.5t50.5 -137.5t131.5 -55.5q80 0 130.5 55.5t50.5 137.5z" />
    <glyph glyph-name="ohorn" unicode="&#x1a1;" 
d="M497 401q54 -67 54 -159q0 -107 -73 -180.5t-191 -73.5q-117 0 -190 74t-73 180t73 179.5t190 73.5q102 0 172 -56q34 27 42 58q-3 -3 -15 -3q-23 0 -38 15.5t-15 40.5q0 26 18.5 44t43.5 18q30 0 49.5 -22t19.5 -57q0 -77 -67 -132zM393 242q0 51 -29 84t-77 33t-76 -33
t-28 -84q0 -52 28 -85t76 -33t77 33t29 85z" />
    <glyph glyph-name="Uhorn" unicode="&#x1af;" horiz-adv-x="739" 
d="M679 569v-298q0 -133 -78.5 -208t-230.5 -75t-231 75t-79 207v319q0 36 26 61.5t62 25.5t61.5 -26t25.5 -61v-313q0 -63 34.5 -99.5t100.5 -36.5q65 0 99.5 36t34.5 100v313q0 35 25.5 61t61.5 26q55 0 80 -51q43 29 51 64q-6 -2 -15 -2q-23 0 -38 15.5t-15 40.5
q0 26 18.5 44t43.5 18q30 0 49.5 -22t19.5 -57q0 -46 -28 -88.5t-78 -68.5z" />
    <glyph glyph-name="uhorn" unicode="&#x1b0;" horiz-adv-x="592" 
d="M536 411v-343q0 -33 -22 -56t-55 -23q-30 0 -52 19t-26 48q-61 -68 -166 -68q-79 0 -119 40t-40 111v276q0 32 23 54.5t54 22.5q32 0 54.5 -22.5t22.5 -54.5v-213q0 -78 80 -78q54 0 92 47v244q0 32 23 54.5t54 22.5q37 0 59 -28q25 25 31 49q-3 -3 -15 -3q-23 0 -38 16
t-15 41q0 26 18.5 44t43.5 18q30 0 50 -22t20 -58q0 -84 -77 -138z" />
    <glyph glyph-name="Gcaron" unicode="&#x1e6;" horiz-adv-x="723" 
d="M682 304v-120q0 -71 -48 -111q-103 -85 -247 -85q-152 -2 -257.5 95.5t-103.5 249.5q-2 152 103.5 249.5t257.5 95.5q131 0 217 -78q29 -23 29 -61q0 -34 -23.5 -57t-56.5 -23t-55 21q-49 46 -111 46q-80 0 -133 -55.5t-53 -137.5t53 -137.5t133 -55.5t123 40v52h-87
q-29 0 -50.5 22t-21.5 52t21.5 53.5t50.5 23.5h182q33 0 55 -23t22 -56zM515 834q0 -11 -6 -20l-38 -61q-26 -36 -66 -36h-41q-41 0 -67 36l-38 61q-5 8 -5 20q0 16 12 27.5t27 11.5q20 0 30 -13l61 -74l61 74q12 13 30 13q16 0 28 -11.5t12 -27.5z" />
    <glyph glyph-name="gcaron" unicode="&#x1e7;" horiz-adv-x="590" 
d="M533 415v-372q0 -134 -82 -186q-82 -53 -194 -53q-95 0 -166 40q-34 19 -34 55q0 26 19 45t45 19q16 0 29 -7q46 -26 107 -26q48 0 85 25q38 26 38 86v38q-59 -71 -143 -71q-94 0 -153.5 64t-59.5 180q0 114 59 178.5t154 64.5q86 0 141 -67q3 27 26.5 45.5t52.5 18.5
q31 0 53.5 -22.5t22.5 -54.5zM380 187v129q-14 19 -40.5 31t-51.5 12q-48 0 -77 -28.5t-29 -78.5q0 -51 29 -79.5t77 -28.5q25 0 51.5 12t40.5 31zM426 687q0 -11 -6 -20l-38 -61q-26 -36 -66 -36h-41q-41 0 -67 36l-38 61q-5 8 -5 20q0 16 12 27.5t27 11.5q20 0 30 -13
l61 -74l61 74q12 13 30 13q16 0 28 -11.5t12 -27.5z" />
    <glyph glyph-name="uni01EA" unicode="&#x1ea;" horiz-adv-x="766" 
d="M391 -67q0 -14 10 -22t23 -8l9 1q20 0 32 -12t12 -30q0 -16 -9 -27t-22 -14q-25 -7 -67 -7q-52 0 -87.5 21.5t-35.5 62.5q0 58 85 92q-137 11 -226.5 108t-88.5 235q-2 148 101.5 247.5t255.5 97.5q151 2 254.5 -97.5t101.5 -247.5q1 -139 -90 -236t-229 -107
q-29 -29 -29 -57zM383 140q80 0 130.5 55.5t50.5 137.5t-50.5 137.5t-130.5 55.5q-81 0 -131.5 -55.5t-50.5 -137.5t50.5 -137.5t131.5 -55.5z" />
    <glyph glyph-name="uni01EB" unicode="&#x1eb;" 
d="M284 -67q0 -14 9.5 -22t24.5 -8l8 1q20 0 32 -12t12 -30q0 -16 -9 -27t-22 -14q-25 -7 -66 -7q-52 0 -87.5 21.5t-35.5 62.5q0 61 89 94q-97 15 -156 85.5t-59 164.5q0 106 73 179.5t190 73.5q118 0 191 -73t73 -180q0 -100 -65.5 -173t-172.5 -80q-29 -29 -29 -56z
M287 124q48 0 77 33t29 85q0 51 -29 84t-77 33t-76 -33t-28 -84q0 -52 28 -85t76 -33z" />
    <glyph glyph-name="Aringacute" unicode="&#x1fa;" horiz-adv-x="684" 
d="M667 78q0 -36 -25.5 -61.5t-61.5 -25.5q-28 0 -51 17.5t-31 43.5l-19 57h-274l-19 -57q-8 -27 -31 -44t-51 -17q-36 0 -61.5 25.5t-25.5 61.5q0 16 6 30l177 470q17 45 55.5 71.5t86.5 26.5q47 0 86 -27.5t55 -70.5l178 -470q6 -18 6 -30zM254 254h176l-88 263zM344 909
q43 0 75 -32q31 -31 31 -77q0 -45 -31 -76q-32 -32 -75 -32q-45 0 -77 32t-32 76q0 45 32 77t77 32zM344 841q-17 0 -29 -12t-12 -29t12 -28.5t29 -11.5q16 0 27.5 11.5t11.5 28.5t-11.5 29t-27.5 12zM346 922q-16 0 -27.5 11.5t-11.5 27.5q0 13 9 24l83 94q13 16 34 16
q18 0 32 -13.5t14 -33.5q0 -19 -14 -33l-91 -82q-11 -11 -28 -11z" />
    <glyph glyph-name="aringacute" unicode="&#x1fb;" horiz-adv-x="551" 
d="M495 302v-230q0 -33 -22 -57t-55 -24q-27 0 -48.5 16t-29.5 41q-22 -27 -62.5 -43.5t-86.5 -16.5q-64 0 -115 43t-51 116q0 80 50 116t116 36q106 0 150 -56v61q0 32 -26 51t-72 19q-50 0 -99 -26q-13 -7 -26 -7q-23 0 -40 17t-17 40q0 34 30 50q83 47 179 47
q99 0 162 -45q63 -44 63 -148zM341 124v43q-26 34 -86 34q-34 0 -55.5 -15t-21.5 -41t21.5 -41t55.5 -15q62 0 86 35zM276 762q43 0 75 -32q31 -31 31 -77q0 -45 -31 -76q-32 -32 -75 -32q-45 0 -77 32t-32 76q0 45 32 77t77 32zM276 694q-17 0 -29 -12t-12 -29t12 -28.5
t29 -11.5q16 0 27.5 11.5t11.5 28.5t-11.5 29t-27.5 12zM278 775q-16 0 -27.5 11.5t-11.5 27.5q0 14 9 24l83 94q13 16 34 16q18 0 32 -13.5t14 -33.5q0 -19 -14 -33l-91 -82q-11 -11 -28 -11z" />
    <glyph glyph-name="AEacute" unicode="&#x1fc;" horiz-adv-x="966" 
d="M938 73q0 -30 -21.5 -51.5t-51.5 -21.5h-333q-91 0 -91 91v18h-223l-42 -76q-10 -18 -29.5 -30t-40.5 -12q-34 0 -57 23.5t-23 56.5q0 21 11 41l296 493q36 62 110 62h422q30 0 51.5 -21.5t21.5 -51.5q0 -29 -21.5 -50.5t-51.5 -21.5h-252v-111h245q30 0 51.5 -21.5
t21.5 -51.5t-21.5 -51.5t-51.5 -21.5h-245v-120h252q30 0 51.5 -21t21.5 -51zM297 254h144v263zM530 710q-16 0 -27.5 11.5t-11.5 27.5q0 13 9 24l83 94q13 16 34 16q18 0 32 -13.5t14 -33.5q0 -19 -14 -33l-91 -82q-11 -11 -28 -11z" />
    <glyph glyph-name="aeacute" unicode="&#x1fd;" horiz-adv-x="860" 
d="M627 110q37 0 74 19q13 5 25 5q25 0 42.5 -17t17.5 -42q0 -18 -10 -33t-26 -22q-67 -32 -138 -32q-116 0 -181 77q-74 -77 -199 -77q-93 0 -150 40.5t-57 116.5q0 74 48 115.5t124 41.5q109 0 158 -54v56q0 31 -28.5 50.5t-75.5 19.5q-53 0 -107 -27q-10 -7 -25 -7
q-24 0 -40.5 17t-16.5 41q0 35 29 50q83 47 181 47q115 0 162 -71q66 71 173 71q97 0 165 -67t68 -160q0 -75 -91 -75h-239q9 -37 39.5 -60t77.5 -23zM600 376q-39 0 -62.5 -23.5t-29.5 -59.5h185q-4 35 -27.5 59t-65.5 24zM261 201q-36 0 -59.5 -13.5t-23.5 -36.5
q0 -24 21.5 -37t53.5 -13q39 0 70.5 19t31.5 41v5q-13 16 -39.5 25.5t-54.5 9.5zM436 563q-16 0 -27.5 11.5t-11.5 27.5q0 14 9 24l83 94q13 16 34 16q18 0 32 -13.5t14 -33.5q0 -19 -14 -33l-91 -82q-11 -11 -28 -11z" />
    <glyph glyph-name="Oslashacute" unicode="&#x1fe;" horiz-adv-x="766" 
d="M739 333q2 -148 -101.5 -247.5t-254.5 -97.5q-98 0 -175 40l-41 -56q-14 -20 -36 -20q-18 0 -30.5 12t-12.5 30q0 15 10 28l39 54q-111 98 -111 257q-2 148 101.5 247.5t255.5 97.5q88 0 164 -35l37 52q17 20 36 20q17 0 30 -12.5t13 -29.5q0 -16 -10 -29l-34 -46
q120 -99 120 -265zM236 214l217 299q-33 13 -70 13q-81 0 -131.5 -55.5t-50.5 -137.5q0 -67 35 -119zM564 333q0 77 -42 129l-221 -304q36 -18 82 -18q80 0 130.5 55.5t50.5 137.5zM387 710q-16 0 -27.5 11.5t-11.5 27.5q0 13 9 24l83 94q13 16 34 16q18 0 32 -13.5
t14 -33.5q0 -19 -14 -33l-91 -82q-11 -11 -28 -11z" />
    <glyph glyph-name="oslashacute" unicode="&#x1ff;" 
d="M551 242q0 -107 -73 -180.5t-191 -73.5q-67 0 -122 26l-33 -46q-10 -16 -29 -16q-13 0 -23 9.5t-10 22.5q0 10 7 20l33 45q-86 75 -86 193q0 106 73 179.5t190 73.5q69 0 126 -27l34 47q12 16 29 16q13 0 22.5 -9t9.5 -22q0 -8 -8 -22l-33 -45q84 -74 84 -191zM200 173
l128 178q-21 8 -41 8q-48 0 -76 -33t-28 -84q0 -37 17 -69zM393 242q0 38 -16 66l-128 -178q17 -6 38 -6q48 0 77 33t29 85zM292 563q-16 0 -27.5 11.5t-11.5 27.5q0 14 9 24l83 94q13 16 34 16q18 0 32 -13.5t14 -33.5q0 -19 -14 -33l-91 -82q-11 -11 -28 -11z" />
    <glyph glyph-name="uni0218" unicode="&#x218;" horiz-adv-x="606" 
d="M34 116q0 32 23 55.5t55 23.5q24 0 42 -12q76 -48 162 -48q42 0 68.5 16t26.5 41q0 26 -25.5 40.5t-88.5 27.5q-82 17 -133 33q-51 17 -92 60q-39 42 -39 115q0 89 74 149t202 60q114 0 207 -48q19 -9 31 -28t12 -41q0 -32 -23 -55t-55 -23q-17 0 -37 9q-82 39 -146 39
q-89 0 -89 -52q0 -23 25 -36t90 -25q83 -18 130 -35q53 -20 92 -60q40 -40 40 -111q0 -103 -73.5 -163t-204.5 -60q-138 0 -236 61q-38 24 -38 67zM252 -263q0 13 12 24q33 28 41 59q-6 -3 -17 -3q-25 0 -42 18t-17 45q0 29 20.5 50t48.5 21q34 0 56.5 -24.5t22.5 -64.5
q0 -87 -76 -149q-8 -6 -19 -6q-13 0 -21.5 9t-8.5 21z" />
    <glyph glyph-name="uni0219" unicode="&#x219;" horiz-adv-x="484" 
d="M29 86q0 26 18 44t44 18q15 0 28 -7q73 -37 130 -37q65 0 65 36q0 17 -19.5 26t-63.5 16q-64 11 -100 22q-98 33 -98 132q0 68 56 113.5t151 45.5q83 0 157 -38q32 -15 32 -51q0 -24 -17 -41t-40 -17q-14 0 -27 7q-51 27 -104 27q-28 0 -44.5 -9t-16.5 -24t17 -23.5
t60 -15.5q61 -11 101 -24q103 -32 103 -138q0 -71 -59.5 -115.5t-160.5 -44.5q-98 0 -178 43q-34 19 -34 55zM193 -263q0 13 12 24q33 28 41 59q-6 -3 -17 -3q-25 0 -42 18t-17 45q0 29 20.5 50t48.5 21q34 0 56.5 -24.5t22.5 -64.5q0 -87 -76 -149q-7 -6 -19 -6
q-13 0 -21.5 9t-8.5 21z" />
    <glyph glyph-name="uni021A" unicode="&#x21a;" horiz-adv-x="589" 
d="M209 78v439h-121q-31 0 -53 22t-22 53t22 53t53 22h412q31 0 53.5 -22t22.5 -53t-22.5 -53t-53.5 -22h-119v-439q0 -35 -25.5 -61t-60.5 -26q-36 0 -61 25.5t-25 61.5zM248 -263q0 13 12 24q33 28 41 59q-6 -3 -17 -3q-25 0 -42 18t-17 45q0 29 20.5 50t48.5 21
q34 0 56.5 -24.5t22.5 -64.5q0 -87 -76 -149q-7 -6 -19 -6q-13 0 -21.5 9t-8.5 21z" />
    <glyph glyph-name="uni021B" unicode="&#x21b;" horiz-adv-x="360" 
d="M351 58q0 -23 -14 -40t-35 -22q-29 -8 -63 -8q-151 0 -151 142v219h-22q-28 0 -47.5 20t-19.5 47q0 28 19.5 47.5t47.5 19.5h22v64q0 32 22.5 54.5t54.5 22.5q31 0 53.5 -22.5t22.5 -54.5v-64h40q28 0 47.5 -19.5t19.5 -47.5q0 -27 -19.5 -47t-47.5 -20h-40v-176
q0 -21 11 -34.5t29 -14.5h15q24 -1 39.5 -20t15.5 -46zM133 -263q0 13 12 24q33 28 41 59q-6 -3 -17 -3q-25 0 -42 18t-17 45q0 29 20.5 50t48.5 21q34 0 56.5 -24.5t22.5 -64.5q0 -87 -76 -149q-7 -6 -19 -6q-13 0 -21.5 9t-8.5 21z" />
    <glyph glyph-name="uni0232" unicode="&#x232;" horiz-adv-x="653" 
d="M607 538l-194 -269v-191q0 -35 -25.5 -61t-60.5 -26q-36 0 -61 25.5t-25 61.5v191l-195 268q-21 25 -21 55q0 35 25 59.5t59 24.5q44 0 68 -35l150 -222l149 222q24 35 68 35q34 0 58.5 -24.5t24.5 -59.5q0 -28 -20 -54zM146 766q0 17 12.5 29.5t29.5 12.5h278
q17 0 29 -12.5t12 -29.5q0 -18 -12 -30.5t-29 -12.5h-278q-17 0 -29.5 12.5t-12.5 30.5z" />
    <glyph glyph-name="uni0233" unicode="&#x233;" horiz-adv-x="517" 
d="M95 -61l7 1q54 5 63 27l11 26l-158 394q-7 15 -7 29q0 32 22 54t53 22q25 0 44 -12.5t26 -35.5l100 -276l98 276q7 22 26.5 35t43.5 13q32 0 54 -22t22 -54q0 -9 -7 -29l-183 -456q-52 -127 -187 -127h-12q-33 1 -54 21t-21 50q0 26 17 44t42 20zM74 619q0 17 12.5 29.5
t29.5 12.5h278q17 0 29 -12.5t12 -29.5q0 -18 -12 -30.5t-29 -12.5h-278q-17 0 -29.5 12.5t-12.5 30.5z" />
    <glyph glyph-name="uni0237" unicode="&#x237;" horiz-adv-x="266" 
d="M34 -196h-7q-33 0 -53.5 18.5t-20.5 50.5q0 22 13 38.5t32 18.5l6 1q52 5 52 73v411q0 32 23 54.5t54 22.5q32 0 54.5 -22.5t22.5 -54.5v-411q0 -92 -46.5 -146t-129.5 -54z" />
    <glyph glyph-name="uni0259" unicode="&#x259;" horiz-adv-x="548" 
d="M267 -12q-104 0 -172.5 66.5t-68.5 159.5q0 45 18.5 60.5t67.5 15.5h252q-7 37 -39.5 61.5t-81.5 24.5q-42 0 -87 -21q-13 -5 -23 -5q-25 0 -42 17t-17 41q0 39 35 54q66 33 151 33q114 0 189 -70t75 -184q0 -106 -73 -179.5t-184 -73.5zM366 190h-199q4 -35 29.5 -59
t70.5 -24q42 0 67 23.5t32 59.5z" />
    <glyph glyph-name="uni0272" unicode="&#x272;" horiz-adv-x="593" 
d="M537 342v-274q0 -31 -22.5 -54t-54.5 -23t-54.5 22.5t-22.5 54.5v211q0 80 -79 80q-56 0 -94 -47v-308q0 -93 -47.5 -146t-137.5 -54h-6q-27 0 -46.5 18.5t-19.5 46.5q0 24 15 43t35 19h3q22 0 36 19.5t14 53.5l-1 411q0 33 22.5 56t55.5 23q30 0 52 -19.5t26 -49.5
q61 70 166 70q79 0 119.5 -40.5t40.5 -112.5z" />
    <glyph glyph-name="uni02B0" unicode="&#x2b0;" horiz-adv-x="417" 
d="M263 372v135q0 49 -52 49q-32 0 -57 -28v-156q0 -23 -15.5 -39t-38.5 -16t-39 16t-16 39v342q0 22 16 38.5t39 16.5q22 0 38 -16.5t16 -38.5v-111q41 45 111 45q52 0 79.5 -27.5t27.5 -74.5v-174q0 -23 -16 -39t-39 -16q-22 0 -38 16t-16 39z" />
    <glyph glyph-name="uni02BC" unicode="&#x2bc;" horiz-adv-x="268" 
d="M115 363q-16 0 -27.5 11.5t-11.5 27.5q0 18 12 30q43 40 53 74q-9 -4 -23 -4q-33 0 -55.5 23.5t-22.5 59.5q0 38 27 65t65 27q44 0 73 -32t29 -84q0 -107 -93 -188q-11 -10 -26 -10z" />
    <glyph glyph-name="circumflex" unicode="&#x2c6;" horiz-adv-x="318" 
d="M219 563l-61 74l-61 -74q-10 -13 -30 -13q-15 0 -27 11.5t-12 27.5q0 12 5 20l38 61q26 36 67 36h41q40 0 66 -36l38 -61q6 -9 6 -20q0 -16 -12 -27.5t-28 -11.5q-18 0 -30 13z" />
    <glyph glyph-name="caron" unicode="&#x2c7;" horiz-adv-x="318" 
d="M289 667q0 -11 -6 -20l-38 -61q-26 -36 -66 -36h-41q-41 0 -67 36l-38 61q-5 8 -5 20q0 16 12 27.5t27 11.5q20 0 30 -13l61 -74l61 74q12 13 30 13q16 0 28 -11.5t12 -27.5z" />
    <glyph glyph-name="uni02C9" unicode="&#x2c9;" horiz-adv-x="363" 
d="M1 634q0 17 12.5 29.5t29.5 12.5h278q17 0 29 -12.5t12 -29.5q0 -18 -12 -30.5t-29 -12.5h-278q-17 0 -29.5 12.5t-12.5 30.5z" />
    <glyph glyph-name="uni02CB" unicode="&#x2cb;" horiz-adv-x="263" 
d="M161 554l-91 82q-14 14 -14 33q0 20 13.5 33.5t31.5 13.5q22 0 35 -16l83 -94q9 -10 9 -24q0 -16 -12 -27.5t-27 -11.5q-17 0 -28 11z" />
    <glyph glyph-name="breve" unicode="&#x2d8;" horiz-adv-x="351" 
d="M28 610q-14 14 -14 32q0 17 12 29.5t30 12.5t29 -11q40 -37 91 -37q50 0 91 36q12 12 29 12t29.5 -12.5t12.5 -29.5t-14 -31q-63 -60 -148 -60q-86 0 -148 59z" />
    <glyph glyph-name="dotaccent" unicode="&#x2d9;" horiz-adv-x="173" 
d="M87 699q32 0 55 -23.5t23 -55.5t-23 -55t-55 -23t-55 23t-23 55t23 55.5t55 23.5z" />
    <glyph glyph-name="ring" unicode="&#x2da;" horiz-adv-x="255" 
d="M129 742q43 0 75 -32q31 -31 31 -77q0 -45 -31 -76q-32 -32 -75 -32q-45 0 -77 32t-32 76q0 45 32 77t77 32zM129 674q-17 0 -29 -12t-12 -29t12 -28.5t29 -11.5q16 0 27.5 11.5t11.5 28.5t-11.5 29t-27.5 12z" />
    <glyph glyph-name="ogonek" unicode="&#x2db;" horiz-adv-x="236" 
d="M7 -102q0 71 116 102q10 2 35 9q29 8 36 8q4 0 4 -2q0 -3 -7 -7q-50 -40 -50 -75q0 -14 9.5 -22t24.5 -8l8 1q20 0 32 -12t12 -30q0 -16 -9 -27t-22 -14q-25 -7 -66 -7q-52 0 -87.5 21.5t-35.5 62.5z" />
    <glyph glyph-name="tilde" unicode="&#x2dc;" horiz-adv-x="334" 
d="M144 588q-22 21 -36 21q-21 0 -27 -29q-9 -29 -39 -29q-18 0 -30 14.5t-8 32.5q16 96 109 96q23 0 39 -7.5t38 -26.5q22 -21 36 -21q21 0 27 29q9 29 38 29q18 0 30.5 -14.5t8.5 -32.5q-16 -96 -109 -96q-23 0 -39 7.5t-38 26.5z" />
    <glyph glyph-name="hungarumlaut" unicode="&#x2dd;" horiz-adv-x="355" 
d="M24 588q0 7 5 19l46 78q14 22 38 22q19 0 32 -13.5t13 -32.5q0 -16 -9 -28l-57 -70q-11 -14 -29 -14q-16 0 -27.5 11t-11.5 28zM177 588q0 11 5 19l45 78q15 22 39 22q18 0 31.5 -13.5t13.5 -32.5q0 -18 -10 -28l-56 -70q-11 -14 -29 -14q-16 0 -27.5 11t-11.5 28z" />
    <glyph glyph-name="gravecomb" unicode="&#x300;" horiz-adv-x="0" 
d="M-102 554l-91 82q-14 14 -14 33q0 20 13.5 33.5t31.5 13.5q22 0 35 -16l83 -94q9 -10 9 -24q0 -16 -12 -27.5t-27 -11.5q-17 0 -28 11z" />
    <glyph glyph-name="acutecomb" unicode="&#x301;" horiz-adv-x="0" 
d="M-189 543q-16 0 -27.5 11.5t-11.5 27.5q0 14 9 24l83 94q13 16 34 16q18 0 32 -13.5t14 -33.5q0 -19 -14 -33l-91 -82q-11 -11 -28 -11z" />
    <glyph glyph-name="uni0302" unicode="&#x302;" horiz-adv-x="0" 
d="M-99 563l-61 74l-61 -74q-10 -13 -30 -13q-15 0 -27 11.5t-12 27.5q0 12 5 20l38 61q26 36 67 36h41q40 0 66 -36l38 -61q6 -9 6 -20q0 -16 -12 -27.5t-28 -11.5q-18 0 -30 13z" />
    <glyph glyph-name="tildecomb" unicode="&#x303;" horiz-adv-x="0" 
d="M-190 588q-22 21 -36 21q-21 0 -27 -29q-9 -29 -39 -29q-18 0 -30 14.5t-8 32.5q16 96 109 96q23 0 39 -7.5t38 -26.5q22 -21 36 -21q21 0 27 29q9 29 38 29q18 0 30.5 -14.5t8.5 -32.5q-16 -96 -109 -96q-23 0 -39 7.5t-38 26.5z" />
    <glyph glyph-name="uni0304" unicode="&#x304;" horiz-adv-x="0" 
d="M-362 599q0 17 12.5 29.5t29.5 12.5h278q17 0 29 -12.5t12 -29.5q0 -18 -12 -30.5t-29 -12.5h-278q-17 0 -29.5 12.5t-12.5 30.5z" />
    <glyph glyph-name="uni0306" unicode="&#x306;" horiz-adv-x="0" 
d="M-323 610q-14 14 -14 32q0 17 12 29.5t30 12.5t29 -11q40 -37 91 -37t91 36q12 12 29 12t29.5 -12.5t12.5 -29.5t-14 -31q-63 -60 -148 -60q-86 0 -148 59z" />
    <glyph glyph-name="uni0307" unicode="&#x307;" horiz-adv-x="0" 
d="M-86 699q32 0 55 -23.5t23 -55.5t-23 -55t-55 -23t-55 23t-23 55t23 55.5t55 23.5z" />
    <glyph glyph-name="uni0308" unicode="&#x308;" horiz-adv-x="0" 
d="M-400 620q0 32 23 55t56 23t55.5 -23t22.5 -55q0 -33 -22.5 -56t-55.5 -23t-56 23t-23 56zM-186 620q0 32 23 55t56 23q32 0 55.5 -23t23.5 -55q0 -33 -23.5 -56t-55.5 -23q-33 0 -56 23t-23 56z" />
    <glyph glyph-name="uni0309" unicode="&#x309;" horiz-adv-x="0" 
d="M-78 581q0 7 2 13q3 10 3 23q0 17 -9.5 26.5t-24.5 9.5q-21 0 -31 -18q-12 -16 -32 -16q-13 0 -22.5 10t-8.5 25q0 20 19 33q29 29 75 29q49 0 79 -24.5t30 -70.5q0 -24 -11 -48q-9 -23 -33 -23q-14 0 -24.5 9t-11.5 22z" />
    <glyph glyph-name="uni030A" unicode="&#x30a;" horiz-adv-x="0" 
d="M-126 742q43 0 75 -32q31 -31 31 -77q0 -45 -31 -76q-32 -32 -75 -32q-45 0 -77 32t-32 76q0 45 32 77t77 32zM-126 674q-17 0 -29 -12t-12 -29t12 -28.5t29 -11.5q16 0 27.5 11.5t11.5 28.5t-11.5 29t-27.5 12z" />
    <glyph glyph-name="uni030B" unicode="&#x30b;" horiz-adv-x="0" 
d="M-331 588q0 7 5 19l46 78q14 22 38 22q19 0 32 -13.5t13 -32.5q0 -16 -9 -28l-57 -70q-11 -14 -29 -14q-16 0 -27.5 11t-11.5 28zM-178 588q0 11 5 19l45 78q15 22 39 22q18 0 31.5 -13.5t13.5 -32.5q0 -18 -10 -28l-56 -70q-11 -14 -29 -14q-16 0 -27.5 11t-11.5 28z
" />
    <glyph glyph-name="uni030C" unicode="&#x30c;" horiz-adv-x="0" 
d="M-29 667q0 -11 -6 -20l-38 -61q-26 -36 -66 -36h-41q-41 0 -67 36l-38 61q-5 8 -5 20q0 16 12 27.5t27 11.5q20 0 30 -13l61 -74l61 74q12 13 30 13q16 0 28 -11.5t12 -27.5z" />
    <glyph glyph-name="dotbelowcomb" unicode="&#x323;" horiz-adv-x="0" 
d="M-86 -41q32 0 55 -23.5t23 -55.5t-23 -55t-55 -23t-55 23t-23 55t23 55.5t55 23.5z" />
    <glyph glyph-name="uni0326" unicode="&#x326;" horiz-adv-x="0" 
d="M-182 -263q0 13 12 24q33 28 41 59q-6 -3 -17 -3q-25 0 -42 18t-17 45q0 29 20.5 50t48.5 21q34 0 56.5 -24.5t22.5 -64.5q0 -87 -76 -149q-7 -6 -19 -6q-13 0 -21.5 9t-8.5 21z" />
    <glyph glyph-name="uni0327" unicode="&#x327;" horiz-adv-x="0" 
d="M-207 -179q-20 11 -20 30q0 13 9.5 23t22.5 10q8 0 15 -4q32 -17 61 -17q19 0 33 8t14 20q0 22 -25 22q-9 0 -20 -6q-12 -6 -20 -6q-14 0 -25 11.5t-11 27.5q0 3 2 11l23 60h71l-25 -60q16 10 34 10q28 0 48 -21t20 -51q0 -39 -32.5 -63t-82.5 -24q-51 0 -92 19z" />
    <glyph glyph-name="uni0328" unicode="&#x328;" horiz-adv-x="0" 
d="M-229 -102q0 71 116 102l36 9q27 8 35 8q4 0 4 -2q0 -3 -7 -7q-50 -40 -50 -75q0 -14 9.5 -22t24.5 -8l8 1q20 0 32 -12t12 -30q0 -16 -9 -27t-22 -14q-25 -7 -66 -7q-52 0 -87.5 21.5t-35.5 62.5z" />
    <glyph glyph-name="uni037E" unicode="&#x37e;" horiz-adv-x="268" 
d="M40 397q0 38 28 65.5t66 27.5t66 -27.5t28 -65.5t-28 -66.5t-66 -28.5t-66 28.5t-28 66.5zM115 -137q-16 0 -27.5 11.5t-11.5 27.5q0 18 12 30q43 40 53 74q-9 -4 -23 -4q-33 0 -55.5 23.5t-22.5 59.5q0 38 27 65t65 27q44 0 73 -32t29 -84q0 -105 -93 -188
q-11 -10 -26 -10z" />
    <glyph glyph-name="tonos" unicode="&#x384;" horiz-adv-x="154" 
d="M10 581l14 145q2 20 17.5 33.5t34.5 13.5q22 0 37.5 -15t15.5 -37q0 -9 -3 -15l-48 -139q-9 -26 -34 -26q-15 0 -25.5 12.5t-8.5 27.5z" />
    <glyph glyph-name="dieresistonos" unicode="&#x385;" horiz-adv-x="486" 
d="M195 581l14 145q2 20 17 33.5t35 13.5q21 0 37 -15.5t16 -36.5q0 -9 -3 -15l-48 -139q-11 -26 -34 -26q-15 0 -25.5 12.5t-8.5 27.5zM7 620q0 32 22.5 55t55.5 23t55.5 -23t22.5 -55q0 -33 -22.5 -56t-55.5 -23t-55.5 23t-22.5 56zM322 620q0 32 23 55t56 23t56 -23
t23 -55q0 -33 -23 -56t-56 -23t-56 23t-23 56z" />
    <glyph glyph-name="Alphatonos" unicode="&#x386;" horiz-adv-x="684" 
d="M667 78q0 -36 -25.5 -61.5t-61.5 -25.5q-28 0 -51 17.5t-31 43.5l-19 57h-274l-19 -57q-8 -27 -31 -44t-51 -17q-36 0 -61.5 25.5t-25.5 61.5q0 16 6 30l177 470q17 45 55.5 71.5t86.5 26.5q47 0 86 -27.5t55 -70.5l178 -470q6 -18 6 -30zM254 254h176l-88 263zM30 484
l14 145q2 20 17.5 33.5t34.5 13.5q22 0 37.5 -15t15.5 -37q0 -9 -3 -15l-48 -139q-9 -26 -34 -26q-15 0 -25.5 12.5t-8.5 27.5z" />
    <glyph glyph-name="Epsilontonos" unicode="&#x388;" horiz-adv-x="660" 
d="M130 91v485q0 91 91 91h334q29 0 50.5 -21.5t21.5 -51.5q0 -29 -21.5 -50.5t-50.5 -21.5h-253v-111h246q29 0 50.5 -21.5t21.5 -51.5t-21.5 -51.5t-50.5 -21.5h-246v-120h253q29 0 50.5 -21t21.5 -51t-21.5 -51.5t-50.5 -21.5h-334q-91 0 -91 91zM-17 484l14 145
q2 20 17.5 33.5t34.5 13.5q22 0 37.5 -15t15.5 -37q0 -9 -3 -15l-48 -139q-9 -26 -34 -26q-15 0 -25.5 12.5t-8.5 27.5z" />
    <glyph glyph-name="Etatonos" unicode="&#x389;" horiz-adv-x="811" 
d="M579 78v190h-277v-190q0 -36 -25 -61.5t-61 -25.5t-61 25.5t-25 61.5v511q0 36 25 61.5t61 25.5t61 -25.5t25 -61.5v-171h277v171q0 36 25 61.5t61 25.5t61 -25.5t25 -61.5v-511q0 -36 -25 -61.5t-61 -25.5t-61 25.5t-25 61.5zM-17 484l14 145q2 20 17.5 33.5t34.5 13.5
q22 0 37.5 -15t15.5 -37q0 -9 -3 -15l-48 -139q-9 -26 -34 -26q-15 0 -25.5 12.5t-8.5 27.5z" />
    <glyph glyph-name="Iotatonos" unicode="&#x38a;" horiz-adv-x="362" 
d="M130 78v511q0 36 25 61.5t61 25.5t61 -25.5t25 -61.5v-511q0 -36 -25 -61.5t-61 -25.5t-61 25.5t-25 61.5zM-17 484l14 145q2 20 17.5 33.5t34.5 13.5q22 0 37.5 -15t15.5 -37q0 -9 -3 -15l-48 -139q-9 -26 -34 -26q-15 0 -25.5 12.5t-8.5 27.5z" />
    <glyph glyph-name="Omicrontonos" unicode="&#x38c;" horiz-adv-x="813" 
d="M431 678q151 2 254.5 -97.5t101.5 -247.5q2 -148 -101.5 -247.5t-254.5 -97.5q-152 -2 -255.5 97.5t-101.5 247.5q-2 148 101.5 247.5t255.5 97.5zM431 526q-81 0 -131.5 -55.5t-50.5 -137.5t50.5 -137.5t131.5 -55.5q80 0 130.5 55.5t50.5 137.5t-50.5 137.5
t-130.5 55.5zM-17 484l14 145q2 20 17.5 33.5t34.5 13.5q22 0 37.5 -15t15.5 -37q0 -9 -3 -15l-48 -139q-9 -26 -34 -26q-15 0 -25.5 12.5t-8.5 27.5z" />
    <glyph glyph-name="Upsilontonos" unicode="&#x38e;" horiz-adv-x="749" 
d="M702 538l-194 -269v-191q0 -35 -25.5 -61t-60.5 -26q-36 0 -61 25.5t-25 61.5v191l-195 268q-21 25 -21 55q0 35 25 59.5t59 24.5q44 0 68 -35l150 -222l149 222q24 35 68 35q34 0 58.5 -24.5t24.5 -59.5q0 -28 -20 -54zM-18 484l14 145q2 20 17.5 33.5t34.5 13.5
q22 0 37.5 -15t15.5 -37q0 -9 -3 -15l-48 -139q-9 -26 -34 -26q-15 0 -25.5 12.5t-8.5 27.5z" />
    <glyph glyph-name="Omegatonos" unicode="&#x38f;" horiz-adv-x="824" 
d="M84 374q0 138 100.5 221t256.5 83t256 -82.5t100 -221.5q0 -134 -127 -224h43q31 0 53.5 -22t22.5 -53t-22.5 -53t-53.5 -22h-135q-37 0 -63.5 26.5t-26.5 63.5q0 52 43 78q44 24 67.5 68.5t23.5 98.5q0 76 -46 133t-135 57t-135.5 -57t-46.5 -133q0 -54 23.5 -98.5
t67.5 -68.5q20 -11 32 -32.5t12 -45.5q0 -37 -26.5 -63.5t-63.5 -26.5h-136q-31 0 -53 22t-22 53t22 53t53 22h44q-128 93 -128 224zM-17 484l14 145q2 20 17.5 33.5t34.5 13.5q22 0 37.5 -15t15.5 -37q0 -9 -3 -15l-48 -139q-9 -26 -34 -26q-15 0 -25.5 12.5t-8.5 27.5z
" />
    <glyph glyph-name="iotadieresistonos" unicode="&#x390;" horiz-adv-x="280" 
d="M56 130v285q0 32 23 54.5t54 22.5q32 0 54.5 -22.5t22.5 -54.5v-253q0 -28 31 -40l5 -2q35 -14 35 -60q0 -33 -18.5 -52.5t-51.5 -19.5h-12q-69 0 -106 36.5t-37 105.5zM104 601l14 145q2 20 17 33.5t35 13.5q21 0 37 -15.5t16 -36.5q0 -9 -3 -15l-48 -139
q-11 -26 -34 -26q-15 0 -25.5 12.5t-8.5 27.5zM-84 640q0 32 22.5 55t55.5 23t55.5 -23t22.5 -55q0 -33 -22.5 -56t-55.5 -23t-55.5 23t-22.5 56zM231 640q0 32 23 55t56 23t56 -23t23 -55q0 -33 -23 -56t-56 -23t-56 23t-23 56z" />
    <glyph glyph-name="Alpha" unicode="&#x391;" horiz-adv-x="684" 
d="M667 78q0 -36 -25.5 -61.5t-61.5 -25.5q-28 0 -51 17.5t-31 43.5l-19 57h-274l-19 -57q-8 -27 -31 -44t-51 -17q-36 0 -61.5 25.5t-25.5 61.5q0 16 6 30l177 470q17 45 55.5 71.5t86.5 26.5q47 0 86 -27.5t55 -70.5l178 -470q6 -18 6 -30zM254 254h176l-88 263z" />
    <glyph glyph-name="Beta" unicode="&#x392;" horiz-adv-x="680" 
d="M60 91v485q0 91 91 91h287q91 0 143 -50t52 -120q0 -59 -32 -100t-82 -53q53 -7 90 -55q37 -46 37 -108q0 -78 -51.5 -129.5t-144.5 -51.5h-299q-91 0 -91 91zM232 409h167q26 0 42.5 16.5t16.5 41.5t-16.5 41t-42.5 16h-167v-115zM232 143h173q30 0 48 17t18 44t-18 45
t-48 18h-173v-124z" />
    <glyph glyph-name="Gamma" unicode="&#x393;" horiz-adv-x="578" 
d="M60 78v498q0 91 91 91h331q31 0 53 -22t22 -53t-22 -53t-53 -22h-250v-439q0 -36 -25 -61.5t-61 -25.5t-61 25.5t-25 61.5z" />
    <glyph glyph-name="uni0394" unicode="&#x394;" horiz-adv-x="697" 
d="M20 65q0 19 8 40l179 473q16 43 55 70.5t86 27.5q48 0 87 -27.5t55 -70.5l179 -473q8 -21 8 -40q0 -30 -21 -47.5t-60 -17.5h-495q-39 0 -60 17.5t-21 47.5zM348 497l-117 -347h235z" />
    <glyph glyph-name="Epsilon" unicode="&#x395;" horiz-adv-x="589" 
d="M60 91v485q0 91 91 91h334q29 0 50.5 -21.5t21.5 -51.5q0 -29 -21.5 -50.5t-50.5 -21.5h-253v-111h246q29 0 50.5 -21.5t21.5 -51.5t-21.5 -51.5t-50.5 -21.5h-246v-120h253q29 0 50.5 -21t21.5 -51t-21.5 -51.5t-50.5 -21.5h-334q-91 0 -91 91z" />
    <glyph glyph-name="Zeta" unicode="&#x396;" horiz-adv-x="596" 
d="M30 95q0 31 19 56l274 366h-217q-31 0 -53.5 22t-22.5 53t22.5 53t53.5 22h359q38 0 66 -27.5t28 -66.5q0 -31 -19 -56l-275 -367h225q31 0 53.5 -22t22.5 -53t-22.5 -53t-53.5 -22h-366q-38 0 -66 28t-28 67z" />
    <glyph glyph-name="Eta" unicode="&#x397;" horiz-adv-x="741" 
d="M509 78v190h-277v-190q0 -36 -25 -61.5t-61 -25.5t-61 25.5t-25 61.5v511q0 36 25 61.5t61 25.5t61 -25.5t25 -61.5v-171h277v171q0 36 25 61.5t61 25.5t61 -25.5t25 -61.5v-511q0 -36 -25 -61.5t-61 -25.5t-61 25.5t-25 61.5z" />
    <glyph glyph-name="Theta" unicode="&#x398;" horiz-adv-x="766" 
d="M383 678q151 2 254.5 -97.5t101.5 -247.5q2 -148 -101.5 -247.5t-254.5 -97.5q-152 -2 -255.5 97.5t-101.5 247.5q-2 148 101.5 247.5t255.5 97.5zM383 526q-81 0 -131.5 -55.5t-50.5 -137.5t50.5 -137.5t131.5 -55.5q80 0 130.5 55.5t50.5 137.5t-50.5 137.5
t-130.5 55.5zM230 339q0 31 22.5 52.5t53.5 21.5h153q31 0 53.5 -21.5t22.5 -52.5q0 -32 -22.5 -54t-53.5 -22h-153q-31 0 -53.5 22t-22.5 54z" />
    <glyph glyph-name="Iota" unicode="&#x399;" horiz-adv-x="292" 
d="M60 78v511q0 36 25 61.5t61 25.5t61 -25.5t25 -61.5v-511q0 -36 -25 -61.5t-61 -25.5t-61 25.5t-25 61.5z" />
    <glyph glyph-name="Kappa" unicode="&#x39a;" horiz-adv-x="654" 
d="M620 75q0 -34 -23.5 -59t-58.5 -25q-39 0 -63 28l-195 230l-48 -55v-116q0 -36 -25 -61.5t-61 -25.5t-61 25.5t-25 61.5v511q0 36 25 61.5t61 25.5t61 -25.5t25 -61.5v-196l228 256q24 27 60 27q33 0 56.5 -24.5t23.5 -56.5q0 -33 -19 -53l-178 -189l198 -224
q19 -22 19 -54z" />
    <glyph glyph-name="Lambda" unicode="&#x39b;" horiz-adv-x="697" 
d="M495 54l-147 443l-146 -443q-9 -28 -33 -45.5t-53 -17.5q-38 0 -64.5 26.5t-26.5 63.5q0 13 6 32l176 464q16 43 55 71t86 28q48 0 86.5 -27t55.5 -72l175 -464q7 -15 7 -32q0 -37 -27 -63.5t-64 -26.5q-30 0 -53.5 17.5t-32.5 45.5z" />
    <glyph glyph-name="Mu" unicode="&#x39c;" horiz-adv-x="877" 
d="M645 78v372l-160 -426q-12 -33 -47 -33q-34 0 -46 33l-160 426v-372q0 -36 -25 -61.5t-61 -25.5t-61 25.5t-25 61.5v459q0 57 41 98t98 41q44 0 80 -25.5t50 -66.5l109 -295l110 295q15 41 51 66.5t80 25.5q56 0 97 -41.5t41 -97.5v-459q0 -36 -25 -61.5t-61 -25.5
t-61 25.5t-25 61.5z" />
    <glyph glyph-name="Nu" unicode="&#x39d;" horiz-adv-x="740" 
d="M488 36l-256 367v-325q0 -36 -25 -61.5t-61 -25.5t-61 25.5t-25 61.5v485q0 46 33 79q33 34 80 34q59 0 92 -49l242 -344v306q0 35 25.5 61t60.5 26q36 0 61.5 -26t25.5 -61v-493q0 -43 -31 -74t-75 -31q-54 0 -86 45z" />
    <glyph glyph-name="Xi" unicode="&#x39e;" horiz-adv-x="628" 
d="M32 595q0 29 21.5 50.5t51.5 21.5h417q30 0 51.5 -21.5t21.5 -50.5q0 -30 -21.5 -51.5t-51.5 -21.5h-417q-30 0 -51.5 21.5t-21.5 51.5zM39 338q0 30 21.5 51.5t51.5 21.5h404q30 0 51.5 -21.5t21.5 -51.5t-21.5 -51.5t-51.5 -21.5h-404q-30 0 -51.5 21.5t-21.5 51.5z
M33 72q0 30 21.5 51.5t50.5 21.5h418q30 0 51.5 -21.5t21.5 -51.5q0 -29 -22 -50.5t-51 -21.5h-418q-29 0 -50.5 21.5t-21.5 50.5z" />
    <glyph glyph-name="Omicron" unicode="&#x39f;" horiz-adv-x="766" 
d="M383 678q151 2 254.5 -97.5t101.5 -247.5q2 -148 -101.5 -247.5t-254.5 -97.5q-152 -2 -255.5 97.5t-101.5 247.5q-2 148 101.5 247.5t255.5 97.5zM383 526q-81 0 -131.5 -55.5t-50.5 -137.5t50.5 -137.5t131.5 -55.5q80 0 130.5 55.5t50.5 137.5t-50.5 137.5
t-130.5 55.5z" />
    <glyph glyph-name="Pi" unicode="&#x3a0;" horiz-adv-x="741" 
d="M509 78v439h-277v-439q0 -36 -25 -61.5t-61 -25.5t-61 25.5t-25 61.5v498q0 91 91 91h439q91 0 91 -91v-498q0 -36 -25 -61.5t-61 -25.5t-61 25.5t-25 61.5z" />
    <glyph glyph-name="Rho" unicode="&#x3a1;" horiz-adv-x="643" 
d="M60 78v498q0 91 91 91h243q107 0 169.5 -63t62.5 -159q0 -95 -62.5 -157t-169.5 -62h-162v-148q0 -36 -25 -61.5t-61 -25.5t-61 25.5t-25 61.5zM371 522h-139v-150h139q35 0 57.5 20.5t22.5 53.5q0 34 -22.5 55t-57.5 21z" />
    <glyph glyph-name="Sigma" unicode="&#x3a3;" horiz-adv-x="591" 
d="M249 150h234q31 0 53.5 -22t22.5 -53t-22.5 -53t-53.5 -22h-351q-41 0 -70.5 29.5t-29.5 70.5t30 71l168 169l-165 156q-32 29 -32 73q0 41 29 69.5t69 28.5h352q31 0 53.5 -22t22.5 -53t-22.5 -53t-53.5 -22h-226l116 -112q33 -31 33 -65t-32 -64z" />
    <glyph glyph-name="Tau" unicode="&#x3a4;" horiz-adv-x="589" 
d="M209 78v439h-121q-31 0 -53 22t-22 53t22 53t53 22h412q31 0 53.5 -22t22.5 -53t-22.5 -53t-53.5 -22h-119v-439q0 -35 -25.5 -61t-60.5 -26q-36 0 -61 25.5t-25 61.5z" />
    <glyph glyph-name="Upsilon" unicode="&#x3a5;" horiz-adv-x="653" 
d="M607 538l-194 -269v-191q0 -35 -25.5 -61t-60.5 -26q-36 0 -61 25.5t-25 61.5v191l-195 268q-21 25 -21 55q0 35 25 59.5t59 24.5q44 0 68 -35l150 -222l149 222q24 35 68 35q34 0 58.5 -24.5t24.5 -59.5q0 -28 -20 -54z" />
    <glyph glyph-name="Phi" unicode="&#x3a6;" horiz-adv-x="880" 
d="M526 68q-3 -37 -26 -58t-60 -21t-60.5 21t-26.5 58q-157 14 -242 82t-85 183t85 183t242 82q3 37 26 58t61 21q37 0 60 -21.5t26 -57.5q157 -14 242 -82t85 -183t-85 -183t-242 -82zM353 220v226q-152 -20 -152 -113t152 -113zM678 333q0 93 -152 113v-226
q152 20 152 113z" />
    <glyph glyph-name="Chi" unicode="&#x3a7;" horiz-adv-x="676" 
d="M654 76q0 -35 -24.5 -60t-59.5 -25q-38 0 -63 28l-169 201l-169 -201q-25 -28 -63 -28q-35 0 -59.5 25t-24.5 60q0 30 21 54l187 212l-174 194q-21 24 -21 56q0 35 25 59.5t59 24.5q41 0 65 -32l154 -186l154 186q24 32 65 32q35 0 59.5 -24.5t24.5 -59.5q0 -33 -15 -48
l-180 -202l187 -212q21 -24 21 -54z" />
    <glyph glyph-name="Psi" unicode="&#x3a8;" horiz-adv-x="902" 
d="M754 676q36 0 62 -26.5t26 -61.5v-181q0 -116 -78 -188.5t-227 -89.5v-51q0 -36 -25 -61.5t-61 -25.5q-35 0 -60.5 26t-25.5 61v51q-149 17 -227 89.5t-78 187.5v183q0 36 26 61.5t62 25.5t61.5 -26t25.5 -61v-177q0 -104 130 -128v305q0 35 25.5 61t61.5 26q35 0 60 -26
t25 -61v-305q129 25 129 128v176q0 35 26 61.5t62 26.5z" />
    <glyph glyph-name="uni03A9" unicode="&#x3a9;" horiz-adv-x="766" 
d="M26 374q0 138 100.5 221t256.5 83t256 -82.5t100 -221.5q0 -134 -127 -224h43q31 0 53.5 -22t22.5 -53t-22.5 -53t-53.5 -22h-135q-37 0 -63.5 26.5t-26.5 63.5q0 52 43 78q44 24 67.5 68.5t23.5 98.5q0 76 -46 133t-135 57t-135.5 -57t-46.5 -133q0 -54 23.5 -98.5
t67.5 -68.5q20 -11 32 -32.5t12 -45.5q0 -37 -26.5 -63.5t-63.5 -26.5h-136q-31 0 -53 22t-22 53t22 53t53 22h44q-128 93 -128 224z" />
    <glyph glyph-name="Iotadieresis" unicode="&#x3aa;" horiz-adv-x="292" 
d="M60 78v511q0 36 25 61.5t61 25.5t61 -25.5t25 -61.5v-511q0 -36 -25 -61.5t-61 -25.5t-61 25.5t-25 61.5zM-39 787q0 32 23 55t56 23t55.5 -23t22.5 -55q0 -33 -22.5 -56t-55.5 -23t-56 23t-23 56zM175 787q0 32 23 55t56 23q32 0 55.5 -23t23.5 -55q0 -33 -23.5 -56
t-55.5 -23q-33 0 -56 23t-23 56z" />
    <glyph glyph-name="Upsilondieresis" unicode="&#x3ab;" horiz-adv-x="653" 
d="M607 538l-194 -269v-191q0 -35 -25.5 -61t-60.5 -26q-36 0 -61 25.5t-25 61.5v191l-195 268q-21 25 -21 55q0 35 25 59.5t59 24.5q44 0 68 -35l150 -222l149 222q24 35 68 35q34 0 58.5 -24.5t24.5 -59.5q0 -28 -20 -54zM141 787q0 32 23 55t56 23t55.5 -23t22.5 -55
q0 -33 -22.5 -56t-55.5 -23t-56 23t-23 56zM355 787q0 32 23 55t56 23q32 0 55.5 -23t23.5 -55q0 -33 -23.5 -56t-55.5 -23q-33 0 -56 23t-23 56z" />
    <glyph glyph-name="alphatonos" unicode="&#x3ac;" horiz-adv-x="605" 
d="M605 60q0 -33 -18 -52.5t-51 -19.5h-12q-106 0 -134 84q-24 -40 -64.5 -62t-87.5 -22q-93 0 -153.5 68.5t-60.5 185.5q0 115 60.5 184t153.5 69q89 0 143 -70q3 29 25 48t51 19q32 0 54.5 -22.5t22.5 -54.5v-253q0 -28 32 -40l4 -2q35 -14 35 -60zM381 168v147
q-15 19 -41.5 31t-51.5 12q-48 0 -77 -31.5t-29 -84.5t30 -85.5t76 -32.5q25 0 51.5 12.5t41.5 31.5zM268 601l14 145q2 20 17.5 33.5t34.5 13.5q22 0 37.5 -15t15.5 -37q0 -9 -3 -15l-48 -139q-9 -26 -34 -26q-15 0 -25.5 12.5t-8.5 27.5z" />
    <glyph glyph-name="epsilontonos" unicode="&#x3ad;" horiz-adv-x="496" 
d="M24 134q0 47 41 79t91 35q-52 9 -87.5 40.5t-35.5 71.5q1 63 58.5 98.5t159.5 35.5q107 0 180 -46q28 -18 28 -49q0 -25 -17 -42t-41 -17q-15 0 -29 9q-49 28 -108 28q-33 0 -52.5 -11t-19.5 -29q0 -42 74 -42h43q22 0 37.5 -15t15.5 -37t-15.5 -36.5t-37.5 -14.5h-43
q-83 0 -83 -42q0 -44 76 -44q62 0 117 31q13 7 27 7q25 0 43.5 -18t18.5 -43q0 -36 -33 -54q-74 -41 -175 -41q-107 1 -170 40.5t-63 105.5zM225 601l14 145q2 20 17.5 33.5t34.5 13.5q22 0 37.5 -15t15.5 -37q0 -9 -3 -15l-48 -139q-9 -26 -34 -26q-15 0 -25.5 12.5
t-8.5 27.5z" />
    <glyph glyph-name="etatonos" unicode="&#x3ae;" horiz-adv-x="593" 
d="M537 342v-458q0 -32 -22.5 -54.5t-54.5 -22.5t-54.5 22.5t-22.5 54.5v395q0 80 -79 80q-56 0 -94 -47v-244q0 -32 -22.5 -54.5t-54.5 -22.5q-31 0 -54 23t-23 54v347q0 33 22 56t55 23q30 0 52 -19.5t26 -49.5q61 70 166 70q79 0 119.5 -40.5t40.5 -112.5zM266 601
l14 145q2 20 17.5 33.5t34.5 13.5q22 0 37.5 -15t15.5 -37q0 -9 -3 -15l-48 -139q-9 -26 -34 -26q-15 0 -25.5 12.5t-8.5 27.5z" />
    <glyph glyph-name="iotatonos" unicode="&#x3af;" horiz-adv-x="280" 
d="M56 130v285q0 32 23 54.5t54 22.5q32 0 54.5 -22.5t22.5 -54.5v-253q0 -28 31 -40l5 -2q35 -14 35 -60q0 -33 -18.5 -52.5t-51.5 -19.5h-12q-69 0 -106 36.5t-37 105.5zM103 601l14 145q2 20 17.5 33.5t34.5 13.5q22 0 37.5 -15t15.5 -37q0 -9 -3 -15l-48 -139
q-9 -26 -34 -26q-15 0 -25.5 12.5t-8.5 27.5z" />
    <glyph glyph-name="upsilondieresistonos" unicode="&#x3b0;" horiz-adv-x="584" 
d="M56 221v194q0 32 23 54.5t54 22.5q32 0 54.5 -22.5t22.5 -54.5v-191q0 -45 23.5 -72.5t62.5 -27.5q51 0 78.5 37t27.5 103q0 71 -23 126q-5 15 -5 26q0 32 23 54.5t55 22.5q24 0 44 -13.5t28 -35.5q36 -79 36 -180q0 -122 -71.5 -199t-192.5 -77q-116 0 -178 62.5
t-62 170.5zM267 601l14 145q2 20 17 33.5t35 13.5q21 0 37 -15.5t16 -36.5q0 -9 -3 -15l-48 -139q-11 -26 -34 -26q-15 0 -25.5 12.5t-8.5 27.5zM79 640q0 32 22.5 55t55.5 23t55.5 -23t22.5 -55q0 -33 -22.5 -56t-55.5 -23t-55.5 23t-22.5 56zM394 640q0 32 23 55t56 23
t56 -23t23 -55q0 -33 -23 -56t-56 -23t-56 23t-23 56z" />
    <glyph glyph-name="alpha" unicode="&#x3b1;" horiz-adv-x="605" 
d="M605 60q0 -33 -18 -52.5t-51 -19.5h-12q-106 0 -134 84q-24 -40 -64.5 -62t-87.5 -22q-93 0 -153.5 68.5t-60.5 185.5q0 115 60.5 184t153.5 69q89 0 143 -70q3 29 25 48t51 19q32 0 54.5 -22.5t22.5 -54.5v-253q0 -28 32 -40l4 -2q35 -14 35 -60zM381 168v147
q-15 19 -41.5 31t-51.5 12q-48 0 -77 -31.5t-29 -84.5t30 -85.5t76 -32.5q25 0 51.5 12.5t41.5 31.5z" />
    <glyph glyph-name="beta" unicode="&#x3b2;" horiz-adv-x="591" 
d="M133 -193q-31 0 -54 22.5t-23 54.5v561q0 113 76.5 172.5t180.5 59.5q113 0 175.5 -49t62.5 -134q0 -57 -40 -98.5t-101 -51.5q63 -7 109.5 -53.5t46.5 -123.5q2 -71 -59.5 -126t-136.5 -53q-102 0 -160 68v-172q0 -32 -22.5 -54.5t-54.5 -22.5zM315 124q44 0 69 20
t25 53q0 55 -82 68q-32 7 -49.5 26.5t-17.5 44.5q0 55 61 71q36 9 54 24t18 41q0 32 -22 50t-58 18q-46 0 -74.5 -26t-28.5 -69v-278q40 -43 105 -43z" />
    <glyph glyph-name="gamma" unicode="&#x3b3;" horiz-adv-x="524" 
d="M185 -116v37q0 242 -133 465q-9 20 -9 36q0 29 20.5 49.5t49.5 20.5q40 0 60 -35q43 -68 71 -143q29 -78 37 -140q25 41 44 108q19 69 27 141q3 29 24.5 49t51.5 20q31 0 53.5 -22.5t22.5 -54.5l-1 -10q-13 -105 -59 -215t-106 -185v-121q0 -32 -22.5 -54.5t-54.5 -22.5
q-31 0 -53.5 22.5t-22.5 54.5z" />
    <glyph glyph-name="delta" unicode="&#x3b4;" 
d="M551 230q0 -100 -69.5 -171t-184.5 -71q-124 0 -198.5 72t-74.5 177q0 61 28 108.5t76 75.5q-48 36 -48 99q0 67 56.5 113t150.5 46q86 0 154 -37q35 -18 35 -54q0 -25 -18 -43t-43 -18q-15 0 -26 6q-50 26 -101 26q-27 0 -43.5 -9.5t-16.5 -23.5q0 -11 15.5 -18.5
t55.5 -17.5q69 -19 121 -42q49 -22 91 -76q40 -52 40 -142zM403 230q0 52 -32.5 81t-103.5 52q-40 -18 -62 -52t-22 -74q0 -48 30 -80.5t79 -32.5t80 31t31 75z" />
    <glyph glyph-name="epsilon" unicode="&#x3b5;" horiz-adv-x="496" 
d="M24 134q0 47 41 79t91 35q-52 9 -87.5 40.5t-35.5 71.5q1 63 58.5 98.5t159.5 35.5q107 0 180 -46q28 -18 28 -49q0 -25 -17 -42t-41 -17q-15 0 -29 9q-49 28 -108 28q-33 0 -52.5 -11t-19.5 -29q0 -42 74 -42h43q22 0 37.5 -15t15.5 -37t-15.5 -36.5t-37.5 -14.5h-43
q-83 0 -83 -42q0 -44 76 -44q62 0 117 31q13 7 27 7q25 0 43.5 -18t18.5 -43q0 -36 -33 -54q-74 -41 -175 -41q-107 1 -170 40.5t-63 105.5z" />
    <glyph glyph-name="zeta" unicode="&#x3b6;" horiz-adv-x="484" 
d="M24 211q0 96 60 181.5t166 140.5h-151q-28 0 -47.5 20t-19.5 47q0 28 19.5 47.5t47.5 19.5h290q28 0 48 -20t20 -48q0 -38 -34 -59q-103 -60 -172 -145q-69 -84 -69 -171q0 -50 28.5 -69t92.5 -19q158 0 158 -126q0 -50 -38 -134q-8 -19 -25.5 -30.5t-39.5 -11.5
q-30 0 -50.5 21t-20.5 50q0 13 5 28q13 30 13 47q0 20 -21 20q-121 0 -190.5 55.5t-69.5 155.5z" />
    <glyph glyph-name="eta" unicode="&#x3b7;" horiz-adv-x="593" 
d="M537 342v-458q0 -32 -22.5 -54.5t-54.5 -22.5t-54.5 22.5t-22.5 54.5v395q0 80 -79 80q-56 0 -94 -47v-244q0 -32 -22.5 -54.5t-54.5 -22.5q-31 0 -54 23t-23 54v347q0 33 22 56t55 23q30 0 52 -19.5t26 -49.5q61 70 166 70q79 0 119.5 -40.5t40.5 -112.5z" />
    <glyph glyph-name="theta" unicode="&#x3b8;" 
d="M551 334q2 -145 -71.5 -246t-192.5 -100q-118 -2 -191.5 100t-71.5 246q-2 144 71.5 245.5t191.5 99.5q121 0 192.5 -99t71.5 -246zM186 402h204q-14 141 -103 141q-87 0 -101 -141zM390 268h-204q12 -144 101 -144q91 0 103 144z" />
    <glyph glyph-name="iota" unicode="&#x3b9;" horiz-adv-x="280" 
d="M56 130v285q0 32 23 54.5t54 22.5q32 0 54.5 -22.5t22.5 -54.5v-253q0 -28 31 -40l5 -2q35 -14 35 -60q0 -33 -18.5 -52.5t-51.5 -19.5h-12q-69 0 -106 36.5t-37 105.5z" />
    <glyph glyph-name="kappa" unicode="&#x3ba;" horiz-adv-x="546" 
d="M521 68q0 -33 -22.5 -55t-54.5 -22q-38 0 -60 28l-124 152l-50 -47v-56q0 -32 -22.5 -54.5t-54.5 -22.5q-31 0 -54 23t-23 54v347q0 32 23 54.5t54 22.5q32 0 54.5 -22.5t22.5 -54.5v-121l170 176q22 22 52 22q31 0 51.5 -21t20.5 -51t-22 -52l-110 -107l135 -148
q14 -16 14 -45z" />
    <glyph glyph-name="lambda" unicode="&#x3bb;" horiz-adv-x="524" 
d="M360 39l-98 276l-99 -276q-17 -48 -70 -48q-31 0 -53 22t-22 54q0 11 6 29l158 393l-11 26q-12 28 -62 28h-7q-24 0 -41.5 19t-17.5 45q0 30 20.5 50t53.5 21h12q137 0 187 -126l183 -456q7 -15 7 -29q0 -32 -21.5 -54t-54.5 -22q-24 0 -43.5 13.5t-26.5 34.5z" />
    <glyph glyph-name="uni03BC" unicode="&#x3bc;" horiz-adv-x="606" 
d="M607 60q0 -33 -18.5 -52.5t-51.5 -19.5h-12q-105 0 -135 88q-42 -88 -126 -88q-36 0 -54 18v-122q0 -32 -22.5 -54.5t-54.5 -22.5q-31 0 -54 22.5t-23 54.5v531q0 32 23 54.5t54 22.5q32 0 54.5 -22.5t22.5 -54.5v-213q0 -78 80 -78q54 0 92 47v244q0 32 23 54.5t54 22.5
q32 0 54.5 -22.5t22.5 -54.5v-253q0 -28 31 -40l5 -2q35 -14 35 -60z" />
    <glyph glyph-name="nu" unicode="&#x3bd;" horiz-adv-x="524" 
d="M152 70l-126 319q-5 15 -5 28q0 31 22 53t53 22q24 0 43.5 -14.5t27.5 -36.5l102 -288q70 112 83 270q3 29 24.5 49t51.5 20q32 0 54 -22.5t22 -54.5l-1 -10q-25 -188 -129 -353q-35 -61 -106 -61q-39 0 -70.5 21.5t-45.5 57.5z" />
    <glyph glyph-name="xi" unicode="&#x3be;" horiz-adv-x="484" 
d="M137 310q-45 7 -73.5 35t-28.5 71q0 38 25 70t65 47h-20q-28 0 -47.5 20t-19.5 47q0 28 19.5 47.5t47.5 19.5h283q27 0 46.5 -19.5t19.5 -47.5q0 -27 -19.5 -47t-46.5 -20h-133q-28 -7 -44.5 -25t-16.5 -43q0 -29 26.5 -45.5t73.5 -16.5h90q28 0 47.5 -19t19.5 -47
q0 -27 -19.5 -46.5t-47.5 -19.5h-90q-111 0 -111 -69q0 -66 120 -66q158 0 158 -126q0 -52 -37 -133q-21 -43 -67 -43q-30 0 -51 21t-21 51q0 17 4 28q14 36 14 50q0 16 -20 16q-127 0 -193 42.5t-66 121.5q0 55 30.5 92.5t82.5 53.5z" />
    <glyph glyph-name="omicron" unicode="&#x3bf;" 
d="M24 242q0 106 73 179.5t190 73.5q118 0 191 -73t73 -180t-73 -180.5t-191 -73.5q-117 0 -190 74t-73 180zM393 242q0 51 -29 84t-77 33t-76 -33t-28 -84q0 -52 28 -85t76 -33t77 33t29 85z" />
    <glyph glyph-name="pi" unicode="&#x3c0;" horiz-adv-x="656" 
d="M657 416q0 -27 -19.5 -47t-47.5 -20h-22v-281q0 -32 -22.5 -54.5t-54.5 -22.5q-31 0 -53.5 22.5t-22.5 54.5v281h-174v-281q0 -32 -22.5 -54.5t-53.5 -22.5q-32 0 -54.5 22.5t-22.5 54.5v281h-22q-28 0 -47.5 20t-19.5 47q0 28 19.5 47.5t47.5 19.5h524q28 0 47.5 -19.5
t19.5 -47.5z" />
    <glyph glyph-name="rho" unicode="&#x3c1;" horiz-adv-x="589" 
d="M210 57v-173q0 -32 -22.5 -54.5t-54.5 -22.5q-31 0 -54 22.5t-23 54.5v358q0 107 70.5 180t184.5 73t184 -73t70 -180q0 -119 -59 -186.5t-153 -67.5q-84 0 -143 69zM309 359q-45 0 -72 -33t-27 -84v-74q14 -19 40.5 -31.5t51.5 -12.5q46 0 76 32.5t30 85.5q0 51 -27 84
t-72 33z" />
    <glyph glyph-name="uni03C2" unicode="&#x3c2;" horiz-adv-x="497" 
d="M288 495q83 0 139 -38q35 -20 35 -58q0 -28 -20 -48.5t-49 -20.5q-20 0 -36 10q-25 19 -62 19q-51 0 -82 -30.5t-31 -83.5t32 -81t88 -28q169 0 169 -114q0 -53 -38 -144q-18 -44 -66 -44q-30 0 -51 21t-21 51q0 11 5 26q14 39 14 52q0 16 -19 16q-120 0 -195.5 65
t-75.5 177q0 111 75.5 182t188.5 71z" />
    <glyph glyph-name="sigma" unicode="&#x3c3;" 
d="M500 347h-20q59 -49 59 -137q0 -95 -67.5 -158.5t-184.5 -63.5t-190 74t-73 180q0 104 73 172.5t194 68.5h208q28 0 48 -20t20 -47q0 -28 -20 -48.5t-47 -20.5zM393 241q0 70 -55 106h-47q-49 0 -78.5 -30.5t-29.5 -74.5q0 -52 28 -85t76 -33t77 33t29 84z" />
    <glyph glyph-name="tau" unicode="&#x3c4;" horiz-adv-x="478" 
d="M402 349h-91v-176q0 -20 10 -33t26 -15q8 -2 11 0h11q21 -2 36.5 -22t15.5 -45q0 -22 -14.5 -40t-36.5 -23q-27 -7 -61 -7q-74 0 -113 36.5t-39 105.5v219h-81q-28 0 -47.5 20t-19.5 47q0 28 19.5 47.5t47.5 19.5h326q28 0 47.5 -19.5t19.5 -47.5q0 -27 -19.5 -47
t-47.5 -20z" />
    <glyph glyph-name="upsilon" unicode="&#x3c5;" horiz-adv-x="584" 
d="M56 221v194q0 32 23 54.5t54 22.5q32 0 54.5 -22.5t22.5 -54.5v-191q0 -45 23.5 -72.5t62.5 -27.5q51 0 78.5 37t27.5 103q0 71 -23 126q-5 15 -5 26q0 32 23 54.5t55 22.5q24 0 44 -13.5t28 -35.5q36 -79 36 -180q0 -122 -71.5 -199t-192.5 -77q-116 0 -178 62.5
t-62 170.5z" />
    <glyph glyph-name="phi" unicode="&#x3c6;" horiz-adv-x="730" 
d="M441 -11l1 -105q0 -32 -22.5 -54.5t-54.5 -22.5q-31 0 -54 22.5t-23 54.5l1 105q-125 5 -195 72t-70 189q0 132 113 207q19 15 40 15q31 0 52 -21t21 -52t-23 -52q-44 -38 -44 -97q0 -61 28 -93.5t77 -32.5v253q0 48 35 81q35 34 85 34q143 -2 220.5 -69t77.5 -187
q0 -115 -70 -178.5t-195 -68.5zM547 236q0 54 -28 82.5t-77 28.5v-223q49 0 77 28.5t28 83.5z" />
    <glyph glyph-name="chi" unicode="&#x3c7;" horiz-adv-x="512" 
d="M504 -117q0 -31 -22.5 -53.5t-52.5 -22.5q-42 0 -65 37l-107 177l-108 -177q-25 -37 -65 -37q-30 0 -53 22.5t-23 53.5q0 22 13 41l149 233l-141 218q-11 19 -11 40q0 31 22.5 54t54.5 23q40 0 64 -37l97 -159l98 159q22 37 64 37q32 0 54.5 -23t22.5 -54q0 -21 -12 -40
l-140 -218l149 -233q12 -20 12 -41z" />
    <glyph glyph-name="psi" unicode="&#x3c8;" horiz-adv-x="768" 
d="M635 492q32 0 54.5 -22.5t22.5 -54.5v-167q0 -114 -60 -178t-191 -78v-108q0 -32 -22.5 -54.5t-54.5 -22.5q-31 0 -54 22.5t-23 54.5v108q-132 14 -191.5 78t-59.5 178v167q0 32 23 54.5t54 22.5q32 0 54.5 -22.5t22.5 -54.5v-166q0 -53 21.5 -80.5t75.5 -37.5v468
q0 32 23 54.5t54 22.5q32 0 54.5 -22.5t22.5 -54.5v-468q53 9 75 37t22 81v166q0 32 23 54.5t54 22.5z" />
    <glyph glyph-name="omega" unicode="&#x3c9;" horiz-adv-x="794" 
d="M397 120q-28 -67 -68 -99.5t-102 -32.5q-97 0 -150 69.5t-53 174.5q0 134 71 229q22 30 59 30q31 0 52.5 -21.5t21.5 -52.5q0 -20 -9 -35q-36 -63 -36 -150q0 -48 17 -78t49 -30q35 0 53 32t18 86v49q0 35 22 58.5t56 23.5q33 0 54.5 -23t21.5 -59v-49q0 -54 18 -86
t53 -32q32 0 49 30t17 78q0 88 -36 149q-8 14 -8 36q0 31 21.5 52t51.5 21q38 0 59 -29q71 -95 71 -229q0 -105 -53 -174.5t-150 -69.5q-61 0 -101 32.5t-69 99.5z" />
    <glyph glyph-name="iotadieresis" unicode="&#x3ca;" horiz-adv-x="280" 
d="M56 130v285q0 32 23 54.5t54 22.5q32 0 54.5 -22.5t22.5 -54.5v-253q0 -28 31 -40l5 -2q35 -14 35 -60q0 -33 -18.5 -52.5t-51.5 -19.5h-12q-69 0 -106 36.5t-37 105.5zM-52 640q0 32 23 55t56 23t55.5 -23t22.5 -55q0 -33 -22.5 -56t-55.5 -23t-56 23t-23 56zM162 640
q0 32 23 55t56 23q32 0 55.5 -23t23.5 -55q0 -33 -23.5 -56t-55.5 -23q-33 0 -56 23t-23 56z" />
    <glyph glyph-name="upsilondieresis" unicode="&#x3cb;" horiz-adv-x="584" 
d="M56 221v194q0 32 23 54.5t54 22.5q32 0 54.5 -22.5t22.5 -54.5v-191q0 -45 23.5 -72.5t62.5 -27.5q51 0 78.5 37t27.5 103q0 71 -23 126q-5 15 -5 26q0 32 23 54.5t55 22.5q24 0 44 -13.5t28 -35.5q36 -79 36 -180q0 -122 -71.5 -199t-192.5 -77q-116 0 -178 62.5
t-62 170.5zM111 640q0 32 23 55t56 23t55.5 -23t22.5 -55q0 -33 -22.5 -56t-55.5 -23t-56 23t-23 56zM325 640q0 32 23 55t56 23q32 0 55.5 -23t23.5 -55q0 -33 -23.5 -56t-55.5 -23q-33 0 -56 23t-23 56z" />
    <glyph glyph-name="omicrontonos" unicode="&#x3cc;" 
d="M24 242q0 106 73 179.5t190 73.5q118 0 191 -73t73 -180t-73 -180.5t-191 -73.5q-117 0 -190 74t-73 180zM393 242q0 51 -29 84t-77 33t-76 -33t-28 -84q0 -52 28 -85t76 -33t77 33t29 85zM257 601l14 145q2 20 17.5 33.5t34.5 13.5q22 0 37.5 -15t15.5 -37q0 -9 -3 -15
l-48 -139q-9 -26 -34 -26q-15 0 -25.5 12.5t-8.5 27.5z" />
    <glyph glyph-name="upsilontonos" unicode="&#x3cd;" horiz-adv-x="584" 
d="M56 221v194q0 32 23 54.5t54 22.5q32 0 54.5 -22.5t22.5 -54.5v-191q0 -45 23.5 -72.5t62.5 -27.5q51 0 78.5 37t27.5 103q0 71 -23 126q-5 15 -5 26q0 32 23 54.5t55 22.5q24 0 44 -13.5t28 -35.5q36 -79 36 -180q0 -122 -71.5 -199t-192.5 -77q-116 0 -178 62.5
t-62 170.5zM266 601l14 145q2 20 17.5 33.5t34.5 13.5q22 0 37.5 -15t15.5 -37q0 -9 -3 -15l-48 -139q-9 -26 -34 -26q-15 0 -25.5 12.5t-8.5 27.5z" />
    <glyph glyph-name="omegatonos" unicode="&#x3ce;" horiz-adv-x="794" 
d="M397 120q-28 -67 -68 -99.5t-102 -32.5q-97 0 -150 69.5t-53 174.5q0 134 71 229q22 30 59 30q31 0 52.5 -21.5t21.5 -52.5q0 -20 -9 -35q-36 -63 -36 -150q0 -48 17 -78t49 -30q35 0 53 32t18 86v49q0 35 22 58.5t56 23.5q33 0 54.5 -23t21.5 -59v-49q0 -54 18 -86
t53 -32q32 0 49 30t17 78q0 88 -36 149q-8 14 -8 36q0 31 21.5 52t51.5 21q38 0 59 -29q71 -95 71 -229q0 -105 -53 -174.5t-150 -69.5q-61 0 -101 32.5t-69 99.5zM367 601l14 145q2 20 17.5 33.5t34.5 13.5q22 0 37.5 -15t15.5 -37q0 -9 -3 -15l-48 -139q-9 -26 -34 -26
q-15 0 -25.5 12.5t-8.5 27.5z" />
    <glyph glyph-name="uni0401" unicode="&#x401;" horiz-adv-x="589" 
d="M60 91v485q0 91 91 91h334q29 0 50.5 -21.5t21.5 -51.5q0 -29 -21.5 -50.5t-50.5 -21.5h-253v-111h246q29 0 50.5 -21.5t21.5 -51.5t-21.5 -51.5t-50.5 -21.5h-246v-120h253q29 0 50.5 -21t21.5 -51t-21.5 -51.5t-50.5 -21.5h-334q-91 0 -91 91zM126 787q0 32 23 55
t56 23t55.5 -23t22.5 -55q0 -33 -22.5 -56t-55.5 -23t-56 23t-23 56zM340 787q0 32 23 55t56 23q32 0 55.5 -23t23.5 -55q0 -33 -23.5 -56t-55.5 -23q-33 0 -56 23t-23 56z" />
    <glyph glyph-name="uni0402" unicode="&#x402;" horiz-adv-x="791" 
d="M551 138q51 12 51 62v15q0 36 -28.5 55t-80.5 19q-61 0 -112 -25v-186q0 -35 -25.5 -61t-60.5 -26q-36 0 -61 25.5t-25 61.5v439h-121q-31 0 -53 22t-22 53t22 53t53 22h412q31 0 53.5 -22t22.5 -53t-22.5 -53t-53.5 -22h-119v-119q77 42 174 42q107 0 163 -57t56 -159
v-17q0 -183 -193 -213q-3 -1 -12 -1q-30 0 -51.5 21.5t-21.5 51.5q0 26 15.5 45.5t39.5 26.5z" />
    <glyph glyph-name="uni0403" unicode="&#x403;" horiz-adv-x="578" 
d="M60 78v498q0 91 91 91h331q31 0 53 -22t22 -53t-22 -53t-53 -22h-250v-439q0 -36 -25 -61.5t-61 -25.5t-61 25.5t-25 61.5zM336 712q-21 0 -35 14t-14 35q0 17 11 30l61 69q15 18 40 18q22 0 38.5 -16t16.5 -39q0 -25 -17 -39l-67 -59q-14 -13 -34 -13z" />
    <glyph glyph-name="uni0404" unicode="&#x404;" horiz-adv-x="692" 
d="M504 196q24 27 60 27q34 0 57.5 -23.5t23.5 -57.5q0 -30 -21 -54q-91 -100 -237 -100q-153 -2 -258 96.5t-103 248.5q-2 150 103 248.5t258 96.5q147 0 237 -99q22 -23 22 -55q0 -33 -24 -57t-58 -24q-37 0 -61 27q-50 56 -121 56q-60 0 -104 -30.5t-63 -84.5h207
q30 0 51.5 -21.5t21.5 -51.5t-21.5 -51.5t-51.5 -21.5h-210q16 -58 61 -91.5t109 -33.5q72 0 122 56z" />
    <glyph glyph-name="uni0405" unicode="&#x405;" horiz-adv-x="606" 
d="M34 116q0 32 23 55.5t55 23.5q24 0 42 -12q76 -48 162 -48q42 0 68.5 16t26.5 41q0 26 -25.5 40.5t-88.5 27.5q-82 17 -133 33q-51 17 -92 60q-39 42 -39 115q0 89 74 149t202 60q114 0 207 -48q19 -9 31 -28t12 -41q0 -32 -23 -55t-55 -23q-17 0 -37 9q-82 39 -146 39
q-89 0 -89 -52q0 -23 25 -36t90 -25q83 -18 130 -35q53 -20 92 -60q40 -40 40 -111q0 -103 -73.5 -163t-204.5 -60q-138 0 -236 61q-38 24 -38 67z" />
    <glyph glyph-name="uni0406" unicode="&#x406;" horiz-adv-x="292" 
d="M60 78v511q0 36 25 61.5t61 25.5t61 -25.5t25 -61.5v-511q0 -36 -25 -61.5t-61 -25.5t-61 25.5t-25 61.5z" />
    <glyph glyph-name="uni0407" unicode="&#x407;" horiz-adv-x="292" 
d="M60 78v511q0 36 25 61.5t61 25.5t61 -25.5t25 -61.5v-511q0 -36 -25 -61.5t-61 -25.5t-61 25.5t-25 61.5zM-39 787q0 32 23 55t56 23t55.5 -23t22.5 -55q0 -33 -22.5 -56t-55.5 -23t-56 23t-23 56zM175 787q0 32 23 55t56 23q32 0 55.5 -23t23.5 -55q0 -33 -23.5 -56
t-55.5 -23q-33 0 -56 23t-23 56z" />
    <glyph glyph-name="uni0408" unicode="&#x408;" horiz-adv-x="492" 
d="M21 81q0 31 22 53.5t53 22.5q12 0 25 -5q25 -12 50 -12q41 0 65 24.5t24 66.5v358q0 36 25 61.5t61 25.5t61 -25.5t25 -61.5v-360q0 -118 -65 -179.5t-181 -61.5q-61 0 -115 23q-22 8 -36 27t-14 43z" />
    <glyph glyph-name="uni0409" unicode="&#x409;" horiz-adv-x="1092" 
d="M843 0h-243q-91 0 -91 91v426h-183l-6 -74q-17 -217 -66 -317q-48 -100 -127 -128q-15 -7 -36 -7q-33 0 -56.5 24.5t-23.5 59.5q0 25 14 46t36 31q90 39 107 318l9 105q8 92 90 92h323q91 0 91 -91v-133h162q107 0 169.5 -63t62.5 -158q0 -96 -62.5 -159t-169.5 -63z
M681 293v-143h139q36 0 58 19.5t22 52.5t-22 52t-58 19h-139z" />
    <glyph glyph-name="uni040A" unicode="&#x40a;" horiz-adv-x="1092" 
d="M146 676q36 0 61 -25.5t25 -61.5v-171h277v171q0 36 25 61.5t61 25.5t61 -25.5t25 -61.5v-171h175q101 0 160 -59.5t59 -149.5t-59 -149.5t-160 -59.5h-256q-91 0 -91 91v177h-277v-190q0 -36 -25 -61.5t-61 -25.5t-61 25.5t-25 61.5v511q0 36 25 61.5t61 25.5zM900 209
q0 27 -17.5 43t-47.5 16h-154v-118h154q28 0 46.5 16t18.5 43z" />
    <glyph glyph-name="uni040B" unicode="&#x40b;" horiz-adv-x="827" 
d="M493 289q-61 0 -112 -25v-186q0 -35 -25.5 -61t-60.5 -26q-36 0 -61 25.5t-25 61.5v439h-121q-31 0 -53 22t-22 53t22 53t53 22h412q31 0 53.5 -22t22.5 -53t-22.5 -53t-53.5 -22h-119v-119q77 42 174 42q112 0 165.5 -61.5t53.5 -190.5v-110q0 -36 -24 -61.5t-59 -25.5
q-36 0 -62.5 26t-26.5 61v110q0 55 -26.5 78t-82.5 23z" />
    <glyph glyph-name="uni040C" unicode="&#x40c;" horiz-adv-x="654" 
d="M620 75q0 -34 -23.5 -59t-58.5 -25q-39 0 -63 28l-195 230l-48 -55v-116q0 -36 -25 -61.5t-61 -25.5t-61 25.5t-25 61.5v511q0 36 25 61.5t61 25.5t61 -25.5t25 -61.5v-196l228 256q24 27 60 27q33 0 56.5 -24.5t23.5 -56.5q0 -33 -19 -53l-178 -189l198 -224
q19 -22 19 -54zM362 712q-21 0 -35 14t-14 35q0 17 11 30l61 69q15 18 40 18q22 0 38.5 -16t16.5 -39q0 -25 -17 -39l-67 -59q-14 -13 -34 -13z" />
    <glyph glyph-name="uni040E" unicode="&#x40e;" horiz-adv-x="632" 
d="M617 590q0 -22 -7 -35l-188 -397q-42 -88 -99.5 -129t-145.5 -41q-9 0 -12 1q-32 1 -54 22t-22 52q0 29 19 51t46 26h9h4q48 1 78 43l-209 365q-11 20 -11 42q0 35 25.5 60.5t60.5 25.5q50 0 77 -47l148 -276l116 269q11 24 32.5 39t47.5 15q35 0 60 -25.5t25 -60.5z
M168 766q-19 16 -19 41q0 21 15 36t37 15q19 0 33 -12q37 -31 81 -31q45 0 82 31q15 12 33 12q21 0 36.5 -15t15.5 -37q0 -23 -19 -39q-62 -55 -148 -55q-83 0 -147 54z" />
    <glyph glyph-name="uni040F" unicode="&#x40f;" horiz-adv-x="721" 
d="M661 589v-498q0 -91 -91 -91h-134v-58q0 -31 -22 -53t-53 -22t-53 22t-22 53v58h-135q-91 0 -91 91v498q0 36 25 61.5t61 25.5t61 -25.5t25 -61.5v-439h257v439q0 36 25 61.5t61 25.5t61 -25.5t25 -61.5z" />
    <glyph glyph-name="uni0410" unicode="&#x410;" horiz-adv-x="684" 
d="M667 78q0 -36 -25.5 -61.5t-61.5 -25.5q-28 0 -51 17.5t-31 43.5l-19 57h-274l-19 -57q-8 -27 -31 -44t-51 -17q-36 0 -61.5 25.5t-25.5 61.5q0 16 6 30l177 470q17 45 55.5 71.5t86.5 26.5q47 0 86 -27.5t55 -70.5l178 -470q6 -18 6 -30zM254 254h176l-88 263z" />
    <glyph glyph-name="uni0411" unicode="&#x411;" horiz-adv-x="643" 
d="M590 594q0 -29 -21.5 -50.5t-51.5 -21.5h-285v-94h168q104 0 165 -60.5t61 -153.5t-61 -153.5t-165 -60.5h-249q-91 0 -91 91v485q0 91 91 91h366q30 0 51.5 -21.5t21.5 -51.5zM232 283v-138h147q31 0 51.5 19.5t20.5 49.5t-20.5 49.5t-51.5 19.5h-147z" />
    <glyph glyph-name="uni0412" unicode="&#x412;" horiz-adv-x="680" 
d="M60 91v485q0 91 91 91h287q91 0 143 -50t52 -120q0 -59 -32 -100t-82 -53q53 -7 90 -55q37 -46 37 -108q0 -78 -51.5 -129.5t-144.5 -51.5h-299q-91 0 -91 91zM232 409h167q26 0 42.5 16.5t16.5 41.5t-16.5 41t-42.5 16h-167v-115zM232 143h173q30 0 48 17t18 44t-18 45
t-48 18h-173v-124z" />
    <glyph glyph-name="uni0413" unicode="&#x413;" horiz-adv-x="578" 
d="M60 78v498q0 91 91 91h331q31 0 53 -22t22 -53t-22 -53t-53 -22h-250v-439q0 -36 -25 -61.5t-61 -25.5t-61 25.5t-25 61.5z" />
    <glyph glyph-name="uni0414" unicode="&#x414;" horiz-adv-x="747" 
d="M733 74v-129q0 -31 -22 -53t-53 -22t-53.5 22t-22.5 53v55h-417v-55q0 -31 -22 -53t-53 -22t-53 22t-22 52v128q0 31 14.5 52t38.5 25q66 83 87 332l8 95q7 91 91 91h308q91 0 91 -91v-426h1q34 0 56.5 -22t22.5 -54zM481 150v367h-171l-6 -73q-19 -228 -63 -294h240z
" />
    <glyph glyph-name="uni0415" unicode="&#x415;" horiz-adv-x="589" 
d="M60 91v485q0 91 91 91h334q29 0 50.5 -21.5t21.5 -51.5q0 -29 -21.5 -50.5t-50.5 -21.5h-253v-111h246q29 0 50.5 -21.5t21.5 -51.5t-21.5 -51.5t-50.5 -21.5h-246v-120h253q29 0 50.5 -21t21.5 -51t-21.5 -51.5t-50.5 -21.5h-334q-91 0 -91 91z" />
    <glyph glyph-name="uni0416" unicode="&#x416;" horiz-adv-x="987" 
d="M954 75q0 -35 -24.5 -59.5t-58.5 -24.5q-42 0 -71 41l-179 244h-41v-198q0 -35 -25.5 -61t-60.5 -26q-36 0 -61.5 26t-25.5 61v198h-41l-179 -244q-29 -41 -71 -41q-34 0 -58.5 24.5t-24.5 59.5q0 29 15 48l185 225l-166 200q-14 19 -14 47q0 33 23.5 57t56.5 24
q43 0 71 -40l162 -226h41v179q0 35 25.5 61t61.5 26q35 0 60.5 -26t25.5 -61v-179h41l162 226q28 40 71 40q33 0 56.5 -24t23.5 -57q0 -28 -14 -47l-165 -200l184 -225q15 -19 15 -48z" />
    <glyph glyph-name="uni0417" unicode="&#x417;" horiz-adv-x="624" 
d="M38 111q0 30 21 51.5t52 21.5q20 0 34 -8q73 -41 151 -41q57 0 89.5 18.5t32.5 48.5q0 62 -129 62h-54q-34 0 -56.5 19.5t-22.5 53.5t22.5 53t57.5 19h53q118 0 118 58q0 29 -33.5 46t-88.5 17q-73 0 -137 -37q-15 -9 -33 -9q-29 0 -49.5 20.5t-20.5 49.5q0 38 31 58
q95 65 227 65q126 0 201 -50t75 -133q0 -57 -43 -99q-42 -41 -103 -51q61 -7 109 -50t48 -108q0 -87 -81 -142.5t-207 -55.5q-132 0 -228 60q-36 20 -36 63z" />
    <glyph glyph-name="uni0418" unicode="&#x418;" horiz-adv-x="740" 
d="M146 676q36 0 61 -25.5t25 -61.5v-338l243 373q33 52 94 52q46 0 78.5 -32.5t32.5 -78.5v-487q0 -35 -25.5 -61t-61.5 -26q-35 0 -60.5 26t-25.5 61v357l-257 -396q-31 -48 -87 -48q-43 0 -73 30.5t-30 73.5v494q0 36 25 61.5t61 25.5z" />
    <glyph glyph-name="uni0419" unicode="&#x419;" horiz-adv-x="740" 
d="M146 676q36 0 61 -25.5t25 -61.5v-338l243 373q33 52 94 52q46 0 78.5 -32.5t32.5 -78.5v-487q0 -35 -25.5 -61t-61.5 -26q-35 0 -60.5 26t-25.5 61v357l-257 -396q-31 -48 -87 -48q-43 0 -73 30.5t-30 73.5v494q0 36 25 61.5t61 25.5zM222 766q-19 16 -19 41q0 21 15 36
t37 15q19 0 33 -12q37 -31 81 -31q45 0 82 31q15 12 33 12q21 0 36.5 -15t15.5 -37q0 -23 -19 -39q-62 -55 -148 -55q-83 0 -147 54z" />
    <glyph glyph-name="uni041A" unicode="&#x41a;" horiz-adv-x="654" 
d="M620 75q0 -34 -23.5 -59t-58.5 -25q-39 0 -63 28l-195 230l-48 -55v-116q0 -36 -25 -61.5t-61 -25.5t-61 25.5t-25 61.5v511q0 36 25 61.5t61 25.5t61 -25.5t25 -61.5v-196l228 256q24 27 60 27q33 0 56.5 -24.5t23.5 -56.5q0 -33 -19 -53l-178 -189l198 -224
q19 -22 19 -54z" />
    <glyph glyph-name="uni041B" unicode="&#x41b;" horiz-adv-x="741" 
d="M509 78v439h-183l-6 -74q-17 -217 -66 -317q-48 -100 -127 -128q-14 -7 -36 -7q-33 0 -56.5 24.5t-23.5 59.5q0 25 14 46t36 31q90 39 107 318l9 105q8 92 90 92h323q91 0 91 -91v-498q0 -36 -25 -61.5t-61 -25.5t-61 25.5t-25 61.5z" />
    <glyph glyph-name="uni041C" unicode="&#x41c;" horiz-adv-x="877" 
d="M645 78v372l-160 -426q-12 -33 -47 -33q-34 0 -46 33l-160 426v-372q0 -36 -25 -61.5t-61 -25.5t-61 25.5t-25 61.5v459q0 57 41 98t98 41q44 0 80 -25.5t50 -66.5l109 -295l110 295q15 41 51 66.5t80 25.5q56 0 97 -41.5t41 -97.5v-459q0 -36 -25 -61.5t-61 -25.5
t-61 25.5t-25 61.5z" />
    <glyph glyph-name="uni041D" unicode="&#x41d;" horiz-adv-x="741" 
d="M509 78v190h-277v-190q0 -36 -25 -61.5t-61 -25.5t-61 25.5t-25 61.5v511q0 36 25 61.5t61 25.5t61 -25.5t25 -61.5v-171h277v171q0 36 25 61.5t61 25.5t61 -25.5t25 -61.5v-511q0 -36 -25 -61.5t-61 -25.5t-61 25.5t-25 61.5z" />
    <glyph glyph-name="uni041E" unicode="&#x41e;" horiz-adv-x="766" 
d="M383 678q151 2 254.5 -97.5t101.5 -247.5q2 -148 -101.5 -247.5t-254.5 -97.5q-152 -2 -255.5 97.5t-101.5 247.5q-2 148 101.5 247.5t255.5 97.5zM383 526q-81 0 -131.5 -55.5t-50.5 -137.5t50.5 -137.5t131.5 -55.5q80 0 130.5 55.5t50.5 137.5t-50.5 137.5
t-130.5 55.5z" />
    <glyph glyph-name="uni041F" unicode="&#x41f;" horiz-adv-x="741" 
d="M509 78v439h-277v-439q0 -36 -25 -61.5t-61 -25.5t-61 25.5t-25 61.5v498q0 91 91 91h439q91 0 91 -91v-498q0 -36 -25 -61.5t-61 -25.5t-61 25.5t-25 61.5z" />
    <glyph glyph-name="uni0420" unicode="&#x420;" horiz-adv-x="643" 
d="M60 78v498q0 91 91 91h243q107 0 169.5 -63t62.5 -159q0 -95 -62.5 -157t-169.5 -62h-162v-148q0 -36 -25 -61.5t-61 -25.5t-61 25.5t-25 61.5zM371 522h-139v-150h139q35 0 57.5 20.5t22.5 53.5q0 34 -22.5 55t-57.5 21z" />
    <glyph glyph-name="uni0421" unicode="&#x421;" horiz-adv-x="682" 
d="M26 333q-2 149 102 248t254 97q152 0 242 -99q22 -23 22 -55q0 -33 -24 -57t-58 -24q-37 0 -61 27q-46 56 -121 56q-77 0 -129 -56t-52 -137t52 -137t129 -56q72 0 122 56q24 27 60 27q33 0 57 -23.5t24 -57.5q0 -30 -21 -54q-93 -100 -242 -100q-149 -3 -254 97
t-102 248z" />
    <glyph glyph-name="uni0422" unicode="&#x422;" horiz-adv-x="589" 
d="M209 78v439h-121q-31 0 -53 22t-22 53t22 53t53 22h412q31 0 53.5 -22t22.5 -53t-22.5 -53t-53.5 -22h-119v-439q0 -35 -25.5 -61t-60.5 -26q-36 0 -61 25.5t-25 61.5z" />
    <glyph glyph-name="uni0423" unicode="&#x423;" horiz-adv-x="632" 
d="M617 590q0 -22 -7 -35l-188 -397q-42 -88 -99.5 -129t-145.5 -41q-9 0 -12 1q-32 1 -54 22t-22 52q0 29 19 51t46 26h9h4q48 1 78 43l-209 365q-11 20 -11 42q0 35 25.5 60.5t60.5 25.5q50 0 77 -47l148 -276l116 269q11 24 32.5 39t47.5 15q35 0 60 -25.5t25 -60.5z" />
    <glyph glyph-name="uni0424" unicode="&#x424;" horiz-adv-x="880" 
d="M526 68q-3 -37 -26 -58t-60 -21t-60.5 21t-26.5 58q-157 14 -242 82t-85 183t85 183t242 82q3 37 26 58t61 21q37 0 60 -21.5t26 -57.5q157 -14 242 -82t85 -183t-85 -183t-242 -82zM353 220v226q-152 -20 -152 -113t152 -113zM678 333q0 93 -152 113v-226
q152 20 152 113z" />
    <glyph glyph-name="uni0425" unicode="&#x425;" horiz-adv-x="676" 
d="M654 76q0 -35 -24.5 -60t-59.5 -25q-38 0 -63 28l-169 201l-169 -201q-25 -28 -63 -28q-35 0 -59.5 25t-24.5 60q0 30 21 54l187 212l-174 194q-21 24 -21 56q0 35 25 59.5t59 24.5q41 0 65 -32l154 -186l154 186q24 32 65 32q35 0 59.5 -24.5t24.5 -59.5q0 -33 -15 -48
l-180 -202l187 -212q21 -24 21 -54z" />
    <glyph glyph-name="uni0426" unicode="&#x426;" horiz-adv-x="755" 
d="M741 72v-122q0 -31 -22 -53t-53 -22t-53.5 22t-22.5 53v50h-439q-91 0 -91 91v498q0 36 25 61.5t61 25.5t61 -25.5t25 -61.5v-439h257v439q0 36 25 61.5t61 25.5t61 -25.5t25 -61.5v-439h1q34 0 56.5 -22t22.5 -56z" />
    <glyph glyph-name="uni0427" unicode="&#x427;" horiz-adv-x="670" 
d="M326 362q61 0 112 25v202q0 35 25 60.5t61 25.5t61 -25.5t25 -60.5v-511q0 -36 -25 -61.5t-61 -25.5t-61 25.5t-25 61.5v175q-74 -41 -175 -41q-111 0 -164.5 61.5t-53.5 190.5v125q0 35 25.5 61t61.5 26q35 0 60 -26t25 -61v-125q0 -55 26.5 -78.5t82.5 -23.5z" />
    <glyph glyph-name="uni0428" unicode="&#x428;" horiz-adv-x="1017" 
d="M957 589v-498q0 -91 -91 -91h-715q-91 0 -91 91v498q0 36 25 61.5t61 25.5t61 -25.5t25 -61.5v-439h191v439q0 36 25 61.5t61 25.5q35 0 60.5 -26t25.5 -61v-439h190v439q0 35 25.5 61t60.5 26q36 0 61 -25.5t25 -61.5z" />
    <glyph glyph-name="uni0429" unicode="&#x429;" horiz-adv-x="1052" 
d="M1037 72v-122q0 -31 -22 -53t-53 -22t-53.5 22t-22.5 53v50h-735q-91 0 -91 91v498q0 36 25 61.5t61 25.5t61 -25.5t25 -61.5v-439h191v439q0 36 25 61.5t61 25.5q35 0 60.5 -26t25.5 -61v-439h190v439q0 35 25.5 61t60.5 26q36 0 61 -25.5t25 -61.5v-439h1
q34 0 56.5 -22t22.5 -56z" />
    <glyph glyph-name="uni042A" unicode="&#x42a;" horiz-adv-x="792" 
d="M209 91v426h-121q-31 0 -53 22t-22 53t22 53t53 22h202q91 0 91 -91v-133h162q107 0 169.5 -63t62.5 -158q0 -96 -62.5 -159t-169.5 -63h-243q-91 0 -91 91zM381 293v-143h139q36 0 58 19.5t22 52.5t-22 52t-58 19h-139z" />
    <glyph glyph-name="uni042B" unicode="&#x42b;" horiz-adv-x="907" 
d="M232 589v-146h162q107 0 169.5 -63t62.5 -158q0 -96 -62.5 -159t-169.5 -63h-243q-91 0 -91 91v498q0 36 25 61.5t61 25.5t61 -25.5t25 -61.5zM675 78v511q0 36 25 61.5t61 25.5q35 0 60.5 -26t25.5 -61v-511q0 -35 -25.5 -61t-60.5 -26q-36 0 -61 25.5t-25 61.5z
M232 293v-143h139q36 0 58 19.5t22 52.5t-22 52t-58 19h-139z" />
    <glyph glyph-name="uni042C" unicode="&#x42c;" horiz-adv-x="643" 
d="M232 589v-146h162q107 0 169.5 -63t62.5 -158q0 -96 -62.5 -159t-169.5 -63h-243q-91 0 -91 91v498q0 36 25 61.5t61 25.5t61 -25.5t25 -61.5zM232 293v-143h139q36 0 58 19.5t22 52.5t-22 52t-58 19h-139z" />
    <glyph glyph-name="uni042D" unicode="&#x42d;" horiz-adv-x="692" 
d="M666 333q2 -149 -103.5 -248t-257.5 -97q-146 0 -237 100q-21 24 -21 54q0 34 23.5 57.5t57.5 23.5q36 0 60 -27q50 -56 122 -56q64 0 109 33.5t60 91.5h-210q-29 0 -50.5 21.5t-21.5 51.5t21.5 51.5t50.5 21.5h208q-19 54 -63 84.5t-104 30.5q-71 0 -121 -56
q-24 -27 -61 -27q-34 0 -57.5 24t-23.5 57q0 32 21 55q90 99 237 99q153 2 258 -97t103 -248z" />
    <glyph glyph-name="uni042E" unicode="&#x42e;" horiz-adv-x="1075" 
d="M1049 333q2 -148 -101.5 -247.5t-255.5 -97.5q-135 0 -232 77.5t-118 202.5h-110v-190q0 -36 -25 -61.5t-61 -25.5t-61 25.5t-25 61.5v511q0 36 25 61.5t61 25.5t61 -25.5t25 -61.5v-171h114q27 117 122 188.5t224 71.5q152 2 255.5 -97.5t101.5 -247.5zM874 333
q0 82 -50.5 137.5t-131.5 55.5q-80 0 -130.5 -55.5t-50.5 -137.5t50.5 -137.5t130.5 -55.5q81 0 131.5 55.5t50.5 137.5z" />
    <glyph glyph-name="uni042F" unicode="&#x42f;" horiz-adv-x="661" 
d="M601 576v-498q0 -35 -25.5 -61t-61.5 -26q-35 0 -60.5 26t-25.5 61v148h-97l-138 -199q-27 -36 -70 -36q-35 0 -60 25t-25 60q0 32 18 54l93 122q-52 26 -83.5 75t-31.5 118q0 97 63 159.5t170 62.5h242q44 0 68 -23.5t24 -67.5zM428 372v150h-136q-36 0 -59 -21t-23 -54
t23 -54t59 -21h136z" />
    </font>
</defs>
</svg>
