<?xml version="1.0" standalone="no"?>
<!DOCTYPE svg PUBLIC "-//W3C//DTD SVG 1.1//EN" "http://www.w3.org/Graphics/SVG/1.1/DTD/svg11.dtd" >
<svg xmlns="http://www.w3.org/2000/svg" xmlns:xlink="http://www.w3.org/1999/xlink" version="1.1">
<metadata>
Created by FontForge 20170731 at Tue Dec 25 03:00:00 2018
 By Aleksey,,,
Copyright (c) 2018 by Mark Simonson. All rights reserved.
</metadata>
<defs>
<font id="ProximaSoft-Light" horiz-adv-x="571" >
  <font-face 
    font-family="Proxima Soft Light"
    font-weight="300"
    font-stretch="normal"
    units-per-em="1000"
    panose-1="2 0 5 6 3 0 0 2 0 4"
    ascent="790"
    descent="-210"
    x-height="483"
    cap-height="667"
    bbox="-345 -305 1111 1082"
    underline-thickness="39"
    underline-position="-278"
    unicode-range="U+000D-FB04"
  />
<missing-glyph horiz-adv-x="517" 
d="M83 -48v758q0 19 11.5 30.5t30.5 11.5h267q19 0 30.5 -11.5t11.5 -30.5v-758q0 -19 -11.5 -30.5t-30.5 -11.5h-267q-19 0 -30.5 11.5t-11.5 30.5zM402 722h-288v-782h288v782z" />
    <glyph glyph-name="f_f_j" unicode="ffj" horiz-adv-x="743" 
d="M291 649q0 -22 -22 -22q-3 0 -15.5 2.5t-19.5 2.5q-84 0 -84 -105v-44h78q9 0 16.5 -6.5t7.5 -16.5q0 -9 -7.5 -16t-16.5 -7h-78v-414q0 -10 -7.5 -18t-18.5 -8q-10 0 -18 8t-8 18v414h-60q-9 0 -16 6.5t-7 16.5t7 16.5t16 6.5h60v44q0 71 35 110.5t96 39.5q27 0 45 -7
q17 -5 17 -21zM556 649q0 -22 -22 -22q-3 0 -15.5 2.5t-19.5 2.5q-84 0 -84 -105v-44h78q9 0 16.5 -6.5t7.5 -16.5q0 -9 -7.5 -16t-16.5 -7h-78v-414q0 -10 -7.5 -18t-18.5 -8q-10 0 -18 8t-8 18v414h-60q-9 0 -16 6.5t-7 16.5t7 16.5t16 6.5h60v44q0 71 35 110.5t96 39.5
q27 0 45 -7q17 -5 17 -21zM596 623q0 16 12 28t28 12q17 0 28.5 -11.5t11.5 -28.5q0 -16 -11.5 -28t-28.5 -12q-16 0 -28 12t-12 28zM501 -192q-20 5 -20 23q0 9 6 16t15 7q1 0 10 -2t18 -2q80 0 80 88v522q0 11 8 18.5t18 7.5q11 0 18.5 -7.5t7.5 -18.5v-522
q0 -65 -33.5 -99.5t-94.5 -34.5q-20 0 -33 4z" />
    <glyph glyph-name="f_j" unicode="fj" horiz-adv-x="478" 
d="M291 649q0 -22 -22 -22q-3 0 -15.5 2.5t-19.5 2.5q-84 0 -84 -105v-44h78q9 0 16.5 -6.5t7.5 -16.5q0 -9 -7.5 -16t-16.5 -7h-78v-414q0 -10 -7.5 -18t-18.5 -8q-10 0 -18 8t-8 18v414h-60q-9 0 -16 6.5t-7 16.5t7 16.5t16 6.5h60v44q0 71 35 110.5t96 39.5q27 0 45 -7
q17 -5 17 -21zM332 623q0 16 12 28t28 12q17 0 28.5 -11.5t11.5 -28.5q0 -16 -11.5 -28t-28.5 -12q-16 0 -28 12t-12 28zM237 -192q-20 5 -20 23q0 9 6 16t15 7q1 0 10 -2t18 -2q80 0 80 88v522q0 11 8 18.5t18 7.5q11 0 18.5 -7.5t7.5 -18.5v-522q0 -65 -33.5 -99.5
t-94.5 -34.5q-20 0 -33 4z" />
    <glyph glyph-name="f_f" unicode="ff" horiz-adv-x="529" 
d="M291 649q0 -22 -22 -22q-3 0 -15.5 2.5t-19.5 2.5q-84 0 -84 -105v-44h78q9 0 16.5 -6.5t7.5 -16.5q0 -9 -7.5 -16t-16.5 -7h-78v-414q0 -10 -7.5 -18t-18.5 -8q-10 0 -18 8t-8 18v414h-60q-9 0 -16 6.5t-7 16.5t7 16.5t16 6.5h60v44q0 71 35 110.5t96 39.5q27 0 45 -7
q17 -5 17 -21zM556 649q0 -22 -22 -22q-3 0 -15.5 2.5t-19.5 2.5q-84 0 -84 -105v-44h78q9 0 16.5 -6.5t7.5 -16.5q0 -9 -7.5 -16t-16.5 -7h-78v-414q0 -10 -7.5 -18t-18.5 -8q-10 0 -18 8t-8 18v414h-60q-9 0 -16 6.5t-7 16.5t7 16.5t16 6.5h60v44q0 71 35 110.5t96 39.5
q27 0 45 -7q17 -5 17 -21z" />
    <glyph glyph-name="fi" unicode="fi" horiz-adv-x="478" 
d="M291 649q0 -22 -22 -22q-3 0 -15.5 2.5t-19.5 2.5q-84 0 -84 -105v-44h78q9 0 16.5 -6.5t7.5 -16.5q0 -9 -7.5 -16t-16.5 -7h-78v-414q0 -10 -7.5 -18t-18.5 -8q-10 0 -18 8t-8 18v414h-60q-9 0 -16 6.5t-7 16.5t7 16.5t16 6.5h60v44q0 71 35 110.5t96 39.5q27 0 45 -7
q17 -5 17 -21zM332 623q0 16 12 28t28 12q17 0 28.5 -11.5t11.5 -28.5q0 -16 -11.5 -28t-28.5 -12q-16 0 -28 12t-12 28zM346 23v437q0 11 8 18.5t18 7.5q11 0 18.5 -7.5t7.5 -18.5v-437q0 -10 -7.5 -18t-18.5 -8q-10 0 -18 8t-8 18z" />
    <glyph glyph-name="fl" unicode="fl" horiz-adv-x="478" 
d="M291 649q0 -22 -22 -22q-3 0 -15.5 2.5t-19.5 2.5q-84 0 -84 -105v-44h78q9 0 16.5 -6.5t7.5 -16.5q0 -9 -7.5 -16t-16.5 -7h-78v-414q0 -10 -7.5 -18t-18.5 -8q-10 0 -18 8t-8 18v414h-60q-9 0 -16 6.5t-7 16.5t7 16.5t16 6.5h60v44q0 71 35 110.5t96 39.5q27 0 45 -7
q17 -5 17 -21zM346 23v621q0 11 8 18.5t18 7.5q11 0 18.5 -7.5t7.5 -18.5v-621q0 -10 -7.5 -18t-18.5 -8q-10 0 -18 8t-8 18z" />
    <glyph glyph-name="f_f_i" unicode="ffi" horiz-adv-x="743" 
d="M291 649q0 -22 -22 -22q-3 0 -15.5 2.5t-19.5 2.5q-84 0 -84 -105v-44h78q9 0 16.5 -6.5t7.5 -16.5q0 -9 -7.5 -16t-16.5 -7h-78v-414q0 -10 -7.5 -18t-18.5 -8q-10 0 -18 8t-8 18v414h-60q-9 0 -16 6.5t-7 16.5t7 16.5t16 6.5h60v44q0 71 35 110.5t96 39.5q27 0 45 -7
q17 -5 17 -21zM556 649q0 -22 -22 -22q-3 0 -15.5 2.5t-19.5 2.5q-84 0 -84 -105v-44h78q9 0 16.5 -6.5t7.5 -16.5q0 -9 -7.5 -16t-16.5 -7h-78v-414q0 -10 -7.5 -18t-18.5 -8q-10 0 -18 8t-8 18v414h-60q-9 0 -16 6.5t-7 16.5t7 16.5t16 6.5h60v44q0 71 35 110.5t96 39.5
q27 0 45 -7q17 -5 17 -21zM596 623q0 16 12 28t28 12q17 0 28.5 -11.5t11.5 -28.5q0 -16 -11.5 -28t-28.5 -12q-16 0 -28 12t-12 28zM610 23v437q0 11 8 18.5t18 7.5q11 0 18.5 -7.5t7.5 -18.5v-437q0 -10 -7.5 -18t-18.5 -8q-10 0 -18 8t-8 18z" />
    <glyph glyph-name="f_f_l" unicode="ffl" horiz-adv-x="743" 
d="M291 649q0 -22 -22 -22q-3 0 -15.5 2.5t-19.5 2.5q-84 0 -84 -105v-44h78q9 0 16.5 -6.5t7.5 -16.5q0 -9 -7.5 -16t-16.5 -7h-78v-414q0 -10 -7.5 -18t-18.5 -8q-10 0 -18 8t-8 18v414h-60q-9 0 -16 6.5t-7 16.5t7 16.5t16 6.5h60v44q0 71 35 110.5t96 39.5q27 0 45 -7
q17 -5 17 -21zM556 649q0 -22 -22 -22q-3 0 -15.5 2.5t-19.5 2.5q-84 0 -84 -105v-44h78q9 0 16.5 -6.5t7.5 -16.5q0 -9 -7.5 -16t-16.5 -7h-78v-414q0 -10 -7.5 -18t-18.5 -8q-10 0 -18 8t-8 18v414h-60q-9 0 -16 6.5t-7 16.5t7 16.5t16 6.5h60v44q0 71 35 110.5t96 39.5
q27 0 45 -7q17 -5 17 -21zM610 23v621q0 11 8 18.5t18 7.5q11 0 18.5 -7.5t7.5 -18.5v-621q0 -10 -7.5 -18t-18.5 -8q-10 0 -18 8t-8 18z" />
    <glyph glyph-name="f_b" unicode="fb" horiz-adv-x="835" 
d="M291 649q0 -22 -22 -22q-3 0 -15.5 2.5t-19.5 2.5q-84 0 -84 -105v-44h78q9 0 16.5 -6.5t7.5 -16.5q0 -9 -7.5 -16t-16.5 -7h-78v-414q0 -10 -7.5 -18t-18.5 -8q-10 0 -18 8t-8 18v414h-60q-9 0 -16 6.5t-7 16.5t7 16.5t16 6.5h60v44q0 71 35 110.5t96 39.5q27 0 45 -7
q17 -5 17 -21zM782 241q0 -114 -59.5 -183.5t-156.5 -69.5q-50 0 -94.5 24.5t-73.5 64.5v-54q0 -10 -7.5 -18t-18.5 -8q-10 0 -18 8t-8 18v621q0 11 8 18.5t18 7.5q11 0 18.5 -7.5t7.5 -18.5v-239q63 90 168 90q97 0 156.5 -69.5t59.5 -184.5zM726 241q0 91 -45 149t-124 58
q-47 0 -92 -25.5t-67 -62.5v-239q22 -37 66.5 -61.5t92.5 -24.5q79 0 124 58q45 59 45 148z" />
    <glyph glyph-name="f_h" unicode="fh" horiz-adv-x="805" 
d="M291 649q0 -22 -22 -22q-3 0 -15.5 2.5t-19.5 2.5q-84 0 -84 -105v-44h78q9 0 16.5 -6.5t7.5 -16.5q0 -9 -7.5 -16t-16.5 -7h-78v-414q0 -10 -7.5 -18t-18.5 -8q-10 0 -18 8t-8 18v414h-60q-9 0 -16 6.5t-7 16.5t7 16.5t16 6.5h60v44q0 71 35 110.5t96 39.5q27 0 45 -7
q17 -5 17 -21zM672 23v306q0 64 -29 91.5t-88 27.5q-44 0 -88.5 -23.5t-68.5 -59.5v-342q0 -10 -7.5 -18t-18.5 -8q-10 0 -18 8t-8 18v621q0 11 8 18.5t18 7.5q11 0 18.5 -7.5t7.5 -18.5v-234q31 36 79 60.5t95 24.5q152 0 152 -155v-317q0 -10 -7.5 -18t-18.5 -8
q-10 0 -18 8t-8 18z" />
    <glyph glyph-name="f_k" unicode="fk" horiz-adv-x="770" 
d="M291 649q0 -22 -22 -22q-3 0 -15.5 2.5t-19.5 2.5q-84 0 -84 -105v-44h78q9 0 16.5 -6.5t7.5 -16.5q0 -9 -7.5 -16t-16.5 -7h-78v-414q0 -10 -7.5 -18t-18.5 -8q-10 0 -18 8t-8 18v414h-60q-9 0 -16 6.5t-7 16.5t7 16.5t16 6.5h60v44q0 71 35 110.5t96 39.5q27 0 45 -7
q17 -5 17 -21zM729 24q0 -11 -7.5 -19t-18.5 -8q-13 0 -21 9l-194 224l-90 -85v-122q0 -10 -7.5 -18t-18.5 -8q-10 0 -18 8t-8 18v621q0 11 8 18.5t18 7.5q11 0 18.5 -7.5t7.5 -18.5v-436l287 272q7 6 17 6t17 -7.5t7 -17.5t-8 -18l-190 -179l195 -222q6 -8 6 -18z" />
    <glyph glyph-name=".notdef" horiz-adv-x="517" 
d="M83 -48v758q0 19 11.5 30.5t30.5 11.5h267q19 0 30.5 -11.5t11.5 -30.5v-758q0 -19 -11.5 -30.5t-30.5 -11.5h-267q-19 0 -30.5 11.5t-11.5 30.5zM402 722h-288v-782h288v782z" />
    <glyph glyph-name=".null" horiz-adv-x="0" 
 />
    <glyph glyph-name="nonmarkingreturn" horiz-adv-x="333" 
 />
    <glyph glyph-name="CR" unicode="&#xd;" horiz-adv-x="0" 
 />
    <glyph glyph-name="space" unicode=" " horiz-adv-x="259" 
 />
    <glyph glyph-name="exclam" unicode="!" horiz-adv-x="219" 
d="M88 191l-12 445q0 14 10 24t23 10q14 0 24 -10t10 -24l-12 -445q0 -8 -6.5 -14t-15.5 -6q-19 0 -21 20zM109 78q18 0 31.5 -13t13.5 -30q0 -18 -13.5 -31t-31.5 -13t-30.5 13t-12.5 31q0 17 12.5 30t30.5 13z" />
    <glyph glyph-name="quotedbl" unicode="&#x22;" horiz-adv-x="317" 
d="M77 439l-11 111q-7 71 -8 91q0 15 10 25.5t26 10.5q15 0 25.5 -10.5t10.5 -25.5q0 -13 -20 -202q0 -6 -5 -10.5t-11 -4.5q-15 0 -17 15zM207 439l-12 107q-7 82 -8 95q0 15 10.5 25.5t25.5 10.5t25.5 -10.5t10.5 -25.5q-1 -16 -8 -87q-4 -46 -11 -115q-2 -15 -17 -15
q-6 0 -11 4.5t-5 10.5z" />
    <glyph glyph-name="numbersign" unicode="#" horiz-adv-x="579" 
d="M552 460q0 -8 -6.5 -14t-14.5 -6h-100l-73 -213h92q8 0 14.5 -6t6.5 -15q0 -8 -6.5 -14t-14.5 -6h-104l-58 -174q-5 -15 -22 -15q-9 0 -15.5 6.5t-6.5 14.5q0 4 3 13l53 155h-118l-58 -174q-5 -15 -22 -15q-9 0 -15.5 7t-6.5 15q0 2 2 10l53 157h-86q-8 0 -14.5 6
t-6.5 14q0 9 6.5 15t14.5 6h99l72 213h-89q-8 0 -14 6t-6 14q0 9 6 15t14 6h103l57 174q5 15 21 15q10 0 16.5 -6.5t6.5 -15.5q0 -2 -2 -10l-52 -157h117l57 174q5 15 22 15q9 0 15.5 -7t6.5 -15q0 -2 -2 -10l-53 -157h87q8 0 14.5 -6t6.5 -15zM311 227l73 213h-117
l-72 -213h116z" />
    <glyph glyph-name="dollar" unicode="$" horiz-adv-x="584" 
d="M319 -11v-69q0 -9 -6.5 -16t-16.5 -7t-16.5 7t-6.5 16v68q-126 6 -208 88q-9 8 -9 21q0 12 8.5 20.5t20.5 8.5q11 0 19 -7q71 -71 169 -78v281q-66 18 -107 36q-97 42 -97 142q0 76 58 124t146 53v71q0 9 6.5 16t16.5 7t16.5 -7t6.5 -16v-72q107 -8 176 -74q11 -9 11 -22
q0 -11 -8.5 -19.5t-20.5 -8.5t-18 7q-53 55 -140 64v-251q53 -15 85.5 -28.5t63 -35t45 -54t16.5 -77.5q0 -74 -52 -128t-158 -60zM273 385v240q-63 -3 -103.5 -37t-40.5 -85q0 -46 33.5 -71t110.5 -47zM469 173q0 54 -36 83.5t-114 52.5v-267q80 5 115 44q35 40 35 87z" />
    <glyph glyph-name="percent" unicode="%" horiz-adv-x="720" 
d="M34 512q0 71 44 118t112 47q69 0 113 -47t44 -118q0 -69 -44 -116q-43 -46 -113 -46t-113 46t-43 116zM141 16q0 6 4 11l404 634q6 9 17 9q19 0 19 -19q0 -3 -2 -11l-407 -634q-4 -9 -15 -9q-8 0 -14 5.5t-6 13.5zM301 512q0 55 -31.5 91.5t-79.5 36.5t-79 -37t-31 -91
t31 -90t79 -36t79.5 36t31.5 90zM373 151q0 71 44.5 118t112.5 47t112.5 -47t44.5 -118q0 -69 -44.5 -116t-112.5 -47t-112.5 47t-44.5 116zM640 151q0 55 -31 91t-79 36t-79.5 -36.5t-31.5 -90.5t31.5 -90t79.5 -36t79 36t31 90z" />
    <glyph glyph-name="ampersand" unicode="&#x26;" horiz-adv-x="639" 
d="M571 24q0 -11 -8 -19t-19 -8q-10 0 -17 6q-17 14 -86 79q-84 -94 -198 -94q-87 0 -144 48t-57 134q0 68 37 114.5t112 88.5q-55 88 -55 152q0 65 46 108.5t113 43.5q64 0 102 -33.5t38 -92.5q0 -47 -24 -81q-22 -31 -52 -52t-96 -57q28 -42 85 -105q38 -44 90 -97
q39 60 67 138q8 17 24 17q11 0 18.5 -7t7.5 -18q0 -5 -3 -12q-47 -109 -78 -152q31 -31 87 -79q10 -9 10 -22zM238 398q55 29 78 44q67 43 67 107q0 39 -24 61.5t-63 22.5q-43 0 -73.5 -31t-30.5 -78q0 -50 46 -126zM406 117q-57 55 -101 105q-47 55 -89 113
q-58 -35 -87 -73t-29 -89q0 -65 43 -102t104 -37q87 0 159 83z" />
    <glyph glyph-name="quotesingle" unicode="'" horiz-adv-x="187" 
d="M77 439l-11 111q-7 71 -8 91q0 15 10 25.5t26 10.5q15 0 25.5 -10.5t10.5 -25.5q0 -13 -20 -202q0 -6 -5 -10.5t-11 -4.5q-15 0 -17 15z" />
    <glyph glyph-name="parenleft" unicode="(" horiz-adv-x="227" 
d="M168 -183q-122 196 -122 426t122 427q6 9 17 9q8 0 14.5 -6t6.5 -14q0 -4 -3 -11q-49 -102 -75 -195q-24 -93 -24 -210t24 -210q26 -93 75 -195q3 -6 3 -11q0 -8 -6 -14t-15 -6q-10 0 -17 10z" />
    <glyph glyph-name="parenright" unicode=")" horiz-adv-x="227" 
d="M21 -173q0 5 3 11q51 106 74 195q25 91 25 210t-25 210q-23 91 -74 195q-3 7 -3 11q0 8 6 14t14 6q13 0 17 -9q124 -196 124 -427q0 -230 -124 -426q-4 -10 -17 -10q-8 0 -14 6t-6 14z" />
    <glyph glyph-name="asterisk" unicode="*" horiz-adv-x="335" 
d="M150 415l4 101l-85 -55q-5 -3 -10 -3q-7 0 -12 5.5t-5 12.5q0 10 10 16l89 46l-89 46q-10 4 -10 16q0 7 5 12.5t12 5.5q5 0 10 -3l85 -55l-4 101v2q0 7 5 12t12 5q8 0 13.5 -5.5t4.5 -13.5l-5 -101l85 55q4 3 10 3q18 0 18 -18q0 -12 -10 -16l-89 -46l89 -46
q10 -7 10 -16q0 -7 -5 -12.5t-13 -5.5q-7 0 -10 3l-85 55l5 -101v-2q0 -7 -5.5 -12t-12.5 -5t-12.5 5.5t-4.5 13.5z" />
    <glyph glyph-name="plus" unicode="+" horiz-adv-x="496" 
d="M271 316v-198q0 -9 -6.5 -15.5t-16.5 -6.5q-9 0 -15.5 6.5t-6.5 15.5v198h-179q-8 0 -14.5 6.5t-6.5 14.5t6.5 14.5t14.5 6.5h179v192q0 8 6.5 15t15.5 7q10 0 16.5 -6.5t6.5 -15.5v-192h179q8 0 14.5 -6.5t6.5 -14.5t-6.5 -14.5t-14.5 -6.5h-179z" />
    <glyph glyph-name="comma" unicode="," horiz-adv-x="219" 
d="M85 -119q-18 0 -18 19q0 8 5 13q42 39 44 81q-2 -1 -10 -1q-18 0 -29.5 12t-11.5 30q0 17 12.5 30t30.5 13q22 0 36.5 -17.5t14.5 -46.5q0 -73 -61 -129q-4 -4 -13 -4z" />
    <glyph glyph-name="hyphen" unicode="-" horiz-adv-x="300" 
d="M27 242q0 10 7 17t17 7h198q10 0 17 -7t7 -17t-7 -17t-17 -7h-198q-10 0 -17 7t-7 17z" />
    <glyph glyph-name="period" unicode="." horiz-adv-x="219" 
d="M109 78q18 0 31.5 -13t13.5 -30q0 -18 -13.5 -31.5t-31.5 -13.5t-31 13.5t-13 31.5q0 17 13 30t31 13z" />
    <glyph glyph-name="slash" unicode="/" horiz-adv-x="282" 
d="M7 -2q0 2 2 10l224 668q5 14 20 14q10 0 16 -6.5t6 -15.5l-2 -9l-224 -668q-5 -14 -20 -14q-9 0 -15.5 6t-6.5 15z" />
    <glyph glyph-name="zero" unicode="0" horiz-adv-x="608" 
d="M305 677q61 1 110 -28.5t78 -79.5t43.5 -110.5t14.5 -125.5q1 -88 -24.5 -164.5t-83 -129.5t-138.5 -51q-62 -1 -111 28.5t-78 80t-43.5 111t-14.5 125.5t14.5 125.5t43.5 110.5t78 79.5t111 28.5zM305 625q-97 0 -142 -86q-45 -85 -45 -206q0 -120 45 -207
q45 -86 142 -86q63 0 106 43.5t61 107.5t18 142q0 121 -45 206q-44 86 -140 86z" />
    <glyph glyph-name="one" unicode="1" horiz-adv-x="308" 
d="M168 26v563l-90 -97q-8 -8 -19 -8q-10 0 -17.5 7.5t-7.5 18.5q0 10 7 18l125 131q9 11 25 11q14 0 24 -10t10 -24v-610q0 -11 -8.5 -20t-20.5 -9t-20 8.5t-8 20.5z" />
    <glyph glyph-name="two" unicode="2" horiz-adv-x="579" 
d="M50 32q0 15 13 25q129 104 205 172q164 151 164 260q0 67 -46 101q-46 35 -106 35q-104 0 -168 -70q-8 -8 -19 -8t-19 8t-8 19q0 12 9 19q76 84 205 84q84 0 147 -49.5t63 -138.5q0 -68 -44 -139q-42 -67 -116 -136q-68 -65 -188 -162h328q11 0 18.5 -7.5t7.5 -18.5
q0 -10 -7.5 -18t-18.5 -8h-388q-13 0 -22.5 9.5t-9.5 22.5z" />
    <glyph glyph-name="three" unicode="3" horiz-adv-x="544" 
d="M48 79q-8 8 -8 19t8 19t19 8t18 -9q66 -76 173 -76q77 0 122.5 38t45.5 104t-48 100.5t-131 34.5h-39q-11 0 -19 8t-8 19q0 10 8 17.5t19 7.5h39q75 0 122 33t47 94q0 60 -46 94q-47 35 -114 35q-93 0 -163 -70q-7 -7 -18 -7q-10 0 -18 8t-8 18q0 8 8 19q82 84 202 84
q91 0 153 -48t62 -128q0 -69 -45 -108q-43 -39 -98 -48q57 -5 105 -50t48 -116q0 -85 -61 -138t-164 -53q-137 0 -211 91z" />
    <glyph glyph-name="four" unicode="4" horiz-adv-x="541" 
d="M509 208q0 -10 -7.5 -18t-18.5 -8h-75v-156q0 -12 -8 -20.5t-20 -8.5t-20.5 9t-8.5 20v156h-283q-14 0 -25 10.5t-11 25.5q0 10 6 20l280 410q15 22 41 22q20 0 34.5 -14.5t14.5 -34.5v-387h75q11 0 18.5 -7.5t7.5 -18.5zM94 234h257v376z" />
    <glyph glyph-name="five" unicode="5" horiz-adv-x="582" 
d="M81 97q0 12 8 20t19 8q13 0 19 -8q65 -77 172 -77q72 0 119.5 46t47.5 115q0 74 -46 118.5t-120 44.5q-82 0 -147 -53q-11 -9 -23 -9q-15 0 -25 10.5t-10 24.5v299q0 31 31 31h332q11 0 18.5 -7.5t7.5 -18.5q0 -10 -7.5 -18t-18.5 -8h-306v-261q62 62 159 62
q90 0 151.5 -57.5t61.5 -155.5q0 -96 -64.5 -155.5t-160.5 -59.5q-137 0 -210 91q-8 6 -8 18z" />
    <glyph glyph-name="six" unicode="6" horiz-adv-x="584" 
d="M313 677q101 0 164 -69q10 -7 10 -20q0 -11 -8 -18.5t-19 -7.5q-10 0 -18 6q-49 57 -129 57q-66 0 -112 -43t-65.5 -107t-19.5 -143q0 -24 1 -31q27 43 79 76q55 35 116 35q96 0 155 -55q60 -54 60 -156q0 -87 -62 -150t-162 -63q-126 0 -186 98q-59 98 -59 247
q-1 93 25.5 169t86 126t143.5 49zM302 361q-54 0 -103.5 -31.5t-78.5 -82.5q7 -82 51 -145q45 -62 130 -62q77 0 122.5 49t45.5 111q0 77 -45 119t-122 42z" />
    <glyph glyph-name="seven" unicode="7" horiz-adv-x="502" 
d="M136 25q0 7 4 14l262 576h-346q-10 0 -18 8t-8 18q0 11 8 18.5t18 7.5h389q11 0 19 -8t8 -19q0 -6 -3 -12l-277 -614q-8 -17 -27 -17q-12 0 -20.5 8.5t-8.5 19.5z" />
    <glyph glyph-name="eight" unicode="8" 
d="M225 344q-70 19 -112.5 60t-42.5 101q0 81 63.5 126.5t152.5 45.5t152.5 -45.5t63.5 -126.5q0 -60 -42.5 -101t-112.5 -60q72 -20 117 -65q48 -47 48 -112q0 -79 -64 -129t-162 -50t-162.5 49.5t-64.5 129.5q0 65 48 111q48 47 118 66zM286 625q-69 0 -113.5 -34.5
t-44.5 -91.5q0 -60 51 -90q54 -31 107 -41q54 10 106 41q52 30 52 90q0 57 -44.5 91.5t-113.5 34.5zM286 318q-22 -2 -49.5 -12.5t-55.5 -27.5t-46.5 -45.5t-17.5 -61.5q0 -58 49.5 -94.5t119.5 -36.5q69 0 119 36.5t50 94.5q2 42 -31 77t-70.5 50.5t-67.5 19.5z" />
    <glyph glyph-name="nine" unicode="9" horiz-adv-x="584" 
d="M98 78q0 11 7.5 19t18.5 8q10 0 18 -7q49 -57 129 -57q67 0 113 43t65 107t19 143v31q-26 -41 -81 -77q-55 -35 -115 -35q-96 0 -155 55q-60 56 -60 157q0 87 62 150t162 63q126 0 185 -98q60 -98 60 -247q1 -93 -25.5 -169t-86 -126t-143.5 -49q-97 0 -164 69
q-9 8 -9 20zM283 626q-77 0 -122.5 -49t-45.5 -111q0 -77 45 -119t122 -42q54 0 103.5 31.5t78.5 82.5q-8 83 -52 144q-44 63 -129 63z" />
    <glyph glyph-name="colon" unicode=":" horiz-adv-x="219" 
d="M109 490q18 0 31.5 -13t13.5 -31q0 -17 -13.5 -30t-31.5 -13t-31 13t-13 30q0 18 13 31t31 13zM109 78q18 0 31.5 -13t13.5 -30q0 -18 -13.5 -31.5t-31.5 -13.5t-31 13.5t-13 31.5q0 17 13 30t31 13z" />
    <glyph glyph-name="semicolon" unicode=";" horiz-adv-x="219" 
d="M65 446q0 18 13 31t31 13t31.5 -13t13.5 -31q0 -17 -13.5 -30t-31.5 -13t-31 13t-13 30zM85 -119q-18 0 -18 19q0 8 5 13q42 39 44 81q-2 -1 -10 -1q-18 0 -29.5 12t-11.5 30q0 17 12.5 30t30.5 13q22 0 36.5 -17.5t14.5 -46.5q0 -73 -61 -129q-4 -4 -13 -4z" />
    <glyph glyph-name="less" unicode="&#x3c;" horiz-adv-x="496" 
d="M26 335q0 16 16 25l396 205q9 3 10 3q10 0 16.5 -6.5t6.5 -16.5q0 -13 -13 -19l-377 -192l377 -190q13 -6 13 -20q0 -9 -6.5 -15.5t-15.5 -6.5q-7 0 -11 3l-396 205q-16 7 -16 25z" />
    <glyph glyph-name="equal" unicode="=" horiz-adv-x="496" 
d="M26 432q0 8 6.5 14.5t14.5 6.5h403q8 0 14.5 -6.5t6.5 -14.5t-6.5 -14.5t-14.5 -6.5h-403q-8 0 -14.5 6.5t-6.5 14.5zM26 236q0 8 6.5 14.5t14.5 6.5h403q8 0 14.5 -6.5t6.5 -14.5t-6.5 -14t-14.5 -6h-403q-8 0 -14.5 6t-6.5 14z" />
    <glyph glyph-name="greater" unicode="&#x3e;" horiz-adv-x="496" 
d="M48 102q-9 0 -15.5 6.5t-6.5 15.5q0 15 12 20l377 190l-376 192q-13 6 -13 19q0 10 6.5 16.5t15.5 6.5q4 0 10 -3l397 -205q16 -9 16 -25q0 -18 -16 -25l-397 -205q-3 -3 -10 -3z" />
    <glyph glyph-name="question" unicode="?" horiz-adv-x="464" 
d="M273 391q53 36 74 61.5t21 64.5q0 47 -36 77.5t-98 30.5q-102 0 -160 -72q-8 -8 -18 -8q-11 0 -19 7.5t-8 18.5q0 12 8 18q75 88 200 88q86 0 138.5 -44.5t52.5 -109.5q-2 -56 -28.5 -89t-87.5 -75q-49 -33 -68.5 -55t-19.5 -52q0 -16 17 -35q4 -5 4 -11
q0 -10 -7.5 -17.5t-17.5 -7.5q-13 0 -20 10q-27 28 -27 64q0 42 23 70t77 66zM223 78q18 0 31 -13t13 -30q0 -18 -13 -31.5t-31 -13.5t-31 13.5t-13 31.5q0 17 13 30t31 13z" />
    <glyph glyph-name="at" unicode="@" horiz-adv-x="783" 
d="M747 316q0 -105 -48 -168t-114 -63q-38 0 -62.5 24.5t-25.5 60.5l-1 6q-29 -40 -73 -65.5t-91 -25.5q-69 0 -111 43.5t-42 116.5q-3 100 73.5 178t165.5 76q46 0 79.5 -22t49.5 -59l10 48q5 20 24 20q11 0 18.5 -9.5t5.5 -20.5l-54 -256q-2 -16 -2 -19q0 -24 14.5 -39.5
t35.5 -15.5q41 0 78.5 48.5t37.5 142.5q0 125 -80.5 207t-205.5 82q-92 2 -177.5 -49.5t-136 -136.5t-48.5 -175q0 -120 83 -202t206 -82q93 0 176 50q4 3 8 3q15 0 15 -16q0 -8 -7 -12q-90 -56 -196 -56q-132 -2 -225.5 91t-91.5 223q-2 102 54.5 195t149.5 147t193 52
q135 2 226 -93t89 -229zM506 227l32 148q-12 35 -42 59t-72 24q-76 2 -135.5 -64.5t-57.5 -145.5q0 -55 30 -88.5t81 -33.5q94 0 164 101z" />
    <glyph glyph-name="A" unicode="A" horiz-adv-x="647" 
d="M619 27q0 -12 -8.5 -21t-21.5 -9q-21 0 -28 19l-59 148h-357l-59 -148q-7 -19 -28 -19q-13 0 -21.5 9t-8.5 21q0 5 3 12l246 600q11 31 46 31q34 0 47 -31l246 -600q3 -9 3 -12zM166 216h315l-158 395z" />
    <glyph glyph-name="B" unicode="B" horiz-adv-x="614" 
d="M83 31v605q0 31 31 31h243q84 0 134 -46t50 -124q0 -58 -33.5 -100.5t-83.5 -52.5q53 -7 91.5 -56.5t38.5 -107.5q0 -83 -51 -131.5t-140 -48.5h-249q-31 0 -31 31zM140 368h210q61 0 96 34t35 89t-35 89.5t-96 34.5h-210v-247zM140 52h214q66 0 103 35.5t37 96.5
q0 57 -38 94.5t-102 37.5h-214v-264z" />
    <glyph glyph-name="C" unicode="C" horiz-adv-x="669" 
d="M58 333q-3 148 96 247.5t240 97.5q136 0 226 -95q7 -7 7 -19t-8 -20t-20 -8q-13 0 -21 9q-71 81 -184 81q-116 2 -197 -82.5t-79 -210.5q-2 -124 79 -209.5t197 -83.5q114 0 185 82q7 9 20 9q12 0 20.5 -8.5t8.5 -19.5q0 -13 -8 -19q-92 -96 -226 -96q-140 -3 -239.5 97
t-96.5 248z" />
    <glyph glyph-name="D" unicode="D" horiz-adv-x="692" 
d="M83 31v605q0 31 31 31h182q148 2 243.5 -96t93.5 -238q2 -141 -93 -238t-244 -95h-182q-31 0 -31 31zM140 52h156q127 0 202 79.5t75 201.5t-75 202t-202 80h-156v-563z" />
    <glyph glyph-name="E" unicode="E" horiz-adv-x="564" 
d="M83 31v605q0 31 31 31h369q11 0 18.5 -7.5t7.5 -18.5q0 -10 -7.5 -18t-18.5 -8h-343v-247h336q11 0 18.5 -7.5t7.5 -18.5q0 -10 -7.5 -18t-18.5 -8h-336v-264h343q11 0 18.5 -7.5t7.5 -18.5q0 -10 -7.5 -18t-18.5 -8h-369q-31 0 -31 31z" />
    <glyph glyph-name="F" unicode="F" horiz-adv-x="542" 
d="M83 26v610q0 31 31 31h369q11 0 18.5 -7.5t7.5 -18.5q0 -10 -7.5 -18t-18.5 -8h-343v-247h336q11 0 18.5 -7.5t7.5 -18.5q0 -10 -7.5 -18t-18.5 -8h-336v-290q0 -12 -8 -20.5t-20 -8.5t-20.5 9t-8.5 20z" />
    <glyph glyph-name="G" unicode="G" horiz-adv-x="711" 
d="M649 300v-179q0 -25 -16 -38q-96 -96 -237 -96q-141 -2 -241 98t-97 248q-3 149 97 248t241 97q138 0 233 -93q7 -6 7 -18t-7.5 -19.5t-19.5 -7.5q-11 0 -18 7q-79 79 -195 79q-117 2 -198.5 -82.5t-79.5 -210.5q-2 -125 79.5 -210.5t198.5 -83.5q115 0 196 81v160h-230
q-11 0 -18.5 7.5t-7.5 18.5q0 10 7.5 17.5t18.5 7.5h256q31 0 31 -31z" />
    <glyph glyph-name="H" unicode="H" horiz-adv-x="703" 
d="M563 26v291h-423v-291q0 -12 -8 -20.5t-20 -8.5t-20.5 9t-8.5 20v615q0 12 8.5 20.5t20.5 8.5t20 -8.5t8 -20.5v-272h423v272q0 12 8.5 20.5t20.5 8.5t20.5 -8.5t8.5 -20.5v-615q0 -11 -8.5 -20t-20.5 -9t-20.5 9t-8.5 20z" />
    <glyph glyph-name="I" unicode="I" horiz-adv-x="223" 
d="M83 26v615q0 12 8.5 20.5t20.5 8.5t20 -8.5t8 -20.5v-615q0 -12 -8 -20.5t-20 -8.5t-20.5 9t-8.5 20z" />
    <glyph glyph-name="J" unicode="J" horiz-adv-x="470" 
d="M20 73q0 12 8.5 20.5t19.5 8.5t19 -8q49 -54 115 -54t106.5 42t40.5 111v448q0 12 8.5 20.5t20.5 8.5t20.5 -8.5t8.5 -20.5v-448q0 -97 -56 -151t-146 -54q-94 0 -155 65q-10 7 -10 20z" />
    <glyph glyph-name="K" unicode="K" horiz-adv-x="586" 
d="M541 25q0 -11 -8 -19.5t-19 -8.5q-13 0 -21 8l-279 307l-74 -80v-206q0 -12 -8 -20.5t-20 -8.5t-20.5 9t-8.5 20v615q0 12 8.5 20.5t20.5 8.5t20 -8.5t8 -20.5v-340l326 360q7 9 20 9q11 0 19.5 -8t8.5 -19t-8 -19l-255 -276l282 -304q8 -11 8 -19z" />
    <glyph glyph-name="L" unicode="L" horiz-adv-x="504" 
d="M83 31v610q0 12 8.5 20.5t20.5 8.5t20 -8.5t8 -20.5v-589h300q11 0 18.5 -7.5t7.5 -18.5q0 -10 -7.5 -18t-18.5 -8h-326q-31 0 -31 31z" />
    <glyph glyph-name="M" unicode="M" horiz-adv-x="790" 
d="M649 26v566l-237 -581q-6 -14 -17 -14q-12 0 -17 14l-238 581v-566q0 -12 -8 -20.5t-20 -8.5t-20.5 9t-8.5 20v594q0 20 14.5 35t35.5 15q36 0 47 -31l215 -529l215 529q11 31 47 31q21 0 35.5 -15t14.5 -35v-594q0 -11 -8.5 -20t-20.5 -9t-20.5 9t-8.5 20z" />
    <glyph glyph-name="N" unicode="N" horiz-adv-x="699" 
d="M551 12l-411 564v-550q0 -12 -8 -20.5t-20 -8.5t-20.5 9t-8.5 20v606q0 16 10.5 27t26.5 11q21 0 31 -16l408 -555v542q0 12 8 20.5t20 8.5t20.5 -8.5t8.5 -20.5v-608q0 -14 -10.5 -25t-24.5 -11q-19 0 -30 15z" />
    <glyph glyph-name="O" unicode="O" horiz-adv-x="764" 
d="M382 678q141 2 233.5 -98.5t90.5 -246.5q2 -146 -90.5 -247t-233.5 -98q-141 -3 -233.5 97.5t-90.5 247.5q-2 147 90.5 247t233.5 98zM382 626q-119 0 -191.5 -82t-72.5 -211q0 -128 73 -210.5t191 -82.5q117 0 190.5 83t73.5 210q0 129 -73 211t-191 82z" />
    <glyph glyph-name="P" unicode="P" 
d="M83 26v610q0 31 31 31h219q91 0 146 -56.5t55 -138.5t-55.5 -138.5t-145.5 -56.5h-193v-251q0 -12 -8 -20.5t-20 -8.5t-20.5 9t-8.5 20zM327 615h-187v-286h187q66 0 106.5 40t40.5 103t-40.5 103t-106.5 40z" />
    <glyph glyph-name="Q" unicode="Q" horiz-adv-x="764" 
d="M612 82l53 -55q7 -8 7 -18q0 -11 -8 -19t-19 -8q-13 0 -19 8l-55 57q-80 -59 -189 -59q-141 -3 -233.5 97.5t-90.5 247.5q-2 147 90.5 247t233.5 98q141 2 233.5 -98.5t90.5 -246.5q0 -152 -94 -251zM533 86l-87 90q-6 8 -6 18q0 11 7.5 19t18.5 8q12 0 20 -9l87 -90
q73 82 73 211t-73 211t-191 82q-119 0 -191.5 -82t-72.5 -211q0 -128 73 -210.5t191 -82.5q87 0 151 46z" />
    <glyph glyph-name="R" unicode="R" horiz-adv-x="594" 
d="M360 281l170 -238q5 -8 5 -18q0 -12 -7.5 -20t-19.5 -8q-16 0 -25 12l-186 267h-157v-250q0 -12 -8 -20.5t-20 -8.5t-20.5 9t-8.5 20v610q0 31 31 31h218q89 0 146 -53t57 -142q0 -82 -49 -133.5t-126 -57.5zM140 615v-287h187q66 0 107 40.5t41 103.5t-41 103t-107 40
h-187z" />
    <glyph glyph-name="S" unicode="S" horiz-adv-x="581" 
d="M54 97q0 12 8.5 20.5t19.5 8.5q12 0 20 -7q80 -79 189 -79q94 0 134 40q42 40 42 93q0 45 -25 71q-22 26 -57 41.5t-101 32.5q-61 17 -115 37q-102 44 -102 145q0 79 63.5 128.5t158.5 49.5q123 0 206 -77q11 -8 11 -21q0 -11 -8.5 -19.5t-20.5 -8.5t-18 7
q-67 67 -173 67q-69 0 -114 -34.5t-45 -88.5q0 -36 23 -61q22 -22 54.5 -35.5t96.5 -29.5q69 -20 118 -41q108 -45 108 -159q0 -78 -58.5 -133.5t-178.5 -55.5q-137 0 -227 88q-9 8 -9 21z" />
    <glyph glyph-name="T" unicode="T" horiz-adv-x="564" 
d="M253 26v589h-195q-10 0 -18 8t-8 18q0 11 8 18.5t18 7.5h449q11 0 18.5 -7.5t7.5 -18.5q0 -10 -7.5 -18t-18.5 -8h-196v-589q0 -11 -8.5 -20t-20.5 -9t-20.5 9t-8.5 20z" />
    <glyph glyph-name="U" unicode="U" horiz-adv-x="686" 
d="M83 256v385q0 12 8.5 20.5t20.5 8.5t20.5 -8.5t8.5 -20.5v-384q0 -102 53 -159.5t149 -57.5q98 0 150 57t52 160v384q0 12 8.5 20.5t20.5 8.5q13 0 21 -8.5t8 -20.5v-385q0 -127 -67 -197.5t-193 -70.5q-125 0 -192.5 71t-67.5 197z" />
    <glyph glyph-name="V" unicode="V" horiz-adv-x="647" 
d="M277 29l-246 598q-3 9 -3 12q0 13 9 22t22 9q20 0 29 -19l235 -587l236 587q7 19 29 19q13 0 21.5 -9t8.5 -21q0 -5 -2 -13l-246 -598q-12 -32 -47 -32q-34 0 -46 32z" />
    <glyph glyph-name="W" unicode="W" horiz-adv-x="867" 
d="M586 27l-152 546l-153 -546q-3 -13 -14 -21.5t-25 -8.5t-25.5 8.5t-14.5 21.5l-172 602q-1 3 -1 11q0 12 9 21t21 9q10 0 18.5 -6.5t10.5 -16.5l156 -567l158 566q6 24 32 24q25 0 31 -24l158 -566l156 567q2 10 10.5 16.5t18.5 6.5q13 0 22 -9t9 -22l-2 -10l-171 -602
q-8 -30 -40 -30q-31 0 -40 30z" />
    <glyph glyph-name="X" unicode="X" horiz-adv-x="645" 
d="M609 26q0 -12 -8 -20.5t-20 -8.5q-14 0 -23 9l-235 294l-236 -294q-9 -9 -23 -9q-12 0 -20 8.5t-8 20.5q0 10 7 18l246 298l-232 281q-6 11 -6 18q0 12 8.5 20.5t20.5 8.5q14 0 22 -11l221 -274l220 274q8 11 22 11q12 0 20.5 -8.5t8.5 -20.5q0 -7 -7 -18l-231 -280
l246 -299q7 -8 7 -18z" />
    <glyph glyph-name="Y" unicode="Y" horiz-adv-x="618" 
d="M575 626l-237 -340v-260q0 -11 -8.5 -20t-20.5 -9t-20.5 9t-8.5 20v259l-237 340q-5 8 -5 17q0 11 8.5 19.5t20.5 8.5q17 0 24 -12l218 -321l218 321q7 12 24 12q12 0 20.5 -8.5t8.5 -19.5t-5 -16z" />
    <glyph glyph-name="Z" unicode="Z" horiz-adv-x="581" 
d="M47 35q0 11 7 19l398 561h-379q-10 0 -18 8t-8 18q0 11 8 18.5t18 7.5h419q14 0 24.5 -10t10.5 -24q0 -12 -7 -20l-398 -561h386q11 0 18.5 -7.5t7.5 -18.5q0 -10 -7.5 -18t-18.5 -8h-426q-14 0 -24.5 10t-10.5 25z" />
    <glyph glyph-name="bracketleft" unicode="[" horiz-adv-x="228" 
d="M37 -165v817q0 11 7.5 18.5t18.5 7.5h130q9 0 15 -6.5t6 -14.5q0 -9 -6 -15.5t-15 -6.5h-112v-782h112q9 0 15 -6.5t6 -15.5q0 -8 -6 -14.5t-15 -6.5h-130q-11 0 -18.5 7t-7.5 18z" />
    <glyph glyph-name="backslash" unicode="\" horiz-adv-x="282" 
d="M233 -9l-224 668l-2 9q0 9 6 15.5t16 6.5q15 0 20 -14l224 -668q2 -8 2 -10q0 -9 -6 -15t-16 -6q-15 0 -20 14z" />
    <glyph glyph-name="bracketright" unicode="]" horiz-adv-x="228" 
d="M13 -169q0 9 6.5 15.5t15.5 6.5h112v782h-112q-9 0 -15.5 6.5t-6.5 15.5q0 8 6.5 14.5t15.5 6.5h130q11 0 18.5 -7.5t7.5 -18.5v-817q0 -11 -7.5 -18t-18.5 -7h-131q-8 0 -14.5 6.5t-6.5 14.5z" />
    <glyph glyph-name="asciicircum" unicode="^" horiz-adv-x="428" 
d="M357 342l-143 284l-143 -284q-5 -12 -19 -12q-9 0 -15 6.5t-6 14.5q0 2 2 10l153 292q8 17 28 17q22 0 28 -17l153 -292q2 -8 2 -10q0 -8 -6 -14.5t-15 -6.5q-14 0 -19 12z" />
    <glyph glyph-name="underscore" unicode="_" horiz-adv-x="564" 
d="M-6 -61q0 8 6.5 14.5t14.5 6.5h534q8 0 14.5 -6.5t6.5 -14.5q0 -9 -6.5 -15.5t-14.5 -6.5h-534q-8 0 -14.5 6.5t-6.5 15.5z" />
    <glyph glyph-name="grave" unicode="`" horiz-adv-x="216" 
d="M171 557l-133 111q-7 4 -7 15q0 8 6 14t14 6q7 0 13 -6l127 -118q5 -5 5 -11t-4.5 -10.5t-10.5 -4.5t-10 4z" />
    <glyph glyph-name="a" unicode="a" horiz-adv-x="521" 
d="M440 340v-317q0 -10 -7.5 -18t-18.5 -8q-10 0 -18 8t-8 18v36q-62 -71 -164 -71q-69 0 -119 44t-50 117t50 116.5t119 43.5q102 0 164 -69v98q0 51 -36.5 81t-93.5 30q-79 0 -136 -57q-8 -5 -15 -5q-10 0 -16.5 6.5t-6.5 16.5q0 11 8 17q69 68 172 68q80 0 128 -40
t48 -115zM388 95v106q-50 67 -146 67q-59 0 -95.5 -34t-36.5 -86t36.5 -85.5t95.5 -33.5q95 0 146 66z" />
    <glyph glyph-name="b" unicode="b" 
d="M517 241q0 -114 -59.5 -183.5t-156.5 -69.5q-50 0 -94.5 24.5t-73.5 64.5v-54q0 -10 -7.5 -18t-18.5 -8q-10 0 -18 8t-8 18v621q0 11 8 18.5t18 7.5q11 0 18.5 -7.5t7.5 -18.5v-239q63 90 168 90q97 0 156.5 -69.5t59.5 -184.5zM461 241q0 91 -45 149t-124 58
q-47 0 -92 -25.5t-67 -62.5v-239q22 -37 66.5 -61.5t92.5 -24.5q79 0 124 58q45 59 45 148z" />
    <glyph glyph-name="c" unicode="c" horiz-adv-x="494" 
d="M288 495q95 0 156 -65q7 -8 7 -17q0 -10 -6.5 -17t-17.5 -7q-10 0 -16 7q-49 52 -120 52q-82 0 -132 -58.5t-50 -147.5t50 -148t132 -59q72 0 119 53q7 7 17 7q24 0 24 -24q0 -11 -7 -18q-62 -65 -156 -65q-103 0 -169 73t-66 181q0 107 66 180t169 73z" />
    <glyph glyph-name="d" unicode="d" 
d="M490 644v-621q0 -10 -7.5 -18t-18.5 -8t-19 8t-8 18v53q-27 -40 -72.5 -64t-95.5 -24q-97 0 -156.5 69.5t-59.5 183.5t60 184t156 70q104 0 168 -89v238q0 10 8 18t19 8t18.5 -7.5t7.5 -18.5zM437 121v239q-22 38 -66.5 63t-92.5 25q-77 0 -124 -59q-45 -59 -45 -148
t45 -148q46 -58 124 -58q48 0 92.5 24.5t66.5 61.5z" />
    <glyph glyph-name="e" unicode="e" horiz-adv-x="567" 
d="M286 495q103 0 165.5 -70.5t62.5 -170.5q0 -29 -31 -29h-373q5 -83 56.5 -137.5t132.5 -54.5q84 0 145 55q4 4 13 4t15 -6t6 -16q0 -9 -8 -17q-74 -65 -175 -65q-106 0 -174 71.5t-68 182.5q0 105 67.5 179t165.5 74zM110 266h351q-2 73 -48.5 128.5t-127.5 55.5
q-77 0 -124.5 -55.5t-50.5 -128.5z" />
    <glyph glyph-name="f" unicode="f" horiz-adv-x="265" 
d="M291 649q0 -22 -22 -22q-3 0 -15.5 2.5t-19.5 2.5q-84 0 -84 -105v-44h78q9 0 16.5 -6.5t7.5 -16.5q0 -9 -7.5 -16t-16.5 -7h-78v-414q0 -10 -7.5 -18t-18.5 -8q-10 0 -18 8t-8 18v414h-60q-9 0 -16 6.5t-7 16.5t7 16.5t16 6.5h60v44q0 71 35 110.5t96 39.5q27 0 45 -7
q17 -5 17 -21z" />
    <glyph glyph-name="g" unicode="g" horiz-adv-x="570" 
d="M490 460v-455q0 -101 -58.5 -151t-159.5 -50q-59 0 -98.5 13t-75.5 46q-9 6 -9 19q0 10 7 17t17 7q9 0 15 -6q55 -51 144 -51q75 0 120 39.5t45 115.5v75q-30 -40 -74.5 -64.5t-93.5 -24.5q-97 0 -156.5 69t-59.5 183q0 113 59.5 183t156.5 70q104 0 168 -89v54
q0 11 8 18.5t19 7.5t18.5 -7.5t7.5 -18.5zM437 125v235q-22 38 -66.5 63t-92.5 25q-78 0 -124 -58q-45 -58 -45 -148t45 -148q46 -57 124 -57q48 0 92.5 25t66.5 63z" />
    <glyph glyph-name="h" unicode="h" horiz-adv-x="540" 
d="M407 23v306q0 64 -29 91.5t-88 27.5q-44 0 -88.5 -23.5t-68.5 -59.5v-342q0 -10 -7.5 -18t-18.5 -8q-10 0 -18 8t-8 18v621q0 11 8 18.5t18 7.5q11 0 18.5 -7.5t7.5 -18.5v-234q31 36 79 60.5t95 24.5q152 0 152 -155v-317q0 -10 -7.5 -18t-18.5 -8q-10 0 -18 8t-8 18z
" />
    <glyph glyph-name="i" unicode="i" horiz-adv-x="214" 
d="M67 623q0 16 12 28t28 12q17 0 28.5 -11.5t11.5 -28.5q0 -16 -11.5 -28t-28.5 -12q-16 0 -28 12t-12 28zM81 23v437q0 11 8 18.5t18 7.5q11 0 18.5 -7.5t7.5 -18.5v-437q0 -10 -7.5 -18t-18.5 -8q-10 0 -18 8t-8 18z" />
    <glyph glyph-name="j" unicode="j" horiz-adv-x="214" 
d="M67 623q0 16 12 28t28 12q17 0 28.5 -11.5t11.5 -28.5q0 -16 -11.5 -28t-28.5 -12q-16 0 -28 12t-12 28zM-28 -192q-20 5 -20 23q0 9 6 16t15 7q1 0 10 -2t18 -2q80 0 80 88v522q0 11 8 18.5t18 7.5q11 0 18.5 -7.5t7.5 -18.5v-522q0 -65 -33.5 -99.5t-94.5 -34.5
q-20 0 -33 4z" />
    <glyph glyph-name="k" unicode="k" horiz-adv-x="505" 
d="M464 24q0 -11 -7.5 -19t-18.5 -8q-14 0 -21 9l-194 224l-90 -85v-122q0 -10 -7.5 -18t-18.5 -8q-10 0 -18 8t-8 18v621q0 11 8 18.5t18 7.5q11 0 18.5 -7.5t7.5 -18.5v-436l287 272q8 6 17 6q10 0 17 -7.5t7 -17.5t-8 -18l-190 -179l195 -222q6 -8 6 -18z" />
    <glyph glyph-name="l" unicode="l" horiz-adv-x="214" 
d="M81 23v621q0 11 8 18.5t18 7.5q11 0 18.5 -7.5t7.5 -18.5v-621q0 -10 -7.5 -18t-18.5 -8q-10 0 -18 8t-8 18z" />
    <glyph glyph-name="m" unicode="m" horiz-adv-x="789" 
d="M708 348v-325q0 -10 -7.5 -18t-18.5 -8q-10 0 -18 8t-8 18v315q0 110 -97 110q-38 0 -77.5 -24t-60.5 -58v-343q0 -11 -8 -18.5t-19 -7.5q-10 0 -18 8t-8 18v315q0 110 -97 110q-36 0 -75 -24t-63 -59v-342q0 -10 -7.5 -18t-18.5 -8q-10 0 -18 8t-8 18v437q0 11 8 18.5
t18 7.5q11 0 18.5 -7.5t7.5 -18.5v-50q17 29 63.5 57t92.5 28q51 0 84 -25t43 -66q23 36 67 63q44 28 93 28q132 0 132 -147z" />
    <glyph glyph-name="n" unicode="n" horiz-adv-x="540" 
d="M459 338v-315q0 -10 -7.5 -18t-18.5 -8q-10 0 -18 8t-8 18v304q0 64 -29 92.5t-88 28.5q-44 0 -88.5 -23.5t-68.5 -59.5v-342q0 -10 -7.5 -18t-18.5 -8q-10 0 -18 8t-8 18v437q0 11 8 18.5t18 7.5q11 0 18.5 -7.5t7.5 -18.5v-50q31 36 79 60.5t95 24.5q152 0 152 -157z
" />
    <glyph glyph-name="o" unicode="o" 
d="M53 242q0 108 65 180.5t167 72.5q104 0 168.5 -72.5t64.5 -180.5q0 -109 -64.5 -181.5t-168.5 -72.5q-102 0 -167 72.5t-65 181.5zM462 242q0 86 -48.5 146t-128.5 60q-79 0 -127.5 -60t-48.5 -146t48.5 -146.5t127.5 -60.5q81 0 129 60t48 147z" />
    <glyph glyph-name="p" unicode="p" horiz-adv-x="570" 
d="M517 242q0 -115 -59.5 -184.5t-156.5 -69.5q-104 0 -168 91v-240q0 -11 -7.5 -18.5t-18.5 -7.5q-10 0 -18 7.5t-8 18.5v621q0 11 8 18.5t18 7.5q11 0 18.5 -7.5t7.5 -18.5v-54q28 41 72.5 65t95.5 24q97 0 156.5 -69.5t59.5 -183.5zM461 242q0 90 -45 148t-124 58
q-48 0 -92.5 -24.5t-66.5 -61.5v-239q22 -37 67 -62.5t92 -25.5q79 0 124 58q45 59 45 149z" />
    <glyph glyph-name="q" unicode="q" horiz-adv-x="570" 
d="M490 460v-621q0 -11 -8 -18.5t-19 -7.5q-10 0 -18 7.5t-8 18.5v238q-64 -89 -168 -89q-97 0 -156.5 69.5t-59.5 184.5q0 114 59.5 183.5t156.5 69.5q51 0 95.5 -24t72.5 -65v54q0 11 8 18.5t18 7.5q11 0 19 -7.5t8 -18.5zM437 123v239q-22 37 -66.5 61.5t-92.5 24.5
q-78 0 -124 -58q-45 -58 -45 -148t45 -149q46 -58 124 -58q47 0 92 25.5t67 62.5z" />
    <glyph glyph-name="r" unicode="r" horiz-adv-x="317" 
d="M300 464q0 -10 -8.5 -17.5t-22.5 -8.5q-37 -2 -78 -27q-39 -25 -58 -59v-329q0 -10 -7.5 -18t-18.5 -8q-10 0 -18 8t-8 18v437q0 11 8 18.5t18 7.5q11 0 18.5 -7.5t7.5 -18.5v-61q54 72 118 88q12 4 23 4q26 0 26 -27z" />
    <glyph glyph-name="s" unicode="s" horiz-adv-x="459" 
d="M45 68q0 11 7.5 18t17.5 7q9 0 15 -6q60 -55 141 -55q59 0 94 26.5t35 69.5q-3 42 -32 60t-103 38q-53 13 -89 26q-81 31 -81 109q0 58 47.5 96t124.5 38q98 0 159 -58q8 -8 8 -18q0 -9 -6.5 -16t-16.5 -7q-8 0 -14 6q-51 49 -130 49q-54 0 -87.5 -24t-33.5 -63
q3 -38 30 -53.5t99 -33.5q49 -12 91 -28q85 -34 85 -119q0 -64 -48 -103t-133 -39q-105 0 -171 62q-9 8 -9 18z" />
    <glyph glyph-name="t" unicode="t" horiz-adv-x="275" 
d="M265 27q0 -12 -12 -20q-26 -19 -67 -19q-95 0 -95 105v344h-59q-10 0 -17 6.5t-7 16.5t7 16.5t17 6.5h59v109q0 11 8 18.5t19 7.5t18.5 -7.5t7.5 -18.5v-109h77q10 0 17 -6.5t7 -16.5t-7 -16.5t-17 -6.5h-77v-336q0 -66 50 -66q14 0 30.5 7.5t17.5 7.5q10 0 16.5 -6.5
t6.5 -16.5z" />
    <glyph glyph-name="u" unicode="u" horiz-adv-x="540" 
d="M459 460v-437q0 -10 -7.5 -18t-18.5 -8q-10 0 -18 8t-8 18v48q-34 -37 -79.5 -60t-94.5 -23q-152 0 -152 155v317q0 11 8 18.5t18 7.5q11 0 18.5 -7.5t7.5 -18.5v-305q0 -65 29 -92.5t88 -27.5q44 0 88 23t69 57v345q0 11 8 18.5t18 7.5q11 0 18.5 -7.5t7.5 -18.5z" />
    <glyph glyph-name="v" unicode="v" horiz-adv-x="481" 
d="M461 459q0 -7 -3 -13l-179 -423q-12 -26 -38 -26q-27 0 -39 26l-180 424q-2 8 -2 12q0 11 7.5 19t18.5 8q19 0 25 -17l170 -410l169 410q6 17 24 17q12 0 19.5 -8t7.5 -19z" />
    <glyph glyph-name="w" unicode="w" horiz-adv-x="719" 
d="M489 20l-129 393l-130 -393q-7 -23 -31 -23q-25 0 -31 23l-140 430q0 2 -1 5q-1 2 -1 3v2q0 11 7.5 18.5t18.5 7.5q20 0 26 -19l123 -394l131 393q5 20 28 20q22 0 27 -20l131 -393l124 394q5 19 25 19q11 0 18.5 -8t7.5 -19l-2 -11l-140 -428q-6 -23 -31 -23
q-24 0 -31 23z" />
    <glyph glyph-name="x" unicode="x" horiz-adv-x="479" 
d="M446 22q0 -10 -7 -17.5t-18 -7.5q-13 0 -20 9l-162 207l-161 -206q-7 -10 -19 -10q-11 0 -18 7.5t-7 17.5q0 8 5 16l171 212l-160 195q-6 6 -6 15q0 11 7.5 18.5t17.5 7.5q11 0 19 -9l152 -191l151 191q7 9 19 9q10 0 17.5 -7.5t7.5 -18.5q0 -9 -6 -15l-160 -195
l171 -212q6 -6 6 -16z" />
    <glyph glyph-name="y" unicode="y" horiz-adv-x="481" 
d="M75 -146q1 0 10 -1.5t15 -1.5q48 0 73 59l38 86l-189 451q-2 6 -2 12q0 11 7.5 19t18.5 8q19 0 25 -17l170 -408l169 408q6 17 24 17q12 0 19.5 -8t7.5 -19q0 -4 -3 -13l-234 -552q-37 -90 -124 -90q-3 0 -27 2q-10 1 -16.5 8t-6.5 16q0 10 7.5 17t17.5 7z" />
    <glyph glyph-name="z" unicode="z" horiz-adv-x="469" 
d="M53 29q0 9 6 17l283 391h-266q-9 0 -16 6.5t-7 15.5q0 10 7 17t16 7h307q12 0 20.5 -8t8.5 -21q0 -6 -6 -17l-286 -391h273q9 0 16 -6.5t7 -16.5t-7 -16.5t-16 -6.5h-311q-12 0 -20.5 8.5t-8.5 20.5z" />
    <glyph glyph-name="braceleft" unicode="{" horiz-adv-x="249" 
d="M58 -67v220q0 25 -10.5 44t-28.5 25q-16 5 -16 22t16 22q18 6 28.5 25t10.5 44v219q0 53 34 88.5t78 35.5h45q8 0 14.5 -6.5t6.5 -14.5q0 -9 -6.5 -15.5t-14.5 -6.5h-45q-28 0 -47.5 -23t-19.5 -58v-222q0 -69 -46 -88q46 -19 46 -88v-222q0 -33 20 -57t47 -24h45
q8 0 14.5 -6.5t6.5 -15.5t-6.5 -15t-14.5 -6h-45q-44 0 -78 35t-34 88z" />
    <glyph glyph-name="bar" unicode="|" horiz-adv-x="208" 
d="M83 -2v671q0 8 6.5 14.5t14.5 6.5q9 0 15.5 -6.5t6.5 -14.5v-671q0 -8 -6.5 -14.5t-15.5 -6.5q-8 0 -14.5 6.5t-6.5 14.5z" />
    <glyph glyph-name="braceright" unicode="}" horiz-adv-x="249" 
d="M79 -190h-45q-8 0 -14.5 6t-6.5 15t6.5 15.5t14.5 6.5h45q27 0 47 24t20 57v222q0 69 46 88q-46 19 -46 88v222q0 35 -19.5 58t-47.5 23h-45q-8 0 -14.5 6.5t-6.5 15.5q0 8 6.5 14.5t14.5 6.5h45q44 0 78 -35.5t34 -88.5v-219q0 -25 10.5 -44t28.5 -25q16 -5 16 -22
t-16 -22q-18 -6 -28.5 -25t-10.5 -44v-220q0 -53 -34 -88t-78 -35z" />
    <glyph glyph-name="asciitilde" unicode="~" horiz-adv-x="499" 
d="M470 644q-12 -106 -43 -161t-89 -55q-46 3 -66 27.5t-42 85.5q-17 47 -30.5 65t-38.5 18q-69 0 -89 -178q-2 -19 -21 -19q-10 0 -16.5 7t-5.5 17q24 214 132 214q24 -1 40.5 -8.5t29.5 -25.5t19 -32t19 -47q17 -46 31.5 -65t37.5 -19q69 0 89 181q2 19 22 19
q9 0 15.5 -7.5t5.5 -16.5z" />
    <glyph glyph-name="uni00A0" unicode="&#xa0;" horiz-adv-x="259" 
 />
    <glyph glyph-name="exclamdown" unicode="&#xa1;" horiz-adv-x="219" 
d="M154 449q0 -18 -13.5 -31t-31.5 -13t-30.5 13t-12.5 31q0 17 12.5 30t30.5 13t31.5 -13t13.5 -30zM110 312q8 0 14.5 -6t6.5 -14l12 -445q0 -14 -10 -24t-23 -10q-14 0 -24 10t-10 24l12 445q2 20 22 20z" />
    <glyph glyph-name="cent" unicode="&#xa2;" horiz-adv-x="494" 
d="M451 71q0 -11 -7 -18q-59 -61 -142 -65v-69q0 -9 -6.5 -15.5t-16.5 -6.5q-9 0 -15.5 6.5t-6.5 15.5v71q-90 10 -147 82t-57 170q0 99 56.5 170t147.5 81v53q0 9 6.5 15.5t15.5 6.5q10 0 16.5 -6.5t6.5 -15.5v-51q83 -4 142 -65q7 -8 7 -17q0 -10 -6.5 -17t-17.5 -7
q-10 0 -16 7q-45 49 -109 52v-413q64 4 108 53q7 7 17 7q24 0 24 -24zM257 38v407q-68 -12 -108 -67.5t-40 -135.5t40 -136t108 -68z" />
    <glyph glyph-name="sterling" unicode="&#xa3;" horiz-adv-x="505" 
d="M489 42q0 -14 -12 -23q-47 -33 -111 -33q-47 0 -95 25q-47 22 -84 22q-42 0 -101 -34q-8 -2 -11 -2q-10 0 -18 7.5t-8 17.5q0 15 14 24q126 66 126 160q0 33 -16 61h-137q-8 0 -14.5 6.5t-6.5 14.5q0 9 6.5 15t14.5 6h107l-18 20q-34 37 -56 74q-19 32 -19 82
q0 77 63 134.5t153 57.5q112 0 173 -86q6 -6 6 -16q0 -11 -7.5 -19t-18.5 -8q-14 0 -22 11q-19 30 -53.5 49t-73.5 19q-66 0 -113 -39q-46 -37 -46 -104q0 -40 15 -69t52 -72q24 -28 28 -34h133q8 0 14.5 -6t6.5 -15q0 -8 -6.5 -14.5t-14.5 -6.5h-108q10 -26 10 -53
q0 -81 -81 -140q26 9 54 9q32 0 82 -23q45 -21 72 -21q47 0 82 26q4 3 13 3q11 0 18.5 -7.5t7.5 -18.5z" />
    <glyph glyph-name="currency" unicode="&#xa4;" horiz-adv-x="588" 
d="M477 183l66 -66q7 -7 7 -16q0 -10 -7 -17t-17 -7q-12 0 -16 7l-65 65q-62 -53 -152 -53q-89 0 -151 53l-65 -65q-4 -7 -16 -7q-10 0 -17 7t-7 17q0 9 7 16l66 66q-48 62 -48 150t48 151l-67 67q-7 7 -7 16q0 10 7 17t17 7t17 -7l66 -66q61 51 150 51t151 -51l66 65
q4 7 16 7q10 0 17 -7t7 -17q0 -9 -7 -16l-66 -66q48 -63 48 -151t-48 -150zM470 333q0 78 -48.5 132.5t-128.5 54.5t-128.5 -55t-48.5 -132q0 -78 48.5 -133t128.5 -55q81 0 129 55t48 133z" />
    <glyph glyph-name="yen" unicode="&#xa5;" horiz-adv-x="618" 
d="M580 642q0 -12 -6 -16l-208 -299h213q8 0 14.5 -6.5t6.5 -14.5t-6.5 -14.5t-14.5 -6.5h-241v-118h241q8 0 14.5 -6.5t6.5 -14.5t-6.5 -14t-14.5 -6h-241v-100q0 -11 -8.5 -20t-20.5 -9t-20.5 9t-8.5 20v100h-241q-8 0 -14.5 6t-6.5 14t6.5 14.5t14.5 6.5h241v118h-241
q-8 0 -14.5 6.5t-6.5 14.5t6.5 14.5t14.5 6.5h213l-208 298q-6 7 -6 17q0 11 8.5 19.5t20.5 8.5q17 0 24 -12l218 -319l218 319q7 12 24 12q12 0 20.5 -8.5t8.5 -19.5z" />
    <glyph glyph-name="brokenbar" unicode="&#xa6;" horiz-adv-x="208" 
d="M83 389v280q0 8 6.5 14.5t14.5 6.5q9 0 15.5 -6.5t6.5 -14.5v-280q0 -8 -6.5 -14.5t-15.5 -6.5q-8 0 -14.5 6.5t-6.5 14.5zM83 -2v280q0 8 6.5 14.5t14.5 6.5q9 0 15.5 -6.5t6.5 -14.5v-280q0 -8 -6.5 -14.5t-15.5 -6.5q-8 0 -14.5 6.5t-6.5 14.5z" />
    <glyph glyph-name="section" unicode="&#xa7;" horiz-adv-x="461" 
d="M406 62q0 -66 -49.5 -104.5t-131.5 -38.5q-103 0 -171 63q-9 9 -9 18q0 10 7 16.5t17 6.5q9 0 15 -6q58 -57 141 -57q58 0 94 27.5t36 72.5q0 40 -32 60.5t-106 37.5q-61 17 -88 28q-79 31 -79 108q0 50 33 83t90 46q-63 19 -93 47.5t-30 74.5q0 56 46.5 94t125.5 38
q95 0 159 -58q7 -8 7 -17t-6 -15.5t-15 -6.5t-14 6q-50 50 -130 50q-54 0 -88 -25.5t-34 -66.5q3 -38 30.5 -54t99.5 -34q47 -11 72 -19.5t51.5 -24.5t38 -40.5t13.5 -60.5q0 -87 -96 -128q96 -37 96 -121zM101 297q0 -30 21 -48q19 -17 44 -25.5t95 -25.5q93 41 93 109
q0 40 -30.5 61.5t-94.5 38.5q-69 -18 -98.5 -44.5t-29.5 -65.5z" />
    <glyph glyph-name="dieresis" unicode="&#xa8;" horiz-adv-x="409" 
d="M65 606q0 15 11 26t26 11t26 -11t11 -26q0 -16 -11 -27t-26 -11t-26 11t-11 27zM269 606q0 15 11 26t26 11t26.5 -11t11.5 -26q0 -16 -11.5 -27t-26.5 -11t-26 11t-11 27z" />
    <glyph glyph-name="copyright" unicode="&#xa9;" horiz-adv-x="778" 
d="M389 678q139 2 243 -102t102 -243q2 -140 -102 -244t-243 -101q-139 -3 -243.5 101.5t-101.5 243.5q-3 139 101 243t244 102zM389 650q-127 3 -223 -93t-94 -224q-2 -126 94 -222t223 -94q128 -2 224 94t93 222q3 128 -93 224t-224 93zM390 548q84 0 138 -56q4 -5 4 -11
q0 -16 -16 -16q-6 0 -12 6q-45 47 -114 47q-72 0 -123.5 -52t-51.5 -132q0 -77 52.5 -131t122.5 -54q69 0 114 48q6 6 12 6q7 0 11.5 -5t4.5 -11q0 -7 -4 -11q-57 -57 -138 -57q-86 0 -147 63t-61 153q0 89 61 151t147 62z" />
    <glyph glyph-name="ordfeminine" unicode="&#xaa;" horiz-adv-x="375" 
d="M310 543v-199q0 -8 -6 -14.5t-15 -6.5t-15 6.5t-6 15.5v18q-42 -45 -110 -45q-46 0 -79 29t-33 76q0 46 32.5 74.5t79.5 28.5q68 0 110 -44v61q0 32 -24.5 51t-60.5 19q-53 0 -89 -37q-5 -4 -12 -4t-12.5 5.5t-5.5 12.5q0 9 7 13q48 45 117 45q56 0 89 -26.5t33 -78.5z
M268 390v65q-30 41 -94 41q-37 0 -61 -20.5t-24 -52.5q0 -33 24 -54t61 -21q61 0 94 42z" />
    <glyph glyph-name="guillemotleft" unicode="&#xab;" horiz-adv-x="402" 
d="M186 67l-137 154q-9 11 -9 22t9 22l137 151q4 7 16 7q9 0 15 -6.5t6 -14.5q0 -6 -5 -14l-131 -145l131 -147q6 -6 6 -15q0 -8 -6.5 -14.5t-15.5 -6.5t-16 7zM311 67l-137 154q-9 11 -9 22t9 22l137 151q4 7 16 7q8 0 14 -6.5t6 -14.5q0 -10 -4 -14l-131 -145l131 -147
q5 -8 5 -15q0 -8 -6.5 -14.5t-14.5 -6.5q-12 0 -16 7z" />
    <glyph glyph-name="logicalnot" unicode="&#xac;" horiz-adv-x="499" 
d="M446 212q-9 0 -15.5 7t-6.5 15v177h-377q-8 0 -14.5 6.5t-6.5 14.5t6.5 14.5t14.5 6.5h389q31 0 31 -32v-187q0 -9 -6 -15.5t-15 -6.5z" />
    <glyph glyph-name="uni00AD" unicode="&#xad;" horiz-adv-x="300" 
d="M27 242q0 10 7 17t17 7h198q10 0 17 -7t7 -17t-7 -17t-17 -7h-198q-10 0 -17 7t-7 17z" />
    <glyph glyph-name="registered" unicode="&#xae;" horiz-adv-x="494" 
d="M247 677q88 0 150 -62t62 -150t-62 -150t-150 -62t-150 62t-62 150t62 150t150 62zM247 650q-76 0 -130.5 -54t-54.5 -131q0 -76 54.5 -130.5t130.5 -54.5t130.5 54.5t54.5 130.5q0 77 -54.5 131t-130.5 54zM309 345l-61 94h-51v-85q0 -15 -15 -15t-15 15v212q0 8 6 14
t14 6h79q33 0 54 -20.5t21 -53.5q0 -30 -17 -48t-40 -24l52 -77q2 -4 2 -8q0 -16 -16 -16q-8 0 -13 6zM266 558h-69v-90h69q16 0 30 13t14 31q0 19 -13.5 32.5t-30.5 13.5z" />
    <glyph glyph-name="overscore" unicode="&#xaf;" horiz-adv-x="363" 
d="M31 595q0 19 19 19h263q19 0 19 -19q0 -7 -5.5 -12.5t-13.5 -5.5h-263q-8 0 -13.5 5.5t-5.5 12.5z" />
    <glyph glyph-name="degree" unicode="&#xb0;" horiz-adv-x="282" 
d="M25 560q0 48 33 82q35 35 82 35q48 0 83 -35q34 -34 34 -82t-34 -82q-34 -33 -83 -33q-48 0 -81.5 33.5t-33.5 81.5zM64 560q0 -31 22.5 -53.5t53.5 -22.5q32 0 55 22.5t23 53.5q0 32 -23 55t-55 23q-31 0 -53.5 -23t-22.5 -55z" />
    <glyph glyph-name="plusminus" unicode="&#xb1;" horiz-adv-x="496" 
d="M271 323v-199q0 -8 -6.5 -15t-16.5 -7q-9 0 -15.5 7t-6.5 15v199h-179q-8 0 -14.5 6t-6.5 14q0 9 6.5 15t14.5 6h179v192q0 9 6.5 16t15.5 7q10 0 16.5 -7t6.5 -16v-192h179q8 0 14.5 -6t6.5 -14q0 -9 -6.5 -15t-14.5 -6h-179zM26 21q0 8 6.5 14t14.5 6h403q8 0 14.5 -6
t6.5 -15q0 -8 -6.5 -14t-14.5 -6h-403q-8 0 -14.5 6t-6.5 15z" />
    <glyph glyph-name="uni00B2" unicode="&#xb2;" horiz-adv-x="337" 
d="M19 444q0 11 10 18q123 88 175.5 143.5t52.5 104.5q0 38 -26 58.5t-67 20.5q-65 0 -102 -40q-5 -5 -13 -5q-19 0 -19 19q0 6 5 14q50 50 130 50q58 0 97 -30t39 -85q0 -57 -51 -115t-162 -138h199q19 0 19 -19t-19 -19h-245q-9 0 -16 6.5t-7 16.5z" />
    <glyph glyph-name="uni00B3" unicode="&#xb3;" horiz-adv-x="364" 
d="M36 467q-6 6 -6 14t6 13.5t14 5.5t13 -5q40 -43 106 -43q47 0 73.5 20.5t26.5 57.5q0 39 -29.5 58.5t-80.5 19.5h-23q-7 0 -12.5 5.5t-5.5 12.5q0 8 5.5 13.5t12.5 5.5h23q48 0 76 18t28 54q0 33 -27 52.5t-69 19.5q-58 0 -100 -39q-5 -5 -13 -5q-7 0 -12.5 5.5
t-5.5 12.5q0 9 6 15q53 49 128 49q61 0 99 -29t38 -77q0 -39 -26 -63t-63 -30q33 -3 65 -29q31 -25 31 -70q0 -51 -39.5 -83t-104.5 -32q-86 0 -134 53z" />
    <glyph glyph-name="acute" unicode="&#xb4;" horiz-adv-x="216" 
d="M34 553q-6 0 -10.5 4.5t-4.5 10.5q0 3 5 11l127 118q6 6 14 6t14 -6t6 -14q0 -11 -7 -15l-133 -111q-4 -4 -11 -4z" />
    <glyph glyph-name="uni00B5" unicode="&#xb5;" horiz-adv-x="554" 
d="M533 12q0 -22 -21 -24h-11q-81 0 -93 87q-31 -39 -74 -63t-87 -24q-84 0 -114 56v-205q0 -11 -7.5 -18.5t-18.5 -7.5q-10 0 -18 7.5t-8 18.5v621q0 11 8 18.5t18 7.5q11 0 18.5 -7.5t7.5 -18.5v-305q0 -122 118 -122q43 0 87 23.5t69 58.5v345q0 11 8 18.5t18 7.5
q11 0 18.5 -7.5t7.5 -18.5v-361q0 -63 46 -64h8q20 -2 20 -23z" />
    <glyph glyph-name="paragraph" unicode="&#xb6;" horiz-adv-x="449" 
d="M330 -84v714h-93v-714q0 -19 -19 -19q-7 0 -13 5.5t-6 13.5v407q-71 0 -121.5 50.5t-50.5 121.5t50.5 121.5t121.5 50.5h137q32 0 32 -31v-720q0 -19 -19 -19q-7 0 -13 5.5t-6 13.5z" />
    <glyph glyph-name="middot" unicode="&#xb7;" horiz-adv-x="219" 
d="M65 245q0 17 13 30t31 13t31.5 -13t13.5 -30q0 -18 -13.5 -31t-31.5 -13t-31 13t-13 31z" />
    <glyph glyph-name="cedilla" unicode="&#xb8;" horiz-adv-x="198" 
d="M9 -166q-9 4 -9 15q0 18 17 18q6 0 11 -3q29 -20 68 -20q28 0 46.5 12t18.5 33q0 39 -41 39q-20 0 -34 -12q-5 -4 -12 -4q-19 0 -19 18q0 1 2 9l26 72h38l-26 -68q15 12 37 12q29 0 47.5 -18t18.5 -48q0 -35 -29 -56.5t-72 -21.5q-47 0 -88 23z" />
    <glyph glyph-name="uni00B9" unicode="&#xb9;" horiz-adv-x="211" 
d="M105 441v321l-52 -56q-5 -6 -14 -6q-8 0 -14 5.5t-6 13.5t6 14l81 83q6 8 19 8q11 0 18.5 -7.5t7.5 -18.5v-357q0 -10 -7 -16.5t-16 -6.5t-16 6.5t-7 16.5z" />
    <glyph glyph-name="ordmasculine" unicode="&#xba;" horiz-adv-x="405" 
d="M202 648q71 0 115 -47.5t44 -117.5t-44 -117.5t-115 -47.5q-69 0 -113.5 48t-44.5 117q0 70 44.5 117.5t113.5 47.5zM202 610q-51 0 -82 -35.5t-31 -91.5t31 -92t82 -36q52 0 83.5 36t31.5 92q0 55 -31.5 91t-83.5 36z" />
    <glyph glyph-name="guillemotright" unicode="&#xbb;" horiz-adv-x="402" 
d="M53 81q0 7 6 15l131 147l-131 145q-5 8 -5 14q0 8 6 14.5t15 6.5q12 0 16 -7l137 -151q9 -11 9 -22t-9 -22l-137 -154q-7 -7 -16 -7t-15.5 6.5t-6.5 14.5zM178 81q0 7 5 15l132 147l-131 145q-5 5 -5 14q0 8 6 14.5t14 6.5q12 0 16 -7l137 -151q9 -11 9 -22t-9 -22
l-137 -154q-4 -7 -16 -7q-8 0 -14.5 6.5t-6.5 14.5z" />
    <glyph glyph-name="onequarter" unicode="&#xbc;" horiz-adv-x="680" 
d="M105 287v321l-52 -56q-5 -6 -14 -6q-8 0 -14 5.5t-6 13.5t6 14l81 83q6 8 19 8q11 0 18.5 -7.5t7.5 -18.5v-357q0 -10 -7 -16.5t-16 -6.5t-16 6.5t-7 16.5zM115 -3q-8 0 -14 5.5t-6 13.5q0 6 4 11l404 634q6 9 17 9q8 0 14 -6t6 -14q0 -6 -3 -10l-406 -634q-5 -9 -16 -9z
M662 125q0 -7 -5 -12.5t-13 -5.5h-45v-88q0 -9 -6 -15.5t-16 -6.5t-16 6.5t-6 15.5v88h-176q-9 0 -16 6.5t-7 16.5q0 8 4 13l169 243q11 17 32 17q16 0 27 -11.5t11 -26.5v-221h45q18 0 18 -19zM405 144h150v215z" />
    <glyph glyph-name="onehalf" unicode="&#xbd;" horiz-adv-x="720" 
d="M105 287v321l-52 -56q-5 -6 -14 -6q-8 0 -14 5.5t-6 13.5t6 14l81 83q6 8 19 8q11 0 18.5 -7.5t7.5 -18.5v-357q0 -10 -7 -16.5t-16 -6.5t-16 6.5t-7 16.5zM115 -3q-8 0 -14 5.5t-6 13.5q0 6 4 11l404 634q6 9 17 9q8 0 14 -6t6 -14q0 -6 -3 -10l-406 -634q-5 -9 -16 -9z
M402 23q0 11 10 18q123 88 175.5 143.5t52.5 104.5q0 38 -26 58.5t-67 20.5q-65 0 -102 -40q-5 -5 -13 -5q-19 0 -19 19q0 6 5 14q50 50 130 50q58 0 97 -30t39 -85q0 -57 -51 -115t-162 -138h199q19 0 19 -19t-19 -19h-245q-9 0 -16 6.5t-7 16.5z" />
    <glyph glyph-name="threequarters" unicode="&#xbe;" horiz-adv-x="791" 
d="M36 313q-6 6 -6 14t6 13.5t14 5.5t13 -5q40 -43 106 -43q47 0 73.5 20.5t26.5 57.5q0 39 -29.5 58.5t-80.5 19.5h-23q-7 0 -12.5 5.5t-5.5 12.5q0 8 5.5 13.5t12.5 5.5h23q48 0 76 18t28 54q0 33 -27 52.5t-69 19.5q-58 0 -100 -39q-5 -5 -13 -5q-7 0 -12.5 5.5
t-5.5 12.5q0 9 6 15q53 49 128 49q61 0 99 -29t38 -77q0 -39 -26 -63t-63 -30q33 -3 65 -29q31 -25 31 -70q0 -51 -39.5 -83t-104.5 -32q-86 0 -134 53zM226 -3q-8 0 -14 5.5t-6 13.5q0 6 4 11l404 634q6 9 17 9q8 0 14 -6t6 -14q0 -6 -3 -10l-406 -634q-5 -9 -16 -9z
M773 125q0 -7 -5 -12.5t-13 -5.5h-45v-88q0 -9 -6 -15.5t-16 -6.5t-16 6.5t-6 15.5v88h-176q-9 0 -16 6.5t-7 16.5q0 8 4 13l169 243q11 17 32 17q16 0 27 -11.5t11 -26.5v-221h45q18 0 18 -19zM516 144h150v215z" />
    <glyph glyph-name="questiondown" unicode="&#xbf;" horiz-adv-x="393" 
d="M241 405q-18 0 -31 13t-13 30q0 18 13 31t31 13t31.5 -13t13.5 -31q0 -17 -13.5 -30t-31.5 -13zM192 91q-53 -36 -74.5 -62t-21.5 -63q0 -47 36.5 -77.5t98.5 -30.5q100 0 160 72q8 8 18 8q11 0 18.5 -8t7.5 -19t-7 -18q-76 -87 -201 -87q-86 0 -138.5 44.5t-52.5 109.5
q0 40 16 68t37 47t63 49q49 33 68.5 55t19.5 52q0 16 -17 35q-3 4 -3 11q0 10 7 17.5t18 7.5q12 0 19 -10q28 -28 28 -64q-3 -46 -23.5 -71.5t-76.5 -65.5z" />
    <glyph glyph-name="Agrave" unicode="&#xc0;" horiz-adv-x="647" 
d="M619 27q0 -12 -8.5 -21t-21.5 -9q-21 0 -28 19l-59 148h-357l-59 -148q-7 -19 -28 -19q-13 0 -21.5 9t-8.5 21q0 5 3 12l246 600q11 31 46 31q34 0 47 -31l246 -600q3 -9 3 -12zM166 216h315l-158 395zM306 724l-133 111q-7 4 -7 15q0 8 6 14t14 6q7 0 13 -6l127 -118
q5 -5 5 -11t-4.5 -10.5t-10.5 -4.5t-10 4z" />
    <glyph glyph-name="Aacute" unicode="&#xc1;" horiz-adv-x="647" 
d="M619 27q0 -12 -8.5 -21t-21.5 -9q-21 0 -28 19l-59 148h-357l-59 -148q-7 -19 -28 -19q-13 0 -21.5 9t-8.5 21q0 5 3 12l246 600q11 31 46 31q34 0 47 -31l246 -600q3 -9 3 -12zM166 216h315l-158 395zM330 720q-6 0 -10.5 4.5t-4.5 10.5q0 3 5 11l127 118q6 6 14 6
t14 -6t6 -14q0 -11 -7 -15l-133 -111q-4 -4 -11 -4z" />
    <glyph glyph-name="Acircumflex" unicode="&#xc2;" horiz-adv-x="647" 
d="M619 27q0 -12 -8.5 -21t-21.5 -9q-21 0 -28 19l-59 148h-357l-59 -148q-7 -19 -28 -19q-13 0 -21.5 9t-8.5 21q0 5 3 12l246 600q11 31 46 31q34 0 47 -31l246 -600q3 -9 3 -12zM166 216h315l-158 395zM410 722l-85 114l-86 -114q-6 -6 -12 -6q-7 0 -12 5t-5 12q0 1 2 9
l80 116q8 15 28 15h9q21 0 29 -15l79 -116q3 -4 3 -9q0 -7 -5.5 -12t-12.5 -5q-6 0 -12 6z" />
    <glyph glyph-name="Atilde" unicode="&#xc3;" horiz-adv-x="647" 
d="M619 27q0 -12 -8.5 -21t-21.5 -9q-21 0 -28 19l-59 148h-357l-59 -148q-7 -19 -28 -19q-13 0 -21.5 9t-8.5 21q0 5 3 12l246 600q11 31 46 31q34 0 47 -31l246 -600q3 -9 3 -12zM166 216h315l-158 395zM309 779q-14 24 -24.5 34.5t-25.5 10.5q-22 0 -36.5 -21.5
t-16.5 -62.5q-2 -16 -18 -16q-7 0 -12.5 6t-4.5 13q4 54 28.5 86t63.5 32q25 0 40.5 -13t34.5 -45q16 -25 25.5 -34.5t24.5 -9.5q22 0 36.5 21t16.5 62q2 16 18 16q7 0 12.5 -5.5t4.5 -13.5q-4 -54 -28 -86t-63 -32q-26 0 -41 12.5t-35 45.5z" />
    <glyph glyph-name="Adieresis" unicode="&#xc4;" horiz-adv-x="647" 
d="M619 27q0 -12 -8.5 -21t-21.5 -9q-21 0 -28 19l-59 148h-357l-59 -148q-7 -19 -28 -19q-13 0 -21.5 9t-8.5 21q0 5 3 12l246 600q11 31 46 31q34 0 47 -31l246 -600q3 -9 3 -12zM166 216h315l-158 395zM184 773q0 15 11 26t26 11t26 -11t11 -26q0 -16 -11 -27t-26 -11
t-26 11t-11 27zM388 773q0 15 11 26t26 11t26.5 -11t11.5 -26q0 -16 -11.5 -27t-26.5 -11t-26 11t-11 27z" />
    <glyph glyph-name="Aring" unicode="&#xc5;" horiz-adv-x="647" 
d="M619 27q0 -12 -8.5 -21t-21.5 -9q-21 0 -28 19l-59 148h-357l-59 -148q-7 -19 -28 -19q-13 0 -21.5 9t-8.5 21q0 5 3 12l246 600q11 31 46 31q34 0 47 -31l246 -600q3 -9 3 -12zM166 216h315l-158 395zM324 907q39 0 66.5 -28.5t27.5 -67.5q0 -40 -27.5 -68t-66.5 -28
q-40 0 -68 28t-28 68q0 39 28 67.5t68 28.5zM324 875q-26 0 -45 -19t-19 -45t19 -45t45 -19t44.5 19t18.5 45t-18.5 45t-44.5 19z" />
    <glyph glyph-name="AE" unicode="&#xc6;" horiz-adv-x="939" 
d="M882 26q0 -10 -7.5 -18t-18.5 -8h-368q-32 0 -32 31v133h-276l-95 -154q-7 -13 -24 -13q-11 0 -19 8t-8 20q0 5 4 14l383 607q13 21 38 21h397q11 0 18.5 -7.5t7.5 -18.5q0 -10 -7.5 -18t-18.5 -8h-342v-247h335q11 0 18.5 -7.5t7.5 -18.5q0 -10 -7.5 -18t-18.5 -8h-335
v-264h342q11 0 18.5 -7.5t7.5 -18.5zM212 216h244v396z" />
    <glyph glyph-name="Ccedilla" unicode="&#xc7;" horiz-adv-x="669" 
d="M628 103q0 -13 -8 -19q-88 -91 -215 -96l-17 -45q15 12 37 12q29 0 47.5 -18t18.5 -48q0 -35 -29 -56.5t-72 -21.5q-47 0 -88 23q-9 4 -9 15q0 18 17 18q6 0 11 -3q29 -20 68 -20q28 0 46.5 12t18.5 33q0 39 -41 39q-21 0 -34 -12q-5 -4 -12 -4q-19 0 -19 18q0 1 2 9
l18 50q-131 7 -221.5 105t-88.5 239q-3 148 96 247.5t240 97.5q136 0 226 -95q7 -7 7 -19t-8 -20t-20 -8q-13 0 -21 9q-71 81 -184 81q-116 2 -197 -82.5t-79 -210.5q-2 -124 79 -209.5t197 -83.5q114 0 185 82q7 9 20 9q12 0 20.5 -8.5t8.5 -19.5z" />
    <glyph glyph-name="Egrave" unicode="&#xc8;" horiz-adv-x="564" 
d="M83 31v605q0 31 31 31h369q11 0 18.5 -7.5t7.5 -18.5q0 -10 -7.5 -18t-18.5 -8h-343v-247h336q11 0 18.5 -7.5t7.5 -18.5q0 -10 -7.5 -18t-18.5 -8h-336v-264h343q11 0 18.5 -7.5t7.5 -18.5q0 -10 -7.5 -18t-18.5 -8h-369q-31 0 -31 31zM282 724l-133 111q-7 4 -7 15
q0 8 6 14t14 6q7 0 13 -6l127 -118q5 -5 5 -11t-4.5 -10.5t-10.5 -4.5t-10 4z" />
    <glyph glyph-name="Eacute" unicode="&#xc9;" horiz-adv-x="564" 
d="M83 31v605q0 31 31 31h369q11 0 18.5 -7.5t7.5 -18.5q0 -10 -7.5 -18t-18.5 -8h-343v-247h336q11 0 18.5 -7.5t7.5 -18.5q0 -10 -7.5 -18t-18.5 -8h-336v-264h343q11 0 18.5 -7.5t7.5 -18.5q0 -10 -7.5 -18t-18.5 -8h-369q-31 0 -31 31zM306 720q-6 0 -10.5 4.5
t-4.5 10.5q0 3 5 11l127 118q6 6 14 6t14 -6t6 -14q0 -11 -7 -15l-133 -111q-4 -4 -11 -4z" />
    <glyph glyph-name="Ecircumflex" unicode="&#xca;" horiz-adv-x="564" 
d="M83 31v605q0 31 31 31h369q11 0 18.5 -7.5t7.5 -18.5q0 -10 -7.5 -18t-18.5 -8h-343v-247h336q11 0 18.5 -7.5t7.5 -18.5q0 -10 -7.5 -18t-18.5 -8h-336v-264h343q11 0 18.5 -7.5t7.5 -18.5q0 -10 -7.5 -18t-18.5 -8h-369q-31 0 -31 31zM386 722l-85 114l-86 -114
q-6 -6 -12 -6q-7 0 -12 5t-5 12q0 1 2 9l80 116q8 15 28 15h9q21 0 29 -15l79 -116q3 -4 3 -9q0 -7 -5.5 -12t-12.5 -5q-6 0 -12 6z" />
    <glyph glyph-name="Edieresis" unicode="&#xcb;" horiz-adv-x="564" 
d="M83 31v605q0 31 31 31h369q11 0 18.5 -7.5t7.5 -18.5q0 -10 -7.5 -18t-18.5 -8h-343v-247h336q11 0 18.5 -7.5t7.5 -18.5q0 -10 -7.5 -18t-18.5 -8h-336v-264h343q11 0 18.5 -7.5t7.5 -18.5q0 -10 -7.5 -18t-18.5 -8h-369q-31 0 -31 31zM159 773q0 15 11 26t26 11t26 -11
t11 -26q0 -16 -11 -27t-26 -11t-26 11t-11 27zM363 773q0 15 11 26t26 11t26.5 -11t11.5 -26q0 -16 -11.5 -27t-26.5 -11t-26 11t-11 27z" />
    <glyph glyph-name="Igrave" unicode="&#xcc;" horiz-adv-x="223" 
d="M83 26v615q0 12 8.5 20.5t20.5 8.5t20 -8.5t8 -20.5v-615q0 -12 -8 -20.5t-20 -8.5t-20.5 9t-8.5 20zM94 724l-133 111q-7 4 -7 15q0 8 6 14t14 6q7 0 13 -6l127 -118q5 -5 5 -11t-4.5 -10.5t-10.5 -4.5t-10 4z" />
    <glyph glyph-name="Iacute" unicode="&#xcd;" horiz-adv-x="223" 
d="M83 26v615q0 12 8.5 20.5t20.5 8.5t20 -8.5t8 -20.5v-615q0 -12 -8 -20.5t-20 -8.5t-20.5 9t-8.5 20zM119 720q-6 0 -10.5 4.5t-4.5 10.5q0 3 5 11l127 118q6 6 14 6t14 -6t6 -14q0 -11 -7 -15l-133 -111q-4 -4 -11 -4z" />
    <glyph glyph-name="Icircumflex" unicode="&#xce;" horiz-adv-x="223" 
d="M83 26v615q0 12 8.5 20.5t20.5 8.5t20 -8.5t8 -20.5v-615q0 -12 -8 -20.5t-20 -8.5t-20.5 9t-8.5 20zM198 722l-85 114l-86 -114q-6 -6 -12 -6q-7 0 -12 5t-5 12q0 1 2 9l80 116q8 15 28 15h9q21 0 29 -15l79 -116q3 -4 3 -9q0 -7 -5.5 -12t-12.5 -5q-6 0 -12 6z" />
    <glyph glyph-name="Idieresis" unicode="&#xcf;" horiz-adv-x="223" 
d="M83 26v615q0 12 8.5 20.5t20.5 8.5t20 -8.5t8 -20.5v-615q0 -12 -8 -20.5t-20 -8.5t-20.5 9t-8.5 20zM-28 773q0 15 11 26t26 11t26 -11t11 -26q0 -16 -11 -27t-26 -11t-26 11t-11 27zM176 773q0 15 11 26t26 11t26.5 -11t11.5 -26q0 -16 -11.5 -27t-26.5 -11t-26 11
t-11 27z" />
    <glyph glyph-name="Eth" unicode="&#xd0;" horiz-adv-x="721" 
d="M663 333q2 -141 -93.5 -238t-244.5 -95h-181q-32 0 -32 31v276h-81q-9 0 -16 7t-7 17t7 16.5t16 6.5h81v282q0 31 32 31h181q149 2 244.5 -96t93.5 -238zM602 333q0 122 -75 202t-202 80h-155v-261h159q9 0 16 -6.5t7 -16.5t-7 -17t-16 -7h-159v-255h155q127 0 202 79.5
t75 201.5z" />
    <glyph glyph-name="Ntilde" unicode="&#xd1;" horiz-adv-x="699" 
d="M551 12l-411 564v-550q0 -12 -8 -20.5t-20 -8.5t-20.5 9t-8.5 20v606q0 16 10.5 27t26.5 11q21 0 31 -16l408 -555v542q0 12 8 20.5t20 8.5t20.5 -8.5t8.5 -20.5v-608q0 -14 -10.5 -25t-24.5 -11q-19 0 -30 15zM336 779q-14 24 -24.5 34.5t-25.5 10.5q-48 0 -53 -84
q-2 -16 -18 -16q-7 0 -12.5 6t-4.5 13q4 54 28.5 86t63.5 32q25 0 40.5 -13t34.5 -45q16 -25 25.5 -34.5t24.5 -9.5q22 0 36.5 21t16.5 62q2 16 18 16q7 0 12.5 -5.5t4.5 -13.5q-4 -54 -28 -86t-63 -32q-26 0 -41 12.5t-35 45.5z" />
    <glyph glyph-name="Ograve" unicode="&#xd2;" horiz-adv-x="764" 
d="M382 678q141 2 233.5 -98.5t90.5 -246.5q2 -146 -90.5 -247t-233.5 -98q-141 -3 -233.5 97.5t-90.5 247.5q-2 147 90.5 247t233.5 98zM382 626q-119 0 -191.5 -82t-72.5 -211q0 -128 73 -210.5t191 -82.5q117 0 190.5 83t73.5 210q0 129 -73 211t-191 82zM364 724
l-133 111q-7 4 -7 15q0 8 6 14t14 6q7 0 13 -6l127 -118q5 -5 5 -11t-4.5 -10.5t-10.5 -4.5t-10 4z" />
    <glyph glyph-name="Oacute" unicode="&#xd3;" horiz-adv-x="764" 
d="M382 678q141 2 233.5 -98.5t90.5 -246.5q2 -146 -90.5 -247t-233.5 -98q-141 -3 -233.5 97.5t-90.5 247.5q-2 147 90.5 247t233.5 98zM382 626q-119 0 -191.5 -82t-72.5 -211q0 -128 73 -210.5t191 -82.5q117 0 190.5 83t73.5 210q0 129 -73 211t-191 82zM389 720
q-6 0 -10.5 4.5t-4.5 10.5q0 3 5 11l127 118q6 6 14 6t14 -6t6 -14q0 -11 -7 -15l-133 -111q-4 -4 -11 -4z" />
    <glyph glyph-name="Ocircumflex" unicode="&#xd4;" horiz-adv-x="764" 
d="M382 678q141 2 233.5 -98.5t90.5 -246.5q2 -146 -90.5 -247t-233.5 -98q-141 -3 -233.5 97.5t-90.5 247.5q-2 147 90.5 247t233.5 98zM382 626q-119 0 -191.5 -82t-72.5 -211q0 -128 73 -210.5t191 -82.5q117 0 190.5 83t73.5 210q0 129 -73 211t-191 82zM468 722
l-85 114l-86 -114q-6 -6 -12 -6q-7 0 -12 5t-5 12q0 1 2 9l80 116q8 15 28 15h9q21 0 29 -15l79 -116q3 -4 3 -9q0 -7 -5.5 -12t-12.5 -5q-6 0 -12 6z" />
    <glyph glyph-name="Otilde" unicode="&#xd5;" horiz-adv-x="764" 
d="M382 678q141 2 233.5 -98.5t90.5 -246.5q2 -146 -90.5 -247t-233.5 -98q-141 -3 -233.5 97.5t-90.5 247.5q-2 147 90.5 247t233.5 98zM382 626q-119 0 -191.5 -82t-72.5 -211q0 -128 73 -210.5t191 -82.5q117 0 190.5 83t73.5 210q0 129 -73 211t-191 82zM368 779
q-14 24 -24.5 34.5t-25.5 10.5q-48 0 -53 -84q-2 -16 -18 -16q-7 0 -12.5 6t-4.5 13q4 54 28.5 86t63.5 32q25 0 40.5 -13t34.5 -45q16 -25 25.5 -34.5t24.5 -9.5q22 0 36.5 21t16.5 62q2 16 18 16q7 0 12.5 -5.5t4.5 -13.5q-4 -54 -28 -86t-63 -32q-26 0 -41 12.5t-35 45.5
z" />
    <glyph glyph-name="Odieresis" unicode="&#xd6;" horiz-adv-x="764" 
d="M382 678q141 2 233.5 -98.5t90.5 -246.5q2 -146 -90.5 -247t-233.5 -98q-141 -3 -233.5 97.5t-90.5 247.5q-2 147 90.5 247t233.5 98zM382 626q-119 0 -191.5 -82t-72.5 -211q0 -128 73 -210.5t191 -82.5q117 0 190.5 83t73.5 210q0 129 -73 211t-191 82zM242 773
q0 15 11 26t26 11t26 -11t11 -26q0 -16 -11 -27t-26 -11t-26 11t-11 27zM446 773q0 15 11 26t26 11t26.5 -11t11.5 -26q0 -16 -11.5 -27t-26.5 -11t-26 11t-11 27z" />
    <glyph glyph-name="multiply" unicode="&#xd7;" horiz-adv-x="496" 
d="M248 305l-139 -140q-8 -5 -14 -5q-9 0 -15 6t-6 14t6 14l139 140l-139 139q-6 7 -6 15t6 14t15 6t14 -5l139 -140l140 140q5 5 14 5q8 0 14.5 -6t6.5 -14t-6 -15l-140 -139l140 -140q6 -6 6 -14t-6.5 -14t-14.5 -6q-9 0 -14 5z" />
    <glyph glyph-name="Oslash" unicode="&#xd8;" horiz-adv-x="764" 
d="M706 333q2 -146 -90.5 -247t-233.5 -98q-107 0 -188 57l-61 -84q-7 -9 -16 -9q-7 0 -12.5 5.5t-5.5 12.5q0 4 5 12l62 86q-108 99 -108 265q-2 147 90.5 247t233.5 98q105 0 184 -55l61 84q8 8 16 8q18 0 18 -18q0 -8 -4 -12l-62 -85q111 -100 111 -267zM199 113l336 466
q-67 47 -153 47q-119 0 -191.5 -82t-72.5 -211q0 -137 81 -220zM646 333q0 141 -83 222l-337 -466q65 -49 156 -49q117 0 190.5 83t73.5 210z" />
    <glyph glyph-name="Ugrave" unicode="&#xd9;" horiz-adv-x="686" 
d="M83 256v385q0 12 8.5 20.5t20.5 8.5t20.5 -8.5t8.5 -20.5v-384q0 -102 53 -159.5t149 -57.5q98 0 150 57t52 160v384q0 12 8.5 20.5t20.5 8.5q13 0 21 -8.5t8 -20.5v-385q0 -127 -67 -197.5t-193 -70.5q-125 0 -192.5 71t-67.5 197zM326 724l-133 111q-7 4 -7 15
q0 8 6 14t14 6q7 0 13 -6l127 -118q5 -5 5 -11t-4.5 -10.5t-10.5 -4.5t-10 4z" />
    <glyph glyph-name="Uacute" unicode="&#xda;" horiz-adv-x="686" 
d="M83 256v385q0 12 8.5 20.5t20.5 8.5t20.5 -8.5t8.5 -20.5v-384q0 -102 53 -159.5t149 -57.5q98 0 150 57t52 160v384q0 12 8.5 20.5t20.5 8.5q13 0 21 -8.5t8 -20.5v-385q0 -127 -67 -197.5t-193 -70.5q-125 0 -192.5 71t-67.5 197zM350 720q-6 0 -10.5 4.5t-4.5 10.5
q0 3 5 11l127 118q6 6 14 6t14 -6t6 -14q0 -11 -7 -15l-133 -111q-4 -4 -11 -4z" />
    <glyph glyph-name="Ucircumflex" unicode="&#xdb;" horiz-adv-x="686" 
d="M83 256v385q0 12 8.5 20.5t20.5 8.5t20.5 -8.5t8.5 -20.5v-384q0 -102 53 -159.5t149 -57.5q98 0 150 57t52 160v384q0 12 8.5 20.5t20.5 8.5q13 0 21 -8.5t8 -20.5v-385q0 -127 -67 -197.5t-193 -70.5q-125 0 -192.5 71t-67.5 197zM430 722l-85 114l-86 -114
q-6 -6 -12 -6q-7 0 -12 5t-5 12q0 1 2 9l80 116q8 15 28 15h9q21 0 29 -15l79 -116q3 -4 3 -9q0 -7 -5.5 -12t-12.5 -5q-6 0 -12 6z" />
    <glyph glyph-name="Udieresis" unicode="&#xdc;" horiz-adv-x="686" 
d="M83 256v385q0 12 8.5 20.5t20.5 8.5t20.5 -8.5t8.5 -20.5v-384q0 -102 53 -159.5t149 -57.5q98 0 150 57t52 160v384q0 12 8.5 20.5t20.5 8.5q13 0 21 -8.5t8 -20.5v-385q0 -127 -67 -197.5t-193 -70.5q-125 0 -192.5 71t-67.5 197zM204 773q0 15 11 26t26 11t26 -11
t11 -26q0 -16 -11 -27t-26 -11t-26 11t-11 27zM408 773q0 15 11 26t26 11t26.5 -11t11.5 -26q0 -16 -11.5 -27t-26.5 -11t-26 11t-11 27z" />
    <glyph glyph-name="Yacute" unicode="&#xdd;" horiz-adv-x="618" 
d="M575 626l-237 -340v-260q0 -11 -8.5 -20t-20.5 -9t-20.5 9t-8.5 20v259l-237 340q-5 8 -5 17q0 11 8.5 19.5t20.5 8.5q17 0 24 -12l218 -321l218 321q7 12 24 12q12 0 20.5 -8.5t8.5 -19.5t-5 -16zM316 720q-6 0 -10.5 4.5t-4.5 10.5q0 3 5 11l127 118q6 6 14 6t14 -6
t6 -14q0 -11 -7 -15l-133 -111q-4 -4 -11 -4z" />
    <glyph glyph-name="Thorn" unicode="&#xde;" 
d="M83 26v615q0 12 8.5 20.5t20.5 8.5t20 -8.5t8 -20.5v-98h193q91 0 146 -56.5t55 -139.5t-55 -138.5t-146 -55.5h-193v-127q0 -12 -8 -20.5t-20 -8.5t-20.5 9t-8.5 20zM327 491h-187v-286h187q66 0 106.5 39.5t40.5 102.5t-41 103.5t-106 40.5z" />
    <glyph glyph-name="germandbls" unicode="&#xdf;" horiz-adv-x="540" 
d="M486 178q0 -86 -54 -139q-54 -51 -140 -51q-58 0 -107 27q-13 7 -13 21q0 10 6.5 16.5t16.5 6.5q7 0 20 -7q38 -18 76 -18q64 0 102 39t38 106q0 72 -54.5 116t-154.5 44q-22 2 -22 22q0 8 6 14.5t14 7.5q74 5 114 41t40 91t-37 85t-84 30q-64 0 -100.5 -38t-36.5 -112
v-457q0 -10 -7.5 -18t-18.5 -8q-10 0 -18 8t-8 18v457q0 90 52 143.5t137 53.5q72 0 124.5 -44.5t52.5 -114.5q0 -54 -34.5 -96t-91.5 -56q82 -11 131 -63q51 -52 51 -125z" />
    <glyph glyph-name="agrave" unicode="&#xe0;" horiz-adv-x="521" 
d="M440 340v-317q0 -10 -7.5 -18t-18.5 -8q-10 0 -18 8t-8 18v36q-62 -71 -164 -71q-69 0 -119 44t-50 117t50 116.5t119 43.5q102 0 164 -69v98q0 51 -36.5 81t-93.5 30q-79 0 -136 -57q-8 -5 -15 -5q-10 0 -16.5 6.5t-6.5 16.5q0 11 8 17q69 68 172 68q80 0 128 -40
t48 -115zM388 95v106q-50 67 -146 67q-59 0 -95.5 -34t-36.5 -86t36.5 -85.5t95.5 -33.5q95 0 146 66zM247 577l-133 111q-7 4 -7 15q0 8 6 14t14 6q7 0 13 -6l127 -118q5 -5 5 -11t-4.5 -10.5t-10.5 -4.5t-10 4z" />
    <glyph glyph-name="aacute" unicode="&#xe1;" horiz-adv-x="521" 
d="M440 340v-317q0 -10 -7.5 -18t-18.5 -8q-10 0 -18 8t-8 18v36q-62 -71 -164 -71q-69 0 -119 44t-50 117t50 116.5t119 43.5q102 0 164 -69v98q0 51 -36.5 81t-93.5 30q-79 0 -136 -57q-8 -5 -15 -5q-10 0 -16.5 6.5t-6.5 16.5q0 11 8 17q69 68 172 68q80 0 128 -40
t48 -115zM388 95v106q-50 67 -146 67q-59 0 -95.5 -34t-36.5 -86t36.5 -85.5t95.5 -33.5q95 0 146 66zM272 573q-6 0 -10.5 4.5t-4.5 10.5q0 3 5 11l127 118q6 6 14 6t14 -6t6 -14q0 -11 -7 -15l-133 -111q-4 -4 -11 -4z" />
    <glyph glyph-name="acircumflex" unicode="&#xe2;" horiz-adv-x="521" 
d="M440 340v-317q0 -10 -7.5 -18t-18.5 -8q-10 0 -18 8t-8 18v36q-62 -71 -164 -71q-69 0 -119 44t-50 117t50 116.5t119 43.5q102 0 164 -69v98q0 51 -36.5 81t-93.5 30q-79 0 -136 -57q-8 -5 -15 -5q-10 0 -16.5 6.5t-6.5 16.5q0 11 8 17q69 68 172 68q80 0 128 -40
t48 -115zM388 95v106q-50 67 -146 67q-59 0 -95.5 -34t-36.5 -86t36.5 -85.5t95.5 -33.5q95 0 146 66zM351 575l-85 114l-86 -114q-6 -6 -12 -6q-7 0 -12 5t-5 12q0 1 2 9l80 116q8 15 28 15h9q21 0 29 -15l79 -116q3 -5 3 -9q0 -7 -5.5 -12t-12.5 -5q-6 0 -12 6z" />
    <glyph glyph-name="atilde" unicode="&#xe3;" horiz-adv-x="521" 
d="M440 340v-317q0 -10 -7.5 -18t-18.5 -8q-10 0 -18 8t-8 18v36q-62 -71 -164 -71q-69 0 -119 44t-50 117t50 116.5t119 43.5q102 0 164 -69v98q0 51 -36.5 81t-93.5 30q-79 0 -136 -57q-8 -5 -15 -5q-10 0 -16.5 6.5t-6.5 16.5q0 11 8 17q69 68 172 68q80 0 128 -40
t48 -115zM388 95v106q-50 67 -146 67q-59 0 -95.5 -34t-36.5 -86t36.5 -85.5t95.5 -33.5q95 0 146 66zM251 632q-14 24 -24.5 34.5t-25.5 10.5q-22 0 -36.5 -21.5t-16.5 -62.5q-2 -16 -18 -16q-7 0 -12.5 6t-4.5 13q4 54 28.5 86t63.5 32q25 0 40.5 -13t34.5 -45
q16 -25 25.5 -34.5t24.5 -9.5q22 0 36.5 21t16.5 62q2 16 18 16q7 0 12.5 -5.5t4.5 -13.5q-4 -54 -28 -86t-63 -32q-26 0 -41 12.5t-35 45.5z" />
    <glyph glyph-name="adieresis" unicode="&#xe4;" horiz-adv-x="521" 
d="M440 340v-317q0 -10 -7.5 -18t-18.5 -8q-10 0 -18 8t-8 18v36q-62 -71 -164 -71q-69 0 -119 44t-50 117t50 116.5t119 43.5q102 0 164 -69v98q0 51 -36.5 81t-93.5 30q-79 0 -136 -57q-8 -5 -15 -5q-10 0 -16.5 6.5t-6.5 16.5q0 11 8 17q69 68 172 68q80 0 128 -40
t48 -115zM388 95v106q-50 67 -146 67q-59 0 -95.5 -34t-36.5 -86t36.5 -85.5t95.5 -33.5q95 0 146 66zM125 626q0 15 11 26t26 11t26 -11t11 -26q0 -16 -11 -27t-26 -11t-26 11t-11 27zM329 626q0 15 11 26t26 11t26.5 -11t11.5 -26q0 -16 -11.5 -27t-26.5 -11t-26 11
t-11 27z" />
    <glyph glyph-name="aring" unicode="&#xe5;" horiz-adv-x="521" 
d="M440 340v-317q0 -10 -7.5 -18t-18.5 -8q-10 0 -18 8t-8 18v36q-62 -71 -164 -71q-69 0 -119 44t-50 117t50 116.5t119 43.5q102 0 164 -69v98q0 51 -36.5 81t-93.5 30q-79 0 -136 -57q-8 -5 -15 -5q-10 0 -16.5 6.5t-6.5 16.5q0 11 8 17q69 68 172 68q80 0 128 -40
t48 -115zM388 95v106q-50 67 -146 67q-59 0 -95.5 -34t-36.5 -86t36.5 -85.5t95.5 -33.5q95 0 146 66zM266 760q39 0 66.5 -28.5t27.5 -67.5q0 -40 -27.5 -68t-66.5 -28q-40 0 -68 28t-28 68q0 39 28 67.5t68 28.5zM266 728q-26 0 -45 -19t-19 -45t19 -45t45 -19t44.5 19
t18.5 45t-18.5 45t-44.5 19z" />
    <glyph glyph-name="ae" unicode="&#xe6;" horiz-adv-x="897" 
d="M639 33q77 0 135 54q5 5 13 5q9 0 15.5 -6.5t6.5 -15.5q0 -6 -8 -17q-71 -65 -162 -65q-67 0 -118 33t-78 96q-23 -59 -75.5 -94t-119.5 -35q-85 0 -139 43.5t-54 117.5t52 117t127 43q112 0 179 -67v96q0 53 -38 82t-103 29q-88 0 -150 -58q-8 -5 -14 -5q-10 0 -17 7
t-7 17t9 18q73 67 187 67q67 0 114 -29t56 -86q27 53 74 84t106 31q98 0 156 -70.5t58 -170.5q0 -29 -31 -29h-348q5 -83 52 -137.5t122 -54.5zM628 450q-72 0 -116 -56t-47 -128h326q0 73 -43 128.5t-120 55.5zM254 268q-65 0 -104.5 -33t-39.5 -84q0 -52 39.5 -85
t104.5 -33q68 0 113.5 45.5t45.5 105.5v16q-56 68 -159 68z" />
    <glyph glyph-name="ccedilla" unicode="&#xe7;" horiz-adv-x="494" 
d="M451 71q0 -11 -7 -18q-58 -60 -140 -65l-17 -45q15 12 37 12q29 0 47.5 -18t18.5 -48q0 -35 -29 -56.5t-72 -21.5q-51 0 -88 23q-9 4 -9 15q0 18 17 18q5 0 11 -3q29 -20 68 -20q28 0 46.5 12.5t18.5 32.5q0 39 -41 39q-20 0 -35 -12q-4 -4 -11 -4q-19 0 -19 18q0 1 2 9
l18 50q-96 7 -155 78.5t-59 174.5q0 107 66 180t169 73q95 0 156 -65q7 -8 7 -17q0 -10 -6.5 -17t-17.5 -7q-10 0 -16 7q-49 52 -120 52q-82 0 -132 -58.5t-50 -147.5t50 -148t132 -59q72 0 119 53q7 7 17 7q24 0 24 -24z" />
    <glyph glyph-name="egrave" unicode="&#xe8;" horiz-adv-x="567" 
d="M286 495q103 0 165.5 -70.5t62.5 -170.5q0 -29 -31 -29h-373q5 -83 56.5 -137.5t132.5 -54.5q84 0 145 55q4 4 13 4t15 -6t6 -16q0 -9 -8 -17q-74 -65 -175 -65q-106 0 -174 71.5t-68 182.5q0 105 67.5 179t165.5 74zM110 266h351q-2 73 -48.5 128.5t-127.5 55.5
q-77 0 -124.5 -55.5t-50.5 -128.5zM268 577l-133 111q-7 4 -7 15q0 8 6 14t14 6q7 0 13 -6l127 -118q5 -5 5 -11t-4.5 -10.5t-10.5 -4.5t-10 4z" />
    <glyph glyph-name="eacute" unicode="&#xe9;" horiz-adv-x="567" 
d="M286 495q103 0 165.5 -70.5t62.5 -170.5q0 -29 -31 -29h-373q5 -83 56.5 -137.5t132.5 -54.5q84 0 145 55q4 4 13 4t15 -6t6 -16q0 -9 -8 -17q-74 -65 -175 -65q-106 0 -174 71.5t-68 182.5q0 105 67.5 179t165.5 74zM110 266h351q-2 73 -48.5 128.5t-127.5 55.5
q-77 0 -124.5 -55.5t-50.5 -128.5zM292 573q-6 0 -10.5 4.5t-4.5 10.5q0 3 5 11l127 118q6 6 14 6t14 -6t6 -14q0 -11 -7 -15l-133 -111q-4 -4 -11 -4z" />
    <glyph glyph-name="ecircumflex" unicode="&#xea;" horiz-adv-x="567" 
d="M286 495q103 0 165.5 -70.5t62.5 -170.5q0 -29 -31 -29h-373q5 -83 56.5 -137.5t132.5 -54.5q84 0 145 55q4 4 13 4t15 -6t6 -16q0 -9 -8 -17q-74 -65 -175 -65q-106 0 -174 71.5t-68 182.5q0 105 67.5 179t165.5 74zM110 266h351q-2 73 -48.5 128.5t-127.5 55.5
q-77 0 -124.5 -55.5t-50.5 -128.5zM372 575l-85 114l-86 -114q-6 -6 -12 -6q-7 0 -12 5t-5 12q0 1 2 9l80 116q8 15 28 15h9q21 0 29 -15l79 -116q3 -5 3 -9q0 -7 -5.5 -12t-12.5 -5q-6 0 -12 6z" />
    <glyph glyph-name="edieresis" unicode="&#xeb;" horiz-adv-x="567" 
d="M286 495q103 0 165.5 -70.5t62.5 -170.5q0 -29 -31 -29h-373q5 -83 56.5 -137.5t132.5 -54.5q84 0 145 55q4 4 13 4t15 -6t6 -16q0 -9 -8 -17q-74 -65 -175 -65q-106 0 -174 71.5t-68 182.5q0 105 67.5 179t165.5 74zM110 266h351q-2 73 -48.5 128.5t-127.5 55.5
q-77 0 -124.5 -55.5t-50.5 -128.5zM146 626q0 15 11 26t26 11t26 -11t11 -26q0 -16 -11 -27t-26 -11t-26 11t-11 27zM350 626q0 15 11 26t26 11t26.5 -11t11.5 -26q0 -16 -11.5 -27t-26.5 -11t-26 11t-11 27z" />
    <glyph glyph-name="igrave" unicode="&#xec;" horiz-adv-x="214" 
d="M81 23v437q0 11 8 18.5t18 7.5q11 0 18.5 -7.5t7.5 -18.5v-437q0 -10 -7.5 -18t-18.5 -8q-10 0 -18 8t-8 18zM89 577l-133 111q-7 4 -7 15q0 8 6 14t14 6q7 0 13 -6l127 -118q5 -5 5 -11t-4.5 -10.5t-10.5 -4.5t-10 4z" />
    <glyph glyph-name="iacute" unicode="&#xed;" horiz-adv-x="214" 
d="M81 23v437q0 11 8 18.5t18 7.5q11 0 18.5 -7.5t7.5 -18.5v-437q0 -10 -7.5 -18t-18.5 -8q-10 0 -18 8t-8 18zM114 573q-6 0 -10.5 4.5t-4.5 10.5q0 3 5 11l127 118q6 6 14 6t14 -6t6 -14q0 -11 -7 -15l-133 -111q-4 -4 -11 -4z" />
    <glyph glyph-name="icircumflex" unicode="&#xee;" horiz-adv-x="214" 
d="M81 23v437q0 11 8 18.5t18 7.5q11 0 18.5 -7.5t7.5 -18.5v-437q0 -10 -7.5 -18t-18.5 -8q-10 0 -18 8t-8 18zM193 575l-85 114l-86 -114q-6 -6 -12 -6q-7 0 -12 5t-5 12q0 1 2 9l80 116q8 15 28 15h9q21 0 29 -15l79 -116q3 -5 3 -9q0 -7 -5.5 -12t-12.5 -5q-6 0 -12 6z
" />
    <glyph glyph-name="idieresis" unicode="&#xef;" horiz-adv-x="214" 
d="M81 23v437q0 11 8 18.5t18 7.5q11 0 18.5 -7.5t7.5 -18.5v-437q0 -10 -7.5 -18t-18.5 -8q-10 0 -18 8t-8 18zM-33 626q0 15 11 26t26 11t26 -11t11 -26q0 -16 -11 -27t-26 -11t-26 11t-11 27zM171 626q0 15 11 26t26 11t26.5 -11t11.5 -26q0 -16 -11.5 -27t-26.5 -11
t-26 11t-11 27z" />
    <glyph glyph-name="eth" unicode="&#xf0;" 
d="M518 244q0 -111 -64.5 -183.5t-168.5 -72.5q-102 0 -167 71.5t-65 178.5t62.5 178t160.5 71q94 0 157 -87q-52 89 -161 173l-127 -57q-2 -1 -8 -1q-18 0 -18 18q0 13 10 17l108 48l-59 39q-13 9 -13 23q0 11 8 18.5t19 7.5q8 0 14 -3q36 -22 88 -61l94 42q4 2 8 2
q7 0 12.5 -5.5t5.5 -12.5q0 -14 -11 -17l-77 -34q192 -162 192 -353zM462 238q0 84 -48.5 143t-128.5 59q-79 0 -127.5 -59t-48.5 -143t48.5 -143.5t127.5 -59.5q80 0 128.5 59t48.5 144z" />
    <glyph glyph-name="ntilde" unicode="&#xf1;" horiz-adv-x="540" 
d="M459 338v-315q0 -10 -7.5 -18t-18.5 -8q-10 0 -18 8t-8 18v304q0 64 -29 92.5t-88 28.5q-44 0 -88.5 -23.5t-68.5 -59.5v-342q0 -10 -7.5 -18t-18.5 -8q-10 0 -18 8t-8 18v437q0 11 8 18.5t18 7.5q11 0 18.5 -7.5t7.5 -18.5v-50q31 36 79 60.5t95 24.5q152 0 152 -157z
M256 632q-14 24 -24.5 34.5t-25.5 10.5q-48 0 -53 -84q-2 -16 -18 -16q-7 0 -12.5 6t-4.5 13q4 54 28.5 86t63.5 32q25 0 40.5 -13t34.5 -45q16 -25 25.5 -34.5t24.5 -9.5q22 0 36.5 21t16.5 62q2 16 18 16q7 0 12.5 -5.5t4.5 -13.5q-4 -54 -28 -86t-63 -32q-26 0 -41 12.5
t-35 45.5z" />
    <glyph glyph-name="ograve" unicode="&#xf2;" 
d="M53 242q0 108 65 180.5t167 72.5q104 0 168.5 -72.5t64.5 -180.5q0 -109 -64.5 -181.5t-168.5 -72.5q-102 0 -167 72.5t-65 181.5zM462 242q0 86 -48.5 146t-128.5 60q-79 0 -127.5 -60t-48.5 -146t48.5 -146.5t127.5 -60.5q81 0 129 60t48 147zM268 577l-133 111
q-7 4 -7 15q0 8 6 14t14 6q7 0 13 -6l127 -118q5 -5 5 -11t-4.5 -10.5t-10.5 -4.5t-10 4z" />
    <glyph glyph-name="oacute" unicode="&#xf3;" 
d="M53 242q0 108 65 180.5t167 72.5q104 0 168.5 -72.5t64.5 -180.5q0 -109 -64.5 -181.5t-168.5 -72.5q-102 0 -167 72.5t-65 181.5zM462 242q0 86 -48.5 146t-128.5 60q-79 0 -127.5 -60t-48.5 -146t48.5 -146.5t127.5 -60.5q81 0 129 60t48 147zM292 573q-6 0 -10.5 4.5
t-4.5 10.5q0 3 5 11l127 118q6 6 14 6t14 -6t6 -14q0 -11 -7 -15l-133 -111q-4 -4 -11 -4z" />
    <glyph glyph-name="ocircumflex" unicode="&#xf4;" 
d="M53 242q0 108 65 180.5t167 72.5q104 0 168.5 -72.5t64.5 -180.5q0 -109 -64.5 -181.5t-168.5 -72.5q-102 0 -167 72.5t-65 181.5zM462 242q0 86 -48.5 146t-128.5 60q-79 0 -127.5 -60t-48.5 -146t48.5 -146.5t127.5 -60.5q81 0 129 60t48 147zM372 575l-85 114
l-86 -114q-6 -6 -12 -6q-7 0 -12 5t-5 12q0 1 2 9l80 116q8 15 28 15h9q21 0 29 -15l79 -116q3 -5 3 -9q0 -7 -5.5 -12t-12.5 -5q-6 0 -12 6z" />
    <glyph glyph-name="otilde" unicode="&#xf5;" 
d="M53 242q0 108 65 180.5t167 72.5q104 0 168.5 -72.5t64.5 -180.5q0 -109 -64.5 -181.5t-168.5 -72.5q-102 0 -167 72.5t-65 181.5zM462 242q0 86 -48.5 146t-128.5 60q-79 0 -127.5 -60t-48.5 -146t48.5 -146.5t127.5 -60.5q81 0 129 60t48 147zM271 632
q-14 24 -24.5 34.5t-25.5 10.5q-22 0 -36.5 -21.5t-16.5 -62.5q-2 -16 -18 -16q-7 0 -12.5 6t-4.5 13q4 54 28.5 86t63.5 32q25 0 40.5 -13t34.5 -45q16 -25 25.5 -34.5t24.5 -9.5q22 0 36.5 21t16.5 62q2 16 18 16q7 0 12.5 -5.5t4.5 -13.5q-4 -54 -28 -86t-63 -32
q-26 0 -41 12.5t-35 45.5z" />
    <glyph glyph-name="odieresis" unicode="&#xf6;" 
d="M53 242q0 108 65 180.5t167 72.5q104 0 168.5 -72.5t64.5 -180.5q0 -109 -64.5 -181.5t-168.5 -72.5q-102 0 -167 72.5t-65 181.5zM462 242q0 86 -48.5 146t-128.5 60q-79 0 -127.5 -60t-48.5 -146t48.5 -146.5t127.5 -60.5q81 0 129 60t48 147zM146 626q0 15 11 26
t26 11t26 -11t11 -26q0 -16 -11 -27t-26 -11t-26 11t-11 27zM350 626q0 15 11 26t26 11t26.5 -11t11.5 -26q0 -16 -11.5 -27t-26.5 -11t-26 11t-11 27z" />
    <glyph glyph-name="divide" unicode="&#xf7;" horiz-adv-x="511" 
d="M216 531q0 16 11.5 27.5t28.5 11.5q16 0 27.5 -11.5t11.5 -27.5t-11.5 -28t-27.5 -12t-28 12t-12 28zM26 337q0 8 6.5 14.5t14.5 6.5h418q8 0 14 -6.5t6 -14.5t-6 -14.5t-14 -6.5h-418q-8 0 -14.5 6.5t-6.5 14.5zM216 138q0 17 12 28.5t28 11.5t27.5 -12t11.5 -28
t-11.5 -27.5t-27.5 -11.5t-28 11.5t-12 27.5z" />
    <glyph glyph-name="oslash" unicode="&#xf8;" 
d="M518 242q0 -109 -64.5 -181.5t-168.5 -72.5q-73 0 -131 40l-49 -68q-8 -8 -16 -8q-7 0 -12 4.5t-5 11.5q0 3 5 11l51 71q-75 73 -75 192q0 108 65 180.5t167 72.5q79 0 135 -42l50 69q6 9 15 9q15 0 15 -15q0 -8 -4 -12l-51 -72q73 -70 73 -190zM159 93l231 319
q-44 36 -105 36q-79 0 -127.5 -60t-48.5 -146q0 -91 50 -149zM462 242q0 87 -49 147l-229 -320q43 -34 101 -34q81 0 129 60t48 147z" />
    <glyph glyph-name="ugrave" unicode="&#xf9;" horiz-adv-x="540" 
d="M459 460v-437q0 -10 -7.5 -18t-18.5 -8q-10 0 -18 8t-8 18v48q-34 -37 -79.5 -60t-94.5 -23q-152 0 -152 155v317q0 11 8 18.5t18 7.5q11 0 18.5 -7.5t7.5 -18.5v-305q0 -65 29 -92.5t88 -27.5q44 0 88 23t69 57v345q0 11 8 18.5t18 7.5q11 0 18.5 -7.5t7.5 -18.5z
M252 577l-133 111q-7 4 -7 15q0 8 6 14t14 6q7 0 13 -6l127 -118q5 -5 5 -11t-4.5 -10.5t-10.5 -4.5t-10 4z" />
    <glyph glyph-name="uacute" unicode="&#xfa;" horiz-adv-x="540" 
d="M459 460v-437q0 -10 -7.5 -18t-18.5 -8q-10 0 -18 8t-8 18v48q-34 -37 -79.5 -60t-94.5 -23q-152 0 -152 155v317q0 11 8 18.5t18 7.5q11 0 18.5 -7.5t7.5 -18.5v-305q0 -65 29 -92.5t88 -27.5q44 0 88 23t69 57v345q0 11 8 18.5t18 7.5q11 0 18.5 -7.5t7.5 -18.5z
M277 573q-6 0 -10.5 4.5t-4.5 10.5q0 3 5 11l127 118q6 6 14 6t14 -6t6 -14q0 -11 -7 -15l-133 -111q-4 -4 -11 -4z" />
    <glyph glyph-name="ucircumflex" unicode="&#xfb;" horiz-adv-x="540" 
d="M459 460v-437q0 -10 -7.5 -18t-18.5 -8q-10 0 -18 8t-8 18v48q-34 -37 -79.5 -60t-94.5 -23q-152 0 -152 155v317q0 11 8 18.5t18 7.5q11 0 18.5 -7.5t7.5 -18.5v-305q0 -65 29 -92.5t88 -27.5q44 0 88 23t69 57v345q0 11 8 18.5t18 7.5q11 0 18.5 -7.5t7.5 -18.5z
M356 575l-85 114l-86 -114q-6 -6 -12 -6q-7 0 -12 5t-5 12q0 1 2 9l80 116q8 15 28 15h9q21 0 29 -15l79 -116q3 -5 3 -9q0 -7 -5.5 -12t-12.5 -5q-6 0 -12 6z" />
    <glyph glyph-name="udieresis" unicode="&#xfc;" horiz-adv-x="540" 
d="M459 460v-437q0 -10 -7.5 -18t-18.5 -8q-10 0 -18 8t-8 18v48q-34 -37 -79.5 -60t-94.5 -23q-152 0 -152 155v317q0 11 8 18.5t18 7.5q11 0 18.5 -7.5t7.5 -18.5v-305q0 -65 29 -92.5t88 -27.5q44 0 88 23t69 57v345q0 11 8 18.5t18 7.5q11 0 18.5 -7.5t7.5 -18.5z
M130 626q0 15 11 26t26 11t26 -11t11 -26q0 -16 -11 -27t-26 -11t-26 11t-11 27zM334 626q0 15 11 26t26 11t26.5 -11t11.5 -26q0 -16 -11.5 -27t-26.5 -11t-26 11t-11 27z" />
    <glyph glyph-name="yacute" unicode="&#xfd;" horiz-adv-x="481" 
d="M75 -146q1 0 10 -1.5t15 -1.5q48 0 73 59l38 86l-189 451q-2 6 -2 12q0 11 7.5 19t18.5 8q19 0 25 -17l170 -408l169 408q6 17 24 17q12 0 19.5 -8t7.5 -19q0 -4 -3 -13l-234 -552q-37 -90 -124 -90q-3 0 -27 2q-10 1 -16.5 8t-6.5 16q0 10 7.5 17t17.5 7zM248 573
q-6 0 -10.5 4.5t-4.5 10.5q0 3 5 11l127 118q6 6 14 6t14 -6t6 -14q0 -11 -7 -15l-133 -111q-4 -4 -11 -4z" />
    <glyph glyph-name="thorn" unicode="&#xfe;" horiz-adv-x="570" 
d="M133 78v-239q0 -11 -7.5 -18.5t-18.5 -7.5q-10 0 -18 7.5t-8 18.5v805q0 11 8 18.5t18 7.5q11 0 18.5 -7.5t7.5 -18.5v-237q28 40 72.5 64t95.5 24q97 0 156.5 -69.5t59.5 -183.5q0 -115 -59.5 -184.5t-156.5 -69.5q-104 0 -168 90zM292 448q-48 0 -92.5 -24.5
t-66.5 -61.5v-239q22 -37 67 -62.5t92 -25.5q79 0 124 58q45 59 45 149t-45 148t-124 58z" />
    <glyph glyph-name="ydieresis" unicode="&#xff;" horiz-adv-x="481" 
d="M75 -146q1 0 10 -1.5t15 -1.5q48 0 73 59l38 86l-189 451q-2 6 -2 12q0 11 7.5 19t18.5 8q19 0 25 -17l170 -408l169 408q6 17 24 17q12 0 19.5 -8t7.5 -19q0 -4 -3 -13l-234 -552q-37 -90 -124 -90q-3 0 -27 2q-10 1 -16.5 8t-6.5 16q0 10 7.5 17t17.5 7zM101 626
q0 15 11 26t26 11t26 -11t11 -26q0 -16 -11 -27t-26 -11t-26 11t-11 27zM305 626q0 15 11 26t26 11t26.5 -11t11.5 -26q0 -16 -11.5 -27t-26.5 -11t-26 11t-11 27z" />
    <glyph glyph-name="Amacron" unicode="&#x100;" horiz-adv-x="647" 
d="M619 27q0 -12 -8.5 -21t-21.5 -9q-21 0 -28 19l-59 148h-357l-59 -148q-7 -19 -28 -19q-13 0 -21.5 9t-8.5 21q0 5 3 12l246 600q11 31 46 31q34 0 47 -31l246 -600q3 -9 3 -12zM166 216h315l-158 395zM172 762q0 19 19 19h263q19 0 19 -19q0 -7 -5.5 -12.5t-13.5 -5.5
h-263q-8 0 -13.5 5.5t-5.5 12.5z" />
    <glyph glyph-name="amacron" unicode="&#x101;" horiz-adv-x="521" 
d="M440 340v-317q0 -10 -7.5 -18t-18.5 -8q-10 0 -18 8t-8 18v36q-62 -71 -164 -71q-69 0 -119 44t-50 117t50 116.5t119 43.5q102 0 164 -69v98q0 51 -36.5 81t-93.5 30q-79 0 -136 -57q-8 -5 -15 -5q-10 0 -16.5 6.5t-6.5 16.5q0 11 8 17q69 68 172 68q80 0 128 -40
t48 -115zM388 95v106q-50 67 -146 67q-59 0 -95.5 -34t-36.5 -86t36.5 -85.5t95.5 -33.5q95 0 146 66zM114 615q0 19 19 19h263q19 0 19 -19q0 -7 -5.5 -12.5t-13.5 -5.5h-263q-8 0 -13.5 5.5t-5.5 12.5z" />
    <glyph glyph-name="Abreve" unicode="&#x102;" horiz-adv-x="647" 
d="M619 27q0 -12 -8.5 -21t-21.5 -9q-21 0 -28 19l-59 148h-357l-59 -148q-7 -19 -28 -19q-13 0 -21.5 9t-8.5 21q0 5 3 12l246 600q11 31 46 31q34 0 47 -31l246 -600q3 -9 3 -12zM166 216h315l-158 395zM157 789q-4 4 -4 13q0 19 19 19q10 0 14 -6q55 -63 137 -63t137 63
q3 6 14 6q7 0 13 -5.5t6 -13.5q0 -5 -5 -13q-67 -75 -165 -75q-97 0 -166 75z" />
    <glyph glyph-name="abreve" unicode="&#x103;" horiz-adv-x="521" 
d="M440 340v-317q0 -10 -7.5 -18t-18.5 -8q-10 0 -18 8t-8 18v36q-62 -71 -164 -71q-69 0 -119 44t-50 117t50 116.5t119 43.5q102 0 164 -69v98q0 51 -36.5 81t-93.5 30q-79 0 -136 -57q-8 -5 -15 -5q-10 0 -16.5 6.5t-6.5 16.5q0 11 8 17q69 68 172 68q80 0 128 -40
t48 -115zM388 95v106q-50 67 -146 67q-59 0 -95.5 -34t-36.5 -86t36.5 -85.5t95.5 -33.5q95 0 146 66zM99 642q-4 4 -4 13q0 19 19 19q10 0 14 -6q55 -63 137 -63q81 0 137 63q3 6 14 6q7 0 13 -5.5t6 -13.5q0 -5 -5 -13q-67 -75 -165 -75q-97 0 -166 75z" />
    <glyph glyph-name="Aogonek" unicode="&#x104;" horiz-adv-x="647" 
d="M611 -158q0 -13 -11 -18q-23 -10 -48 -10q-38 0 -65 20t-27 53t29.5 64t79.5 53q-5 5 -8 12l-59 148h-357l-59 -148q-7 -19 -28 -19q-13 0 -21.5 9t-8.5 21q0 5 3 12l246 600q11 31 46 31q34 0 47 -31l246 -600q3 -9 3 -12q0 -20 -18 -28q-88 -55 -88 -101
q0 -20 12.5 -32t34.5 -12q10 0 21 4l11 3q19 0 19 -19zM166 216h315l-158 395z" />
    <glyph glyph-name="aogonek" unicode="&#x105;" horiz-adv-x="521" 
d="M338 -102q0 -20 12.5 -32t34.5 -12q10 0 21 4l11 3q19 0 19 -19q0 -13 -11 -18q-23 -10 -48 -10q-39 0 -65.5 20t-26.5 53t29.5 64t78.5 53l3 1q-8 8 -8 18v36q-62 -71 -164 -71q-69 0 -119 44t-50 117t50 116.5t119 43.5q102 0 164 -69v98q0 51 -36.5 81t-93.5 30
q-79 0 -136 -57q-8 -5 -15 -5q-10 0 -16.5 6.5t-6.5 16.5q0 11 8 17q69 68 172 68q80 0 128 -40t48 -115v-317q0 -9 -6 -17q0 -1 -5 -4l-3 -2q-88 -55 -88 -102zM388 95v106q-50 67 -146 67q-59 0 -95.5 -34t-36.5 -86t36.5 -85.5t95.5 -33.5q95 0 146 66z" />
    <glyph glyph-name="Cacute" unicode="&#x106;" horiz-adv-x="669" 
d="M58 333q-3 148 96 247.5t240 97.5q136 0 226 -95q7 -7 7 -19t-8 -20t-20 -8q-13 0 -21 9q-71 81 -184 81q-116 2 -197 -82.5t-79 -210.5q-2 -124 79 -209.5t197 -83.5q114 0 185 82q7 9 20 9q12 0 20.5 -8.5t8.5 -19.5q0 -13 -8 -19q-92 -96 -226 -96q-140 -3 -239.5 97
t-96.5 248zM401 720q-6 0 -10.5 4.5t-4.5 10.5q0 3 5 11l127 118q6 6 14 6t14 -6t6 -14q0 -11 -7 -15l-133 -111q-4 -4 -11 -4z" />
    <glyph glyph-name="cacute" unicode="&#x107;" horiz-adv-x="494" 
d="M288 495q95 0 156 -65q7 -8 7 -17q0 -10 -6.5 -17t-17.5 -7q-10 0 -16 7q-49 52 -120 52q-82 0 -132 -58.5t-50 -147.5t50 -148t132 -59q72 0 119 53q7 7 17 7q24 0 24 -24q0 -11 -7 -18q-62 -65 -156 -65q-103 0 -169 73t-66 181q0 107 66 180t169 73zM293 573
q-6 0 -10.5 4.5t-4.5 10.5q0 3 5 11l127 118q6 6 14 6t14 -6t6 -14q0 -11 -7 -15l-133 -111q-4 -4 -11 -4z" />
    <glyph glyph-name="Ccircumflex" unicode="&#x108;" horiz-adv-x="669" 
d="M58 333q-3 148 96 247.5t240 97.5q136 0 226 -95q7 -7 7 -19t-8 -20t-20 -8q-13 0 -21 9q-71 81 -184 81q-116 2 -197 -82.5t-79 -210.5q-2 -124 79 -209.5t197 -83.5q114 0 185 82q7 9 20 9q12 0 20.5 -8.5t8.5 -19.5q0 -13 -8 -19q-92 -96 -226 -96q-140 -3 -239.5 97
t-96.5 248zM481 722l-85 114l-86 -114q-6 -6 -12 -6q-7 0 -12 5t-5 12q0 1 2 9l80 116q8 15 28 15h9q21 0 29 -15l79 -116q3 -4 3 -9q0 -7 -5.5 -12t-12.5 -5q-6 0 -12 6z" />
    <glyph glyph-name="ccircumflex" unicode="&#x109;" horiz-adv-x="494" 
d="M288 495q95 0 156 -65q7 -8 7 -17q0 -10 -6.5 -17t-17.5 -7q-10 0 -16 7q-49 52 -120 52q-82 0 -132 -58.5t-50 -147.5t50 -148t132 -59q72 0 119 53q7 7 17 7q24 0 24 -24q0 -11 -7 -18q-62 -65 -156 -65q-103 0 -169 73t-66 181q0 107 66 180t169 73zM373 575l-85 114
l-86 -114q-6 -6 -12 -6q-7 0 -12 5t-5 12q0 1 2 9l80 116q8 15 28 15h9q21 0 29 -15l79 -116q3 -5 3 -9q0 -7 -5.5 -12t-12.5 -5q-6 0 -12 6z" />
    <glyph glyph-name="Cdotaccent" unicode="&#x10a;" horiz-adv-x="669" 
d="M58 333q-3 148 96 247.5t240 97.5q136 0 226 -95q7 -7 7 -19t-8 -20t-20 -8q-13 0 -21 9q-71 81 -184 81q-116 2 -197 -82.5t-79 -210.5q-2 -124 79 -209.5t197 -83.5q114 0 185 82q7 9 20 9q12 0 20.5 -8.5t8.5 -19.5q0 -13 -8 -19q-92 -96 -226 -96q-140 -3 -239.5 97
t-96.5 248zM395 808q15 0 26 -11t11 -27t-11 -27t-26 -11q-16 0 -27 11t-11 27t11 27t27 11z" />
    <glyph glyph-name="cdotaccent" unicode="&#x10b;" horiz-adv-x="494" 
d="M288 495q95 0 156 -65q7 -8 7 -17q0 -10 -6.5 -17t-17.5 -7q-10 0 -16 7q-49 52 -120 52q-82 0 -132 -58.5t-50 -147.5t50 -148t132 -59q72 0 119 53q7 7 17 7q24 0 24 -24q0 -11 -7 -18q-62 -65 -156 -65q-103 0 -169 73t-66 181q0 107 66 180t169 73zM286 661
q15 0 26 -11t11 -27t-11 -27t-26 -11q-16 0 -27 11t-11 27t11 27t27 11z" />
    <glyph glyph-name="Ccaron" unicode="&#x10c;" horiz-adv-x="669" 
d="M58 333q-3 148 96 247.5t240 97.5q136 0 226 -95q7 -7 7 -19t-8 -20t-20 -8q-13 0 -21 9q-71 81 -184 81q-116 2 -197 -82.5t-79 -210.5q-2 -124 79 -209.5t197 -83.5q114 0 185 82q7 9 20 9q12 0 20.5 -8.5t8.5 -19.5q0 -13 -8 -19q-92 -96 -226 -96q-140 -3 -239.5 97
t-96.5 248zM508 856q0 -5 -3 -8l-79 -116q-9 -16 -29 -16h-9q-19 0 -28 16l-80 116q-2 6 -2 8q0 7 5 12t12 5t12 -6l86 -113l85 113q4 6 12 6q7 0 12.5 -5t5.5 -12z" />
    <glyph glyph-name="ccaron" unicode="&#x10d;" horiz-adv-x="494" 
d="M288 495q95 0 156 -65q7 -8 7 -17q0 -10 -6.5 -17t-17.5 -7q-10 0 -16 7q-49 52 -120 52q-82 0 -132 -58.5t-50 -147.5t50 -148t132 -59q72 0 119 53q7 7 17 7q24 0 24 -24q0 -11 -7 -18q-62 -65 -156 -65q-103 0 -169 73t-66 181q0 107 66 180t169 73zM400 709
q0 -5 -3 -8l-79 -116q-9 -16 -29 -16h-9q-19 0 -28 16l-80 116q-2 6 -2 8q0 7 5 12t12 5t12 -6l86 -113l85 113q4 6 12 6q7 0 12.5 -5t5.5 -12z" />
    <glyph glyph-name="Dcaron" unicode="&#x10e;" horiz-adv-x="692" 
d="M83 31v605q0 31 31 31h182q148 2 243.5 -96t93.5 -238q2 -141 -93 -238t-244 -95h-182q-31 0 -31 31zM140 52h156q127 0 202 79.5t75 201.5t-75 202t-202 80h-156v-563zM463 856q0 -5 -3 -8l-79 -116q-9 -16 -29 -16h-9q-19 0 -28 16l-80 116q-2 6 -2 8q0 7 5 12t12 5
q8 0 12 -6l86 -113l85 113q5 6 12 6t12.5 -5t5.5 -12z" />
    <glyph glyph-name="dcaron" unicode="&#x10f;" horiz-adv-x="625" 
d="M490 644v-621q0 -10 -7.5 -18t-18.5 -8t-19 8t-8 18v53q-27 -40 -72.5 -64t-95.5 -24q-97 0 -156.5 69.5t-59.5 183.5t60 184t156 70q104 0 168 -89v238q0 10 8 18t19 8t18.5 -7.5t7.5 -18.5zM437 121v239q-22 38 -66.5 63t-92.5 25q-77 0 -124 -59q-45 -59 -45 -148
t45 -148q46 -58 124 -58q48 0 92.5 24.5t66.5 61.5zM539 510q0 8 9 15q39 38 41 78q-2 -1 -10 -1q-16 0 -26 10.5t-10 27.5q0 16 11 27.5t27 11.5q21 0 34 -16t13 -43q0 -72 -58 -121q-6 -6 -13 -6t-12.5 5t-5.5 12z" />
    <glyph glyph-name="Dcroat" unicode="&#x110;" horiz-adv-x="721" 
d="M663 333q2 -141 -93.5 -238t-244.5 -95h-181q-32 0 -32 31v276h-81q-9 0 -16 7t-7 17t7 16.5t16 6.5h81v282q0 31 32 31h181q149 2 244.5 -96t93.5 -238zM602 333q0 122 -75 202t-202 80h-155v-261h159q9 0 16 -6.5t7 -16.5t-7 -17t-16 -7h-159v-255h155q127 0 202 79.5
t75 201.5z" />
    <glyph glyph-name="dslash" unicode="&#x111;" horiz-adv-x="572" 
d="M566 557q0 -19 -19 -19h-57v-515q0 -10 -7.5 -18t-18.5 -8t-19 8t-8 18v53q-27 -40 -72.5 -64t-95.5 -24q-97 0 -156.5 69.5t-59.5 183.5t60 184t156 70q104 0 168 -89v132h-145q-8 0 -13.5 5.5t-5.5 12.5q0 8 5.5 14t13.5 6h145v68q0 10 8 18t19 8t18.5 -7.5t7.5 -18.5
v-68h57q19 0 19 -19zM437 121v239q-22 38 -66.5 63t-92.5 25q-77 0 -124 -59q-45 -59 -45 -148t45 -148q46 -58 124 -58q48 0 92.5 24.5t66.5 61.5z" />
    <glyph glyph-name="Emacron" unicode="&#x112;" horiz-adv-x="564" 
d="M83 31v605q0 31 31 31h369q11 0 18.5 -7.5t7.5 -18.5q0 -10 -7.5 -18t-18.5 -8h-343v-247h336q11 0 18.5 -7.5t7.5 -18.5q0 -10 -7.5 -18t-18.5 -8h-336v-264h343q11 0 18.5 -7.5t7.5 -18.5q0 -10 -7.5 -18t-18.5 -8h-369q-31 0 -31 31zM148 762q0 19 19 19h263
q19 0 19 -19q0 -7 -5.5 -12.5t-13.5 -5.5h-263q-8 0 -13.5 5.5t-5.5 12.5z" />
    <glyph glyph-name="emacron" unicode="&#x113;" horiz-adv-x="567" 
d="M286 495q103 0 165.5 -70.5t62.5 -170.5q0 -29 -31 -29h-373q5 -83 56.5 -137.5t132.5 -54.5q84 0 145 55q4 4 13 4t15 -6t6 -16q0 -9 -8 -17q-74 -65 -175 -65q-106 0 -174 71.5t-68 182.5q0 105 67.5 179t165.5 74zM110 266h351q-2 73 -48.5 128.5t-127.5 55.5
q-77 0 -124.5 -55.5t-50.5 -128.5zM134 615q0 19 19 19h263q19 0 19 -19q0 -7 -5.5 -12.5t-13.5 -5.5h-263q-8 0 -13.5 5.5t-5.5 12.5z" />
    <glyph glyph-name="Ebreve" unicode="&#x114;" horiz-adv-x="564" 
d="M83 31v605q0 31 31 31h369q11 0 18.5 -7.5t7.5 -18.5q0 -10 -7.5 -18t-18.5 -8h-343v-247h336q11 0 18.5 -7.5t7.5 -18.5q0 -10 -7.5 -18t-18.5 -8h-336v-264h343q11 0 18.5 -7.5t7.5 -18.5q0 -10 -7.5 -18t-18.5 -8h-369q-31 0 -31 31zM133 789q-4 4 -4 13q0 19 19 19
q10 0 14 -6q55 -63 137 -63q81 0 137 63q3 6 14 6q7 0 13 -5.5t6 -13.5q0 -5 -5 -13q-67 -75 -165 -75q-97 0 -166 75z" />
    <glyph glyph-name="ebreve" unicode="&#x115;" horiz-adv-x="567" 
d="M286 495q103 0 165.5 -70.5t62.5 -170.5q0 -29 -31 -29h-373q5 -83 56.5 -137.5t132.5 -54.5q84 0 145 55q4 4 13 4t15 -6t6 -16q0 -9 -8 -17q-74 -65 -175 -65q-106 0 -174 71.5t-68 182.5q0 105 67.5 179t165.5 74zM110 266h351q-2 73 -48.5 128.5t-127.5 55.5
q-77 0 -124.5 -55.5t-50.5 -128.5zM119 642q-4 4 -4 13q0 19 19 19q10 0 14 -6q55 -63 137 -63q81 0 137 63q3 6 14 6q7 0 13 -5.5t6 -13.5q0 -5 -5 -13q-67 -75 -165 -75q-97 0 -166 75z" />
    <glyph glyph-name="Edotaccent" unicode="&#x116;" horiz-adv-x="564" 
d="M83 31v605q0 31 31 31h369q11 0 18.5 -7.5t7.5 -18.5q0 -10 -7.5 -18t-18.5 -8h-343v-247h336q11 0 18.5 -7.5t7.5 -18.5q0 -10 -7.5 -18t-18.5 -8h-336v-264h343q11 0 18.5 -7.5t7.5 -18.5q0 -10 -7.5 -18t-18.5 -8h-369q-31 0 -31 31zM299 808q15 0 26 -11t11 -27
t-11 -27t-26 -11q-16 0 -27 11t-11 27t11 27t27 11z" />
    <glyph glyph-name="edotaccent" unicode="&#x117;" horiz-adv-x="567" 
d="M286 495q103 0 165.5 -70.5t62.5 -170.5q0 -29 -31 -29h-373q5 -83 56.5 -137.5t132.5 -54.5q84 0 145 55q4 4 13 4t15 -6t6 -16q0 -9 -8 -17q-74 -65 -175 -65q-106 0 -174 71.5t-68 182.5q0 105 67.5 179t165.5 74zM110 266h351q-2 73 -48.5 128.5t-127.5 55.5
q-77 0 -124.5 -55.5t-50.5 -128.5zM285 661q15 0 26 -11t11 -27t-11 -27t-26 -11q-16 0 -27 11t-11 27t11 27t27 11z" />
    <glyph glyph-name="Eogonek" unicode="&#x118;" horiz-adv-x="564" 
d="M509 26q0 -10 -7 -17q4 -3 -3 -7q-47 -29 -69 -53t-22 -51q0 -20 12.5 -32t33.5 -12q9 0 20.5 3.5t12.5 3.5q19 0 19 -19q0 -13 -11 -18q-24 -10 -48 -10q-39 0 -65.5 20t-26.5 53q0 65 100 113h-341q-31 0 -31 31v605q0 31 31 31h369q11 0 18.5 -7.5t7.5 -18.5
q0 -10 -7.5 -18t-18.5 -8h-343v-247h336q11 0 18.5 -7.5t7.5 -18.5q0 -10 -7.5 -18t-18.5 -8h-336v-264h343q11 0 18.5 -7.5t7.5 -18.5z" />
    <glyph glyph-name="eogonek" unicode="&#x119;" horiz-adv-x="567" 
d="M53 242q0 105 67.5 179t165.5 74q103 0 165.5 -70.5t62.5 -170.5q0 -29 -35 -29h-369q5 -83 56.5 -137.5t132.5 -54.5q84 0 145 55q4 4 12 4q22 0 22 -22q0 -10 -7 -16q-105 -98 -105 -153q0 -22 13 -34.5t34 -12.5q10 0 23 5l5 1q8 0 14 -5.5t6 -14.5q0 -13 -13 -18
q-21 -8 -43 -8q-38 0 -65 20t-27 53q0 60 73 116q-42 -15 -91 -15q-106 0 -174 71.5t-68 182.5zM110 266h351q-2 73 -48.5 128.5t-127.5 55.5q-77 0 -124.5 -55.5t-50.5 -128.5z" />
    <glyph glyph-name="Ecaron" unicode="&#x11a;" horiz-adv-x="564" 
d="M83 31v605q0 31 31 31h369q11 0 18.5 -7.5t7.5 -18.5q0 -10 -7.5 -18t-18.5 -8h-343v-247h336q11 0 18.5 -7.5t7.5 -18.5q0 -10 -7.5 -18t-18.5 -8h-336v-264h343q11 0 18.5 -7.5t7.5 -18.5q0 -10 -7.5 -18t-18.5 -8h-369q-31 0 -31 31zM413 856q0 -5 -3 -8l-79 -116
q-9 -16 -29 -16h-9q-19 0 -28 16l-80 116q-2 6 -2 8q0 7 5 12t12 5q8 0 12 -6l86 -113l85 113q5 6 12 6t12.5 -5t5.5 -12z" />
    <glyph glyph-name="ecaron" unicode="&#x11b;" horiz-adv-x="567" 
d="M286 495q103 0 165.5 -70.5t62.5 -170.5q0 -29 -31 -29h-373q5 -83 56.5 -137.5t132.5 -54.5q84 0 145 55q4 4 13 4t15 -6t6 -16q0 -9 -8 -17q-74 -65 -175 -65q-106 0 -174 71.5t-68 182.5q0 105 67.5 179t165.5 74zM110 266h351q-2 73 -48.5 128.5t-127.5 55.5
q-77 0 -124.5 -55.5t-50.5 -128.5zM399 709q0 -5 -3 -8l-79 -116q-9 -16 -29 -16h-9q-19 0 -28 16l-80 116q-2 6 -2 8q0 7 5 12t12 5q8 0 12 -6l86 -113l85 113q5 6 12 6t12.5 -5t5.5 -12z" />
    <glyph glyph-name="Gcircumflex" unicode="&#x11c;" horiz-adv-x="711" 
d="M649 300v-179q0 -25 -16 -38q-96 -96 -237 -96q-141 -2 -241 98t-97 248q-3 149 97 248t241 97q138 0 233 -93q7 -6 7 -18t-7.5 -19.5t-19.5 -7.5q-11 0 -18 7q-79 79 -195 79q-117 2 -198.5 -82.5t-79.5 -210.5q-2 -125 79.5 -210.5t198.5 -83.5q115 0 196 81v160h-230
q-11 0 -18.5 7.5t-7.5 18.5q0 10 7.5 17.5t18.5 7.5h256q31 0 31 -31zM482 722l-85 114l-86 -114q-6 -6 -12 -6q-7 0 -12 5t-5 12q0 1 2 9l80 116q8 15 28 15h9q21 0 29 -15l79 -116q3 -4 3 -9q0 -7 -5.5 -12t-12.5 -5q-6 0 -12 6z" />
    <glyph glyph-name="gcircumflex" unicode="&#x11d;" horiz-adv-x="570" 
d="M490 460v-455q0 -101 -58.5 -151t-159.5 -50q-59 0 -98.5 13t-75.5 46q-9 6 -9 19q0 10 7 17t17 7q9 0 15 -6q55 -51 144 -51q75 0 120 39.5t45 115.5v75q-30 -40 -74.5 -64.5t-93.5 -24.5q-97 0 -156.5 69t-59.5 183q0 113 59.5 183t156.5 70q104 0 168 -89v54
q0 11 8 18.5t19 7.5t18.5 -7.5t7.5 -18.5zM437 125v235q-22 38 -66.5 63t-92.5 25q-78 0 -124 -58q-45 -58 -45 -148t45 -148q46 -57 124 -57q48 0 92.5 25t66.5 63zM374 575l-85 114l-86 -114q-6 -6 -12 -6q-7 0 -12 5t-5 12q0 1 2 9l80 116q8 15 28 15h9q21 0 29 -15
l79 -116q3 -5 3 -9q0 -7 -5.5 -12t-12.5 -5q-6 0 -12 6z" />
    <glyph glyph-name="Gbreve" unicode="&#x11e;" horiz-adv-x="711" 
d="M649 300v-179q0 -25 -16 -38q-96 -96 -237 -96q-141 -2 -241 98t-97 248q-3 149 97 248t241 97q138 0 233 -93q7 -6 7 -18t-7.5 -19.5t-19.5 -7.5q-11 0 -18 7q-79 79 -195 79q-117 2 -198.5 -82.5t-79.5 -210.5q-2 -125 79.5 -210.5t198.5 -83.5q115 0 196 81v160h-230
q-11 0 -18.5 7.5t-7.5 18.5q0 10 7.5 17.5t18.5 7.5h256q31 0 31 -31zM229 789q-4 4 -4 13q0 19 19 19q10 0 14 -6q55 -63 137 -63q81 0 137 63q3 6 14 6q7 0 13 -5.5t6 -13.5q0 -5 -5 -13q-67 -75 -165 -75q-97 0 -166 75z" />
    <glyph glyph-name="gbreve" unicode="&#x11f;" horiz-adv-x="570" 
d="M490 460v-455q0 -101 -58.5 -151t-159.5 -50q-59 0 -98.5 13t-75.5 46q-9 6 -9 19q0 10 7 17t17 7q9 0 15 -6q55 -51 144 -51q75 0 120 39.5t45 115.5v75q-30 -40 -74.5 -64.5t-93.5 -24.5q-97 0 -156.5 69t-59.5 183q0 113 59.5 183t156.5 70q104 0 168 -89v54
q0 11 8 18.5t19 7.5t18.5 -7.5t7.5 -18.5zM437 125v235q-22 38 -66.5 63t-92.5 25q-78 0 -124 -58q-45 -58 -45 -148t45 -148q46 -57 124 -57q48 0 92.5 25t66.5 63zM121 642q-4 4 -4 13q0 19 19 19q10 0 14 -6q55 -63 137 -63q81 0 137 63q3 6 14 6q7 0 13 -5.5t6 -13.5
q0 -5 -5 -13q-67 -75 -165 -75q-97 0 -166 75z" />
    <glyph glyph-name="Gdotaccent" unicode="&#x120;" horiz-adv-x="711" 
d="M649 300v-179q0 -25 -16 -38q-96 -96 -237 -96q-141 -2 -241 98t-97 248q-3 149 97 248t241 97q138 0 233 -93q7 -6 7 -18t-7.5 -19.5t-19.5 -7.5q-11 0 -18 7q-79 79 -195 79q-117 2 -198.5 -82.5t-79.5 -210.5q-2 -125 79.5 -210.5t198.5 -83.5q115 0 196 81v160h-230
q-11 0 -18.5 7.5t-7.5 18.5q0 10 7.5 17.5t18.5 7.5h256q31 0 31 -31zM395 808q15 0 26 -11t11 -27t-11 -27t-26 -11q-16 0 -27 11t-11 27t11 27t27 11z" />
    <glyph glyph-name="gdotaccent" unicode="&#x121;" horiz-adv-x="570" 
d="M490 460v-455q0 -101 -58.5 -151t-159.5 -50q-59 0 -98.5 13t-75.5 46q-9 6 -9 19q0 10 7 17t17 7q9 0 15 -6q55 -51 144 -51q75 0 120 39.5t45 115.5v75q-30 -40 -74.5 -64.5t-93.5 -24.5q-97 0 -156.5 69t-59.5 183q0 113 59.5 183t156.5 70q104 0 168 -89v54
q0 11 8 18.5t19 7.5t18.5 -7.5t7.5 -18.5zM437 125v235q-22 38 -66.5 63t-92.5 25q-78 0 -124 -58q-45 -58 -45 -148t45 -148q46 -57 124 -57q48 0 92.5 25t66.5 63zM288 661q15 0 26 -11t11 -27t-11 -27t-26 -11q-16 0 -27 11t-11 27t11 27t27 11z" />
    <glyph glyph-name="uni0122" unicode="&#x122;" horiz-adv-x="711" 
d="M649 300v-179q0 -25 -16 -38q-96 -96 -237 -96q-141 -2 -241 98t-97 248q-3 149 97 248t241 97q138 0 233 -93q7 -6 7 -18t-7.5 -19.5t-19.5 -7.5q-11 0 -18 7q-79 79 -195 79q-117 2 -198.5 -82.5t-79.5 -210.5q-2 -125 79.5 -210.5t198.5 -83.5q115 0 196 81v160h-230
q-11 0 -18.5 7.5t-7.5 18.5q0 10 7.5 17.5t18.5 7.5h256q31 0 31 -31zM353 -247q0 7 9 15q39 38 41 78q-2 -1 -10 -1q-16 0 -26 10.5t-10 27.5q0 16 11 27.5t27 11.5q21 0 34 -16t13 -43q0 -72 -58 -121q-6 -6 -13 -6t-12.5 5t-5.5 12z" />
    <glyph glyph-name="uni0123" unicode="&#x123;" horiz-adv-x="570" 
d="M236 622q0 33 16 66t42 55q8 6 13 6q18 0 18 -18q0 -7 -9 -15q-39 -34 -41 -78q2 2 10 2q16 0 26 -11t10 -28q0 -16 -11 -27.5t-28 -11.5q-19 0 -32.5 16.5t-13.5 43.5zM490 460v-455q0 -101 -58.5 -151t-159.5 -50q-59 0 -98.5 13t-75.5 46q-9 6 -9 19q0 10 7 17t17 7
q9 0 15 -6q55 -51 144 -51q75 0 120 39.5t45 115.5v75q-30 -40 -74.5 -64.5t-93.5 -24.5q-97 0 -156.5 69t-59.5 183q0 113 59.5 183t156.5 70q104 0 168 -89v54q0 11 8 18.5t19 7.5t18.5 -7.5t7.5 -18.5zM437 125v235q-22 38 -66.5 63t-92.5 25q-78 0 -124 -58
q-45 -58 -45 -148t45 -148q46 -57 124 -57q48 0 92.5 25t66.5 63z" />
    <glyph glyph-name="Hcircumflex" unicode="&#x124;" horiz-adv-x="703" 
d="M563 26v291h-423v-291q0 -12 -8 -20.5t-20 -8.5t-20.5 9t-8.5 20v615q0 12 8.5 20.5t20.5 8.5t20 -8.5t8 -20.5v-272h423v272q0 12 8.5 20.5t20.5 8.5t20.5 -8.5t8.5 -20.5v-615q0 -11 -8.5 -20t-20.5 -9t-20.5 9t-8.5 20zM439 722l-85 114l-86 -114q-6 -6 -12 -6
q-7 0 -12 5t-5 12q0 1 2 9l80 116q8 15 28 15h9q21 0 29 -15l79 -116q3 -4 3 -9q0 -7 -5.5 -12t-12.5 -5q-6 0 -12 6z" />
    <glyph glyph-name="hcircumflex" unicode="&#x125;" horiz-adv-x="540" 
d="M407 23v306q0 64 -29 91.5t-88 27.5q-44 0 -88.5 -23.5t-68.5 -59.5v-342q0 -10 -7.5 -18t-18.5 -8q-10 0 -18 8t-8 18v621q0 11 8 18.5t18 7.5q11 0 18.5 -7.5t7.5 -18.5v-234q31 36 79 60.5t95 24.5q152 0 152 -155v-317q0 -10 -7.5 -18t-18.5 -8q-10 0 -18 8t-8 18z
M357 722l-85 114l-86 -114q-6 -6 -12 -6q-7 0 -12 5t-5 12q0 1 2 9l80 116q8 15 28 15h9q21 0 29 -15l79 -116q3 -4 3 -9q0 -7 -5.5 -12t-12.5 -5q-6 0 -12 6z" />
    <glyph glyph-name="Hbar" unicode="&#x126;" horiz-adv-x="724" 
d="M717 519q0 -19 -19 -19h-66v-474q0 -11 -8.5 -20t-20.5 -9t-20.5 9t-8.5 20v291h-422v-291q0 -11 -8.5 -20t-20.5 -9t-20.5 9t-8.5 20v474h-67q-19 0 -19 19q0 7 5.5 12.5t13.5 5.5h67v104q0 12 8.5 20.5t20.5 8.5t20.5 -8.5t8.5 -20.5v-104h422v104q0 12 8.5 20.5
t20.5 8.5t20.5 -8.5t8.5 -20.5v-104h66q8 0 13.5 -5.5t5.5 -12.5zM574 369v131h-422v-131h422z" />
    <glyph glyph-name="hbar" unicode="&#x127;" horiz-adv-x="541" 
d="M460 340v-317q0 -10 -7.5 -18t-18.5 -8q-10 0 -18 8t-8 18v306q0 64 -29 91.5t-88 27.5q-44 0 -88.5 -23.5t-68.5 -59.5v-342q0 -10 -7.5 -18t-18.5 -8q-10 0 -18 8t-8 18v515h-56q-19 0 -19 19q0 8 6 13.5t13 5.5h56v68q0 11 8 18.5t18 7.5q11 0 18.5 -7.5t7.5 -18.5
v-68h146q19 0 19 -19t-19 -19h-146v-128q31 36 79 60.5t95 24.5q152 0 152 -155z" />
    <glyph glyph-name="Itilde" unicode="&#x128;" horiz-adv-x="223" 
d="M83 26v615q0 12 8.5 20.5t20.5 8.5t20 -8.5t8 -20.5v-615q0 -12 -8 -20.5t-20 -8.5t-20.5 9t-8.5 20zM98 779q-14 24 -24.5 34.5t-25.5 10.5q-22 0 -36.5 -21.5t-16.5 -62.5q-2 -16 -18 -16q-7 0 -12.5 6t-4.5 13q4 54 28.5 86t63.5 32q25 0 40.5 -13t34.5 -45
q16 -25 25.5 -34.5t24.5 -9.5q22 0 36.5 21t16.5 62q2 16 18 16q7 0 12.5 -5.5t4.5 -13.5q-4 -54 -28 -86t-63 -32q-26 0 -41 12.5t-35 45.5z" />
    <glyph glyph-name="itilde" unicode="&#x129;" horiz-adv-x="214" 
d="M81 23v437q0 11 8 18.5t18 7.5q11 0 18.5 -7.5t7.5 -18.5v-437q0 -10 -7.5 -18t-18.5 -8q-10 0 -18 8t-8 18zM93 632q-14 24 -24.5 34.5t-25.5 10.5q-22 0 -36.5 -21.5t-16.5 -62.5q-2 -16 -18 -16q-7 0 -12.5 6t-4.5 13q4 54 28.5 86t63.5 32q25 0 40.5 -13t34.5 -45
q16 -25 25.5 -34.5t24.5 -9.5q22 0 36.5 21t16.5 62q2 16 18 16q7 0 12.5 -5.5t4.5 -13.5q-4 -54 -28 -86t-63 -32q-26 0 -41 12.5t-35 45.5z" />
    <glyph glyph-name="Imacron" unicode="&#x12a;" horiz-adv-x="223" 
d="M83 26v615q0 12 8.5 20.5t20.5 8.5t20 -8.5t8 -20.5v-615q0 -12 -8 -20.5t-20 -8.5t-20.5 9t-8.5 20zM-39 762q0 19 19 19h263q19 0 19 -19q0 -7 -5.5 -12.5t-13.5 -5.5h-263q-8 0 -13.5 5.5t-5.5 12.5z" />
    <glyph glyph-name="imacron" unicode="&#x12b;" horiz-adv-x="214" 
d="M81 23v437q0 11 8 18.5t18 7.5q11 0 18.5 -7.5t7.5 -18.5v-437q0 -10 -7.5 -18t-18.5 -8q-10 0 -18 8t-8 18zM-44 615q0 19 19 19h263q19 0 19 -19q0 -7 -5.5 -12.5t-13.5 -5.5h-263q-8 0 -13.5 5.5t-5.5 12.5z" />
    <glyph glyph-name="Ibreve" unicode="&#x12c;" horiz-adv-x="223" 
d="M83 26v615q0 12 8.5 20.5t20.5 8.5t20 -8.5t8 -20.5v-615q0 -12 -8 -20.5t-20 -8.5t-20.5 9t-8.5 20zM-54 789q-4 4 -4 13q0 19 19 19q10 0 14 -6q55 -63 137 -63t137 63q3 6 14 6q7 0 13 -5.5t6 -13.5q0 -5 -5 -13q-67 -75 -165 -75q-97 0 -166 75z" />
    <glyph glyph-name="ibreve" unicode="&#x12d;" horiz-adv-x="214" 
d="M81 23v437q0 11 8 18.5t18 7.5q11 0 18.5 -7.5t7.5 -18.5v-437q0 -10 -7.5 -18t-18.5 -8q-10 0 -18 8t-8 18zM-59 642q-4 4 -4 13q0 19 19 19q10 0 14 -6q55 -63 137 -63q81 0 137 63q3 6 14 6q7 0 13 -5.5t6 -13.5q0 -5 -5 -13q-67 -75 -165 -75q-97 0 -166 75z" />
    <glyph glyph-name="Iogonek" unicode="&#x12e;" horiz-adv-x="223" 
d="M140 641v-615q0 -9 -5 -17q8 -2 -1 -7q-47 -30 -69.5 -54t-22.5 -50q0 -20 13 -32t34 -12q10 0 21 4l11 3q19 0 19 -19q0 -13 -11 -18q-23 -10 -48 -10q-38 0 -65 20t-27 53q0 32 29 63t77 53q-12 9 -12 23v615q0 12 8.5 20.5t20.5 8.5t20 -8.5t8 -20.5z" />
    <glyph glyph-name="iogonek" unicode="&#x12f;" horiz-adv-x="214" 
d="M147 623q0 -16 -11.5 -28t-28.5 -12q-16 0 -28 12t-12 28t12 28t28 12q17 0 28.5 -11.5t11.5 -28.5zM133 460v-437q0 -7 -4 -14q7 -2 -2 -7q-92 -56 -92 -104q0 -20 12.5 -32t34.5 -12q9 0 20 3.5t12 3.5q19 0 19 -19q0 -13 -11 -18q-23 -10 -48 -10q-38 0 -65 20t-27 53
t29.5 64t78.5 53q-9 7 -9 19v437q0 11 8 18.5t18 7.5q11 0 18.5 -7.5t7.5 -18.5z" />
    <glyph glyph-name="Idot" unicode="&#x130;" horiz-adv-x="223" 
d="M83 26v615q0 12 8.5 20.5t20.5 8.5t20 -8.5t8 -20.5v-615q0 -12 -8 -20.5t-20 -8.5t-20.5 9t-8.5 20zM112 808q15 0 26 -11t11 -27t-11 -27t-26 -11q-16 0 -27 11t-11 27t11 27t27 11z" />
    <glyph glyph-name="dotlessi" unicode="&#x131;" horiz-adv-x="214" 
d="M81 23v437q0 11 8 18.5t18 7.5q11 0 18.5 -7.5t7.5 -18.5v-437q0 -10 -7.5 -18t-18.5 -8q-10 0 -18 8t-8 18z" />
    <glyph glyph-name="IJ" unicode="&#x132;" horiz-adv-x="693" 
d="M83 26v615q0 12 8.5 20.5t20.5 8.5t20 -8.5t8 -20.5v-615q0 -12 -8 -20.5t-20 -8.5t-20.5 9t-8.5 20zM243 73q0 12 8.5 20.5t19.5 8.5t19 -8q50 -54 115 -54q66 0 106.5 42t40.5 111v448q0 12 8.5 20.5t20.5 8.5t20.5 -8.5t8.5 -20.5v-448q0 -97 -56 -151t-146 -54
q-94 0 -155 65q-10 7 -10 20z" />
    <glyph glyph-name="ij" unicode="&#x133;" horiz-adv-x="427" 
d="M67 623q0 16 12 28t28 12q17 0 28.5 -11.5t11.5 -28.5q0 -16 -11.5 -28t-28.5 -12q-16 0 -28 12t-12 28zM81 23v437q0 11 8 18.5t18 7.5q11 0 18.5 -7.5t7.5 -18.5v-437q0 -10 -7.5 -18t-18.5 -8q-10 0 -18 8t-8 18zM281 623q0 16 12 28t28 12q17 0 28.5 -11.5
t11.5 -28.5q0 -16 -11.5 -28t-28.5 -12q-16 0 -28 12t-12 28zM186 -192q-20 5 -20 23q0 9 6 16t15 7q1 0 10 -2t18 -2q80 0 80 88v522q0 11 8 18.5t18 7.5q11 0 18.5 -7.5t7.5 -18.5v-522q0 -65 -33.5 -99.5t-94.5 -34.5q-20 0 -33 4z" />
    <glyph glyph-name="Jcircumflex" unicode="&#x134;" horiz-adv-x="470" 
d="M20 73q0 12 8.5 20.5t19.5 8.5t19 -8q49 -54 115 -54t106.5 42t40.5 111v448q0 12 8.5 20.5t20.5 8.5t20.5 -8.5t8.5 -20.5v-448q0 -97 -56 -151t-146 -54q-94 0 -155 65q-10 7 -10 20zM445 739l-85 114l-86 -114q-6 -6 -12 -6q-7 0 -12 5t-5 12q0 1 2 9l80 116
q8 15 28 15h9q21 0 29 -15l79 -116q3 -5 3 -9q0 -7 -5.5 -12t-12.5 -5q-6 0 -12 6z" />
    <glyph glyph-name="jcircumflex" unicode="&#x135;" horiz-adv-x="214" 
d="M-28 -192q-20 5 -20 23q0 9 6 16t15 7q1 0 10 -2t18 -2q80 0 80 88v522q0 11 8 18.5t18 7.5q11 0 18.5 -7.5t7.5 -18.5v-522q0 -65 -33.5 -99.5t-94.5 -34.5q-20 0 -33 4zM193 575l-85 114l-86 -114q-6 -6 -12 -6q-7 0 -12 5t-5 12q0 1 2 9l80 116q8 15 28 15h9
q21 0 29 -15l79 -116q3 -5 3 -9q0 -7 -5.5 -12t-12.5 -5q-6 0 -12 6z" />
    <glyph glyph-name="uni0136" unicode="&#x136;" horiz-adv-x="586" 
d="M541 25q0 -11 -8 -19.5t-19 -8.5q-13 0 -21 8l-279 307l-74 -80v-206q0 -12 -8 -20.5t-20 -8.5t-20.5 9t-8.5 20v615q0 12 8.5 20.5t20.5 8.5t20 -8.5t8 -20.5v-340l326 360q7 9 20 9q11 0 19.5 -8t8.5 -19t-8 -19l-255 -276l282 -304q8 -11 8 -19zM264 -247q0 7 9 15
q39 38 41 78q-2 -1 -10 -1q-16 0 -26 10.5t-10 27.5q0 16 11 27.5t27 11.5q21 0 34 -16t13 -43q0 -72 -58 -121q-6 -6 -13 -6t-12.5 5t-5.5 12z" />
    <glyph glyph-name="uni0137" unicode="&#x137;" horiz-adv-x="505" 
d="M464 24q0 -11 -7.5 -19t-18.5 -8q-14 0 -21 9l-194 224l-90 -85v-122q0 -10 -7.5 -18t-18.5 -8q-10 0 -18 8t-8 18v621q0 11 8 18.5t18 7.5q11 0 18.5 -7.5t7.5 -18.5v-436l287 272q8 6 17 6q10 0 17 -7.5t7 -17.5t-8 -18l-190 -179l195 -222q6 -8 6 -18zM215 -247
q0 7 9 15q39 38 41 78q-2 -1 -10 -1q-16 0 -26 10.5t-10 27.5q0 16 11 27.5t27 11.5q21 0 34 -16t13 -43q0 -72 -58 -121q-6 -6 -13 -6t-12.5 5t-5.5 12z" />
    <glyph glyph-name="kgreenlandic" unicode="&#x138;" horiz-adv-x="505" 
d="M464 24q0 -11 -7.5 -19t-18.5 -8q-14 0 -21 9l-194 224l-90 -85v-122q0 -10 -7.5 -18t-18.5 -8q-10 0 -18 8t-8 18v437q0 11 8 18.5t18 7.5q11 0 18.5 -7.5t7.5 -18.5v-252l287 272q8 6 17 6q10 0 17 -7.5t7 -17.5t-8 -18l-190 -179l195 -222q6 -8 6 -18z" />
    <glyph glyph-name="Lacute" unicode="&#x139;" horiz-adv-x="504" 
d="M83 31v610q0 12 8.5 20.5t20.5 8.5t20 -8.5t8 -20.5v-589h300q11 0 18.5 -7.5t7.5 -18.5q0 -10 -7.5 -18t-18.5 -8h-326q-31 0 -31 31zM119 720q-6 0 -10.5 4.5t-4.5 10.5q0 3 5 11l127 118q6 6 14 6t14 -6t6 -14q0 -11 -7 -15l-133 -111q-4 -4 -11 -4z" />
    <glyph glyph-name="lacute" unicode="&#x13a;" horiz-adv-x="214" 
d="M81 23v621q0 11 8 18.5t18 7.5q11 0 18.5 -7.5t7.5 -18.5v-621q0 -10 -7.5 -18t-18.5 -8q-10 0 -18 8t-8 18zM114 720q-6 0 -10.5 4.5t-4.5 10.5q0 3 5 11l127 118q6 6 14 6t14 -6t6 -14q0 -11 -7 -15l-133 -111q-4 -4 -11 -4z" />
    <glyph glyph-name="uni013B" unicode="&#x13b;" horiz-adv-x="504" 
d="M83 31v610q0 12 8.5 20.5t20.5 8.5t20 -8.5t8 -20.5v-589h300q11 0 18.5 -7.5t7.5 -18.5q0 -10 -7.5 -18t-18.5 -8h-326q-31 0 -31 31zM231 -247q0 7 9 15q39 38 41 78q-2 -1 -10 -1q-16 0 -26 10.5t-10 27.5q0 16 11 27.5t27 11.5q21 0 34 -16t13 -43q0 -72 -58 -121
q-6 -6 -13 -6t-12.5 5t-5.5 12z" />
    <glyph glyph-name="uni013C" unicode="&#x13c;" horiz-adv-x="214" 
d="M81 23v621q0 11 8 18.5t18 7.5q11 0 18.5 -7.5t7.5 -18.5v-621q0 -10 -7.5 -18t-18.5 -8q-10 0 -18 8t-8 18zM64 -247q0 7 9 15q39 38 41 78q-2 -1 -10 -1q-16 0 -26 10.5t-10 27.5q0 16 11 27.5t27 11.5q21 0 34 -16t13 -43q0 -72 -58 -121q-6 -6 -13 -6t-12.5 5
t-5.5 12z" />
    <glyph glyph-name="Lcaron" unicode="&#x13d;" horiz-adv-x="504" 
d="M83 31v610q0 12 8.5 20.5t20.5 8.5t20 -8.5t8 -20.5v-589h300q11 0 18.5 -7.5t7.5 -18.5q0 -10 -7.5 -18t-18.5 -8h-326q-31 0 -31 31zM237 510q0 8 9 15q39 38 41 78q-2 -1 -10 -1q-16 0 -26 10.5t-10 27.5q0 16 11 27.5t27 11.5q21 0 34 -16t13 -43q0 -72 -58 -121
q-6 -6 -13 -6t-12.5 5t-5.5 12z" />
    <glyph glyph-name="lcaron" unicode="&#x13e;" horiz-adv-x="264" 
d="M81 23v621q0 11 8 18.5t18 7.5q11 0 18.5 -7.5t7.5 -18.5v-621q0 -10 -7.5 -18t-18.5 -8q-10 0 -18 8t-8 18zM183 510q0 8 9 15q39 38 41 78q-2 -1 -10 -1q-16 0 -26 10.5t-10 27.5q0 16 11 27.5t27 11.5q21 0 34 -16t13 -43q0 -72 -58 -121q-6 -6 -13 -6t-12.5 5
t-5.5 12z" />
    <glyph glyph-name="Ldot" unicode="&#x13f;" horiz-adv-x="504" 
d="M83 31v610q0 12 8.5 20.5t20.5 8.5t20 -8.5t8 -20.5v-589h300q11 0 18.5 -7.5t7.5 -18.5q0 -10 -7.5 -18t-18.5 -8h-326q-31 0 -31 31zM313 342q0 17 13 30t31 13t31.5 -13t13.5 -30q0 -18 -13.5 -31t-31.5 -13t-31 13t-13 31z" />
    <glyph glyph-name="ldot" unicode="&#x140;" horiz-adv-x="273" 
d="M81 23v621q0 11 8 18.5t18 7.5q11 0 18.5 -7.5t7.5 -18.5v-621q0 -10 -7.5 -18t-18.5 -8q-10 0 -18 8t-8 18zM199 245q0 17 13 30t31 13t31.5 -13t13.5 -30q0 -18 -13.5 -31t-31.5 -13t-31 13t-13 31z" />
    <glyph glyph-name="Lslash" unicode="&#x141;" horiz-adv-x="526" 
d="M488 26q0 -10 -7.5 -18t-18.5 -8h-326q-31 0 -31 31v257l-63 -36q-4 -3 -11 -3q-9 0 -16 6.5t-7 16.5q0 12 12 19l85 50v300q0 12 8 20.5t20 8.5t20.5 -8.5t8.5 -20.5v-267l74 43q4 3 11 3q10 0 17 -6.5t7 -16.5q0 -9 -12 -20l-97 -56v-269h300q11 0 18.5 -7.5t7.5 -18.5
z" />
    <glyph glyph-name="lslash" unicode="&#x142;" horiz-adv-x="277" 
d="M269 397q0 -11 -10 -17l-94 -54v-303q0 -10 -7.5 -18t-18.5 -8t-19 8t-8 18v273l-74 -43q-8 -2 -10 -2q-8 0 -14 5.5t-6 14.5q0 11 10 17l94 54v302q0 10 8 18t19 8t18.5 -7.5t7.5 -18.5v-272l74 43q8 2 10 2q8 0 14 -5.5t6 -14.5z" />
    <glyph glyph-name="Nacute" unicode="&#x143;" horiz-adv-x="699" 
d="M551 12l-411 564v-550q0 -12 -8 -20.5t-20 -8.5t-20.5 9t-8.5 20v606q0 16 10.5 27t26.5 11q21 0 31 -16l408 -555v542q0 12 8 20.5t20 8.5t20.5 -8.5t8.5 -20.5v-608q0 -14 -10.5 -25t-24.5 -11q-19 0 -30 15zM357 720q-6 0 -10.5 4.5t-4.5 10.5q0 3 5 11l127 118
q6 6 14 6t14 -6t6 -14q0 -11 -7 -15l-133 -111q-4 -4 -11 -4z" />
    <glyph glyph-name="nacute" unicode="&#x144;" horiz-adv-x="540" 
d="M459 338v-315q0 -10 -7.5 -18t-18.5 -8q-10 0 -18 8t-8 18v304q0 64 -29 92.5t-88 28.5q-44 0 -88.5 -23.5t-68.5 -59.5v-342q0 -10 -7.5 -18t-18.5 -8q-10 0 -18 8t-8 18v437q0 11 8 18.5t18 7.5q11 0 18.5 -7.5t7.5 -18.5v-50q31 36 79 60.5t95 24.5q152 0 152 -157z
M277 573q-6 0 -10.5 4.5t-4.5 10.5q0 3 5 11l127 118q6 6 14 6t14 -6t6 -14q0 -11 -7 -15l-133 -111q-4 -4 -11 -4z" />
    <glyph glyph-name="uni0145" unicode="&#x145;" horiz-adv-x="699" 
d="M551 12l-411 564v-550q0 -12 -8 -20.5t-20 -8.5t-20.5 9t-8.5 20v606q0 16 10.5 27t26.5 11q21 0 31 -16l408 -555v542q0 12 8 20.5t20 8.5t20.5 -8.5t8.5 -20.5v-608q0 -14 -10.5 -25t-24.5 -11q-19 0 -30 15zM298 -247q0 7 9 15q39 38 41 78q-2 -1 -10 -1
q-16 0 -26 10.5t-10 27.5q0 16 11 27.5t27 11.5q21 0 34 -16t13 -43q0 -72 -58 -121q-6 -6 -13 -6t-12.5 5t-5.5 12z" />
    <glyph glyph-name="uni0146" unicode="&#x146;" horiz-adv-x="540" 
d="M459 338v-315q0 -10 -7.5 -18t-18.5 -8q-10 0 -18 8t-8 18v304q0 64 -29 92.5t-88 28.5q-44 0 -88.5 -23.5t-68.5 -59.5v-342q0 -10 -7.5 -18t-18.5 -8q-10 0 -18 8t-8 18v437q0 11 8 18.5t18 7.5q11 0 18.5 -7.5t7.5 -18.5v-50q31 36 79 60.5t95 24.5q152 0 152 -157z
M227 -247q0 7 9 15q39 38 41 78q-2 -1 -10 -1q-16 0 -26 10.5t-10 27.5q0 16 11 27.5t27 11.5q21 0 34 -16t13 -43q0 -72 -58 -121q-6 -6 -13 -6t-12.5 5t-5.5 12z" />
    <glyph glyph-name="Ncaron" unicode="&#x147;" horiz-adv-x="699" 
d="M551 12l-411 564v-550q0 -12 -8 -20.5t-20 -8.5t-20.5 9t-8.5 20v606q0 16 10.5 27t26.5 11q21 0 31 -16l408 -555v542q0 12 8 20.5t20 8.5t20.5 -8.5t8.5 -20.5v-608q0 -14 -10.5 -25t-24.5 -11q-19 0 -30 15zM463 856q0 -5 -3 -8l-79 -116q-9 -16 -29 -16h-9
q-19 0 -28 16l-80 116q-2 6 -2 8q0 7 5 12t12 5q8 0 12 -6l86 -113l85 113q5 6 12 6t12.5 -5t5.5 -12z" />
    <glyph glyph-name="ncaron" unicode="&#x148;" horiz-adv-x="540" 
d="M459 338v-315q0 -10 -7.5 -18t-18.5 -8q-10 0 -18 8t-8 18v304q0 64 -29 92.5t-88 28.5q-44 0 -88.5 -23.5t-68.5 -59.5v-342q0 -10 -7.5 -18t-18.5 -8q-10 0 -18 8t-8 18v437q0 11 8 18.5t18 7.5q11 0 18.5 -7.5t7.5 -18.5v-50q31 36 79 60.5t95 24.5q152 0 152 -157z
M384 709q0 -5 -3 -8l-79 -116q-9 -16 -29 -16h-9q-19 0 -28 16l-80 116q-2 6 -2 8q0 7 5 12t12 5t12 -6l86 -113l85 113q4 6 12 6q7 0 12.5 -5t5.5 -12z" />
    <glyph glyph-name="napostrophe" unicode="&#x149;" horiz-adv-x="540" 
d="M459 338v-315q0 -10 -7.5 -18t-18.5 -8q-10 0 -18 8t-8 18v304q0 64 -29 92.5t-88 28.5q-44 0 -88.5 -23.5t-68.5 -59.5v-342q0 -10 -7.5 -18t-18.5 -8q-10 0 -18 8t-8 18v437q0 11 8 18.5t18 7.5q11 0 18.5 -7.5t7.5 -18.5v-50q31 36 79 60.5t95 24.5q152 0 152 -157z
M66 565q0 7 9 15q39 38 41 78q-2 -1 -10 -1q-16 0 -26 10.5t-10 27.5q0 16 11 27.5t27 11.5q21 0 34 -16t13 -43q0 -72 -58 -121q-6 -6 -13 -6t-12.5 5t-5.5 12z" />
    <glyph glyph-name="Eng" unicode="&#x14a;" horiz-adv-x="699" 
d="M616 641v-635q0 -99 -57 -150q-56 -52 -145 -52q-94 0 -155 65q-10 7 -10 20q0 12 8.5 20.5t19.5 8.5t19 -8q50 -54 116 -54q67 0 106 41t37 109l-415 570v-550q0 -12 -8 -20.5t-20 -8.5t-20.5 9t-8.5 20v606q0 16 10.5 27t26.5 11q21 0 31 -16l408 -555v542q0 12 8 20.5
t20 8.5t20.5 -8.5t8.5 -20.5z" />
    <glyph glyph-name="eng" unicode="&#x14b;" horiz-adv-x="540" 
d="M459 338v-400q0 -65 -33.5 -99.5t-94.5 -34.5q-21 0 -33 4q-20 5 -20 23q0 9 6 16t15 7q1 0 10 -2t18 -2q80 0 80 88v389q0 64 -29 92.5t-88 28.5q-44 0 -88.5 -23.5t-68.5 -59.5v-342q0 -10 -7.5 -18t-18.5 -8q-10 0 -18 8t-8 18v437q0 11 8 18.5t18 7.5q11 0 18.5 -7.5
t7.5 -18.5v-50q31 36 79 60.5t95 24.5q152 0 152 -157z" />
    <glyph glyph-name="Omacron" unicode="&#x14c;" horiz-adv-x="764" 
d="M382 678q141 2 233.5 -98.5t90.5 -246.5q2 -146 -90.5 -247t-233.5 -98q-141 -3 -233.5 97.5t-90.5 247.5q-2 147 90.5 247t233.5 98zM382 626q-119 0 -191.5 -82t-72.5 -211q0 -128 73 -210.5t191 -82.5q117 0 190.5 83t73.5 210q0 129 -73 211t-191 82zM231 762
q0 19 19 19h263q19 0 19 -19q0 -7 -5.5 -12.5t-13.5 -5.5h-263q-8 0 -13.5 5.5t-5.5 12.5z" />
    <glyph glyph-name="omacron" unicode="&#x14d;" 
d="M53 242q0 108 65 180.5t167 72.5q104 0 168.5 -72.5t64.5 -180.5q0 -109 -64.5 -181.5t-168.5 -72.5q-102 0 -167 72.5t-65 181.5zM462 242q0 86 -48.5 146t-128.5 60q-79 0 -127.5 -60t-48.5 -146t48.5 -146.5t127.5 -60.5q81 0 129 60t48 147zM134 615q0 19 19 19h263
q19 0 19 -19q0 -7 -5.5 -12.5t-13.5 -5.5h-263q-8 0 -13.5 5.5t-5.5 12.5z" />
    <glyph glyph-name="Obreve" unicode="&#x14e;" horiz-adv-x="764" 
d="M382 678q141 2 233.5 -98.5t90.5 -246.5q2 -146 -90.5 -247t-233.5 -98q-141 -3 -233.5 97.5t-90.5 247.5q-2 147 90.5 247t233.5 98zM382 626q-119 0 -191.5 -82t-72.5 -211q0 -128 73 -210.5t191 -82.5q117 0 190.5 83t73.5 210q0 129 -73 211t-191 82zM216 789
q-4 4 -4 13q0 19 19 19q9 0 14 -6q55 -63 137 -63t137 63q3 6 14 6q7 0 13 -5.5t6 -13.5q0 -5 -5 -13q-67 -75 -165 -75q-97 0 -166 75z" />
    <glyph glyph-name="obreve" unicode="&#x14f;" 
d="M53 242q0 108 65 180.5t167 72.5q104 0 168.5 -72.5t64.5 -180.5q0 -109 -64.5 -181.5t-168.5 -72.5q-102 0 -167 72.5t-65 181.5zM462 242q0 86 -48.5 146t-128.5 60q-79 0 -127.5 -60t-48.5 -146t48.5 -146.5t127.5 -60.5q81 0 129 60t48 147zM119 642q-4 4 -4 13
q0 19 19 19q10 0 14 -6q55 -63 137 -63q81 0 137 63q3 6 14 6q7 0 13 -5.5t6 -13.5q0 -5 -5 -13q-67 -75 -165 -75q-97 0 -166 75z" />
    <glyph glyph-name="Ohungarumlaut" unicode="&#x150;" horiz-adv-x="764" 
d="M382 678q141 2 233.5 -98.5t90.5 -246.5q2 -146 -90.5 -247t-233.5 -98q-141 -3 -233.5 97.5t-90.5 247.5q-2 147 90.5 247t233.5 98zM382 626q-119 0 -191.5 -82t-72.5 -211q0 -128 73 -210.5t191 -82.5q117 0 190.5 83t73.5 210q0 129 -73 211t-191 82zM299 732
q0 7 4 11l83 121q4 10 17 10q8 0 14.5 -6.5t6.5 -15.5q0 -8 -4 -12l-92 -115q-5 -8 -13 -8q-6 0 -11 4.5t-5 10.5zM438 732q0 7 4 11l83 121q4 10 17 10q8 0 14.5 -6.5t6.5 -15.5q0 -8 -4 -12l-92 -115q-5 -8 -13 -8q-6 0 -11 4.5t-5 10.5z" />
    <glyph glyph-name="ohungarumlaut" unicode="&#x151;" 
d="M53 242q0 108 65 180.5t167 72.5q104 0 168.5 -72.5t64.5 -180.5q0 -109 -64.5 -181.5t-168.5 -72.5q-102 0 -167 72.5t-65 181.5zM462 242q0 86 -48.5 146t-128.5 60q-79 0 -127.5 -60t-48.5 -146t48.5 -146.5t127.5 -60.5q81 0 129 60t48 147zM203 585q0 7 4 11l83 121
q4 10 17 10q8 0 14.5 -6.5t6.5 -15.5q0 -8 -4 -12l-92 -115q-5 -8 -13 -8q-6 0 -11 4.5t-5 10.5zM342 585q0 7 4 11l83 121q4 10 17 10q8 0 14.5 -6.5t6.5 -15.5q0 -8 -4 -12l-92 -115q-5 -8 -13 -8q-6 0 -11 4.5t-5 10.5z" />
    <glyph glyph-name="OE" unicode="&#x152;" horiz-adv-x="1115" 
d="M1058 26q0 -10 -7.5 -18t-18.5 -8h-369q-31 0 -31 31v105q-36 -70 -104.5 -109t-148.5 -39q-141 -3 -232 97.5t-89 247.5q0 148 89.5 246t231.5 98q80 0 148.5 -39t104.5 -108v106q0 31 31 31h369q11 0 18.5 -7.5t7.5 -18.5q0 -10 -7.5 -18t-18.5 -8h-342v-247h335
q11 0 18.5 -7.5t7.5 -18.5q0 -10 -7.5 -18t-18.5 -8h-335v-264h342q11 0 18.5 -7.5t7.5 -18.5zM632 221v225q-30 87 -95.5 133t-153.5 46q-120 0 -192.5 -81.5t-72.5 -210.5t73 -211t192 -82q87 0 152 47t97 134z" />
    <glyph glyph-name="oe" unicode="&#x153;" horiz-adv-x="975" 
d="M707 33q84 0 145 55q4 4 13 4t15.5 -6t6.5 -16t-9 -17q-74 -65 -174 -65q-90 0 -142 46t-72 105q-23 -60 -71 -105q-49 -46 -134 -46q-102 0 -167 72.5t-65 181.5q0 108 65 180.5t167 72.5q87 0 136 -48q49 -46 69 -103q19 55 70 103q52 48 134 48q104 0 166 -73.5
t62 -182.5q0 -14 -31 -14h-372q3 -82 55 -137t133 -55zM693 450q-76 0 -124 -56t-51 -128h351q-2 73 -48.5 128.5t-127.5 55.5zM109 242q0 -87 48.5 -147.5t127.5 -60.5q81 0 129 60.5t48 147.5t-48 146.5t-129 59.5q-79 0 -127.5 -60t-48.5 -146z" />
    <glyph glyph-name="Racute" unicode="&#x154;" horiz-adv-x="594" 
d="M360 281l170 -238q5 -8 5 -18q0 -12 -7.5 -20t-19.5 -8q-16 0 -25 12l-186 267h-157v-250q0 -12 -8 -20.5t-20 -8.5t-20.5 9t-8.5 20v610q0 31 31 31h218q89 0 146 -53t57 -142q0 -82 -49 -133.5t-126 -57.5zM140 615v-287h187q66 0 107 40.5t41 103.5t-41 103t-107 40
h-187zM307 720q-6 0 -10.5 4.5t-4.5 10.5q0 3 5 11l127 118q6 6 14 6t14 -6t6 -14q0 -11 -7 -15l-133 -111q-4 -4 -11 -4z" />
    <glyph glyph-name="racute" unicode="&#x155;" horiz-adv-x="317" 
d="M300 464q0 -10 -8.5 -17.5t-22.5 -8.5q-37 -2 -78 -27q-39 -25 -58 -59v-329q0 -10 -7.5 -18t-18.5 -8q-10 0 -18 8t-8 18v437q0 11 8 18.5t18 7.5q11 0 18.5 -7.5t7.5 -18.5v-61q54 72 118 88q12 4 23 4q26 0 26 -27zM195 573q-6 0 -10.5 4.5t-4.5 10.5q0 3 5 11
l127 118q6 6 14 6t14 -6t6 -14q0 -11 -7 -15l-133 -111q-4 -4 -11 -4z" />
    <glyph glyph-name="uni0156" unicode="&#x156;" horiz-adv-x="594" 
d="M360 281l170 -238q5 -8 5 -18q0 -12 -7.5 -20t-19.5 -8q-16 0 -25 12l-186 267h-157v-250q0 -12 -8 -20.5t-20 -8.5t-20.5 9t-8.5 20v610q0 31 31 31h218q89 0 146 -53t57 -142q0 -82 -49 -133.5t-126 -57.5zM140 615v-287h187q66 0 107 40.5t41 103.5t-41 103t-107 40
h-187zM257 -247q0 7 9 15q39 38 41 78q-2 -1 -10 -1q-16 0 -26 10.5t-10 27.5q0 16 11 27.5t27 11.5q21 0 34 -16t13 -43q0 -72 -58 -121q-6 -6 -13 -6t-12.5 5t-5.5 12z" />
    <glyph glyph-name="uni0157" unicode="&#x157;" horiz-adv-x="317" 
d="M300 464q0 -10 -8.5 -17.5t-22.5 -8.5q-37 -2 -78 -27q-39 -25 -58 -59v-329q0 -10 -7.5 -18t-18.5 -8q-10 0 -18 8t-8 18v437q0 11 8 18.5t18 7.5q11 0 18.5 -7.5t7.5 -18.5v-61q54 72 118 88q12 4 23 4q26 0 26 -27zM65 -247q0 7 9 15q39 38 41 78q-2 -1 -10 -1
q-16 0 -26 10.5t-10 27.5q0 16 11 27.5t27 11.5q21 0 34 -16t13 -43q0 -72 -58 -121q-6 -6 -13 -6t-12.5 5t-5.5 12z" />
    <glyph glyph-name="Rcaron" unicode="&#x158;" horiz-adv-x="594" 
d="M360 281l170 -238q5 -8 5 -18q0 -12 -7.5 -20t-19.5 -8q-16 0 -25 12l-186 267h-157v-250q0 -12 -8 -20.5t-20 -8.5t-20.5 9t-8.5 20v610q0 31 31 31h218q89 0 146 -53t57 -142q0 -82 -49 -133.5t-126 -57.5zM140 615v-287h187q66 0 107 40.5t41 103.5t-41 103t-107 40
h-187zM414 856q0 -5 -3 -8l-79 -116q-9 -16 -29 -16h-9q-19 0 -28 16l-80 116q-2 6 -2 8q0 7 5 12t12 5t12 -6l86 -113l85 113q4 6 12 6q7 0 12.5 -5t5.5 -12z" />
    <glyph glyph-name="rcaron" unicode="&#x159;" horiz-adv-x="317" 
d="M300 464q0 -10 -8.5 -17.5t-22.5 -8.5q-37 -2 -78 -27q-39 -25 -58 -59v-329q0 -10 -7.5 -18t-18.5 -8q-10 0 -18 8t-8 18v437q0 11 8 18.5t18 7.5q11 0 18.5 -7.5t7.5 -18.5v-61q54 72 118 88q12 4 23 4q26 0 26 -27zM302 709q0 -5 -3 -8l-79 -116q-9 -16 -29 -16h-9
q-19 0 -28 16l-80 116q-2 6 -2 8q0 7 5 12t12 5t12 -6l86 -113l85 113q4 6 12 6q7 0 12.5 -5t5.5 -12z" />
    <glyph glyph-name="Sacute" unicode="&#x15a;" horiz-adv-x="581" 
d="M54 97q0 12 8.5 20.5t19.5 8.5q12 0 20 -7q80 -79 189 -79q94 0 134 40q42 40 42 93q0 45 -25 71q-22 26 -57 41.5t-101 32.5q-61 17 -115 37q-102 44 -102 145q0 79 63.5 128.5t158.5 49.5q123 0 206 -77q11 -8 11 -21q0 -11 -8.5 -19.5t-20.5 -8.5t-18 7
q-67 67 -173 67q-69 0 -114 -34.5t-45 -88.5q0 -36 23 -61q22 -22 54.5 -35.5t96.5 -29.5q69 -20 118 -41q108 -45 108 -159q0 -78 -58.5 -133.5t-178.5 -55.5q-137 0 -227 88q-9 8 -9 21zM293 720q-6 0 -10.5 4.5t-4.5 10.5q0 3 5 11l127 118q6 6 14 6t14 -6t6 -14
q0 -11 -7 -15l-133 -111q-4 -4 -11 -4z" />
    <glyph glyph-name="sacute" unicode="&#x15b;" horiz-adv-x="459" 
d="M45 68q0 11 7.5 18t17.5 7q9 0 15 -6q60 -55 141 -55q59 0 94 26.5t35 69.5q-3 42 -32 60t-103 38q-53 13 -89 26q-81 31 -81 109q0 58 47.5 96t124.5 38q98 0 159 -58q8 -8 8 -18q0 -9 -6.5 -16t-16.5 -7q-8 0 -14 6q-51 49 -130 49q-54 0 -87.5 -24t-33.5 -63
q3 -38 30 -53.5t99 -33.5q49 -12 91 -28q85 -34 85 -119q0 -64 -48 -103t-133 -39q-105 0 -171 62q-9 8 -9 18zM229 573q-6 0 -10.5 4.5t-4.5 10.5q0 3 5 11l127 118q6 6 14 6t14 -6t6 -14q0 -11 -7 -15l-133 -111q-4 -4 -11 -4z" />
    <glyph glyph-name="Scircumflex" unicode="&#x15c;" horiz-adv-x="581" 
d="M54 97q0 12 8.5 20.5t19.5 8.5q12 0 20 -7q80 -79 189 -79q94 0 134 40q42 40 42 93q0 45 -25 71q-22 26 -57 41.5t-101 32.5q-61 17 -115 37q-102 44 -102 145q0 79 63.5 128.5t158.5 49.5q123 0 206 -77q11 -8 11 -21q0 -11 -8.5 -19.5t-20.5 -8.5t-18 7
q-67 67 -173 67q-69 0 -114 -34.5t-45 -88.5q0 -36 23 -61q22 -22 54.5 -35.5t96.5 -29.5q69 -20 118 -41q108 -45 108 -159q0 -78 -58.5 -133.5t-178.5 -55.5q-137 0 -227 88q-9 8 -9 21zM372 722l-85 114l-86 -114q-6 -6 -12 -6q-7 0 -12 5t-5 12q0 1 2 9l80 116
q8 15 28 15h9q21 0 29 -15l79 -116q3 -4 3 -9q0 -7 -5.5 -12t-12.5 -5q-6 0 -12 6z" />
    <glyph glyph-name="scircumflex" unicode="&#x15d;" horiz-adv-x="459" 
d="M45 68q0 11 7.5 18t17.5 7q9 0 15 -6q60 -55 141 -55q59 0 94 26.5t35 69.5q-3 42 -32 60t-103 38q-53 13 -89 26q-81 31 -81 109q0 58 47.5 96t124.5 38q98 0 159 -58q8 -8 8 -18q0 -9 -6.5 -16t-16.5 -7q-8 0 -14 6q-51 49 -130 49q-54 0 -87.5 -24t-33.5 -63
q3 -38 30 -53.5t99 -33.5q49 -12 91 -28q85 -34 85 -119q0 -64 -48 -103t-133 -39q-105 0 -171 62q-9 8 -9 18zM308 575l-85 114l-86 -114q-6 -6 -12 -6q-7 0 -12 5t-5 12q0 1 2 9l80 116q8 15 28 15h9q21 0 29 -15l79 -116q3 -5 3 -9q0 -7 -5.5 -12t-12.5 -5q-6 0 -12 6z
" />
    <glyph glyph-name="uni015E" unicode="&#x15e;" horiz-adv-x="581" 
d="M303 -12l-17 -45q15 12 38 12q29 0 47 -18t18 -48q0 -35 -29 -56.5t-72 -21.5q-47 0 -88 23q-9 6 -9 15q0 18 18 18q5 0 11 -3q29 -20 67 -20q28 0 47 12t19 33q0 39 -41 39q-22 0 -35 -12q-4 -4 -12 -4t-13.5 5.5t-5.5 12.5q0 1 2 9l19 50q-124 7 -204 87q-9 8 -9 21
q0 12 8.5 20.5t19.5 8.5q12 0 20 -7q80 -79 189 -79q94 0 134 40q42 40 42 93q0 45 -25 71q-22 26 -57 41.5t-101 32.5q-61 17 -115 37q-102 44 -102 145q0 79 63.5 128.5t158.5 49.5q123 0 206 -77q11 -8 11 -21q0 -11 -8.5 -19.5t-20.5 -8.5t-18 7q-67 67 -173 67
q-69 0 -114 -34.5t-45 -88.5q0 -36 23 -61q22 -22 54.5 -35.5t96.5 -29.5q69 -20 118 -41q108 -45 108 -159q0 -76 -55.5 -131t-168.5 -58z" />
    <glyph glyph-name="uni015F" unicode="&#x15f;" horiz-adv-x="459" 
d="M240 -12l-17 -45q15 12 37 12q29 0 47.5 -18t18.5 -48q0 -35 -29 -56.5t-72 -21.5q-51 0 -88 23q-9 4 -9 15q0 18 17 18q5 0 11 -3q29 -20 68 -20q28 0 46.5 12.5t18.5 32.5q0 39 -41 39q-22 0 -35 -12q-4 -4 -11 -4q-19 0 -19 18q0 1 2 9l18 50q-87 4 -149 61
q-9 8 -9 18q0 11 7.5 18t17.5 7q9 0 15 -6q60 -55 141 -55q59 0 94 26.5t35 69.5q-3 42 -32 60t-103 38q-53 13 -89 26q-81 31 -81 109q0 58 47.5 96t124.5 38q98 0 159 -58q8 -8 8 -18q0 -9 -6.5 -16t-16.5 -7q-8 0 -14 6q-51 49 -130 49q-54 0 -87.5 -24t-33.5 -63
q3 -38 30 -53.5t99 -33.5q49 -12 91 -28q85 -34 85 -119q0 -61 -43.5 -99.5t-122.5 -42.5z" />
    <glyph glyph-name="Scaron" unicode="&#x160;" horiz-adv-x="581" 
d="M54 97q0 12 8.5 20.5t19.5 8.5q12 0 20 -7q80 -79 189 -79q94 0 134 40q42 40 42 93q0 45 -25 71q-22 26 -57 41.5t-101 32.5q-61 17 -115 37q-102 44 -102 145q0 79 63.5 128.5t158.5 49.5q123 0 206 -77q11 -8 11 -21q0 -11 -8.5 -19.5t-20.5 -8.5t-18 7
q-67 67 -173 67q-69 0 -114 -34.5t-45 -88.5q0 -36 23 -61q22 -22 54.5 -35.5t96.5 -29.5q69 -20 118 -41q108 -45 108 -159q0 -78 -58.5 -133.5t-178.5 -55.5q-137 0 -227 88q-9 8 -9 21zM399 856q0 -5 -3 -8l-79 -116q-9 -16 -29 -16h-9q-19 0 -28 16l-80 116q-2 6 -2 8
q0 7 5 12t12 5q8 0 12 -6l86 -113l85 113q5 6 12 6t12.5 -5t5.5 -12z" />
    <glyph glyph-name="scaron" unicode="&#x161;" horiz-adv-x="459" 
d="M45 68q0 11 7.5 18t17.5 7q9 0 15 -6q60 -55 141 -55q59 0 94 26.5t35 69.5q-3 42 -32 60t-103 38q-53 13 -89 26q-81 31 -81 109q0 58 47.5 96t124.5 38q98 0 159 -58q8 -8 8 -18q0 -9 -6.5 -16t-16.5 -7q-8 0 -14 6q-51 49 -130 49q-54 0 -87.5 -24t-33.5 -63
q3 -38 30 -53.5t99 -33.5q49 -12 91 -28q85 -34 85 -119q0 -64 -48 -103t-133 -39q-105 0 -171 62q-9 8 -9 18zM335 709q0 -5 -3 -8l-79 -116q-9 -16 -29 -16h-9q-19 0 -28 16l-80 116q-2 6 -2 8q0 7 5 12t12 5q8 0 12 -6l86 -113l85 113q5 6 12 6t12.5 -5t5.5 -12z" />
    <glyph glyph-name="uni0162" unicode="&#x162;" horiz-adv-x="564" 
d="M253 26v589h-195q-10 0 -18 8t-8 18q0 11 8 18.5t18 7.5h449q11 0 18.5 -7.5t7.5 -18.5q0 -10 -7.5 -18t-18.5 -8h-196v-589q0 -11 -8.5 -20t-20.5 -9t-20.5 9t-8.5 20zM240 -247q0 7 9 15q39 38 41 78q-2 -1 -10 -1q-16 0 -26 10.5t-10 27.5q0 16 11 27.5t27 11.5
q21 0 34 -16t13 -43q0 -72 -58 -121q-6 -6 -13 -6t-12.5 5t-5.5 12z" />
    <glyph glyph-name="uni0163" unicode="&#x163;" horiz-adv-x="275" 
d="M265 27q0 -12 -12 -20q-26 -19 -67 -19q-95 0 -95 105v344h-59q-10 0 -17 6.5t-7 16.5t7 16.5t17 6.5h59v109q0 11 8 18.5t19 7.5t18.5 -7.5t7.5 -18.5v-109h77q10 0 17 -6.5t7 -16.5t-7 -16.5t-17 -6.5h-77v-336q0 -66 50 -66q14 0 30.5 7.5t17.5 7.5q10 0 16.5 -6.5
t6.5 -16.5zM100 -247q0 7 9 15q39 38 41 78q-2 -1 -10 -1q-16 0 -26 10.5t-10 27.5q0 16 11 27.5t27 11.5q21 0 34 -16t13 -43q0 -72 -58 -121q-6 -6 -13 -6t-12.5 5t-5.5 12z" />
    <glyph glyph-name="Tcaron" unicode="&#x164;" horiz-adv-x="564" 
d="M253 26v589h-195q-10 0 -18 8t-8 18q0 11 8 18.5t18 7.5h449q11 0 18.5 -7.5t7.5 -18.5q0 -10 -7.5 -18t-18.5 -8h-196v-589q0 -11 -8.5 -20t-20.5 -9t-20.5 9t-8.5 20zM396 856q0 -5 -3 -8l-79 -116q-9 -16 -29 -16h-9q-19 0 -28 16l-80 116q-2 6 -2 8q0 7 5 12t12 5
t12 -6l86 -113l85 113q4 6 12 6q7 0 12.5 -5t5.5 -12z" />
    <glyph glyph-name="tcaron" unicode="&#x165;" horiz-adv-x="285" 
d="M265 27q0 -12 -12 -20q-26 -19 -67 -19q-95 0 -95 105v344h-59q-10 0 -17 6.5t-7 16.5t7 16.5t17 6.5h59v109q0 11 8 18.5t19 7.5t18.5 -7.5t7.5 -18.5v-109h77q10 0 17 -6.5t7 -16.5t-7 -16.5t-17 -6.5h-77v-336q0 -66 50 -66q14 0 30.5 7.5t17.5 7.5q10 0 16.5 -6.5
t6.5 -16.5zM204 565q0 7 9 15q39 38 41 78q-2 -1 -10 -1q-16 0 -26 10.5t-10 27.5q0 16 11 27.5t27 11.5q21 0 34 -16t13 -43q0 -72 -58 -121q-6 -6 -13 -6t-12.5 5t-5.5 12z" />
    <glyph glyph-name="Tbar" unicode="&#x166;" horiz-adv-x="564" 
d="M533 641q0 -10 -7.5 -18t-18.5 -8h-196v-270h142q19 0 19 -19q0 -7 -5.5 -12.5t-13.5 -5.5h-142v-282q0 -11 -8.5 -20t-20.5 -9t-20.5 9t-8.5 20v282h-142q-19 0 -19 19q0 7 5.5 12.5t13.5 5.5h142v270h-195q-10 0 -18 8t-8 18q0 11 8 18.5t18 7.5h449q11 0 18.5 -7.5
t7.5 -18.5z" />
    <glyph glyph-name="tbar" unicode="&#x167;" horiz-adv-x="275" 
d="M265 27q0 -12 -12 -20q-26 -19 -67 -19q-95 0 -95 105v141h-64q-7 0 -13 6t-6 13q0 8 6 13.5t13 5.5h64v165h-59q-10 0 -17 6.5t-7 16.5t7 16.5t17 6.5h59v109q0 11 8 18.5t19 7.5t18.5 -7.5t7.5 -18.5v-109h77q10 0 17 -6.5t7 -16.5t-7 -16.5t-17 -6.5h-77v-165h55
q19 0 19 -19q0 -7 -5.5 -13t-13.5 -6h-55v-133q0 -66 50 -66q14 0 30.5 7.5t17.5 7.5q10 0 16.5 -6.5t6.5 -16.5z" />
    <glyph glyph-name="Utilde" unicode="&#x168;" horiz-adv-x="686" 
d="M83 256v385q0 12 8.5 20.5t20.5 8.5t20.5 -8.5t8.5 -20.5v-384q0 -102 53 -159.5t149 -57.5q98 0 150 57t52 160v384q0 12 8.5 20.5t20.5 8.5q13 0 21 -8.5t8 -20.5v-385q0 -127 -67 -197.5t-193 -70.5q-125 0 -192.5 71t-67.5 197zM329 779q-14 24 -24.5 34.5
t-25.5 10.5q-22 0 -36.5 -21.5t-16.5 -62.5q-2 -16 -18 -16q-7 0 -12.5 6t-4.5 13q4 54 28.5 86t63.5 32q25 0 40.5 -13t34.5 -45q16 -25 25.5 -34.5t24.5 -9.5q22 0 36.5 21t16.5 62q2 16 18 16q7 0 12.5 -5.5t4.5 -13.5q-4 -54 -28 -86t-63 -32q-26 0 -41 12.5t-35 45.5z
" />
    <glyph glyph-name="utilde" unicode="&#x169;" horiz-adv-x="540" 
d="M459 460v-437q0 -10 -7.5 -18t-18.5 -8q-10 0 -18 8t-8 18v48q-34 -37 -79.5 -60t-94.5 -23q-152 0 -152 155v317q0 11 8 18.5t18 7.5q11 0 18.5 -7.5t7.5 -18.5v-305q0 -65 29 -92.5t88 -27.5q44 0 88 23t69 57v345q0 11 8 18.5t18 7.5q11 0 18.5 -7.5t7.5 -18.5z
M256 632q-14 24 -24.5 34.5t-25.5 10.5q-48 0 -53 -84q-2 -16 -18 -16q-7 0 -12.5 6t-4.5 13q4 54 28.5 86t63.5 32q25 0 40.5 -13t34.5 -45q16 -25 25.5 -34.5t24.5 -9.5q22 0 36.5 21t16.5 62q2 16 18 16q7 0 12.5 -5.5t4.5 -13.5q-4 -54 -28 -86t-63 -32q-26 0 -41 12.5
t-35 45.5z" />
    <glyph glyph-name="Umacron" unicode="&#x16a;" horiz-adv-x="686" 
d="M83 256v385q0 12 8.5 20.5t20.5 8.5t20.5 -8.5t8.5 -20.5v-384q0 -102 53 -159.5t149 -57.5q98 0 150 57t52 160v384q0 12 8.5 20.5t20.5 8.5q13 0 21 -8.5t8 -20.5v-385q0 -127 -67 -197.5t-193 -70.5q-125 0 -192.5 71t-67.5 197zM192 762q0 19 19 19h263q19 0 19 -19
q0 -7 -5.5 -12.5t-13.5 -5.5h-263q-8 0 -13.5 5.5t-5.5 12.5z" />
    <glyph glyph-name="umacron" unicode="&#x16b;" horiz-adv-x="540" 
d="M459 460v-437q0 -10 -7.5 -18t-18.5 -8q-10 0 -18 8t-8 18v48q-34 -37 -79.5 -60t-94.5 -23q-152 0 -152 155v317q0 11 8 18.5t18 7.5q11 0 18.5 -7.5t7.5 -18.5v-305q0 -65 29 -92.5t88 -27.5q44 0 88 23t69 57v345q0 11 8 18.5t18 7.5q11 0 18.5 -7.5t7.5 -18.5z
M119 615q0 19 19 19h263q19 0 19 -19q0 -7 -5.5 -12.5t-13.5 -5.5h-263q-8 0 -13.5 5.5t-5.5 12.5z" />
    <glyph glyph-name="Ubreve" unicode="&#x16c;" horiz-adv-x="686" 
d="M83 256v385q0 12 8.5 20.5t20.5 8.5t20.5 -8.5t8.5 -20.5v-384q0 -102 53 -159.5t149 -57.5q98 0 150 57t52 160v384q0 12 8.5 20.5t20.5 8.5q13 0 21 -8.5t8 -20.5v-385q0 -127 -67 -197.5t-193 -70.5q-125 0 -192.5 71t-67.5 197zM177 789q-4 4 -4 13q0 19 19 19
q9 0 14 -6q55 -63 137 -63q81 0 137 63q3 6 14 6q7 0 13 -5.5t6 -13.5q0 -5 -5 -13q-67 -75 -165 -75q-97 0 -166 75z" />
    <glyph glyph-name="ubreve" unicode="&#x16d;" horiz-adv-x="540" 
d="M459 460v-437q0 -10 -7.5 -18t-18.5 -8q-10 0 -18 8t-8 18v48q-34 -37 -79.5 -60t-94.5 -23q-152 0 -152 155v317q0 11 8 18.5t18 7.5q11 0 18.5 -7.5t7.5 -18.5v-305q0 -65 29 -92.5t88 -27.5q44 0 88 23t69 57v345q0 11 8 18.5t18 7.5q11 0 18.5 -7.5t7.5 -18.5z
M104 642q-4 4 -4 13q0 19 19 19q9 0 14 -6q55 -63 137 -63t137 63q3 6 14 6q7 0 13 -5.5t6 -13.5q0 -5 -5 -13q-67 -75 -165 -75q-97 0 -166 75z" />
    <glyph glyph-name="Uring" unicode="&#x16e;" horiz-adv-x="686" 
d="M83 256v385q0 12 8.5 20.5t20.5 8.5t20.5 -8.5t8.5 -20.5v-384q0 -102 53 -159.5t149 -57.5q98 0 150 57t52 160v384q0 12 8.5 20.5t20.5 8.5q13 0 21 -8.5t8 -20.5v-385q0 -127 -67 -197.5t-193 -70.5q-125 0 -192.5 71t-67.5 197zM344 907q39 0 66.5 -28.5t27.5 -67.5
q0 -40 -27.5 -68t-66.5 -28q-40 0 -68 28t-28 68q0 39 28 67.5t68 28.5zM344 875q-26 0 -45 -19t-19 -45t19 -45t45 -19t44.5 19t18.5 45t-18.5 45t-44.5 19z" />
    <glyph glyph-name="uring" unicode="&#x16f;" horiz-adv-x="540" 
d="M459 460v-437q0 -10 -7.5 -18t-18.5 -8q-10 0 -18 8t-8 18v48q-34 -37 -79.5 -60t-94.5 -23q-152 0 -152 155v317q0 11 8 18.5t18 7.5q11 0 18.5 -7.5t7.5 -18.5v-305q0 -65 29 -92.5t88 -27.5q44 0 88 23t69 57v345q0 11 8 18.5t18 7.5q11 0 18.5 -7.5t7.5 -18.5z
M271 760q39 0 66.5 -28.5t27.5 -67.5q0 -40 -27.5 -68t-66.5 -28q-40 0 -68 28t-28 68q0 39 28 67.5t68 28.5zM271 728q-26 0 -45 -19t-19 -45t19 -45t45 -19t44.5 19t18.5 45t-18.5 45t-44.5 19z" />
    <glyph glyph-name="Uhungarumlaut" unicode="&#x170;" horiz-adv-x="686" 
d="M83 256v385q0 12 8.5 20.5t20.5 8.5t20.5 -8.5t8.5 -20.5v-384q0 -102 53 -159.5t149 -57.5q98 0 150 57t52 160v384q0 12 8.5 20.5t20.5 8.5q13 0 21 -8.5t8 -20.5v-385q0 -127 -67 -197.5t-193 -70.5q-125 0 -192.5 71t-67.5 197zM260 732q0 7 4 11l83 121q4 10 17 10
q8 0 14.5 -6.5t6.5 -15.5q0 -8 -4 -12l-92 -115q-5 -8 -13 -8q-6 0 -11 4.5t-5 10.5zM399 732q0 7 4 11l83 121q4 10 17 10q8 0 14.5 -6.5t6.5 -15.5q0 -8 -4 -12l-92 -115q-5 -8 -13 -8q-6 0 -11 4.5t-5 10.5z" />
    <glyph glyph-name="uhungarumlaut" unicode="&#x171;" horiz-adv-x="540" 
d="M459 460v-437q0 -10 -7.5 -18t-18.5 -8q-10 0 -18 8t-8 18v48q-34 -37 -79.5 -60t-94.5 -23q-152 0 -152 155v317q0 11 8 18.5t18 7.5q11 0 18.5 -7.5t7.5 -18.5v-305q0 -65 29 -92.5t88 -27.5q44 0 88 23t69 57v345q0 11 8 18.5t18 7.5q11 0 18.5 -7.5t7.5 -18.5z
M187 585q0 7 4 11l83 121q4 10 17 10q8 0 14.5 -6.5t6.5 -15.5q0 -8 -4 -12l-92 -115q-5 -8 -13 -8q-6 0 -11 4.5t-5 10.5zM326 585q0 7 4 11l83 121q4 10 17 10q8 0 14.5 -6.5t6.5 -15.5q0 -8 -4 -12l-92 -115q-5 -8 -13 -8q-6 0 -11 4.5t-5 10.5z" />
    <glyph glyph-name="Uogonek" unicode="&#x172;" horiz-adv-x="686" 
d="M83 256v385q0 12 8.5 20.5t20.5 8.5t20.5 -8.5t8.5 -20.5v-384q0 -102 53 -159.5t149 -57.5q98 0 150 57t52 160v384q0 12 8.5 20.5t20.5 8.5q13 0 21 -8.5t8 -20.5v-385q0 -193 -149 -250q-55 -21 -86 -49.5t-31 -58.5q0 -20 12.5 -32t34.5 -12q9 0 22 5l5 1
q8 0 14 -5.5t6 -14.5q0 -14 -12 -18q-22 -8 -43 -8q-39 0 -65.5 20t-26.5 53q0 56 80 102q-5 -1 -21 -1q-125 0 -192.5 71t-67.5 197z" />
    <glyph glyph-name="uogonek" unicode="&#x173;" horiz-adv-x="540" 
d="M459 460v-437q0 -7 -4 -14q7 -2 -2 -7q-92 -56 -92 -104q0 -20 12.5 -32t34.5 -12q10 0 21 4l11 3q19 0 19 -19q0 -13 -11 -18q-23 -10 -48 -10q-38 0 -65 20t-27 53t29.5 64t78.5 53q-9 8 -9 19v48q-34 -37 -79.5 -60t-94.5 -23q-152 0 -152 155v317q0 11 8 18.5t18 7.5
q11 0 18.5 -7.5t7.5 -18.5v-305q0 -65 29 -92.5t88 -27.5q44 0 88 23t69 57v345q0 11 8 18.5t18 7.5q11 0 18.5 -7.5t7.5 -18.5z" />
    <glyph glyph-name="Wcircumflex" unicode="&#x174;" horiz-adv-x="867" 
d="M586 27l-152 546l-153 -546q-3 -13 -14 -21.5t-25 -8.5t-25.5 8.5t-14.5 21.5l-172 602q-1 3 -1 11q0 12 9 21t21 9q10 0 18.5 -6.5t10.5 -16.5l156 -567l158 566q6 24 32 24q25 0 31 -24l158 -566l156 567q2 10 10.5 16.5t18.5 6.5q13 0 22 -9t9 -22l-2 -10l-171 -602
q-8 -30 -40 -30q-31 0 -40 30zM520 722l-85 114l-86 -114q-6 -6 -12 -6q-7 0 -12 5t-5 12q0 1 2 9l80 116q8 15 28 15h9q21 0 29 -15l79 -116q3 -4 3 -9q0 -7 -5.5 -12t-12.5 -5q-6 0 -12 6z" />
    <glyph glyph-name="wcircumflex" unicode="&#x175;" horiz-adv-x="719" 
d="M489 20l-129 393l-130 -393q-7 -23 -31 -23q-25 0 -31 23l-140 430q0 2 -1 5q-1 2 -1 3v2q0 11 7.5 18.5t18.5 7.5q20 0 26 -19l123 -394l131 393q5 20 28 20q22 0 27 -20l131 -393l124 394q5 19 25 19q11 0 18.5 -8t7.5 -19l-2 -11l-140 -428q-6 -23 -31 -23
q-24 0 -31 23zM446 569l-85 114l-86 -114q-6 -6 -12 -6q-7 0 -12 5t-5 12q0 1 2 9l80 116q8 15 28 15h9q21 0 29 -15l79 -116q3 -5 3 -9q0 -7 -5.5 -12t-12.5 -5q-6 0 -12 6z" />
    <glyph glyph-name="Ycircumflex" unicode="&#x176;" horiz-adv-x="618" 
d="M575 626l-237 -340v-260q0 -11 -8.5 -20t-20.5 -9t-20.5 9t-8.5 20v259l-237 340q-5 8 -5 17q0 11 8.5 19.5t20.5 8.5q17 0 24 -12l218 -321l218 321q7 12 24 12q12 0 20.5 -8.5t8.5 -19.5t-5 -16zM396 722l-85 114l-86 -114q-6 -6 -12 -6q-7 0 -12 5t-5 12q0 1 2 9
l80 116q8 15 28 15h9q21 0 29 -15l79 -116q3 -4 3 -9q0 -7 -5.5 -12t-12.5 -5q-6 0 -12 6z" />
    <glyph glyph-name="ycircumflex" unicode="&#x177;" horiz-adv-x="481" 
d="M75 -146q1 0 10 -1.5t15 -1.5q48 0 73 59l38 86l-189 451q-2 6 -2 12q0 11 7.5 19t18.5 8q19 0 25 -17l170 -408l169 408q6 17 24 17q12 0 19.5 -8t7.5 -19q0 -4 -3 -13l-234 -552q-37 -90 -124 -90q-3 0 -27 2q-10 1 -16.5 8t-6.5 16q0 10 7.5 17t17.5 7zM327 575
l-85 114l-86 -114q-6 -6 -12 -6q-7 0 -12 5t-5 12q0 1 2 9l80 116q8 15 28 15h9q21 0 29 -15l79 -116q3 -5 3 -9q0 -7 -5.5 -12t-12.5 -5q-6 0 -12 6z" />
    <glyph glyph-name="Ydieresis" unicode="&#x178;" horiz-adv-x="618" 
d="M575 626l-237 -340v-260q0 -11 -8.5 -20t-20.5 -9t-20.5 9t-8.5 20v259l-237 340q-5 8 -5 17q0 11 8.5 19.5t20.5 8.5q17 0 24 -12l218 -321l218 321q7 12 24 12q12 0 20.5 -8.5t8.5 -19.5t-5 -16zM170 773q0 15 11 26t26 11t26 -11t11 -26q0 -16 -11 -27t-26 -11t-26 11
t-11 27zM374 773q0 15 11 26t26 11t26.5 -11t11.5 -26q0 -16 -11.5 -27t-26.5 -11t-26 11t-11 27z" />
    <glyph glyph-name="Zacute" unicode="&#x179;" horiz-adv-x="581" 
d="M47 35q0 11 7 19l398 561h-379q-10 0 -18 8t-8 18q0 11 8 18.5t18 7.5h419q14 0 24.5 -10t10.5 -24q0 -12 -7 -20l-398 -561h386q11 0 18.5 -7.5t7.5 -18.5q0 -10 -7.5 -18t-18.5 -8h-426q-14 0 -24.5 10t-10.5 25zM298 720q-6 0 -10.5 4.5t-4.5 10.5q0 3 5 11l127 118
q6 6 14 6t14 -6t6 -14q0 -11 -7 -15l-133 -111q-4 -4 -11 -4z" />
    <glyph glyph-name="zacute" unicode="&#x17a;" horiz-adv-x="469" 
d="M53 29q0 9 6 17l283 391h-266q-9 0 -16 6.5t-7 15.5q0 10 7 17t16 7h307q12 0 20.5 -8t8.5 -21q0 -6 -6 -17l-286 -391h273q9 0 16 -6.5t7 -16.5t-7 -16.5t-16 -6.5h-311q-12 0 -20.5 8.5t-8.5 20.5zM242 573q-6 0 -10.5 4.5t-4.5 10.5q0 3 5 11l127 118q6 6 14 6t14 -6
t6 -14q0 -11 -7 -15l-133 -111q-4 -4 -11 -4z" />
    <glyph glyph-name="Zdotaccent" unicode="&#x17b;" horiz-adv-x="581" 
d="M47 35q0 11 7 19l398 561h-379q-10 0 -18 8t-8 18q0 11 8 18.5t18 7.5h419q14 0 24.5 -10t10.5 -24q0 -12 -7 -20l-398 -561h386q11 0 18.5 -7.5t7.5 -18.5q0 -10 -7.5 -18t-18.5 -8h-426q-14 0 -24.5 10t-10.5 25zM291 808q15 0 26 -11t11 -27t-11 -27t-26 -11
q-16 0 -27 11t-11 27t11 27t27 11z" />
    <glyph glyph-name="zdotaccent" unicode="&#x17c;" horiz-adv-x="469" 
d="M53 29q0 9 6 17l283 391h-266q-9 0 -16 6.5t-7 15.5q0 10 7 17t16 7h307q12 0 20.5 -8t8.5 -21q0 -6 -6 -17l-286 -391h273q9 0 16 -6.5t7 -16.5t-7 -16.5t-16 -6.5h-311q-12 0 -20.5 8.5t-8.5 20.5zM235 661q15 0 26 -11t11 -27t-11 -27t-26 -11q-16 0 -27 11t-11 27
t11 27t27 11z" />
    <glyph glyph-name="Zcaron" unicode="&#x17d;" horiz-adv-x="581" 
d="M47 35q0 11 7 19l398 561h-379q-10 0 -18 8t-8 18q0 11 8 18.5t18 7.5h419q14 0 24.5 -10t10.5 -24q0 -12 -7 -20l-398 -561h386q11 0 18.5 -7.5t7.5 -18.5q0 -10 -7.5 -18t-18.5 -8h-426q-14 0 -24.5 10t-10.5 25zM404 856q0 -5 -3 -8l-79 -116q-9 -16 -29 -16h-9
q-19 0 -28 16l-80 116q-2 6 -2 8q0 7 5 12t12 5t12 -6l86 -113l85 113q4 6 12 6q7 0 12.5 -5t5.5 -12z" />
    <glyph glyph-name="zcaron" unicode="&#x17e;" horiz-adv-x="469" 
d="M53 29q0 9 6 17l283 391h-266q-9 0 -16 6.5t-7 15.5q0 10 7 17t16 7h307q12 0 20.5 -8t8.5 -21q0 -6 -6 -17l-286 -391h273q9 0 16 -6.5t7 -16.5t-7 -16.5t-16 -6.5h-311q-12 0 -20.5 8.5t-8.5 20.5zM348 709q0 -5 -3 -8l-79 -116q-9 -16 -29 -16h-9q-19 0 -28 16
l-80 116q-2 6 -2 8q0 7 5 12t12 5t12 -6l86 -113l85 113q4 6 12 6q7 0 12.5 -5t5.5 -12z" />
    <glyph glyph-name="longs" unicode="&#x17f;" horiz-adv-x="265" 
d="M291 649q0 -22 -22 -22q-3 0 -15.5 2.5t-19.5 2.5q-84 0 -84 -105v-504q0 -10 -7.5 -18t-18.5 -8q-10 0 -18 8t-8 18v414h-60q-9 0 -16 6.5t-7 16.5t7 16.5t16 6.5h60v44q0 71 35 110.5t96 39.5q27 0 45 -7q17 -5 17 -21z" />
    <glyph glyph-name="uni018F" unicode="&#x18f;" horiz-adv-x="748" 
d="M690 333q2 -150 -93.5 -249t-233.5 -97q-140 0 -228.5 95t-88.5 238q0 28 30 28h553q-4 122 -83 200t-194 78q-116 0 -195 -79q-7 -7 -19 -7q-11 0 -18.5 7.5t-7.5 19.5t7 18q95 93 233 93q141 2 241 -97t97 -248zM626 297h-520q8 -113 75.5 -185.5t178.5 -72.5
q108 0 182.5 72t83.5 186z" />
    <glyph glyph-name="uni0192" unicode="&#x192;" horiz-adv-x="422" 
d="M427 637q0 -10 -7.5 -18t-18.5 -8q-6 0 -12 3q-17 11 -36 11q-41 0 -70.5 -27t-40.5 -75l-47 -214h129q10 0 17 -7t7 -17t-7 -17.5t-17 -7.5h-140l-89 -401q-5 -23 -28 -23q-12 0 -20 8.5t-8 19.5l2 9l85 387h-53q-10 0 -17 7.5t-7 17.5t7 17t17 7h64l48 221
q16 68 59.5 107.5t104.5 39.5q39 0 65 -17q13 -7 13 -23z" />
    <glyph glyph-name="uni019D" unicode="&#x19d;" horiz-adv-x="699" 
d="M587 670q12 0 20.5 -8.5t8.5 -20.5v-608q0 -14 -10.5 -25t-24.5 -11q-19 0 -30 15l-411 564v-567q0 -97 -56 -151t-146 -54q-16 0 -31 3q-10 0 -17.5 7.5t-7.5 18.5t8.5 19t18.5 7q15 -3 27 -3q66 0 106.5 42t40.5 111v623q0 16 10.5 27t26.5 11q21 0 31 -16l408 -555
v542q0 12 8 20.5t20 8.5z" />
    <glyph glyph-name="Ohorn" unicode="&#x1a0;" horiz-adv-x="764" 
d="M647 540q59 -89 59 -207q2 -146 -90.5 -247t-233.5 -98q-141 -3 -233.5 97.5t-90.5 247.5q-2 147 90.5 247t233.5 98q156 0 245 -111q41 34 46 81q-2 -1 -10 -1q-15 0 -25 10.5t-10 26.5q0 15 10.5 26t26.5 11q19 0 32 -15.5t13 -41.5q0 -36 -17.5 -69t-45.5 -55z
M646 333q0 129 -73 211t-191 82q-119 0 -191.5 -82t-72.5 -211q0 -128 73 -210.5t191 -82.5q117 0 190.5 83t73.5 210z" />
    <glyph glyph-name="ohorn" unicode="&#x1a1;" 
d="M518 242q0 -109 -64.5 -181.5t-168.5 -72.5q-102 0 -167 72.5t-65 181.5q0 108 65 180.5t167 72.5q92 0 154 -58q35 32 41 77q-2 -1 -10 -1q-15 0 -25 10.5t-10 26.5q0 15 10.5 26t26.5 11q19 0 32 -15.5t13 -41.5q0 -69 -55 -117q56 -70 56 -171zM462 242
q0 86 -48.5 146t-128.5 60q-79 0 -127.5 -60t-48.5 -146t48.5 -146.5t127.5 -60.5q81 0 129 60t48 147z" />
    <glyph glyph-name="Uhorn" unicode="&#x1af;" horiz-adv-x="686" 
d="M603 576v-320q0 -127 -67 -197.5t-193 -70.5q-125 0 -192.5 71t-67.5 197v385q0 12 8.5 20.5t20.5 8.5t20.5 -8.5t8.5 -20.5v-384q0 -102 53 -159.5t149 -57.5q98 0 150 57t52 160v384q0 12 8.5 20.5t20.5 8.5q13 0 21 -8.5t8 -20.5v-31q34 15 57 44.5t24 59.5
q-8 -2 -9 -2q-16 0 -26 11t-10 27q0 15 10.5 26t26.5 11q19 0 32 -16t13 -42q0 -50 -32 -92t-86 -61z" />
    <glyph glyph-name="uhorn" unicode="&#x1b0;" horiz-adv-x="540" 
d="M459 388v-365q0 -10 -7.5 -18t-18.5 -8q-10 0 -18 8t-8 18v48q-34 -37 -79.5 -60t-94.5 -23q-152 0 -152 155v317q0 11 8 18.5t18 7.5q11 0 18.5 -7.5t7.5 -18.5v-305q0 -65 29 -92.5t88 -27.5q44 0 88 23t69 57v345q0 11 8 18.5t18 7.5q11 0 18.5 -7.5t7.5 -18.5v-36
q59 38 61 93q-1 -1 -9 -1q-16 0 -26 10.5t-10 26.5q0 15 11 26t27 11q19 0 31.5 -15.5t12.5 -41.5q0 -45 -26.5 -83.5t-71.5 -61.5z" />
    <glyph glyph-name="Gcaron" unicode="&#x1e6;" horiz-adv-x="711" 
d="M649 300v-179q0 -25 -16 -38q-96 -96 -237 -96q-141 -2 -241 98t-97 248q-3 149 97 248t241 97q138 0 233 -93q7 -6 7 -18t-7.5 -19.5t-19.5 -7.5q-11 0 -18 7q-79 79 -195 79q-117 2 -198.5 -82.5t-79.5 -210.5q-2 -125 79.5 -210.5t198.5 -83.5q115 0 196 81v160h-230
q-11 0 -18.5 7.5t-7.5 18.5q0 10 7.5 17.5t18.5 7.5h256q31 0 31 -31zM509 856q0 -5 -3 -8l-79 -116q-9 -16 -29 -16h-9q-19 0 -28 16l-80 116q-2 6 -2 8q0 7 5 12t12 5q8 0 12 -6l86 -113l85 113q5 6 12 6t12.5 -5t5.5 -12z" />
    <glyph glyph-name="gcaron" unicode="&#x1e7;" horiz-adv-x="570" 
d="M490 460v-455q0 -101 -58.5 -151t-159.5 -50q-59 0 -98.5 13t-75.5 46q-9 6 -9 19q0 10 7 17t17 7q9 0 15 -6q55 -51 144 -51q75 0 120 39.5t45 115.5v75q-30 -40 -74.5 -64.5t-93.5 -24.5q-97 0 -156.5 69t-59.5 183q0 113 59.5 183t156.5 70q104 0 168 -89v54
q0 11 8 18.5t19 7.5t18.5 -7.5t7.5 -18.5zM437 125v235q-22 38 -66.5 63t-92.5 25q-78 0 -124 -58q-45 -58 -45 -148t45 -148q46 -57 124 -57q48 0 92.5 25t66.5 63zM401 709q0 -5 -3 -8l-79 -116q-9 -16 -29 -16h-9q-19 0 -28 16l-80 116q-2 6 -2 8q0 7 5 12t12 5
q8 0 12 -6l86 -113l85 113q5 6 12 6t12.5 -5t5.5 -12z" />
    <glyph glyph-name="uni01EA" unicode="&#x1ea;" horiz-adv-x="764" 
d="M366 -102q0 -20 12.5 -32t34.5 -12q9 0 20 3.5t12 3.5q19 0 19 -19q0 -13 -11 -18q-23 -10 -48 -10q-39 0 -65.5 20t-26.5 53q0 55 77 101h-8q-141 -3 -233.5 97.5t-90.5 247.5q-2 147 90.5 247t233.5 98q141 2 233.5 -98.5t90.5 -246.5q0 -131 -72 -225t-191 -115
q-77 -50 -77 -95zM382 40q117 0 190.5 83t73.5 210q0 129 -73 211t-191 82q-119 0 -191.5 -82t-72.5 -211q0 -128 73 -210.5t191 -82.5z" />
    <glyph glyph-name="uni01EB" unicode="&#x1eb;" 
d="M259 -102q0 -20 13 -32t34 -12q10 0 21 4l11 3q19 0 19 -19q0 -13 -11 -18q-23 -10 -48 -10q-38 0 -65 20t-27 53q0 55 78 101q-102 0 -166.5 72.5t-64.5 181.5q0 108 65 180.5t167 72.5q104 0 168.5 -72.5t64.5 -180.5q0 -95 -49 -163q-48 -68 -132 -86q-78 -51 -78 -95
zM285 35q81 0 129 60t48 147q0 86 -48.5 146t-128.5 60q-79 0 -127.5 -60t-48.5 -146t48.5 -146.5t127.5 -60.5z" />
    <glyph glyph-name="Aringacute" unicode="&#x1fa;" horiz-adv-x="647" 
d="M619 27q0 -12 -8.5 -21t-21.5 -9q-21 0 -28 19l-59 148h-357l-59 -148q-7 -19 -28 -19q-13 0 -21.5 9t-8.5 21q0 5 3 12l246 600q11 31 46 31q34 0 47 -31l246 -600q3 -9 3 -12zM166 216h315l-158 395zM324 907q39 0 66.5 -28.5t27.5 -67.5q0 -40 -27.5 -68t-66.5 -28
q-40 0 -68 28t-28 68q0 39 28 67.5t68 28.5zM324 875q-26 0 -45 -19t-19 -45t19 -45t45 -19t44.5 19t18.5 45t-18.5 45t-44.5 19zM330 932q-6 0 -10.5 4.5t-4.5 10.5q0 3 5 11l127 118q6 6 14 6t14 -6t6 -14q0 -11 -7 -15l-133 -111q-4 -4 -11 -4z" />
    <glyph glyph-name="aringacute" unicode="&#x1fb;" horiz-adv-x="521" 
d="M440 340v-317q0 -10 -7.5 -18t-18.5 -8q-10 0 -18 8t-8 18v36q-62 -71 -164 -71q-69 0 -119 44t-50 117t50 116.5t119 43.5q102 0 164 -69v98q0 51 -36.5 81t-93.5 30q-79 0 -136 -57q-8 -5 -15 -5q-10 0 -16.5 6.5t-6.5 16.5q0 11 8 17q69 68 172 68q80 0 128 -40
t48 -115zM388 95v106q-50 67 -146 67q-59 0 -95.5 -34t-36.5 -86t36.5 -85.5t95.5 -33.5q95 0 146 66zM266 760q39 0 66.5 -28.5t27.5 -67.5q0 -40 -27.5 -68t-66.5 -28q-40 0 -68 28t-28 68q0 39 28 67.5t68 28.5zM266 728q-26 0 -45 -19t-19 -45t19 -45t45 -19t44.5 19
t18.5 45t-18.5 45t-44.5 19zM271 785q-6 0 -10.5 4.5t-4.5 10.5q0 3 5 11l127 118q6 6 14 6t14 -6t6 -14q0 -11 -7 -15l-133 -111q-4 -4 -11 -4z" />
    <glyph glyph-name="AEacute" unicode="&#x1fc;" horiz-adv-x="939" 
d="M882 26q0 -10 -7.5 -18t-18.5 -8h-368q-32 0 -32 31v133h-276l-95 -154q-7 -13 -24 -13q-11 0 -19 8t-8 20q0 5 4 14l383 607q13 21 38 21h397q11 0 18.5 -7.5t7.5 -18.5q0 -10 -7.5 -18t-18.5 -8h-342v-247h335q11 0 18.5 -7.5t7.5 -18.5q0 -10 -7.5 -18t-18.5 -8h-335
v-264h342q11 0 18.5 -7.5t7.5 -18.5zM212 216h244v396zM491 720q-6 0 -10.5 4.5t-4.5 10.5q0 3 5 11l127 118q6 6 14 6t14 -6t6 -14q0 -11 -7 -15l-133 -111q-4 -4 -11 -4z" />
    <glyph glyph-name="aeacute" unicode="&#x1fd;" horiz-adv-x="897" 
d="M639 33q77 0 135 54q5 5 13 5q9 0 15.5 -6.5t6.5 -15.5q0 -6 -8 -17q-71 -65 -162 -65q-67 0 -118 33t-78 96q-23 -59 -75.5 -94t-119.5 -35q-85 0 -139 43.5t-54 117.5t52 117t127 43q112 0 179 -67v96q0 53 -38 82t-103 29q-88 0 -150 -58q-8 -5 -14 -5q-10 0 -17 7
t-7 17t9 18q73 67 187 67q67 0 114 -29t56 -86q27 53 74 84t106 31q98 0 156 -70.5t58 -170.5q0 -29 -31 -29h-348q5 -83 52 -137.5t122 -54.5zM628 450q-72 0 -116 -56t-47 -128h326q0 73 -43 128.5t-120 55.5zM254 268q-65 0 -104.5 -33t-39.5 -84q0 -52 39.5 -85
t104.5 -33q68 0 113.5 45.5t45.5 105.5v16q-56 68 -159 68zM448 573q-6 0 -10.5 4.5t-4.5 10.5q0 3 5 11l127 118q6 6 14 6t14 -6t6 -14q0 -11 -7 -15l-133 -111q-4 -4 -11 -4z" />
    <glyph glyph-name="Oslashacute" unicode="&#x1fe;" horiz-adv-x="764" 
d="M706 333q2 -146 -90.5 -247t-233.5 -98q-107 0 -188 57l-61 -84q-7 -9 -16 -9q-7 0 -12.5 5.5t-5.5 12.5q0 4 5 12l62 86q-108 99 -108 265q-2 147 90.5 247t233.5 98q105 0 184 -55l61 84q8 8 16 8q18 0 18 -18q0 -8 -4 -12l-62 -85q111 -100 111 -267zM199 113l336 466
q-67 47 -153 47q-119 0 -191.5 -82t-72.5 -211q0 -137 81 -220zM646 333q0 141 -83 222l-337 -466q65 -49 156 -49q117 0 190.5 83t73.5 210zM389 720q-6 0 -10.5 4.5t-4.5 10.5q0 3 5 11l127 118q6 6 14 6t14 -6t6 -14q0 -11 -7 -15l-133 -111q-4 -4 -11 -4z" />
    <glyph glyph-name="oslashacute" unicode="&#x1ff;" 
d="M518 242q0 -109 -64.5 -181.5t-168.5 -72.5q-73 0 -131 40l-49 -68q-8 -8 -16 -8q-7 0 -12 4.5t-5 11.5q0 3 5 11l51 71q-75 73 -75 192q0 108 65 180.5t167 72.5q79 0 135 -42l50 69q6 9 15 9q15 0 15 -15q0 -8 -4 -12l-51 -72q73 -70 73 -190zM159 93l231 319
q-44 36 -105 36q-79 0 -127.5 -60t-48.5 -146q0 -91 50 -149zM462 242q0 87 -49 147l-229 -320q43 -34 101 -34q81 0 129 60t48 147zM292 573q-6 0 -10.5 4.5t-4.5 10.5q0 3 5 11l127 118q6 6 14 6t14 -6t6 -14q0 -11 -7 -15l-133 -111q-4 -4 -11 -4z" />
    <glyph glyph-name="uni0218" unicode="&#x218;" horiz-adv-x="581" 
d="M54 97q0 12 8.5 20.5t19.5 8.5q12 0 20 -7q80 -79 189 -79q94 0 134 40q42 40 42 93q0 45 -25 71q-22 26 -57 41.5t-101 32.5q-61 17 -115 37q-102 44 -102 145q0 79 63.5 128.5t158.5 49.5q123 0 206 -77q11 -8 11 -21q0 -11 -8.5 -19.5t-20.5 -8.5t-18 7
q-67 67 -173 67q-69 0 -114 -34.5t-45 -88.5q0 -36 23 -61q22 -22 54.5 -35.5t96.5 -29.5q69 -20 118 -41q108 -45 108 -159q0 -78 -58.5 -133.5t-178.5 -55.5q-137 0 -227 88q-9 8 -9 21zM243 -247q0 7 9 15q39 38 41 78q-2 -1 -10 -1q-16 0 -26 10.5t-10 27.5
q0 16 11 27.5t27 11.5q21 0 34 -16t13 -43q0 -72 -58 -121q-6 -6 -13 -6t-12.5 5t-5.5 12z" />
    <glyph glyph-name="uni0219" unicode="&#x219;" horiz-adv-x="459" 
d="M45 68q0 11 7.5 18t17.5 7q9 0 15 -6q60 -55 141 -55q59 0 94 26.5t35 69.5q-3 42 -32 60t-103 38q-53 13 -89 26q-81 31 -81 109q0 58 47.5 96t124.5 38q98 0 159 -58q8 -8 8 -18q0 -9 -6.5 -16t-16.5 -7q-8 0 -14 6q-51 49 -130 49q-54 0 -87.5 -24t-33.5 -63
q3 -38 30 -53.5t99 -33.5q49 -12 91 -28q85 -34 85 -119q0 -64 -48 -103t-133 -39q-105 0 -171 62q-9 8 -9 18zM179 -247q0 7 9 15q39 38 41 78q-2 -1 -10 -1q-16 0 -26 10.5t-10 27.5q0 16 11 27.5t27 11.5q21 0 34 -16t13 -43q0 -72 -58 -121q-6 -6 -13 -6t-12.5 5
t-5.5 12z" />
    <glyph glyph-name="uni021A" unicode="&#x21a;" horiz-adv-x="564" 
d="M253 26v589h-195q-10 0 -18 8t-8 18q0 11 8 18.5t18 7.5h449q11 0 18.5 -7.5t7.5 -18.5q0 -10 -7.5 -18t-18.5 -8h-196v-589q0 -11 -8.5 -20t-20.5 -9t-20.5 9t-8.5 20zM240 -247q0 7 9 15q39 38 41 78q-2 -1 -10 -1q-16 0 -26 10.5t-10 27.5q0 16 11 27.5t27 11.5
q21 0 34 -16t13 -43q0 -72 -58 -121q-6 -6 -13 -6t-12.5 5t-5.5 12z" />
    <glyph glyph-name="uni021B" unicode="&#x21b;" horiz-adv-x="275" 
d="M265 27q0 -12 -12 -20q-26 -19 -67 -19q-95 0 -95 105v344h-59q-10 0 -17 6.5t-7 16.5t7 16.5t17 6.5h59v109q0 11 8 18.5t19 7.5t18.5 -7.5t7.5 -18.5v-109h77q10 0 17 -6.5t7 -16.5t-7 -16.5t-17 -6.5h-77v-336q0 -66 50 -66q14 0 30.5 7.5t17.5 7.5q10 0 16.5 -6.5
t6.5 -16.5zM100 -247q0 7 9 15q39 38 41 78q-2 -1 -10 -1q-16 0 -26 10.5t-10 27.5q0 16 11 27.5t27 11.5q21 0 34 -16t13 -43q0 -72 -58 -121q-6 -6 -13 -6t-12.5 5t-5.5 12z" />
    <glyph glyph-name="uni0232" unicode="&#x232;" horiz-adv-x="618" 
d="M575 626l-237 -340v-260q0 -11 -8.5 -20t-20.5 -9t-20.5 9t-8.5 20v259l-237 340q-5 8 -5 17q0 11 8.5 19.5t20.5 8.5q17 0 24 -12l218 -321l218 321q7 12 24 12q12 0 20.5 -8.5t8.5 -19.5t-5 -16zM158 762q0 19 19 19h263q19 0 19 -19q0 -7 -5.5 -12.5t-13.5 -5.5h-263
q-8 0 -13.5 5.5t-5.5 12.5z" />
    <glyph glyph-name="uni0233" unicode="&#x233;" horiz-adv-x="481" 
d="M75 -146q1 0 10 -1.5t15 -1.5q48 0 73 59l38 86l-189 451q-2 6 -2 12q0 11 7.5 19t18.5 8q19 0 25 -17l170 -408l169 408q6 17 24 17q12 0 19.5 -8t7.5 -19q0 -4 -3 -13l-234 -552q-37 -90 -124 -90q-3 0 -27 2q-10 1 -16.5 8t-6.5 16q0 10 7.5 17t17.5 7zM90 615
q0 19 19 19h263q19 0 19 -19q0 -7 -5.5 -12.5t-13.5 -5.5h-263q-8 0 -13.5 5.5t-5.5 12.5z" />
    <glyph glyph-name="uni0237" unicode="&#x237;" horiz-adv-x="214" 
d="M-28 -192q-20 5 -20 23q0 9 6 16t15 7q1 0 10 -2t18 -2q80 0 80 88v522q0 11 8 18.5t18 7.5q11 0 18.5 -7.5t7.5 -18.5v-522q0 -65 -33.5 -99.5t-94.5 -34.5q-20 0 -33 4z" />
    <glyph glyph-name="uni0259" unicode="&#x259;" horiz-adv-x="567" 
d="M281 -12q-103 0 -164.5 70t-61.5 169q0 18 6.5 25t22.5 7h373q-5 82 -56.5 136.5t-132.5 54.5q-84 0 -145 -55q-4 -4 -13 -4t-15.5 6.5t-6.5 15.5q0 8 9 17q74 65 175 65q105 0 173 -71.5t68 -182.5q0 -105 -66.5 -179t-165.5 -74zM457 217h-351q0 -72 47 -128t129 -56
q77 0 124.5 55.5t50.5 128.5z" />
    <glyph glyph-name="uni0272" unicode="&#x272;" horiz-adv-x="540" 
d="M459 338v-315q0 -10 -7.5 -18t-18.5 -8q-10 0 -18 8t-8 18v304q0 64 -29 92.5t-88 28.5q-44 0 -88.5 -23.5t-68.5 -59.5v-427q0 -65 -33.5 -99.5t-94.5 -34.5q-20 0 -33 4q-20 2 -20 22q0 11 7.5 18t17.5 6q12 -4 24 -4q80 2 80 88v522q0 11 8 18.5t18 7.5
q11 0 18.5 -7.5t7.5 -18.5v-50q31 36 79 60.5t95 24.5q152 0 152 -157z" />
    <glyph glyph-name="uni02B0" unicode="&#x2b0;" horiz-adv-x="392" 
d="M285 344v190q0 42 -19 60t-57 18q-29 0 -57.5 -14.5t-44.5 -36.5v-217q0 -8 -6 -14.5t-15 -6.5t-15 6.5t-6 14.5v398q0 8 6 14.5t15 6.5t15 -6.5t6 -14.5v-149q20 23 52.5 39t64.5 16q104 0 104 -108v-196q0 -8 -6 -14.5t-16 -6.5q-9 0 -15 6.5t-6 14.5z" />
    <glyph glyph-name="uni02BC" unicode="&#x2bc;" horiz-adv-x="219" 
d="M85 480q-18 0 -18 19q0 8 5 13q42 39 44 82q-8 -2 -10 -2q-18 0 -29.5 12t-11.5 30q0 17 12.5 30t30.5 13q22 0 36.5 -17.5t14.5 -46.5q0 -73 -61 -129q-5 -4 -13 -4z" />
    <glyph glyph-name="circumflex" unicode="&#x2c6;" horiz-adv-x="250" 
d="M210 555l-85 114l-86 -114q-6 -6 -12 -6q-7 0 -12 5t-5 12q0 1 2 9l80 116q8 15 28 15h9q21 0 29 -15l79 -116q3 -5 3 -9q0 -7 -5.5 -12t-12.5 -5q-6 0 -12 6z" />
    <glyph glyph-name="caron" unicode="&#x2c7;" horiz-adv-x="250" 
d="M240 689q0 -5 -3 -8l-79 -116q-9 -16 -29 -16h-9q-19 0 -28 16l-80 116q-2 6 -2 8q0 7 5 12t12 5t12 -6l86 -113l85 113q4 6 12 6q7 0 12.5 -5t5.5 -12z" />
    <glyph glyph-name="uni02C9" unicode="&#x2c9;" horiz-adv-x="363" 
d="M31 609q0 8 5.5 14t13.5 6h263q8 0 13.5 -6t5.5 -14q0 -7 -5.5 -12.5t-13.5 -5.5h-263q-8 0 -13.5 5.5t-5.5 12.5z" />
    <glyph glyph-name="uni02CB" unicode="&#x2cb;" horiz-adv-x="216" 
d="M171 557l-133 111q-7 4 -7 15q0 8 6 14t14 6q7 0 13 -6l127 -118q5 -5 5 -11t-4.5 -10.5t-10.5 -4.5t-10 4z" />
    <glyph glyph-name="breve" unicode="&#x2d8;" horiz-adv-x="351" 
d="M10 622q-4 4 -4 13q0 19 19 19q9 0 14 -6q55 -63 137 -63t137 63q3 6 14 6q7 0 13 -5.5t6 -13.5q0 -5 -5 -13q-67 -75 -165 -75q-97 0 -166 75z" />
    <glyph glyph-name="dotaccent" unicode="&#x2d9;" horiz-adv-x="113" 
d="M57 641q15 0 26 -11t11 -27t-11 -27t-26 -11q-16 0 -27 11t-11 27t11 27t27 11z" />
    <glyph glyph-name="ring" unicode="&#x2da;" horiz-adv-x="230" 
d="M116 740q39 0 66.5 -28.5t27.5 -67.5q0 -40 -27.5 -68t-66.5 -28q-40 0 -68 28t-28 68q0 39 28 67.5t68 28.5zM116 708q-26 0 -45 -19t-19 -45t19 -45t45 -19t44.5 19t18.5 45t-18.5 45t-44.5 19z" />
    <glyph glyph-name="ogonek" unicode="&#x2db;" horiz-adv-x="185" 
d="M17 -113q0 33 29.5 64t78.5 53q17 6 31 6q8 0 9.5 -2t-4.5 -6q-47 -29 -69 -53t-22 -51q0 -20 12.5 -32t34.5 -12q9 0 20 3.5t12 3.5q19 0 19 -19q0 -13 -11 -18q-23 -10 -48 -10q-39 0 -65.5 20t-26.5 53z" />
    <glyph glyph-name="tilde" unicode="&#x2dc;" horiz-adv-x="307" 
d="M139 612q-14 24 -24.5 34.5t-25.5 10.5q-22 0 -36.5 -21.5t-16.5 -62.5q-2 -16 -18 -16q-7 0 -12.5 6t-4.5 13q4 54 28.5 86t63.5 32q25 0 40.5 -13t34.5 -45q16 -25 25.5 -34.5t24.5 -9.5q22 0 36.5 21t16.5 62q2 16 18 16q7 0 12.5 -5.5t4.5 -13.5q-4 -54 -28 -86
t-63 -32q-26 0 -41 12.5t-35 45.5z" />
    <glyph glyph-name="hungarumlaut" unicode="&#x2dd;" horiz-adv-x="291" 
d="M9 565q0 7 4 11l83 121q4 10 17 10q8 0 14.5 -6.5t6.5 -15.5q0 -8 -4 -12l-92 -115q-5 -8 -13 -8q-6 0 -11 4.5t-5 10.5zM148 565q0 7 4 11l83 121q4 10 17 10q8 0 14.5 -6.5t6.5 -15.5q0 -8 -4 -12l-92 -115q-5 -8 -13 -8q-6 0 -11 4.5t-5 10.5z" />
    <glyph glyph-name="gravecomb" unicode="&#x300;" horiz-adv-x="0" 
d="M-45 557l-133 111q-7 4 -7 15q0 8 6 14t14 6q7 0 13 -6l127 -118q5 -5 5 -11t-4.5 -10.5t-10.5 -4.5t-10 4z" />
    <glyph glyph-name="acutecomb" unicode="&#x301;" horiz-adv-x="0" 
d="M-182 553q-6 0 -10.5 4.5t-4.5 10.5q0 3 5 11l127 118q6 6 14 6t14 -6t6 -14q0 -11 -7 -15l-133 -111q-4 -4 -11 -4z" />
    <glyph glyph-name="uni0302" unicode="&#x302;" horiz-adv-x="0" 
d="M-40 555l-85 114l-86 -114q-6 -6 -12 -6q-7 0 -12 5t-5 12q0 1 2 9l80 116q8 15 28 15h9q21 0 29 -15l79 -116q3 -5 3 -9q0 -7 -5.5 -12t-12.5 -5q-6 0 -12 6z" />
    <glyph glyph-name="tildecomb" unicode="&#x303;" horiz-adv-x="0" 
d="M-168 612q-14 24 -24.5 34.5t-25.5 10.5q-48 0 -53 -84q-2 -16 -18 -16q-7 0 -12.5 6t-4.5 13q4 54 28.5 86t63.5 32q25 0 40.5 -13t34.5 -45q16 -25 25.5 -34.5t24.5 -9.5q22 0 36.5 21t16.5 62q2 16 18 16q7 0 12.5 -5.5t4.5 -13.5q-4 -54 -28 -86t-63 -32
q-26 0 -41 12.5t-35 45.5z" />
    <glyph glyph-name="uni0304" unicode="&#x304;" horiz-adv-x="0" 
d="M-332 595q0 19 19 19h263q19 0 19 -19q0 -7 -5.5 -12.5t-13.5 -5.5h-263q-8 0 -13.5 5.5t-5.5 12.5z" />
    <glyph glyph-name="uni0306" unicode="&#x306;" horiz-adv-x="0" 
d="M-341 622q-4 4 -4 13q0 19 19 19q10 0 14 -6q55 -63 137 -63q81 0 137 63q3 6 14 6q7 0 13 -5.5t6 -13.5q0 -5 -5 -13q-67 -75 -165 -75q-97 0 -166 75z" />
    <glyph glyph-name="uni0307" unicode="&#x307;" horiz-adv-x="0" 
d="M-56 641q15 0 26 -11t11 -27t-11 -27t-26 -11q-16 0 -27 11t-11 27t11 27t27 11z" />
    <glyph glyph-name="uni0308" unicode="&#x308;" horiz-adv-x="0" 
d="M-344 606q0 15 11 26t26 11t26 -11t11 -26q0 -16 -11 -27t-26 -11t-26 11t-11 27zM-140 606q0 15 11 26t26 11t26.5 -11t11.5 -26q0 -16 -11.5 -27t-26.5 -11t-26 11t-11 27z" />
    <glyph glyph-name="uni0309" unicode="&#x309;" horiz-adv-x="0" 
d="M-55 571q0 4 3 10q14 23 14 47q0 54 -51 54q-36 0 -51 -35q-4 -10 -16 -10q-7 0 -12.5 5.5t-5.5 12.5t3 11q26 50 82 50q40 0 64 -22.5t24 -65.5q0 -33 -22 -65q-6 -9 -15 -9q-7 0 -12 5t-5 12z" />
    <glyph glyph-name="uni030A" unicode="&#x30a;" horiz-adv-x="0" 
d="M-114 740q39 0 66.5 -28.5t27.5 -67.5q0 -40 -27.5 -68t-66.5 -28q-40 0 -68 28t-28 68q0 39 28 67.5t68 28.5zM-114 708q-26 0 -45 -19t-19 -45t19 -45t45 -19t44.5 19t18.5 45t-18.5 45t-44.5 19z" />
    <glyph glyph-name="uni030B" unicode="&#x30b;" horiz-adv-x="0" 
d="M-282 565q0 7 4 11l83 121q4 10 17 10q8 0 14.5 -6.5t6.5 -15.5q0 -8 -4 -12l-92 -115q-5 -8 -13 -8q-6 0 -11 4.5t-5 10.5zM-143 565q0 7 4 11l83 121q4 10 17 10q8 0 14.5 -6.5t6.5 -15.5q0 -8 -4 -12l-92 -115q-5 -8 -13 -8q-6 0 -11 4.5t-5 10.5z" />
    <glyph glyph-name="uni030C" unicode="&#x30c;" horiz-adv-x="0" 
d="M-10 689q0 -5 -3 -8l-79 -116q-9 -16 -29 -16h-9q-19 0 -28 16l-80 116q-2 6 -2 8q0 7 5 12t12 5t12 -6l86 -113l85 113q4 6 12 6q7 0 12.5 -5t5.5 -12z" />
    <glyph glyph-name="dotbelowcomb" unicode="&#x323;" horiz-adv-x="0" 
d="M-56 -81q15 0 26 -11t11 -27t-11 -27t-26 -11q-16 0 -27 11t-11 27t11 27t27 11z" />
    <glyph glyph-name="uni0326" unicode="&#x326;" horiz-adv-x="0" 
d="M-153 -247q0 7 9 15q39 38 41 78q-2 -1 -10 -1q-16 0 -26 10.5t-10 27.5q0 16 11 27.5t27 11.5q21 0 34 -16t13 -43q0 -72 -58 -121q-6 -6 -13 -6t-12.5 5t-5.5 12z" />
    <glyph glyph-name="uni0327" unicode="&#x327;" horiz-adv-x="0" 
d="M-189 -166q-9 4 -9 15q0 18 17 18q7 0 11 -3q29 -20 68 -20q28 0 46.5 12t18.5 33q0 39 -41 39q-20 0 -34 -12q-5 -4 -12 -4q-19 0 -19 18q0 1 2 9l26 72h38l-26 -68q15 12 37 12q29 0 47.5 -18t18.5 -48q0 -35 -29 -56.5t-72 -21.5q-47 0 -88 23z" />
    <glyph glyph-name="uni0328" unicode="&#x328;" horiz-adv-x="0" 
d="M-168 -113q0 33 29.5 64t78.5 53q16 6 31 6q18 0 5 -8q-47 -29 -69 -53t-22 -51q0 -20 12.5 -32t34.5 -12q10 0 21 4l11 3q19 0 19 -19q0 -13 -11 -18q-23 -10 -48 -10q-39 0 -65.5 20t-26.5 53z" />
    <glyph glyph-name="uni037E" unicode="&#x37e;" horiz-adv-x="219" 
d="M65 446q0 18 13 31t31 13t31.5 -13t13.5 -31q0 -17 -13.5 -30t-31.5 -13t-31 13t-13 30zM85 -119q-18 0 -18 19q0 8 5 13q42 39 44 81q-2 -1 -10 -1q-18 0 -29.5 12t-11.5 30q0 17 12.5 30t30.5 13q22 0 36.5 -17.5t14.5 -46.5q0 -73 -61 -129q-4 -4 -13 -4z" />
    <glyph glyph-name="tonos" unicode="&#x384;" horiz-adv-x="116" 
d="M18 586l15 157q1 11 9.5 19t19.5 8q12 0 20.5 -9t8.5 -20l-2 -12l-40 -149q-2 -12 -15 -12q-7 0 -12 5.5t-4 12.5z" />
    <glyph glyph-name="dieresistonos" unicode="&#x385;" horiz-adv-x="364" 
d="M157 586l14 157q1 12 9.5 19.5t19.5 7.5q12 0 20.5 -8.5t8.5 -20.5l-2 -12l-39 -149q-5 -12 -15 -12q-7 0 -12 5.5t-4 12.5zM17 606q0 15 11 26t26 11t26 -11t11 -26q0 -16 -11 -27t-26 -11t-26 11t-11 27zM273 606q0 15 10.5 26t26.5 11q15 0 26 -11t11 -26
q0 -16 -11 -27t-26 -11q-16 0 -26.5 11t-10.5 27z" />
    <glyph glyph-name="Alphatonos" unicode="&#x386;" horiz-adv-x="647" 
d="M619 27q0 -12 -8.5 -21t-21.5 -9q-21 0 -28 19l-59 148h-357l-59 -148q-7 -19 -28 -19q-13 0 -21.5 9t-8.5 21q0 5 3 12l246 600q11 31 46 31q34 0 47 -31l246 -600q3 -9 3 -12zM166 216h315l-158 395zM107 489l15 157q1 11 9.5 19t19.5 8q12 0 20.5 -9t8.5 -20l-2 -12
l-40 -149q-2 -12 -15 -12q-7 0 -12 5.5t-4 12.5z" />
    <glyph glyph-name="Epsilontonos" unicode="&#x388;" horiz-adv-x="600" 
d="M120 31v605q0 31 31 31h369q11 0 18.5 -7.5t7.5 -18.5q0 -10 -7.5 -18t-18.5 -8h-343v-247h336q11 0 18.5 -7.5t7.5 -18.5q0 -10 -7.5 -18t-18.5 -8h-336v-264h343q11 0 18.5 -7.5t7.5 -18.5q0 -10 -7.5 -18t-18.5 -8h-369q-31 0 -31 31zM-12 489l15 157q1 11 9.5 19
t19.5 8q12 0 20.5 -9t8.5 -20l-2 -12l-40 -149q-2 -12 -15 -12q-7 0 -12 5.5t-4 12.5z" />
    <glyph glyph-name="Etatonos" unicode="&#x389;" horiz-adv-x="740" 
d="M600 26v291h-423v-291q0 -12 -8 -20.5t-20 -8.5t-20.5 9t-8.5 20v615q0 12 8.5 20.5t20.5 8.5t20 -8.5t8 -20.5v-272h423v272q0 12 8.5 20.5t20.5 8.5t20.5 -8.5t8.5 -20.5v-615q0 -11 -8.5 -20t-20.5 -9t-20.5 9t-8.5 20zM-12 489l15 157q1 11 9.5 19t19.5 8
q12 0 20.5 -9t8.5 -20l-2 -12l-40 -149q-2 -12 -15 -12q-7 0 -12 5.5t-4 12.5z" />
    <glyph glyph-name="Iotatonos" unicode="&#x38a;" horiz-adv-x="260" 
d="M120 26v615q0 12 8.5 20.5t20.5 8.5t20 -8.5t8 -20.5v-615q0 -12 -8 -20.5t-20 -8.5t-20.5 9t-8.5 20zM-12 489l15 157q1 11 9.5 19t19.5 8q12 0 20.5 -9t8.5 -20l-2 -12l-40 -149q-2 -12 -15 -12q-7 0 -12 5.5t-4 12.5z" />
    <glyph glyph-name="Omicrontonos" unicode="&#x38c;" horiz-adv-x="775" 
d="M393 678q141 2 233.5 -98.5t90.5 -246.5q2 -146 -90.5 -247t-233.5 -98q-141 -3 -233.5 97.5t-90.5 247.5q-2 147 90.5 247t233.5 98zM393 626q-119 0 -191.5 -82t-72.5 -211q0 -128 73 -210.5t191 -82.5q117 0 190.5 83t73.5 210q0 129 -73 211t-191 82zM-5 489l15 157
q1 11 9.5 19t19.5 8q12 0 20.5 -9t8.5 -20l-2 -12l-40 -149q-2 -12 -15 -12q-7 0 -12 5.5t-4 12.5z" />
    <glyph glyph-name="Upsilontonos" unicode="&#x38e;" horiz-adv-x="678" 
d="M635 626l-237 -340v-260q0 -11 -8.5 -20t-20.5 -9t-20.5 9t-8.5 20v259l-237 340q-5 8 -5 17q0 11 8.5 19.5t20.5 8.5q17 0 24 -12l218 -321l218 321q7 12 24 12q12 0 20.5 -8.5t8.5 -19.5t-5 -16zM-5 489l15 157q1 11 9.5 19t19.5 8q12 0 20.5 -9t8.5 -20l-2 -12
l-40 -149q-2 -12 -15 -12q-7 0 -12 5.5t-4 12.5z" />
    <glyph glyph-name="Omegatonos" unicode="&#x38f;" horiz-adv-x="778" 
d="M72 341q0 146 90.5 241.5t233.5 95.5t233.5 -95.5t90.5 -241.5q0 -195 -159 -289h119q11 0 18.5 -7.5t7.5 -18.5q0 -10 -7.5 -18t-18.5 -8h-178q-13 0 -21.5 9t-8.5 21q0 21 19 28q70 24 119.5 97.5t49.5 177.5q0 128 -71.5 210t-192.5 82t-192.5 -82t-71.5 -210
q0 -105 49 -178t121 -97q19 -7 19 -28q0 -12 -8.5 -21t-21.5 -9h-178q-10 0 -18 8t-8 18q0 11 8 18.5t18 7.5h119q-160 94 -160 289zM-5 489l15 157q1 11 9.5 19t19.5 8q12 0 20.5 -9t8.5 -20l-2 -12l-40 -149q-2 -12 -15 -12q-7 0 -12 5.5t-4 12.5z" />
    <glyph glyph-name="iotadieresistonos" unicode="&#x390;" horiz-adv-x="228" 
d="M81 93v367q0 11 8 18.5t18 7.5q11 0 18.5 -7.5t7.5 -18.5v-361q0 -63 46 -64h8q20 -2 20 -23q0 -22 -21 -24h-11q-94 0 -94 105zM93 606l14 157q1 12 9.5 19.5t19.5 7.5q12 0 20.5 -8.5t8.5 -20.5l-2 -12l-39 -149q-5 -12 -15 -12q-7 0 -12 5.5t-4 12.5zM-47 626
q0 15 11 26t26 11t26 -11t11 -26q0 -16 -11 -27t-26 -11t-26 11t-11 27zM209 626q0 15 10.5 26t26.5 11q15 0 26 -11t11 -26q0 -16 -11 -27t-26 -11q-16 0 -26.5 11t-10.5 27z" />
    <glyph glyph-name="Alpha" unicode="&#x391;" horiz-adv-x="647" 
d="M619 27q0 -12 -8.5 -21t-21.5 -9q-21 0 -28 19l-59 148h-357l-59 -148q-7 -19 -28 -19q-13 0 -21.5 9t-8.5 21q0 5 3 12l246 600q11 31 46 31q34 0 47 -31l246 -600q3 -9 3 -12zM166 216h315l-158 395z" />
    <glyph glyph-name="Beta" unicode="&#x392;" horiz-adv-x="614" 
d="M83 31v605q0 31 31 31h243q84 0 134 -46t50 -124q0 -58 -33.5 -100.5t-83.5 -52.5q53 -7 91.5 -56.5t38.5 -107.5q0 -83 -51 -131.5t-140 -48.5h-249q-31 0 -31 31zM140 368h210q61 0 96 34t35 89t-35 89.5t-96 34.5h-210v-247zM140 52h214q66 0 103 35.5t37 96.5
q0 57 -38 94.5t-102 37.5h-214v-264z" />
    <glyph glyph-name="Gamma" unicode="&#x393;" horiz-adv-x="539" 
d="M83 26v610q0 31 31 31h369q11 0 18.5 -7.5t7.5 -18.5q0 -10 -7.5 -18t-18.5 -8h-343v-589q0 -12 -8 -20.5t-20 -8.5t-20.5 9t-8.5 20z" />
    <glyph glyph-name="uni0394" unicode="&#x394;" horiz-adv-x="647" 
d="M27 21q0 7 3 15l247 603q11 31 46 31q36 0 47 -31l247 -603q3 -8 3 -15q0 -21 -27 -21h-539q-27 0 -27 21zM323 606l-225 -554h451z" />
    <glyph glyph-name="Epsilon" unicode="&#x395;" horiz-adv-x="564" 
d="M83 31v605q0 31 31 31h369q11 0 18.5 -7.5t7.5 -18.5q0 -10 -7.5 -18t-18.5 -8h-343v-247h336q11 0 18.5 -7.5t7.5 -18.5q0 -10 -7.5 -18t-18.5 -8h-336v-264h343q11 0 18.5 -7.5t7.5 -18.5q0 -10 -7.5 -18t-18.5 -8h-369q-31 0 -31 31z" />
    <glyph glyph-name="Zeta" unicode="&#x396;" horiz-adv-x="581" 
d="M47 35q0 11 7 19l398 561h-379q-10 0 -18 8t-8 18q0 11 8 18.5t18 7.5h419q14 0 24.5 -10t10.5 -24q0 -12 -7 -20l-398 -561h386q11 0 18.5 -7.5t7.5 -18.5q0 -10 -7.5 -18t-18.5 -8h-426q-14 0 -24.5 10t-10.5 25z" />
    <glyph glyph-name="Eta" unicode="&#x397;" horiz-adv-x="703" 
d="M563 26v291h-423v-291q0 -12 -8 -20.5t-20 -8.5t-20.5 9t-8.5 20v615q0 12 8.5 20.5t20.5 8.5t20 -8.5t8 -20.5v-272h423v272q0 12 8.5 20.5t20.5 8.5t20.5 -8.5t8.5 -20.5v-615q0 -11 -8.5 -20t-20.5 -9t-20.5 9t-8.5 20z" />
    <glyph glyph-name="Theta" unicode="&#x398;" horiz-adv-x="764" 
d="M382 678q141 2 233.5 -98.5t90.5 -246.5q2 -146 -90.5 -247t-233.5 -98q-141 -3 -233.5 97.5t-90.5 247.5q-2 147 90.5 247t233.5 98zM382 626q-119 0 -191.5 -82t-72.5 -211q0 -128 73 -210.5t191 -82.5q117 0 190.5 83t73.5 210q0 129 -73 211t-191 82zM178 342
q0 11 8 18.5t18 7.5h356q11 0 18.5 -7.5t7.5 -18.5q0 -10 -7.5 -18t-18.5 -8h-356q-10 0 -18 8t-8 18z" />
    <glyph glyph-name="Iota" unicode="&#x399;" horiz-adv-x="223" 
d="M83 26v615q0 12 8.5 20.5t20.5 8.5t20 -8.5t8 -20.5v-615q0 -12 -8 -20.5t-20 -8.5t-20.5 9t-8.5 20z" />
    <glyph glyph-name="Kappa" unicode="&#x39a;" horiz-adv-x="586" 
d="M541 25q0 -11 -8 -19.5t-19 -8.5q-13 0 -21 8l-279 307l-74 -80v-206q0 -12 -8 -20.5t-20 -8.5t-20.5 9t-8.5 20v615q0 12 8.5 20.5t20.5 8.5t20 -8.5t8 -20.5v-340l326 360q7 9 20 9q11 0 19.5 -8t8.5 -19t-8 -19l-255 -276l282 -304q8 -11 8 -19z" />
    <glyph glyph-name="Lambda" unicode="&#x39b;" horiz-adv-x="647" 
d="M559 17l-236 589l-235 -589q-8 -20 -29 -20q-13 0 -22 9t-9 21q0 6 3 12l246 600q11 31 46 31q34 0 47 -31l246 -600q2 -6 2 -11q0 -12 -9 -21.5t-21 -9.5q-22 0 -29 20z" />
    <glyph glyph-name="Mu" unicode="&#x39c;" horiz-adv-x="790" 
d="M649 26v566l-237 -581q-6 -14 -17 -14q-12 0 -17 14l-238 581v-566q0 -12 -8 -20.5t-20 -8.5t-20.5 9t-8.5 20v594q0 20 14.5 35t35.5 15q36 0 47 -31l215 -529l215 529q11 31 47 31q21 0 35.5 -15t14.5 -35v-594q0 -11 -8.5 -20t-20.5 -9t-20.5 9t-8.5 20z" />
    <glyph glyph-name="Nu" unicode="&#x39d;" horiz-adv-x="699" 
d="M551 12l-411 564v-550q0 -12 -8 -20.5t-20 -8.5t-20.5 9t-8.5 20v606q0 16 10.5 27t26.5 11q21 0 31 -16l408 -555v542q0 12 8 20.5t20 8.5t20.5 -8.5t8.5 -20.5v-608q0 -14 -10.5 -25t-24.5 -11q-19 0 -30 15z" />
    <glyph glyph-name="Xi" unicode="&#x39e;" horiz-adv-x="612" 
d="M56 641q0 11 8 18.5t18 7.5h448q11 0 18.5 -7.5t7.5 -18.5q0 -10 -7.5 -18t-18.5 -8h-448q-10 0 -18 8t-8 18zM63 342q0 11 8 18.5t18 7.5h435q11 0 18.5 -7.5t7.5 -18.5q0 -10 -7.5 -18t-18.5 -8h-435q-10 0 -18 8t-8 18zM55 26q0 11 8 18.5t18 7.5h449q11 0 18.5 -7.5
t7.5 -18.5q0 -10 -7.5 -18t-18.5 -8h-449q-10 0 -18 8t-8 18z" />
    <glyph glyph-name="Omicron" unicode="&#x39f;" horiz-adv-x="764" 
d="M382 678q141 2 233.5 -98.5t90.5 -246.5q2 -146 -90.5 -247t-233.5 -98q-141 -3 -233.5 97.5t-90.5 247.5q-2 147 90.5 247t233.5 98zM382 626q-119 0 -191.5 -82t-72.5 -211q0 -128 73 -210.5t191 -82.5q117 0 190.5 83t73.5 210q0 129 -73 211t-191 82z" />
    <glyph glyph-name="Pi" unicode="&#x3a0;" horiz-adv-x="703" 
d="M563 26v589h-423v-589q0 -12 -8 -20.5t-20 -8.5t-20.5 9t-8.5 20v610q0 31 31 31h475q32 0 32 -31v-610q0 -11 -8.5 -20t-20.5 -9t-20.5 9t-8.5 20z" />
    <glyph glyph-name="Rho" unicode="&#x3a1;" 
d="M83 26v610q0 31 31 31h219q91 0 146 -56.5t55 -138.5t-55.5 -138.5t-145.5 -56.5h-193v-251q0 -12 -8 -20.5t-20 -8.5t-20.5 9t-8.5 20zM327 615h-187v-286h187q66 0 106.5 40t40.5 103t-40.5 103t-106.5 40z" />
    <glyph glyph-name="Sigma" unicode="&#x3a3;" 
d="M126 52h364q11 0 18.5 -7.5t7.5 -18.5q0 -10 -7.5 -18t-18.5 -8h-399q-14 0 -25 10.5t-11 25.5q0 14 9 23l237 284l-236 265q-9 9 -9 24q0 14 10.5 24.5t24.5 10.5h399q11 0 18.5 -7.5t7.5 -18.5q0 -10 -7.5 -18t-18.5 -8h-361l222 -250q10 -10 10 -22q0 -11 -9 -21z" />
    <glyph glyph-name="Tau" unicode="&#x3a4;" horiz-adv-x="564" 
d="M253 26v589h-195q-10 0 -18 8t-8 18q0 11 8 18.5t18 7.5h449q11 0 18.5 -7.5t7.5 -18.5q0 -10 -7.5 -18t-18.5 -8h-196v-589q0 -11 -8.5 -20t-20.5 -9t-20.5 9t-8.5 20z" />
    <glyph glyph-name="Upsilon" unicode="&#x3a5;" horiz-adv-x="618" 
d="M575 626l-237 -340v-260q0 -11 -8.5 -20t-20.5 -9t-20.5 9t-8.5 20v259l-237 340q-5 8 -5 17q0 11 8.5 19.5t20.5 8.5q17 0 24 -12l218 -321l218 321q7 12 24 12q12 0 20.5 -8.5t8.5 -19.5t-5 -16z" />
    <glyph glyph-name="Phi" unicode="&#x3a6;" horiz-adv-x="785" 
d="M421 64v-38q0 -11 -8.5 -20t-19.5 -9q-12 0 -20.5 8.5t-8.5 20.5v38q-139 7 -222.5 81.5t-83.5 187.5t83.5 187.5t222.5 81.5v39q0 12 8 20.5t21 8.5q11 0 19.5 -8.5t8.5 -20.5v-39q138 -7 222 -82t84 -187q0 -113 -83.5 -187.5t-222.5 -81.5zM364 118v431
q-114 -7 -180 -66t-66 -150t66.5 -150t179.5 -65zM666 333q0 91 -66 150q-66 58 -179 66v-431q112 6 178.5 65t66.5 150z" />
    <glyph glyph-name="Chi" unicode="&#x3a7;" horiz-adv-x="645" 
d="M609 26q0 -12 -8 -20.5t-20 -8.5q-14 0 -23 9l-235 294l-236 -294q-9 -9 -23 -9q-12 0 -20 8.5t-8 20.5q0 10 7 18l246 298l-232 281q-6 11 -6 18q0 12 8.5 20.5t20.5 8.5q14 0 22 -11l221 -274l220 274q8 11 22 11q12 0 20.5 -8.5t8.5 -20.5q0 -7 -7 -18l-231 -280
l246 -299q7 -8 7 -18z" />
    <glyph glyph-name="Psi" unicode="&#x3a8;" horiz-adv-x="766" 
d="M654 670q12 0 20.5 -9t8.5 -20v-249q0 -121 -70 -190.5t-201 -76.5v-99q0 -11 -8.5 -20t-20.5 -9t-20.5 9t-8.5 20v99q-131 7 -201 77t-70 190v249q0 12 8.5 20.5t20.5 8.5t20.5 -8.5t8.5 -20.5v-248q0 -97 54.5 -153t158.5 -63v464q0 12 8.5 20.5t20.5 8.5t20.5 -8.5
t8.5 -20.5v-464q103 7 158 63t55 153v248q0 11 8.5 20t20.5 9z" />
    <glyph glyph-name="uni03A9" unicode="&#x3a9;" horiz-adv-x="764" 
d="M58 341q0 146 90.5 241.5t233.5 95.5t233.5 -95.5t90.5 -241.5q0 -195 -159 -289h119q11 0 18.5 -7.5t7.5 -18.5q0 -10 -7.5 -18t-18.5 -8h-178q-13 0 -21.5 9t-8.5 21q0 21 19 28q70 24 119.5 97.5t49.5 177.5q0 128 -71.5 210t-192.5 82t-192.5 -82t-71.5 -210
q0 -105 49 -178t121 -97q19 -7 19 -28q0 -12 -8.5 -21t-21.5 -9h-178q-10 0 -18 8t-8 18q0 11 8 18.5t18 7.5h119q-160 94 -160 289z" />
    <glyph glyph-name="Iotadieresis" unicode="&#x3aa;" horiz-adv-x="223" 
d="M83 26v615q0 12 8.5 20.5t20.5 8.5t20 -8.5t8 -20.5v-615q0 -12 -8 -20.5t-20 -8.5t-20.5 9t-8.5 20zM-28 773q0 15 11 26t26 11t26 -11t11 -26q0 -16 -11 -27t-26 -11t-26 11t-11 27zM176 773q0 15 11 26t26 11t26.5 -11t11.5 -26q0 -16 -11.5 -27t-26.5 -11t-26 11
t-11 27z" />
    <glyph glyph-name="Upsilondieresis" unicode="&#x3ab;" horiz-adv-x="618" 
d="M575 626l-237 -340v-260q0 -11 -8.5 -20t-20.5 -9t-20.5 9t-8.5 20v259l-237 340q-5 8 -5 17q0 11 8.5 19.5t20.5 8.5q17 0 24 -12l218 -321l218 321q7 12 24 12q12 0 20.5 -8.5t8.5 -19.5t-5 -16zM170 773q0 15 11 26t26 11t26 -11t11 -26q0 -16 -11 -27t-26 -11t-26 11
t-11 27zM374 773q0 15 11 26t26 11t26.5 -11t11.5 -26q0 -16 -11.5 -27t-26.5 -11t-26 11t-11 27z" />
    <glyph glyph-name="alphatonos" unicode="&#x3ac;" horiz-adv-x="585" 
d="M564 12q0 -22 -22 -24h-10q-87 0 -93 92q-27 -42 -72.5 -67t-97.5 -25q-97 0 -156.5 69.5t-59.5 183.5t60 184t156 70q105 0 168 -90v55q0 11 8 18.5t19 7.5t18.5 -7.5t7.5 -18.5v-361q0 -62 45 -64h8q21 -2 21 -23zM437 121v239q-22 37 -66.5 62.5t-92.5 25.5
q-77 0 -124 -59q-45 -59 -45 -148t45 -148q46 -58 124 -58q48 0 92.5 24.5t66.5 61.5zM273 606l15 157q1 11 9.5 19t19.5 8q12 0 20.5 -9t8.5 -20l-2 -12l-40 -149q-2 -12 -15 -12q-7 0 -12 5.5t-4 12.5z" />
    <glyph glyph-name="epsilontonos" unicode="&#x3ad;" horiz-adv-x="486" 
d="M53 128q0 56 39 84q38 29 85 34q-44 6 -79 37q-35 32 -35 83q0 59 53 94q55 35 136 35q104 0 173 -66q7 -7 7 -17q0 -9 -6.5 -15.5t-16.5 -6.5q-6 0 -14 5q-55 55 -144 55q-57 0 -95 -24.5t-38 -63.5q0 -45 38.5 -70t102.5 -25h63q10 0 17 -6t7 -16q0 -9 -7 -15.5
t-16 -6.5h-64q-150 0 -150 -92q0 -45 38.5 -72t104.5 -27q88 0 151 57q6 6 14 6q25 0 25 -25q0 -10 -9 -18q-70 -64 -181 -64q-92 0 -145.5 38.5t-53.5 101.5zM239 606l15 157q1 11 9.5 19t19.5 8q12 0 20.5 -9t8.5 -20l-2 -12l-40 -149q-2 -12 -15 -12q-7 0 -12 5.5
t-4 12.5z" />
    <glyph glyph-name="etatonos" unicode="&#x3ae;" horiz-adv-x="540" 
d="M459 338v-499q0 -11 -7.5 -18.5t-18.5 -7.5q-10 0 -18 7.5t-8 18.5v488q0 64 -29 92.5t-88 28.5q-44 0 -88.5 -23.5t-68.5 -59.5v-342q0 -10 -7.5 -18t-18.5 -8q-10 0 -18 8t-8 18v437q0 11 8 18.5t18 7.5q11 0 18.5 -7.5t7.5 -18.5v-50q31 36 79 60.5t95 24.5
q152 0 152 -157zM256 606l15 157q1 11 9.5 19t19.5 8q12 0 20.5 -9t8.5 -20l-2 -12l-40 -149q-2 -12 -15 -12q-7 0 -12 5.5t-4 12.5z" />
    <glyph glyph-name="iotatonos" unicode="&#x3af;" horiz-adv-x="228" 
d="M81 93v367q0 11 8 18.5t18 7.5q11 0 18.5 -7.5t7.5 -18.5v-361q0 -63 46 -64h8q20 -2 20 -23q0 -22 -21 -24h-11q-94 0 -94 105zM93 606l15 157q1 11 9.5 19t19.5 8q12 0 20.5 -9t8.5 -20l-2 -12l-40 -149q-2 -12 -15 -12q-7 0 -12 5.5t-4 12.5z" />
    <glyph glyph-name="upsilondieresistonos" unicode="&#x3b0;" horiz-adv-x="555" 
d="M81 209v251q0 11 8 18.5t18 7.5q11 0 18.5 -7.5t7.5 -18.5v-250q0 -82 36 -128.5t101 -46.5q81 0 128.5 61t47.5 150q0 121 -64 203q-4 7 -4 15q0 11 8 18.5t18 7.5q13 0 22 -12q76 -104 76 -232q0 -111 -64.5 -184.5t-167.5 -73.5q-91 0 -140 58.5t-49 162.5zM256 606
l14 157q1 12 9.5 19.5t19.5 7.5q12 0 20.5 -8.5t8.5 -20.5l-2 -12l-39 -149q-5 -12 -15 -12q-7 0 -12 5.5t-4 12.5zM116 626q0 15 11 26t26 11t26 -11t11 -26q0 -16 -11 -27t-26 -11t-26 11t-11 27zM372 626q0 15 10.5 26t26.5 11q15 0 26 -11t11 -26q0 -16 -11 -27t-26 -11
q-16 0 -26.5 11t-10.5 27z" />
    <glyph glyph-name="alpha" unicode="&#x3b1;" horiz-adv-x="585" 
d="M564 12q0 -22 -22 -24h-10q-87 0 -93 92q-27 -42 -72.5 -67t-97.5 -25q-97 0 -156.5 69.5t-59.5 183.5t60 184t156 70q105 0 168 -90v55q0 11 8 18.5t19 7.5t18.5 -7.5t7.5 -18.5v-361q0 -62 45 -64h8q21 -2 21 -23zM437 121v239q-22 37 -66.5 62.5t-92.5 25.5
q-77 0 -124 -59q-45 -59 -45 -148t45 -148q46 -58 124 -58q48 0 92.5 24.5t66.5 61.5z" />
    <glyph glyph-name="beta" unicode="&#x3b2;" 
d="M107 -187q-10 0 -18 7.5t-8 18.5v619q0 104 63.5 161.5t156.5 57.5q86 0 143.5 -48t57.5 -128q0 -69 -43 -108q-42 -39 -95 -48q57 -5 105 -51t48 -119q0 -83 -59 -135t-151 -52q-55 0 -100.5 24t-73.5 65v-238q0 -11 -7.5 -18.5t-18.5 -7.5zM295 35q78 0 122 39t44 107
q0 67 -47.5 101t-129.5 36q-32 2 -32 25t30 25q76 2 120 34.5t44 94.5q0 60 -42 96q-41 37 -103 37q-74 0 -121 -45.5t-47 -126.5v-337q24 -37 68.5 -61.5t93.5 -24.5z" />
    <glyph glyph-name="gamma" unicode="&#x3b3;" horiz-adv-x="481" 
d="M214 -161v124q0 133 -51 261q-49 127 -131 223q-6 11 -6 15q0 10 7 17t17 7q12 0 18 -8q70 -73 122 -189q53 -114 64 -219q59 80 98 184q39 102 44 207q1 10 8.5 17.5t17.5 7.5q11 0 19 -8.5t7 -19.5q-4 -112 -54 -232q-49 -120 -127 -222v-165q0 -11 -7.5 -18.5
t-18.5 -7.5t-19 8t-8 18z" />
    <glyph glyph-name="delta" unicode="&#x3b4;" 
d="M518 218q0 -93 -65.5 -161.5t-165.5 -68.5q-100 -2 -168 68.5t-66 162.5q0 76 41.5 132t112.5 84q-48 19 -71 44.5t-23 65.5q0 59 46.5 96.5t125.5 37.5q97 0 158 -58q9 -9 9 -18t-7 -16t-16 -7t-15 6q-49 49 -129 49q-55 0 -88 -24.5t-33 -63.5q0 -32 28 -50.5t97 -38.5
q65 -19 116 -44q113 -57 113 -196zM466 218q0 60 -27 98q-25 35 -61.5 55t-105.5 42q-79 -22 -121 -72.5t-42 -121.5t49.5 -127.5t127.5 -56.5q79 0 129.5 56.5t50.5 126.5z" />
    <glyph glyph-name="epsilon" unicode="&#x3b5;" horiz-adv-x="486" 
d="M53 128q0 56 39 84q38 29 85 34q-44 6 -79 37q-35 32 -35 83q0 59 53 94q55 35 136 35q104 0 173 -66q7 -7 7 -17q0 -9 -6.5 -15.5t-16.5 -6.5q-6 0 -14 5q-55 55 -144 55q-57 0 -95 -24.5t-38 -63.5q0 -45 38.5 -70t102.5 -25h63q10 0 17 -6t7 -16q0 -9 -7 -15.5
t-16 -6.5h-64q-150 0 -150 -92q0 -45 38.5 -72t104.5 -27q88 0 151 57q6 6 14 6q25 0 25 -25q0 -10 -9 -18q-70 -64 -181 -64q-92 0 -145.5 38.5t-53.5 101.5z" />
    <glyph glyph-name="zeta" unicode="&#x3b6;" horiz-adv-x="491" 
d="M53 212q0 229 321 409h-284q-10 0 -17 6.5t-7 16.5t7 16.5t17 6.5h331q11 0 18.5 -8t7.5 -19q0 -16 -13 -23q-165 -97 -245 -194t-80 -209q0 -82 58 -124.5t162 -42.5q117 0 117 -93q0 -38 -32 -100q-8 -14 -22 -14q-11 0 -18.5 7.5t-7.5 18.5q0 5 3 11q22 43 22 70
q0 53 -67 53q-125 0 -198 55.5t-73 156.5z" />
    <glyph glyph-name="eta" unicode="&#x3b7;" horiz-adv-x="540" 
d="M459 338v-499q0 -11 -7.5 -18.5t-18.5 -7.5q-10 0 -18 7.5t-8 18.5v488q0 64 -29 92.5t-88 28.5q-44 0 -88.5 -23.5t-68.5 -59.5v-342q0 -10 -7.5 -18t-18.5 -8q-10 0 -18 8t-8 18v437q0 11 8 18.5t18 7.5q11 0 18.5 -7.5t7.5 -18.5v-50q31 36 79 60.5t95 24.5
q152 0 152 -157z" />
    <glyph glyph-name="theta" unicode="&#x3b8;" 
d="M518 334q0 -152 -59 -250q-59 -96 -174 -96q-112 0 -172 96t-60 250q0 152 59 249q59 96 173 96q115 0 174 -96q59 -97 59 -249zM110 359h351q-3 123 -46 197q-42 76 -130 76q-87 0 -130 -76q-42 -77 -45 -197zM461 312h-351q3 -124 45 -201q43 -76 130 -76q88 0 130 76
q43 76 46 201z" />
    <glyph glyph-name="iota" unicode="&#x3b9;" horiz-adv-x="228" 
d="M81 93v367q0 11 8 18.5t18 7.5q11 0 18.5 -7.5t7.5 -18.5v-361q0 -63 46 -64h8q20 -2 20 -23q0 -22 -21 -24h-11q-94 0 -94 105z" />
    <glyph glyph-name="kappa" unicode="&#x3ba;" horiz-adv-x="505" 
d="M464 24q0 -11 -7.5 -19t-18.5 -8q-14 0 -21 9l-194 224l-90 -85v-122q0 -10 -7.5 -18t-18.5 -8q-10 0 -18 8t-8 18v437q0 11 8 18.5t18 7.5q11 0 18.5 -7.5t7.5 -18.5v-252l287 272q8 6 17 6q10 0 17 -7.5t7 -17.5t-8 -18l-190 -179l195 -222q6 -8 6 -18z" />
    <glyph glyph-name="lambda" unicode="&#x3bb;" horiz-adv-x="481" 
d="M410 14l-169 408l-170 -408q-6 -17 -25 -17q-11 0 -18.5 8t-7.5 19q0 8 1 10l190 453l-38 86q-25 59 -73 59q-16 0 -23 -3q-11 -1 -19 6t-8 18q0 9 6.5 15.5t14.5 7.5q14 3 29 3q87 -2 124 -90l234 -553q3 -8 3 -12q0 -11 -7.5 -19t-19.5 -8q-18 0 -24 17z" />
    <glyph glyph-name="uni03BC" unicode="&#x3bc;" horiz-adv-x="554" 
d="M533 12q0 -22 -21 -24h-11q-81 0 -93 87q-31 -39 -74 -63t-87 -24q-84 0 -114 56v-205q0 -11 -7.5 -18.5t-18.5 -7.5q-10 0 -18 7.5t-8 18.5v621q0 11 8 18.5t18 7.5q11 0 18.5 -7.5t7.5 -18.5v-305q0 -122 118 -122q43 0 87 23.5t69 58.5v345q0 11 8 18.5t18 7.5
q11 0 18.5 -7.5t7.5 -18.5v-361q0 -63 46 -64h8q20 -2 20 -23z" />
    <glyph glyph-name="nu" unicode="&#x3bd;" horiz-adv-x="481" 
d="M201 24l-179 425q-2 4 -2 10q0 11 7.5 19t18.5 8q18 0 24 -17l173 -415q68 92 108.5 199t44.5 208q1 10 8.5 17.5t17.5 7.5q11 0 19 -8.5t7 -19.5q-5 -107 -50.5 -223.5t-120.5 -219.5q-11 -18 -36 -18q-28 0 -40 27z" />
    <glyph glyph-name="xi" unicode="&#x3be;" horiz-adv-x="491" 
d="M198 339q-51 9 -92 43q-42 34 -42 95q0 45 32.5 85.5t80.5 58.5h-86q-9 0 -16.5 7t-7.5 16q0 10 7.5 16.5t16.5 6.5h322q10 0 17 -7t7 -17q0 -9 -7 -15.5t-17 -6.5h-166q-54 -13 -91 -52q-36 -39 -36 -83q0 -56 48 -88q47 -31 119 -31h120q9 0 16.5 -7t7.5 -16t-7.5 -16
t-16.5 -7h-120q-81 0 -129.5 -35.5t-48.5 -103.5q0 -136 220 -136q117 0 117 -92q0 -38 -32 -100q-8 -14 -22 -14q-11 0 -19 7.5t-8 18.5q0 6 3 11q23 47 23 73q0 49 -67 49q-132 0 -201.5 44.5t-69.5 131.5q0 70 45 113.5t100 50.5z" />
    <glyph glyph-name="omicron" unicode="&#x3bf;" 
d="M53 242q0 108 65 180.5t167 72.5q104 0 168.5 -72.5t64.5 -180.5q0 -109 -64.5 -181.5t-168.5 -72.5q-102 0 -167 72.5t-65 181.5zM462 242q0 86 -48.5 146t-128.5 60q-79 0 -127.5 -60t-48.5 -146t48.5 -146.5t127.5 -60.5q81 0 129 60t48 147z" />
    <glyph glyph-name="pi" unicode="&#x3c0;" horiz-adv-x="561" 
d="M553 460q0 -10 -7 -16.5t-16 -6.5h-60v-414q0 -10 -7.5 -18t-18.5 -8t-19 8t-8 18v414h-273v-414q0 -10 -7.5 -18t-18.5 -8t-19 7.5t-8 18.5v414h-59q-10 0 -17 6.5t-7 16.5t7 16.5t17 6.5h498q9 0 16 -6.5t7 -16.5z" />
    <glyph glyph-name="rho" unicode="&#x3c1;" horiz-adv-x="567" 
d="M133 78v-239q0 -11 -7.5 -18.5t-18.5 -7.5q-10 0 -18 7.5t-8 18.5v403q0 108 60.5 180.5t156.5 72.5q97 0 158 -72.5t61 -180.5q0 -115 -59.5 -184.5t-156.5 -69.5q-104 0 -168 90zM297 448q-75 0 -119.5 -60t-44.5 -146v-119q22 -37 67 -62.5t92 -25.5q79 0 124 58
q45 59 45 149q0 86 -44.5 146t-119.5 60z" />
    <glyph glyph-name="uni03C2" unicode="&#x3c2;" horiz-adv-x="479" 
d="M288 495q95 0 156 -65q7 -8 7 -17q0 -10 -6.5 -17t-17.5 -7q-10 0 -16 7q-49 52 -120 52q-82 0 -132 -58.5t-50 -147.5q0 -97 57 -146t159 -49q63 0 91 -18.5t28 -62.5q0 -43 -32 -113q-6 -13 -21 -13q-10 0 -17.5 7t-7.5 17q0 4 3 12q24 50 24 83q0 23 -17 32t-54 9
q-126 0 -197.5 63t-71.5 179q0 107 66 180t169 73z" />
    <glyph glyph-name="sigma" unicode="&#x3c3;" 
d="M547 459q0 -9 -7.5 -16t-16.5 -7h-105q97 -75 97 -206q0 -102 -63.5 -172t-166.5 -70q-102 0 -167 72.5t-65 181.5q0 104 67.5 172.5t181.5 68.5h221q9 0 16.5 -7t7.5 -17zM349 436h-47q-89 0 -141 -57t-52 -137q0 -86 48.5 -146.5t127.5 -60.5q80 0 128.5 59t48.5 141
q0 69 -30.5 122.5t-82.5 78.5z" />
    <glyph glyph-name="tau" unicode="&#x3c4;" horiz-adv-x="453" 
d="M427 459q0 -9 -7 -15.5t-16 -6.5h-157v-336q0 -66 50 -66q19 0 39 12q4 3 10 3q9 0 15.5 -6.5t6.5 -16.5q0 -12 -12 -20q-26 -19 -67 -19q-94 0 -94 105v344h-146q-9 0 -16.5 6.5t-7.5 15.5q0 10 7.5 17t16.5 7h355q9 0 16 -7t7 -17z" />
    <glyph glyph-name="upsilon" unicode="&#x3c5;" horiz-adv-x="555" 
d="M81 209v251q0 11 8 18.5t18 7.5q11 0 18.5 -7.5t7.5 -18.5v-250q0 -82 36 -128.5t101 -46.5q81 0 128.5 61t47.5 150q0 121 -64 203q-4 7 -4 15q0 11 8 18.5t18 7.5q13 0 22 -12q76 -104 76 -232q0 -111 -64.5 -184.5t-167.5 -73.5q-91 0 -140 58.5t-49 162.5z" />
    <glyph glyph-name="phi" unicode="&#x3c6;" horiz-adv-x="696" 
d="M374 -11v-150q0 -11 -7.5 -18.5t-18.5 -7.5q-10 0 -18 7.5t-8 18.5v150q-128 4 -198.5 74.5t-70.5 188.5q0 73 41 132.5t111 97.5q7 4 13 4q10 0 17 -7t7 -17q0 -15 -11 -20q-122 -70 -122 -190q0 -98 54 -155.5t159 -61.5v419q0 14 9.5 23.5t22.5 8.5q139 -2 213.5 -69
t74.5 -181q0 -112 -70 -177.5t-198 -69.5zM586 236q0 91 -54 143.5t-158 56.5v-401q103 2 157.5 56t54.5 145z" />
    <glyph glyph-name="chi" unicode="&#x3c7;" horiz-adv-x="479" 
d="M453 -161q0 -10 -8 -18t-18 -8q-15 0 -22 13l-165 282l-165 -282q-7 -13 -23 -13q-10 0 -17.5 8t-7.5 18q0 7 3 13l180 306l-169 289q-4 9 -4 13q0 10 8 18t18 8q15 0 22 -13l155 -264l154 264q6 13 22 13q11 0 18.5 -8t7.5 -18q0 -4 -4 -13l-169 -288l180 -307
q4 -7 4 -13z" />
    <glyph glyph-name="psi" unicode="&#x3c8;" horiz-adv-x="704" 
d="M597 486q11 0 18.5 -7.5t7.5 -18.5v-245q0 -104 -61.5 -162t-183.5 -64v-150q0 -11 -7.5 -18.5t-18.5 -7.5q-10 0 -18 7.5t-8 18.5v150q-121 5 -183 63.5t-62 162.5v245q0 11 8 18.5t18 7.5q11 0 18.5 -7.5t7.5 -18.5v-245q0 -82 49 -128t144 -51v608q0 11 8 18.5t18 7.5
q11 0 18.5 -7.5t7.5 -18.5v-608q95 5 144 51t49 128v245q0 11 8 18.5t18 7.5z" />
    <glyph glyph-name="omega" unicode="&#x3c9;" horiz-adv-x="771" 
d="M385 139q-17 -62 -54 -107q-38 -44 -102 -44q-78 0 -127 70.5t-49 173.5q0 171 82 252q8 8 18 8q11 0 18.5 -7.5t7.5 -18.5q0 -8 -5 -16q-65 -71 -65 -218q0 -80 34.5 -138.5t90.5 -58.5q60 0 92 60q33 60 33 147v100q0 11 7.5 19t18.5 8t19 -8t8 -19v-100q0 -86 32 -147
q32 -60 92 -60q57 0 91 58t34 139q0 147 -64 218q-5 8 -5 16q0 11 7.5 18.5t18.5 7.5q10 0 18 -8q81 -80 81 -252q0 -102 -49 -173t-126 -71q-65 0 -104 44q-38 46 -53 107z" />
    <glyph glyph-name="iotadieresis" unicode="&#x3ca;" horiz-adv-x="228" 
d="M81 93v367q0 11 8 18.5t18 7.5q11 0 18.5 -7.5t7.5 -18.5v-361q0 -63 46 -64h8q20 -2 20 -23q0 -22 -21 -24h-11q-94 0 -94 105zM-33 626q0 15 11 26t26 11t26 -11t11 -26q0 -16 -11 -27t-26 -11t-26 11t-11 27zM171 626q0 15 11 26t26 11t26.5 -11t11.5 -26
q0 -16 -11.5 -27t-26.5 -11t-26 11t-11 27z" />
    <glyph glyph-name="upsilondieresis" unicode="&#x3cb;" horiz-adv-x="555" 
d="M81 209v251q0 11 8 18.5t18 7.5q11 0 18.5 -7.5t7.5 -18.5v-250q0 -82 36 -128.5t101 -46.5q81 0 128.5 61t47.5 150q0 121 -64 203q-4 7 -4 15q0 11 8 18.5t18 7.5q13 0 22 -12q76 -104 76 -232q0 -111 -64.5 -184.5t-167.5 -73.5q-91 0 -140 58.5t-49 162.5zM130 626
q0 15 11 26t26 11t26 -11t11 -26q0 -16 -11 -27t-26 -11t-26 11t-11 27zM334 626q0 15 11 26t26 11t26.5 -11t11.5 -26q0 -16 -11.5 -27t-26.5 -11t-26 11t-11 27z" />
    <glyph glyph-name="omicrontonos" unicode="&#x3cc;" 
d="M53 242q0 108 65 180.5t167 72.5q104 0 168.5 -72.5t64.5 -180.5q0 -109 -64.5 -181.5t-168.5 -72.5q-102 0 -167 72.5t-65 181.5zM462 242q0 86 -48.5 146t-128.5 60q-79 0 -127.5 -60t-48.5 -146t48.5 -146.5t127.5 -60.5q81 0 129 60t48 147zM271 606l15 157
q1 11 9.5 19t19.5 8q12 0 20.5 -9t8.5 -20l-2 -12l-40 -149q-2 -12 -15 -12q-7 0 -12 5.5t-4 12.5z" />
    <glyph glyph-name="upsilontonos" unicode="&#x3cd;" horiz-adv-x="555" 
d="M81 209v251q0 11 8 18.5t18 7.5q11 0 18.5 -7.5t7.5 -18.5v-250q0 -82 36 -128.5t101 -46.5q81 0 128.5 61t47.5 150q0 121 -64 203q-4 7 -4 15q0 11 8 18.5t18 7.5q13 0 22 -12q76 -104 76 -232q0 -111 -64.5 -184.5t-167.5 -73.5q-91 0 -140 58.5t-49 162.5zM256 606
l15 157q1 11 9.5 19t19.5 8q12 0 20.5 -9t8.5 -20l-2 -12l-40 -149q-2 -12 -15 -12q-7 0 -12 5.5t-4 12.5z" />
    <glyph glyph-name="omegatonos" unicode="&#x3ce;" horiz-adv-x="771" 
d="M385 139q-17 -62 -54 -107q-38 -44 -102 -44q-78 0 -127 70.5t-49 173.5q0 171 82 252q8 8 18 8q11 0 18.5 -7.5t7.5 -18.5q0 -8 -5 -16q-65 -71 -65 -218q0 -80 34.5 -138.5t90.5 -58.5q60 0 92 60q33 60 33 147v100q0 11 7.5 19t18.5 8t19 -8t8 -19v-100q0 -86 32 -147
q32 -60 92 -60q57 0 91 58t34 139q0 147 -64 218q-5 8 -5 16q0 11 7.5 18.5t18.5 7.5q10 0 18 -8q81 -80 81 -252q0 -102 -49 -173t-126 -71q-65 0 -104 44q-38 46 -53 107zM371 606l15 157q1 11 9.5 19t19.5 8q12 0 20.5 -9t8.5 -20l-2 -12l-40 -149q-2 -12 -15 -12
q-7 0 -12 5.5t-4 12.5z" />
    <glyph glyph-name="uni0401" unicode="&#x401;" horiz-adv-x="564" 
d="M83 31v605q0 31 31 31h369q11 0 18.5 -7.5t7.5 -18.5q0 -10 -7.5 -18t-18.5 -8h-343v-247h336q11 0 18.5 -7.5t7.5 -18.5q0 -10 -7.5 -18t-18.5 -8h-336v-264h343q11 0 18.5 -7.5t7.5 -18.5q0 -10 -7.5 -18t-18.5 -8h-369q-31 0 -31 31zM159 773q0 15 11 26t26 11t26 -11
t11 -26q0 -16 -11 -27t-26 -11t-26 11t-11 27zM363 773q0 15 11 26t26 11t26.5 -11t11.5 -26q0 -16 -11.5 -27t-26.5 -11t-26 11t-11 27z" />
    <glyph glyph-name="uni0402" unicode="&#x402;" horiz-adv-x="773" 
d="M519 41q64 5 95.5 39t31.5 104v17q0 78 -36.5 113.5t-117.5 35.5q-109 0 -181 -35v-289q0 -11 -8.5 -20t-20.5 -9t-20.5 9t-8.5 20v589h-195q-10 0 -18 8t-8 18q0 11 8 18.5t18 7.5h449q11 0 18.5 -7.5t7.5 -18.5q0 -10 -7.5 -18t-18.5 -8h-196v-253q89 40 192 40
q104 0 152.5 -49t48.5 -152v-17q0 -182 -179 -195q-11 -1 -20 7t-9 19q0 10 7 17.5t16 8.5z" />
    <glyph glyph-name="uni0403" unicode="&#x403;" horiz-adv-x="539" 
d="M83 26v610q0 31 31 31h369q11 0 18.5 -7.5t7.5 -18.5q0 -10 -7.5 -18t-18.5 -8h-343v-589q0 -12 -8 -20.5t-20 -8.5t-20.5 9t-8.5 20zM311 720q-7 0 -12 5t-5 12t6 13l123 114q6 6 15 6t15.5 -6.5t6.5 -15.5t-8 -17l-129 -106q-5 -5 -12 -5z" />
    <glyph glyph-name="uni0404" unicode="&#x404;" horiz-adv-x="672" 
d="M579 122q7 9 20 9q12 0 20.5 -8.5t8.5 -19.5q0 -13 -8 -19q-92 -96 -224 -96q-142 -3 -241.5 97t-96.5 248q-3 148 96.5 247.5t241.5 97.5q134 0 224 -95q7 -7 7 -19t-8 -20t-20 -8q-13 0 -21 9q-71 81 -182 81q-109 0 -187 -72t-88 -186h378q11 0 18.5 -7.5t7.5 -18.5
q0 -10 -7.5 -18t-18.5 -8h-379q4 -120 83 -198t193 -78q112 0 183 82z" />
    <glyph glyph-name="uni0405" unicode="&#x405;" horiz-adv-x="581" 
d="M54 97q0 12 8.5 20.5t19.5 8.5q12 0 20 -7q80 -79 189 -79q94 0 134 40q42 40 42 93q0 45 -25 71q-22 26 -57 41.5t-101 32.5q-61 17 -115 37q-102 44 -102 145q0 79 63.5 128.5t158.5 49.5q123 0 206 -77q11 -8 11 -21q0 -11 -8.5 -19.5t-20.5 -8.5t-18 7
q-67 67 -173 67q-69 0 -114 -34.5t-45 -88.5q0 -36 23 -61q22 -22 54.5 -35.5t96.5 -29.5q69 -20 118 -41q108 -45 108 -159q0 -78 -58.5 -133.5t-178.5 -55.5q-137 0 -227 88q-9 8 -9 21z" />
    <glyph glyph-name="uni0406" unicode="&#x406;" horiz-adv-x="223" 
d="M83 26v615q0 12 8.5 20.5t20.5 8.5t20 -8.5t8 -20.5v-615q0 -12 -8 -20.5t-20 -8.5t-20.5 9t-8.5 20z" />
    <glyph glyph-name="uni0407" unicode="&#x407;" horiz-adv-x="223" 
d="M83 26v615q0 12 8.5 20.5t20.5 8.5t20 -8.5t8 -20.5v-615q0 -12 -8 -20.5t-20 -8.5t-20.5 9t-8.5 20zM-28 773q0 15 11 26t26 11t26 -11t11 -26q0 -16 -11 -27t-26 -11t-26 11t-11 27zM176 773q0 15 11 26t26 11t26.5 -11t11.5 -26q0 -16 -11.5 -27t-26.5 -11t-26 11
t-11 27z" />
    <glyph glyph-name="uni0408" unicode="&#x408;" horiz-adv-x="470" 
d="M20 73q0 12 8.5 20.5t19.5 8.5t19 -8q49 -54 115 -54t106.5 42t40.5 111v448q0 12 8.5 20.5t20.5 8.5t20.5 -8.5t8.5 -20.5v-448q0 -97 -56 -151t-146 -54q-94 0 -155 65q-10 7 -10 20z" />
    <glyph glyph-name="uni0409" unicode="&#x409;" horiz-adv-x="1051" 
d="M813 0h-219q-31 0 -31 31v584h-268l-13 -128q-18 -175 -45.5 -281t-61 -151.5t-82.5 -59.5q-19 -6 -33 -6q-11 0 -19.5 8.5t-8.5 20.5q0 22 22 28q46 7 76 43.5t55.5 134t43.5 267.5l14 146q3 30 33 30h313q32 0 32 -31v-246h192q91 0 146.5 -56.5t55.5 -138.5
t-55 -138.5t-147 -56.5zM621 338v-286h186q66 0 106.5 40t40.5 103t-40.5 103t-106.5 40h-186z" />
    <glyph glyph-name="uni040A" unicode="&#x40a;" horiz-adv-x="1051" 
d="M112 670q12 0 20 -8.5t8 -20.5v-272h423v272q0 12 8.5 20.5t20.5 8.5t20.5 -8.5t8.5 -20.5v-272h203q86 0 138.5 -53t52.5 -132t-51.5 -131.5t-139.5 -52.5h-230q-31 0 -31 31v286h-423v-291q0 -12 -8 -20.5t-20 -8.5t-20.5 9t-8.5 20v615q0 12 8.5 20.5t20.5 8.5z
M954 184q0 59 -37.5 96t-97.5 37h-198v-265h198q60 0 97.5 37t37.5 95z" />
    <glyph glyph-name="uni040B" unicode="&#x40b;" horiz-adv-x="781" 
d="M492 350q-109 0 -181 -35v-289q0 -11 -8.5 -20t-20.5 -9t-20.5 9t-8.5 20v589h-195q-10 0 -18 8t-8 18q0 11 8 18.5t18 7.5h449q11 0 18.5 -7.5t7.5 -18.5q0 -10 -7.5 -18t-18.5 -8h-196v-253q89 40 192 40q106 0 153.5 -51.5t47.5 -167.5v-157q0 -11 -8.5 -20t-20.5 -9
t-20.5 9t-8.5 20v157q0 91 -35.5 129t-118.5 38z" />
    <glyph glyph-name="uni040C" unicode="&#x40c;" horiz-adv-x="586" 
d="M541 25q0 -11 -8 -19.5t-19 -8.5q-13 0 -21 8l-279 307l-74 -80v-206q0 -12 -8 -20.5t-20 -8.5t-20.5 9t-8.5 20v615q0 12 8.5 20.5t20.5 8.5t20 -8.5t8 -20.5v-340l326 360q7 9 20 9q11 0 19.5 -8t8.5 -19t-8 -19l-255 -276l282 -304q8 -11 8 -19zM319 720q-7 0 -12 5
t-5 12t6 13l123 114q6 6 15 6t15.5 -6.5t6.5 -15.5t-8 -17l-129 -106q-5 -5 -12 -5z" />
    <glyph glyph-name="uni040E" unicode="&#x40e;" horiz-adv-x="622" 
d="M590 641q0 -3 -2 -13l-254 -515q-33 -66 -70 -95.5t-92 -29.5q-24 0 -45 6q-21 5 -21 26q0 11 8.5 19.5t19.5 7.5q1 0 7 -2q13 -5 29 -5q38 0 60 21q23 22 54 79l22 41l-264 446q-4 5 -4 14q0 12 8.5 20.5t20.5 8.5q16 0 25 -15l244 -420l198 417q8 18 27 18
q12 0 20.5 -8.5t8.5 -20.5zM171 776q-5 8 -5 14q0 9 6 15t14 6q10 0 15 -6q45 -50 111 -50q68 0 110 50q6 6 15 6t15 -6t6 -15q0 -6 -5 -14q-56 -62 -141 -62t-141 62z" />
    <glyph glyph-name="uni040F" unicode="&#x40f;" horiz-adv-x="690" 
d="M608 641v-610q0 -31 -32 -31h-204v-104q0 -11 -7.5 -18.5t-18.5 -7.5t-18.5 7.5t-7.5 18.5v104h-206q-31 0 -31 31v610q0 12 8.5 20.5t20.5 8.5t20 -8.5t8 -20.5v-589h410v589q0 12 8.5 20.5t20.5 8.5t20.5 -8.5t8.5 -20.5z" />
    <glyph glyph-name="uni0410" unicode="&#x410;" horiz-adv-x="647" 
d="M619 27q0 -12 -8.5 -21t-21.5 -9q-21 0 -28 19l-59 148h-357l-59 -148q-7 -19 -28 -19q-13 0 -21.5 9t-8.5 21q0 5 3 12l246 600q11 31 46 31q34 0 47 -31l246 -600q3 -9 3 -12zM166 216h315l-158 395z" />
    <glyph glyph-name="uni0411" unicode="&#x411;" 
d="M502 641q0 -10 -7.5 -18t-18.5 -8h-336v-225h193q90 0 145.5 -56.5t55.5 -138.5t-55 -138.5t-146 -56.5h-219q-31 0 -31 31v605q0 31 31 31h362q11 0 18.5 -7.5t7.5 -18.5zM140 338v-286h187q66 0 106.5 40t40.5 103t-40.5 103t-106.5 40h-187z" />
    <glyph glyph-name="uni0412" unicode="&#x412;" horiz-adv-x="614" 
d="M83 31v605q0 31 31 31h243q84 0 134 -46t50 -124q0 -58 -33.5 -100.5t-83.5 -52.5q53 -7 91.5 -56.5t38.5 -107.5q0 -83 -51 -131.5t-140 -48.5h-249q-31 0 -31 31zM140 368h210q61 0 96 34t35 89t-35 89.5t-96 34.5h-210v-247zM140 52h214q66 0 103 35.5t37 96.5
q0 57 -38 94.5t-102 37.5h-214v-264z" />
    <glyph glyph-name="uni0413" unicode="&#x413;" horiz-adv-x="539" 
d="M83 26v610q0 31 31 31h369q11 0 18.5 -7.5t7.5 -18.5q0 -10 -7.5 -18t-18.5 -8h-343v-589q0 -12 -8 -20.5t-20 -8.5t-20.5 9t-8.5 20z" />
    <glyph glyph-name="uni0414" unicode="&#x414;" horiz-adv-x="714" 
d="M677 21v-121q0 -11 -7.5 -18.5t-17.5 -7.5q-11 0 -18.5 7.5t-7.5 18.5v100h-542v-100q0 -11 -7.5 -18.5t-18.5 -7.5q-10 0 -18 7.5t-8 18.5v121q0 31 28 31h23q38 36 71 137q34 102 63 321l16 127q3 30 33 30h307q32 0 32 -31v-584h41q31 0 31 -31zM547 52v563h-264
l-14 -110q-26 -211 -56 -313q-29 -100 -62 -140h396z" />
    <glyph glyph-name="uni0415" unicode="&#x415;" horiz-adv-x="564" 
d="M83 31v605q0 31 31 31h369q11 0 18.5 -7.5t7.5 -18.5q0 -10 -7.5 -18t-18.5 -8h-343v-247h336q11 0 18.5 -7.5t7.5 -18.5q0 -10 -7.5 -18t-18.5 -8h-336v-264h343q11 0 18.5 -7.5t7.5 -18.5q0 -10 -7.5 -18t-18.5 -8h-369q-31 0 -31 31z" />
    <glyph glyph-name="uni0416" unicode="&#x416;" horiz-adv-x="894" 
d="M849 25q0 -12 -8 -20t-19 -8q-12 0 -22 10l-281 313h-43v-294q0 -11 -8.5 -20t-20.5 -9t-20.5 9t-8.5 20v294h-43l-281 -313q-10 -10 -21 -10t-19 8t-8 20q0 11 6 18l277 304l-250 278q-7 7 -7 18t8 19t19 8q13 0 22 -11l258 -293h39v275q0 12 8.5 20.5t20.5 8.5
t20.5 -8.5t8.5 -20.5v-275h40l257 293q8 11 22 11q11 0 19.5 -8t8.5 -19q0 -10 -7 -18l-251 -278l277 -304q7 -8 7 -18z" />
    <glyph glyph-name="uni0417" unicode="&#x417;" horiz-adv-x="573" 
d="M41 99q0 11 8 18.5t19 7.5q10 0 18 -7q71 -78 188 -78q83 0 131.5 38t48.5 104t-49 100.5t-133 34.5h-95q-11 0 -19 8t-8 19q0 10 8 17.5t19 7.5h95q77 0 124 33t47 94q0 59 -48 94t-122 35q-102 0 -177 -72q-8 -5 -16 -5q-11 0 -18.5 7.5t-7.5 18.5q0 10 9 19
q86 84 213 84q96 0 161.5 -48t65.5 -128q0 -69 -45 -108q-43 -39 -98 -48q57 -5 105 -50t48 -116q0 -84 -65 -137.5t-174 -53.5q-143 0 -225 92q-8 6 -8 19z" />
    <glyph glyph-name="uni0418" unicode="&#x418;" horiz-adv-x="699" 
d="M112 670q12 0 20 -8.5t8 -20.5v-548l409 561q12 16 30 16q16 0 26.5 -11t10.5 -26v-607q0 -11 -8.5 -20t-20.5 -9t-20 8.5t-8 20.5v556l-411 -570q-10 -15 -30 -15q-14 0 -24.5 11t-10.5 25v608q0 12 8.5 20.5t20.5 8.5z" />
    <glyph glyph-name="uni0419" unicode="&#x419;" horiz-adv-x="699" 
d="M112 670q12 0 20 -8.5t8 -20.5v-548l409 561q12 16 30 16q16 0 26.5 -11t10.5 -26v-607q0 -11 -8.5 -20t-20.5 -9t-20 8.5t-8 20.5v556l-411 -570q-10 -15 -30 -15q-14 0 -24.5 11t-10.5 25v608q0 12 8.5 20.5t20.5 8.5zM209 776q-5 8 -5 14q0 9 6 15t14 6q10 0 15 -6
q45 -50 111 -50q68 0 110 50q6 6 15 6t15 -6t6 -15q0 -6 -5 -14q-56 -62 -141 -62t-141 62z" />
    <glyph glyph-name="uni041A" unicode="&#x41a;" horiz-adv-x="586" 
d="M541 25q0 -11 -8 -19.5t-19 -8.5q-13 0 -21 8l-279 307l-74 -80v-206q0 -12 -8 -20.5t-20 -8.5t-20.5 9t-8.5 20v615q0 12 8.5 20.5t20.5 8.5t20 -8.5t8 -20.5v-340l326 360q7 9 20 9q11 0 19.5 -8t8.5 -19t-8 -19l-255 -276l282 -304q8 -11 8 -19z" />
    <glyph glyph-name="uni041B" unicode="&#x41b;" horiz-adv-x="703" 
d="M563 26v589h-268l-13 -128q-18 -175 -45.5 -281t-61 -151.5t-82.5 -59.5q-15 -5 -33 -6q-11 0 -19.5 8.5t-8.5 20.5q0 22 22 28q46 7 76 43.5t55.5 134t43.5 267.5l14 146q3 30 33 30h313q32 0 32 -31v-610q0 -11 -8.5 -20t-20.5 -9t-20.5 9t-8.5 20z" />
    <glyph glyph-name="uni041C" unicode="&#x41c;" horiz-adv-x="790" 
d="M649 26v566l-237 -581q-6 -14 -17 -14q-12 0 -17 14l-238 581v-566q0 -12 -8 -20.5t-20 -8.5t-20.5 9t-8.5 20v594q0 20 14.5 35t35.5 15q36 0 47 -31l215 -529l215 529q11 31 47 31q21 0 35.5 -15t14.5 -35v-594q0 -11 -8.5 -20t-20.5 -9t-20.5 9t-8.5 20z" />
    <glyph glyph-name="uni041D" unicode="&#x41d;" horiz-adv-x="703" 
d="M563 26v291h-423v-291q0 -12 -8 -20.5t-20 -8.5t-20.5 9t-8.5 20v615q0 12 8.5 20.5t20.5 8.5t20 -8.5t8 -20.5v-272h423v272q0 12 8.5 20.5t20.5 8.5t20.5 -8.5t8.5 -20.5v-615q0 -11 -8.5 -20t-20.5 -9t-20.5 9t-8.5 20z" />
    <glyph glyph-name="uni041E" unicode="&#x41e;" horiz-adv-x="764" 
d="M382 678q141 2 233.5 -98.5t90.5 -246.5q2 -146 -90.5 -247t-233.5 -98q-141 -3 -233.5 97.5t-90.5 247.5q-2 147 90.5 247t233.5 98zM382 626q-119 0 -191.5 -82t-72.5 -211q0 -128 73 -210.5t191 -82.5q117 0 190.5 83t73.5 210q0 129 -73 211t-191 82z" />
    <glyph glyph-name="uni041F" unicode="&#x41f;" horiz-adv-x="703" 
d="M563 26v589h-423v-589q0 -12 -8 -20.5t-20 -8.5t-20.5 9t-8.5 20v610q0 31 31 31h475q32 0 32 -31v-610q0 -11 -8.5 -20t-20.5 -9t-20.5 9t-8.5 20z" />
    <glyph glyph-name="uni0420" unicode="&#x420;" 
d="M83 26v610q0 31 31 31h219q91 0 146 -56.5t55 -138.5t-55.5 -138.5t-145.5 -56.5h-193v-251q0 -12 -8 -20.5t-20 -8.5t-20.5 9t-8.5 20zM327 615h-187v-286h187q66 0 106.5 40t40.5 103t-40.5 103t-106.5 40z" />
    <glyph glyph-name="uni0421" unicode="&#x421;" horiz-adv-x="669" 
d="M58 333q-3 148 96 247.5t240 97.5q136 0 226 -95q7 -7 7 -19t-8 -20t-20 -8q-13 0 -21 9q-71 81 -184 81q-116 2 -197 -82.5t-79 -210.5q-2 -124 79 -209.5t197 -83.5q114 0 185 82q7 9 20 9q12 0 20.5 -8.5t8.5 -19.5q0 -13 -8 -19q-92 -96 -226 -96q-140 -3 -239.5 97
t-96.5 248z" />
    <glyph glyph-name="uni0422" unicode="&#x422;" horiz-adv-x="564" 
d="M253 26v589h-195q-10 0 -18 8t-8 18q0 11 8 18.5t18 7.5h449q11 0 18.5 -7.5t7.5 -18.5q0 -10 -7.5 -18t-18.5 -8h-196v-589q0 -11 -8.5 -20t-20.5 -9t-20.5 9t-8.5 20z" />
    <glyph glyph-name="uni0423" unicode="&#x423;" horiz-adv-x="622" 
d="M590 641q0 -3 -2 -13l-254 -515q-33 -66 -70 -95.5t-92 -29.5q-24 0 -45 6q-21 5 -21 26q0 11 8.5 19.5t19.5 7.5q1 0 7 -2q13 -5 29 -5q38 0 60 21q23 22 54 79l22 41l-264 446q-4 5 -4 14q0 12 8.5 20.5t20.5 8.5q16 0 25 -15l244 -420l198 417q8 18 27 18
q12 0 20.5 -8.5t8.5 -20.5z" />
    <glyph glyph-name="uni0424" unicode="&#x424;" horiz-adv-x="785" 
d="M421 64v-38q0 -11 -8.5 -20t-19.5 -9q-12 0 -20.5 8.5t-8.5 20.5v38q-139 7 -222.5 81.5t-83.5 187.5t83.5 187.5t222.5 81.5v39q0 12 8 20.5t21 8.5q11 0 19.5 -8.5t8.5 -20.5v-39q138 -7 222 -82t84 -187q0 -113 -83.5 -187.5t-222.5 -81.5zM364 118v431
q-114 -7 -180 -66t-66 -150t66.5 -150t179.5 -65zM666 333q0 91 -66 150q-66 58 -179 66v-431q112 6 178.5 65t66.5 150z" />
    <glyph glyph-name="uni0425" unicode="&#x425;" horiz-adv-x="645" 
d="M609 26q0 -12 -8 -20.5t-20 -8.5q-14 0 -23 9l-235 294l-236 -294q-9 -9 -23 -9q-12 0 -20 8.5t-8 20.5q0 10 7 18l246 298l-232 281q-6 11 -6 18q0 12 8.5 20.5t20.5 8.5q14 0 22 -11l221 -274l220 274q8 11 22 11q12 0 20.5 -8.5t8.5 -20.5q0 -7 -7 -18l-231 -280
l246 -299q7 -8 7 -18z" />
    <glyph glyph-name="uni0426" unicode="&#x426;" horiz-adv-x="717" 
d="M680 21v-121q0 -11 -7.5 -18.5t-17.5 -7.5q-11 0 -18.5 7.5t-7.5 18.5v100h-515q-31 0 -31 31v610q0 12 8.5 20.5t20.5 8.5t20 -8.5t8 -20.5v-589h410v589q0 12 8.5 20.5t20.5 8.5t20.5 -8.5t8.5 -20.5v-589h41q31 0 31 -31z" />
    <glyph glyph-name="uni0427" unicode="&#x427;" horiz-adv-x="595" 
d="M274 317q109 0 181 35v289q0 12 8.5 20.5t20.5 8.5t20 -8.5t8 -20.5v-615q0 -12 -8 -20.5t-20 -8.5t-20.5 9t-8.5 20v279q-89 -40 -192 -40q-106 0 -153.5 51.5t-47.5 167.5v157q0 12 8.5 20.5t20.5 8.5t20 -8.5t8 -20.5v-157q0 -90 35.5 -128.5t119.5 -38.5z" />
    <glyph glyph-name="uni0428" unicode="&#x428;" horiz-adv-x="962" 
d="M879 641v-610q0 -31 -31 -31h-734q-31 0 -31 31v610q0 12 8.5 20.5t20.5 8.5t20 -8.5t8 -20.5v-589h312v589q0 12 8.5 20.5t20.5 8.5t20.5 -8.5t8.5 -20.5v-589h312v589q0 12 8 20.5t20 8.5q13 0 21 -8.5t8 -20.5z" />
    <glyph glyph-name="uni0429" unicode="&#x429;" horiz-adv-x="988" 
d="M952 21v-121q0 -11 -7.5 -18.5t-18.5 -7.5q-10 0 -18 7.5t-8 18.5v100h-786q-31 0 -31 31v610q0 12 8.5 20.5t20.5 8.5t20 -8.5t8 -20.5v-589h312v589q0 12 8.5 20.5t20.5 8.5t20.5 -8.5t8.5 -20.5v-589h312v589q0 12 8 20.5t20 8.5q13 0 21 -8.5t8 -20.5v-589h42
q31 0 31 -31z" />
    <glyph glyph-name="uni042A" unicode="&#x42a;" horiz-adv-x="741" 
d="M253 31v584h-195q-10 0 -18 8t-8 18q0 11 8 18.5t18 7.5h221q32 0 32 -31v-246h192q91 0 146.5 -56.5t55.5 -138.5t-55 -138.5t-147 -56.5h-219q-31 0 -31 31zM311 338v-286h186q66 0 106.5 40t40.5 103t-40.5 103t-106.5 40h-186z" />
    <glyph glyph-name="uni042B" unicode="&#x42b;" horiz-adv-x="754" 
d="M140 641v-251h193q90 0 145.5 -56.5t55.5 -138.5t-55 -138.5t-146 -56.5h-219q-31 0 -31 31v610q0 12 8.5 20.5t20.5 8.5t20 -8.5t8 -20.5zM614 26v615q0 12 8.5 20.5t20.5 8.5t20 -8.5t8 -20.5v-615q0 -12 -8 -20.5t-20 -8.5t-20.5 9t-8.5 20zM140 338v-286h187
q66 0 106.5 40t40.5 103t-40.5 103t-106.5 40h-187z" />
    <glyph glyph-name="uni042C" unicode="&#x42c;" 
d="M140 641v-251h193q90 0 145.5 -56.5t55.5 -138.5t-55 -138.5t-146 -56.5h-219q-31 0 -31 31v610q0 12 8.5 20.5t20.5 8.5t20 -8.5t8 -20.5zM140 338v-286h187q66 0 106.5 40t40.5 103t-40.5 103t-106.5 40h-187z" />
    <glyph glyph-name="uni042D" unicode="&#x42d;" horiz-adv-x="672" 
d="M614 333q2 -148 -97.5 -248t-240.5 -97q-132 0 -224 96q-8 6 -8 19q0 11 8.5 19.5t19.5 8.5q14 0 21 -9q71 -82 183 -82q113 0 192.5 78t83.5 198h-379q-10 0 -18 8t-8 18q0 11 8 18.5t18 7.5h378q-10 114 -88 186t-187 72q-112 0 -183 -81q-7 -9 -21 -9q-11 0 -19 8
t-8 20t7 19q89 95 224 95q141 2 240.5 -97.5t97.5 -247.5z" />
    <glyph glyph-name="uni042E" unicode="&#x42e;" horiz-adv-x="974" 
d="M916 333q2 -146 -90.5 -247t-233.5 -98q-138 0 -228 93.5t-95 235.5h-129v-291q0 -12 -8 -20.5t-20 -8.5t-20.5 9t-8.5 20v615q0 12 8.5 20.5t20.5 8.5t20 -8.5t8 -20.5v-272h130q12 136 100 222.5t222 86.5q141 2 233.5 -98.5t90.5 -246.5zM856 333q0 129 -73 211
t-191 82t-191 -82t-73 -211q0 -128 73 -210.5t191 -82.5q117 0 190.5 83t73.5 210z" />
    <glyph glyph-name="uni042F" unicode="&#x42f;" horiz-adv-x="594" 
d="M511 636v-610q0 -11 -8.5 -20t-20.5 -9t-20.5 9t-8.5 20v250h-156l-186 -267q-9 -12 -25 -12q-12 0 -20 8.5t-8 19.5t6 18l170 238q-77 6 -126 57.5t-49 133.5q0 89 57 142t146 53h218q31 0 31 -31zM453 328v287h-186q-66 0 -107 -40t-41 -103t41 -103.5t107 -40.5h186z
" />
    <glyph glyph-name="uni0430" unicode="&#x430;" horiz-adv-x="521" 
d="M440 340v-317q0 -10 -7.5 -18t-18.5 -8q-10 0 -18 8t-8 18v36q-62 -71 -164 -71q-69 0 -119 44t-50 117t50 116.5t119 43.5q102 0 164 -69v98q0 51 -36.5 81t-93.5 30q-79 0 -136 -57q-8 -5 -15 -5q-10 0 -16.5 6.5t-6.5 16.5q0 11 8 17q69 68 172 68q80 0 128 -40
t48 -115zM388 95v106q-50 67 -146 67q-59 0 -95.5 -34t-36.5 -86t36.5 -85.5t95.5 -33.5q95 0 146 66z" />
    <glyph glyph-name="uni0431" unicode="&#x431;" horiz-adv-x="576" 
d="M358 658l93 16q13 2 21.5 -4.5t8.5 -17.5q0 -21 -26 -26l-98 -18q-124 -23 -182 -85q-58 -61 -75 -154q29 55 78.5 87.5t113.5 32.5q99 0 162 -71t63 -175q0 -109 -64 -182t-168 -73q-105 0 -168 78t-63 206q0 173 71 265q70 92 233 121zM285 448q-79 0 -127.5 -60.5
t-48.5 -144.5q0 -86 48.5 -147t127.5 -61q81 0 129 60.5t48 147.5q0 85 -48.5 145t-128.5 60z" />
    <glyph glyph-name="uni0432" unicode="&#x432;" horiz-adv-x="533" 
d="M81 31v421q0 31 31 31h197q71 0 111 -33t40 -91q0 -41 -22.5 -70.5t-57.5 -39.5q38 -10 63.5 -43.5t25.5 -74.5q0 -61 -41.5 -96t-116.5 -35h-199q-31 0 -31 31zM309 437h-176v-165h176q45 0 71 22.5t26 59.5q0 38 -26 60.5t-71 22.5zM311 226h-178v-179h178
q49 0 76 23.5t27 64.5q0 38 -28 64.5t-75 26.5z" />
    <glyph glyph-name="uni0433" unicode="&#x433;" horiz-adv-x="425" 
d="M81 23v429q0 31 31 31h265q10 0 17 -6.5t7 -16.5t-7 -16.5t-17 -6.5h-244v-414q0 -10 -7.5 -18t-18.5 -8q-10 0 -18 8t-8 18z" />
    <glyph glyph-name="uni0434" unicode="&#x434;" horiz-adv-x="553" 
d="M517 15v-118q0 -9 -6.5 -16t-16.5 -7t-16.5 7t-6.5 16v103h-406v-103q0 -9 -7 -16t-16 -7q-10 0 -17 7t-7 16v118q0 32 30 32h13q57 78 82 327l8 79q3 30 33 30h244q31 0 31 -31v-405h28q30 0 30 -32zM407 47v390h-209l-8 -75q-27 -250 -76 -315h293z" />
    <glyph glyph-name="uni0435" unicode="&#x435;" horiz-adv-x="567" 
d="M286 495q103 0 165.5 -70.5t62.5 -170.5q0 -29 -31 -29h-373q5 -83 56.5 -137.5t132.5 -54.5q84 0 145 55q4 4 13 4t15 -6t6 -16q0 -9 -8 -17q-74 -65 -175 -65q-106 0 -174 71.5t-68 182.5q0 105 67.5 179t165.5 74zM110 266h351q-2 73 -48.5 128.5t-127.5 55.5
q-77 0 -124.5 -55.5t-50.5 -128.5z" />
    <glyph glyph-name="uni0436" unicode="&#x436;" horiz-adv-x="694" 
d="M453 246l194 -207q6 -7 6 -16q0 -11 -7.5 -18.5t-18.5 -7.5q-10 0 -20 10l-201 218h-33v-202q0 -10 -7.5 -18t-18.5 -8q-10 0 -18 8t-8 18v202h-32l-202 -218q-10 -10 -20 -10q-11 0 -18.5 7.5t-7.5 18.5q0 9 6 16l195 207l-195 199q-6 6 -6 16t7 17.5t17 7.5q11 0 19 -9
l205 -211h32v194q0 11 8 18.5t18 7.5q11 0 18.5 -7.5t7.5 -18.5v-194h32l205 211q8 9 19 9q10 0 17 -7t7 -18q0 -8 -5 -16z" />
    <glyph glyph-name="uni0437" unicode="&#x437;" horiz-adv-x="486" 
d="M45 70q0 25 25 25q9 0 14 -5q64 -58 151 -58q65 0 103.5 27t38.5 72q0 92 -150 92h-64q-10 0 -16.5 6t-6.5 16q0 22 24 22h63q64 0 102.5 25t38.5 70q0 39 -37.5 63.5t-95.5 24.5q-89 0 -144 -55q-5 -5 -14 -5q-10 0 -16.5 6.5t-6.5 15.5q0 10 7 17q69 66 173 66
q85 0 137 -34.5t52 -94.5q0 -52 -36 -83q-34 -31 -78 -37q47 -5 85 -34q39 -28 39 -84q0 -63 -53 -101.5t-145 -38.5q-112 0 -181 63q-9 7 -9 19z" />
    <glyph glyph-name="uni0438" unicode="&#x438;" horiz-adv-x="540" 
d="M81 28v432q0 11 8 18.5t18 7.5q11 0 18.5 -7.5t7.5 -18.5v-379l268 391q9 14 26 14q13 0 22.5 -9.5t9.5 -22.5v-431q0 -10 -7.5 -18t-18.5 -8q-10 0 -18 8t-8 18v385l-269 -397q-11 -14 -26 -14q-13 0 -22 9.5t-9 21.5z" />
    <glyph glyph-name="uni0439" unicode="&#x439;" horiz-adv-x="540" 
d="M81 28v432q0 11 8 18.5t18 7.5q11 0 18.5 -7.5t7.5 -18.5v-379l268 391q9 14 26 14q13 0 22.5 -9.5t9.5 -22.5v-431q0 -10 -7.5 -18t-18.5 -8q-10 0 -18 8t-8 18v385l-269 -397q-11 -14 -26 -14q-13 0 -22 9.5t-9 21.5zM129 629q-5 8 -5 14q0 9 6 15t14 6q10 0 15 -6
q45 -50 111 -50q68 0 110 50q6 6 15 6t15 -6t6 -15q0 -6 -5 -14q-56 -62 -141 -62t-141 62z" />
    <glyph glyph-name="uni043A" unicode="&#x43a;" horiz-adv-x="505" 
d="M464 24q0 -11 -7.5 -19t-18.5 -8q-14 0 -21 9l-194 224l-90 -85v-122q0 -10 -7.5 -18t-18.5 -8q-10 0 -18 8t-8 18v437q0 11 8 18.5t18 7.5q11 0 18.5 -7.5t7.5 -18.5v-252l287 272q8 6 17 6q10 0 17 -7.5t7 -17.5t-8 -18l-190 -179l195 -222q6 -8 6 -18z" />
    <glyph glyph-name="uni043B" unicode="&#x43b;" horiz-adv-x="540" 
d="M407 23v414h-209l-7 -66q-20 -195 -52 -277q-31 -83 -83 -100q-8 -3 -14 -3q-11 0 -19 7.5t-8 18.5q0 18 16 23q38 11 65 83q28 71 46 250l8 80q3 30 33 30h245q31 0 31 -31v-429q0 -10 -7.5 -18t-18.5 -8q-10 0 -18 8t-8 18z" />
    <glyph glyph-name="uni043C" unicode="&#x43c;" horiz-adv-x="652" 
d="M518 23v392l-169 -397q-11 -21 -22 -21q-13 0 -22 21l-172 397v-392q0 -10 -7.5 -18t-18.5 -8q-10 0 -18 8t-8 18v421q0 17 12 29.5t29 12.5q26 0 38 -25l166 -388l164 388q12 25 39 25q17 0 29.5 -12.5t12.5 -29.5v-421q0 -10 -7.5 -18t-18.5 -8t-19 8t-8 18z" />
    <glyph glyph-name="uni043D" unicode="&#x43d;" horiz-adv-x="540" 
d="M81 23v437q0 11 8 18.5t18 7.5q11 0 18.5 -7.5t7.5 -18.5v-187h274v187q0 11 8 18.5t18 7.5q11 0 18.5 -7.5t7.5 -18.5v-437q0 -10 -7.5 -18t-18.5 -8q-10 0 -18 8t-8 18v204h-274v-204q0 -10 -7.5 -18t-18.5 -8q-10 0 -18 8t-8 18z" />
    <glyph glyph-name="uni043E" unicode="&#x43e;" 
d="M53 242q0 108 65 180.5t167 72.5q104 0 168.5 -72.5t64.5 -180.5q0 -109 -64.5 -181.5t-168.5 -72.5q-102 0 -167 72.5t-65 181.5zM462 242q0 86 -48.5 146t-128.5 60q-79 0 -127.5 -60t-48.5 -146t48.5 -146.5t127.5 -60.5q81 0 129 60t48 147z" />
    <glyph glyph-name="uni043F" unicode="&#x43f;" horiz-adv-x="540" 
d="M407 23v414h-274v-414q0 -10 -7.5 -18t-18.5 -8q-10 0 -18 8t-8 18v429q0 31 31 31h316q31 0 31 -31v-429q0 -10 -7.5 -18t-18.5 -8q-10 0 -18 8t-8 18z" />
    <glyph glyph-name="uni0440" unicode="&#x440;" horiz-adv-x="570" 
d="M517 242q0 -115 -59.5 -184.5t-156.5 -69.5q-104 0 -168 91v-240q0 -11 -7.5 -18.5t-18.5 -7.5q-10 0 -18 7.5t-8 18.5v621q0 11 8 18.5t18 7.5q11 0 18.5 -7.5t7.5 -18.5v-54q28 41 72.5 65t95.5 24q97 0 156.5 -69.5t59.5 -183.5zM461 242q0 90 -45 148t-124 58
q-48 0 -92.5 -24.5t-66.5 -61.5v-239q22 -37 67 -62.5t92 -25.5q79 0 124 58q45 59 45 149z" />
    </font>
</defs>
</svg>
