<?xml version="1.0" standalone="no"?>
<!DOCTYPE svg PUBLIC "-//W3C//DTD SVG 1.1//EN" "http://www.w3.org/Graphics/SVG/1.1/DTD/svg11.dtd" >
<svg xmlns="http://www.w3.org/2000/svg" xmlns:xlink="http://www.w3.org/1999/xlink" version="1.1">
<metadata>
Created by FontForge 20170731 at Sat Dec  4 18:43:11 2010
 By Aleksey,,,
Sign Painter House Script (C) 1993-1999 House Industries/Brand Design Co. Inc.
</metadata>
<defs>
<font id="SignPainter-HouseScript" horiz-adv-x="407" >
  <font-face 
    font-family="SignPainter"
    font-weight="550"
    font-stretch="normal"
    units-per-em="1000"
    panose-1="2 0 6 6 7 0 0 2 0 3"
    ascent="800"
    descent="-200"
    x-height="390"
    cap-height="625"
    bbox="-307 -390.846 1082.1 764.115"
    underline-thickness="20"
    underline-position="-153"
    unicode-range="U+0020-FB02"
  />
<missing-glyph horiz-adv-x="500" 
 />
    <glyph glyph-name="fi" unicode="fi" horiz-adv-x="649" 
d="M248 219q-25 14 -45 40.5t-20 57.5q-20 -17 -40 -41.5t-37 -53.5q-16 -28 -26.5 -58t-15 -56t-2 -46t12.5 -28t26 -6t34.5 15t38.5 36.5t38 57.5q23 42 36 82zM256 247q5 22 6.5 40t-0.5 32q-3 23 -15 20.5t-15 -24.5q-6 -41 24 -68zM667 300q-18 -24 -44 -54
t-56.5 -67.5t-64.5 -84t-70 -103.5q-4 -6 -8.5 -10t-12.5 0q-29 14 -40 33t-9 58q2 30 9 74.5t17 93.5q-14 -15 -34 -23.5t-41 -10.5q-8 -32 -22.5 -66t-35 -63.5t-46 -51.5t-53.5 -31q-14 -5 -30 -6t-32 3t-32 15t-31 31q-17 22 -23 48.5t-3 56t13.5 60t27.5 60.5
q14 26 32.5 49t39.5 40t43 27.5t45 12.5t37 -5.5t30 -28.5q9 -11 18 -19.5t16.5 -19t11.5 -27t2 -44.5q0 -2 -0.5 -5t-0.5 -7q21 5 37.5 19t29.5 34.5t22.5 45.5t16.5 52q3 11 9 12t12 -4q25 -21 30 -50t-6 -74q-7 -29 -14 -54.5t-13.5 -53t-12.5 -59t-11 -71.5
q27 44 63 95.5t73.5 101t72.5 92.5t61 69q15 15 18 -4q4 -29 -41 -86z" />
    <glyph glyph-name="fl" unicode="fl" horiz-adv-x="863" 
d="M249 219q-26 14 -45.5 40.5t-19.5 57.5q-21 -17 -41.5 -41.5t-36.5 -53.5q-16 -28 -26.5 -58t-14.5 -56t-2 -46t12 -28q10 -9 26 -6.5t34.5 15.5t38.5 36.5t38 57.5q23 43 37 82zM256 247q6 22 7 40t-1 32q-1 12 -5.5 16.5t-9.5 4t-9.5 -7t-5.5 -17.5q-6 -41 24 -68z
M887 360q-3 -15 -8 -31.5t-14 -38.5t-24.5 -50.5t-39.5 -67.5q-26 -42 -52 -76.5t-51.5 -59.5t-51 -38t-49.5 -13q-32 1 -49 25t-14 56q-25 -30 -55.5 -54.5t-66.5 -21.5q-23 2 -36.5 14t-19 31.5t-3 44.5t11.5 52q7 20 16 41t21 46q-23 -11 -45.5 -15.5t-44.5 -3.5
q-8 -32 -23.5 -64.5t-35.5 -61t-45 -50t-52 -30.5q-14 -4 -29.5 -5.5t-31.5 3t-32.5 15t-31.5 30.5q-17 22 -23 48.5t-3 56t13.5 60t27.5 60.5q14 26 32.5 49t39.5 40t43 27.5t45 12.5t37.5 -5t30.5 -29q8 -11 17 -19.5t16.5 -19t11.5 -27t2 -44.5q0 -5 -0.5 -10t-1.5 -10
q44 2 82.5 31.5t64.5 72.5l18 27l18 27q6 9 13 8.5t12 -7.5q17 -24 13 -56.5t-31 -77.5t-46 -80t-34 -71q-15 -37 -14.5 -60t17.5 -22q29 1 59 44t71 109q48 76 74.5 128.5t49.5 84.5q14 20 25 6q11 -13 14 -43t-16 -68q-8 -17 -20.5 -38.5t-26 -45t-26.5 -47t-22 -42.5
q-20 -42 -19 -67t22 -25q14 0 31.5 12t37 33.5t40 51t40.5 64.5q7 56 21.5 97t30.5 67.5t30.5 39.5t22.5 15q22 5 16 -35z" />
    <glyph glyph-name=".notdef" horiz-adv-x="500" 
 />
    <glyph glyph-name=".null" horiz-adv-x="0" 
 />
    <glyph glyph-name="nonmarkingreturn" horiz-adv-x="220" 
 />
    <glyph glyph-name="space" unicode=" " horiz-adv-x="220" 
 />
    <glyph glyph-name="exclam" unicode="!" horiz-adv-x="317" 
d="M131 52q8 -17 4.5 -35t-11.5 -29q-9 -11 -26.5 -7t-28.5 21q-12 20 -9.5 40t14.5 33q11 12 29 5t28 -28zM356 615q6 9 13 9t12 -11q10 -21 5.5 -58t-35.5 -93q-21 -37 -46 -83.5t-50.5 -95.5t-50 -97.5t-43.5 -90.5q-4 -8 -7.5 -9t-9.5 5q-11 12 -15.5 38t12.5 71
q15 40 40 94.5t54.5 112t61 112.5t59.5 96z" />
    <glyph glyph-name="quotedbl" unicode="&#x22;" horiz-adv-x="318" 
d="M239 398q-8 -8 -15.5 -11.5t-10.5 -1.5q-6 5 -6.5 8.5t4.5 11.5q10 18 27.5 44.5t37 54t38.5 52t33 38.5q8 8 16 6.5t10 -9.5q3 -17 -3.5 -33t-16.5 -30q-9 -13 -24 -31t-31 -36.5t-32 -35t-27 -27.5zM191 433q-8 -11 -13.5 -14t-10.5 -2q-12 1 -7 16q7 19 19 47t26 56
t29 53.5t27 40.5q8 10 13.5 9t9.5 -8q8 -15 4 -31.5t-12 -31.5q-8 -14 -18.5 -32t-22.5 -37t-23.5 -36.5t-20.5 -29.5z" />
    <glyph glyph-name="numbersign" unicode="#" horiz-adv-x="510" 
d="M367 349h-90q-17 -35 -36.5 -71t-40.5 -76q22 2 45.5 2.5t47.5 1.5q17 34 35.5 70.5t38.5 72.5zM217 347q-51 -1 -104 -6q-8 -1 -10.5 3.5t2.5 9.5q8 10 25.5 18t56.5 14q20 3 53 6q26 48 49 88t38 64q5 9 10.5 9.5t8.5 -7.5q7 -18 -2.5 -49t-24.5 -64q-4 -9 -8.5 -18.5
t-9.5 -19.5q45 3 93 3q27 49 51 88.5t41 62.5q6 8 11.5 8t7.5 -9q5 -18 -4 -48t-25 -62q-5 -10 -10.5 -19.5t-10.5 -20.5q26 0 49.5 -1t41.5 -3q21 -3 9 -15q-17 -18 -47.5 -24t-65.5 -6h-14q-18 -32 -38 -68t-41 -74q32 1 60 0.5t49 -2.5q22 -2 9 -15q-17 -17 -47.5 -24
t-64.5 -7h-32q-19 -35 -37.5 -70.5t-35.5 -72.5q-6 -12 -14 0q-5 8 -4.5 29t14.5 58q5 11 10.5 25t13.5 30q-24 0 -47 -0.5t-46 -1.5q-15 -30 -30.5 -62t-31.5 -66q-6 -13 -14 0q-5 8 -5.5 28.5t13.5 58.5q3 8 6.5 17.5t8.5 20.5q-24 -2 -48.5 -3.5t-49.5 -3.5q-17 -1 -8 11
q7 11 24.5 20t56.5 15q18 3 45 6q15 35 34 73t39 76z" />
    <glyph glyph-name="dollar" unicode="$" horiz-adv-x="351" 
d="M290 499q31 55 60 102q10 18 19 2q7 -11 3.5 -34t-18.5 -55q-5 -9 -9.5 -18.5t-10.5 -20.5q21 -18 30 -42q6 -17 3 -34.5t-11 -35.5t-18 -37.5t-18 -38.5q-4 -8 -7.5 -10.5t-14.5 4.5q-18 11 -23.5 31t7.5 52q4 12 11 25t12.5 25t6.5 22t-5 15q-7 6 -30 -3t-48.5 -28
t-46 -45.5t-21.5 -56.5q-1 -15 11 -27.5t29 -23.5t35.5 -21t31.5 -20q23 -17 18.5 -42t-26.5 -48q-17 -19 -49.5 -27.5t-70.5 2.5q-13 -25 -24.5 -48.5t-22.5 -46.5q-7 -13 -14 -3q-6 8 -7 25t11 49q4 9 7.5 19.5t8.5 21.5q-38 22 -70 67q-9 13 6 16q13 3 30.5 -1t33.5 -16
q10 -8 20 -16.5t20.5 -16t23 -12.5t28.5 -6q12 -1 22.5 2.5t16.5 9.5q8 8 6 16.5t-10 14.5q-12 10 -34.5 22.5t-45 27.5t-38.5 34t-16 43q0 32 14 60.5t35 51.5t46.5 40.5t50.5 28.5q13 5 26.5 6t25.5 -1z" />
    <glyph glyph-name="percent" unicode="%" horiz-adv-x="596" 
d="M526 248q-7 7 -20 3t-28.5 -16t-31.5 -30.5t-29 -40.5q-12 -21 -20 -43.5t-11 -42t-1.5 -34t8.5 -20.5q16 -12 45 6.5t56 69.5q13 25 22 49.5t13 44.5t3 34.5t-6 19.5zM327 542q-8 7 -21.5 3.5t-29 -15.5t-32 -30t-29.5 -40q-12 -20 -20.5 -42t-12 -41.5t-2.5 -34.5
t8 -21q14 -13 43.5 5.5t58.5 67.5q14 25 24 49t14.5 44t4.5 34.5t-6 20.5zM453 -15q-11 -3 -23.5 -4t-25.5 2.5t-25.5 12t-24.5 24.5q-26 35 -19.5 82t32.5 93q24 42 57 71t68 31q18 2 30 -3.5t24 -22.5q7 -9 14 -16t12.5 -15t8 -21t1.5 -34q-2 -26 -13 -58t-28.5 -61
t-40 -51.5t-47.5 -29.5zM478 469q-26 -2 -51 5t-45 21v-9.5t-1 -9.5q-3 -26 -15 -57t-30.5 -59.5t-42 -50.5t-48.5 -29q-22 -6 -48 0t-49 38q-12 18 -16 39t-1 43.5t11.5 46.5t22.5 47q23 40 58 68t71 29q18 1 29 -4.5t23 -23.5q17 -26 44.5 -39t56.5 -15t56.5 7t44.5 28
q14 14 19.5 14.5t7.5 -10.5q5 -26 -9.5 -54.5t-40.5 -58.5q-20 -24 -48 -55.5t-60 -69t-66.5 -77.5t-67.5 -80.5t-63 -79.5t-53 -72q-5 -7 -9.5 -6.5t-7.5 8.5q-5 15 -0.5 37.5t23.5 52.5q18 28 52 72.5t76.5 96.5t88.5 106t88 101z" />
    <glyph glyph-name="ampersand" unicode="&#x26;" horiz-adv-x="523" 
d="M337 142q-13 -2 -24 -4.5t-22 -3.5q-71 -7 -93 40q-7 16 10 16q24 0 50 4.5t53 10.5t53 11t49 7q36 2 57.5 -11.5t32.5 -36.5q5 -17 -10 -16q-25 3 -50.5 1t-50.5 -7q5 -21 -2.5 -48.5t-31.5 -59.5q-21 -28 -54.5 -50.5t-71.5 -32.5t-78 -3t-76 38q-41 35 -46.5 82.5
t15.5 94t65 85t103 55.5q-24 8 -40.5 27t-18.5 51q-2 37 15.5 70.5t44.5 61t58 47t56 27.5q38 12 72.5 13t68.5 -28q32 -28 36 -54t-14 -64q-11 -23 -22.5 -50.5t-18.5 -46.5q-5 -13 -21 -5q-17 9 -26.5 33.5t4.5 62.5q7 21 15.5 37t14.5 28.5t7.5 21.5t-5.5 15
q-8 7 -27 3.5t-43.5 -15.5t-50.5 -30.5t-47.5 -41.5t-34.5 -48t-11 -50q2 -30 23 -38t50 -7q18 0 31 -4t22 -10.5t14 -14t7 -13.5q3 -8 0 -10.5t-11 -3.5q-56 -5 -105 -23t-86.5 -45t-59.5 -61t-23 -70q-1 -31 16.5 -52t50.5 -23q18 -1 42.5 6.5t49.5 24.5t48.5 43.5
t40.5 63.5z" />
    <glyph glyph-name="quotesingle" unicode="'" horiz-adv-x="241" 
d="M190 436q-8 -10 -14.5 -12.5t-11.5 -1.5q-9 1 -4 17q8 19 21.5 46.5t28.5 56t30.5 54t27.5 40.5q9 11 15.5 9.5t9.5 -9.5q6 -15 1.5 -31t-12.5 -30t-20 -33t-24.5 -38.5t-25 -37.5t-22.5 -30z" />
    <glyph glyph-name="parenleft" unicode="(" horiz-adv-x="228" 
d="M346 643q16 10 19 -7q4 -23 -12 -55t-57 -68q-51 -45 -91.5 -105.5t-67.5 -133t-39 -156t-5 -175.5q1 -7 -3 -7.5t-8 1.5q-8 5 -16 18.5t-12 35.5q-14 85 -3.5 176.5t47 179t98.5 164.5t150 132z" />
    <glyph glyph-name="parenright" unicode=")" horiz-adv-x="245" 
d="M279 633q22 -102 8.5 -202t-50 -188t-90 -158.5t-110.5 -112.5q-23 -17 -43.5 -24.5t-35.5 -7.5q-6 0 -7 3.5t4 7.5q71 60 122.5 130.5t84 143.5t47.5 145.5t12 136.5q-2 54 9.5 87t30.5 47q14 11 18 -8z" />
    <glyph glyph-name="asterisk" unicode="*" horiz-adv-x="366" 
d="M429 531q-4 -17 -17 -28t-33 -16q-11 -3 -30 -7t-40 -9q14 -22 26 -41.5t23 -32.5q5 -5 2 -9.5t-11 -5.5q-12 -1 -23.5 3.5t-26.5 23.5q-5 7 -11 14t-11 15q-14 -24 -27 -47.5t-21 -42.5q-2 -5 -6.5 -5.5t-8.5 4.5q-8 8 -9.5 23.5t7.5 38.5q3 7 6.5 18t10.5 25
q-43 -10 -76 -19q-16 -4 -13 9q2 11 12.5 23t35.5 21q9 3 20.5 7t25.5 8q-13 20 -26 41.5t-24 41.5q-3 6 -1.5 11t9.5 6q34 3 58 -37q4 -6 9.5 -13.5t12.5 -18.5q17 35 35.5 66t29.5 49q4 6 7 5.5t8 -3.5q9 -6 12.5 -23.5t-9.5 -43.5q-4 -8 -12.5 -23t-19.5 -36q24 6 48 11
t44 9q17 3 14 -12z" />
    <glyph glyph-name="plus" unicode="+" horiz-adv-x="314" 
d="M250 314q35 -1 51 -16t20 -38q2 -7 0.5 -10.5t-11.5 -2.5q-27 3 -51 1.5t-46 -3.5q-15 -26 -29 -51t-23 -48q-4 -18 -18 -7q-11 8 -18.5 28t6.5 55q2 4 3.5 8t3.5 9h-2q-35 1 -52 15.5t-22 37.5q-2 7 0.5 11t11.5 3q22 -2 47.5 -0.5t50.5 3.5q14 26 28 51t26 46
q9 16 23 1q12 -14 14.5 -37.5t-13.5 -55.5z" />
    <glyph glyph-name="comma" unicode="," horiz-adv-x="239" 
d="M86 -16q-10 5 -15 17.5t-1 29.5q5 23 20.5 35.5t31.5 11.5q18 -1 27 -21t0 -47q-5 -15 -14.5 -27t-22 -20t-26.5 -10t-27 3q-5 2 -4.5 6t4.5 6q6 2 13 6t14 10z" />
    <glyph glyph-name="hyphen" unicode="-" horiz-adv-x="325" 
d="M118 199q-35 2 -51.5 16t-21.5 37q-2 7 0 11t10 3q20 -1 43.5 0t46.5 3t45 3.5t39 1.5q38 0 54 -15t21 -37q3 -15 -11 -14q-27 2 -51.5 0.5t-46 -3.5t-41 -4.5t-36.5 -1.5z" />
    <glyph glyph-name="hyphen" unicode="&#xad;" horiz-adv-x="325" 
d="M118 199q-35 2 -51.5 16t-21.5 37q-2 7 0 11t10 3q20 -1 43.5 0t46.5 3t45 3.5t39 1.5q38 0 54 -15t21 -37q3 -15 -11 -14q-27 2 -51.5 0.5t-46 -3.5t-41 -4.5t-36.5 -1.5z" />
    <glyph glyph-name="period" unicode="." horiz-adv-x="223" 
d="M60 43q9 20 25.5 30t31.5 5t19 -22.5t-4 -37.5t-25 -30t-32 -5t-19 23.5t4 36.5z" />
    <glyph glyph-name="slash" unicode="/" horiz-adv-x="396" 
d="M549 645q19 18 24 -6q5 -22 -7.5 -55.5t-53.5 -81.5q-20 -23 -55 -60.5t-78 -84t-90.5 -98.5t-92.5 -103.5t-83.5 -99.5t-63.5 -86q-4 -6 -9.5 -6.5t-9.5 8.5q-6 16 -3 39t20 54q15 28 50 74t81 101.5t99 115t104 114.5t95 101t73 74z" />
    <glyph glyph-name="zero" unicode="0" horiz-adv-x="489" 
d="M441 588q44 -17 63 -57.5t19.5 -93t-14.5 -110.5t-40 -109q-27 -55 -61 -103t-74.5 -80t-85.5 -44.5t-93 2.5q-58 19 -85 66t-28 105q-1 51 12 100.5t34.5 94.5t49.5 84t58.5 70.5t61 54t56.5 33.5q41 17 74 12t53 -25zM400 239q30 63 45 119t16.5 100t-9 72.5
t-29.5 35.5q-17 6 -46 -4.5t-63.5 -36.5t-70.5 -67t-68 -96q-32 -56 -48.5 -111.5t-18 -102t10.5 -79t36 -41.5q23 -9 54 1.5t64 38.5t66.5 71t60.5 100z" />
    <glyph glyph-name="one" unicode="1" horiz-adv-x="218" 
d="M199 479q-19 -1 -28.5 1t-12 5t-0.5 7.5t5 7.5q23 22 48 47t48 49q13 12 26 0q22 -20 22 -51t-29 -85q-22 -42 -52 -96t-64 -117t-68 -132t-64 -140q-7 -17 -18 -4q-12 14 -15.5 39t10.5 72q7 24 27.5 69.5t47.5 101.5t58 115.5t59 110.5z" />
    <glyph glyph-name="two" unicode="2" horiz-adv-x="423" 
d="M84 52q38 11 74 17t62 7q37 1 59 -12t30 -36q2 -7 1 -11t-11 -4q-22 1 -55 -2.5t-68.5 -9.5t-68.5 -13.5t-55 -13.5q-20 -6 -31 -4t-19 11q-9 10 -15 20.5t-10 21.5q-6 15 -3 22.5t19 17.5q67 40 130 86.5t117 94t96.5 94.5t68.5 88t33 73.5t-10 51.5t-40 12t-46 -27.5
t-43.5 -46.5t-32.5 -45q-23 -35 -45 -52t-55 -15q-10 1 -11.5 4t1.5 12q6 18 20.5 45t35 55.5t46 54t55.5 40.5q35 18 75.5 15t69.5 -32q28 -28 35 -69.5t-24 -105.5q-15 -29 -49 -72t-84.5 -90.5t-114.5 -95t-137 -86.5z" />
    <glyph glyph-name="three" unicode="3" horiz-adv-x="429" 
d="M472 415q-19 -25 -55 -53t-81 -47q13 -3 25 -7.5t21 -12.5q19 -16 26 -39.5t2.5 -52.5t-21 -61.5t-44.5 -66.5q-32 -39 -69 -60t-73.5 -27t-69.5 0.5t-57 22.5q-26 17 -39.5 38t-18 42.5t-2 41t8.5 33.5q13 32 36 48.5t46 16.5q17 0 8 -14q-19 -30 -28.5 -57.5t-11 -50.5
t4.5 -40t20 -26q19 -12 43 -11t49 12t50 30.5t45 45.5q18 22 32 46t21 45t6 37.5t-13 24.5q-15 10 -34.5 7.5t-40 -5.5t-42 0.5t-40.5 27.5q-5 5 -3 10.5t12 8.5q80 24 137 59t90.5 71t42.5 67.5t-7 48.5q-14 15 -31.5 13t-37 -14.5t-39 -33t-37.5 -42.5q-24 -30 -50.5 -46
t-57.5 -10q-18 3 -10 18q11 22 28.5 45.5t37.5 44.5t41 38t39 26q37 18 79 13.5t68 -30.5q32 -33 34 -76.5t-40 -98.5z" />
    <glyph glyph-name="four" unicode="4" horiz-adv-x="426" 
d="M371 252q16 -8 24.5 -19.5t12.5 -23.5q3 -15 -11 -12q-23 4 -54 3q-32 -58 -59.5 -114t-46.5 -104q-3 -8 -8 -8.5t-9 4.5q-6 8 -10.5 17.5t-6 22.5t0.5 29.5t10 39.5q16 42 46 106q-38 -5 -76.5 -11.5t-69.5 -14.5q-11 -2 -19 -1t-15 9q-10 13 -19.5 29.5t-15.5 27.5
q-9 17 4 32q31 37 80 82.5t105 91t113.5 88t105.5 73.5q9 6 20 7.5t19 -10.5t14 -22.5l14 -24.5q4 -8 6.5 -14t1.5 -12t-5 -13t-11 -19q-26 -41 -63.5 -104t-77.5 -135zM440 512q-44 -30 -91 -64.5t-92.5 -70.5t-87.5 -73t-75 -72q46 12 99.5 21t101.5 11q33 64 71 129.5
t74 118.5z" />
    <glyph glyph-name="five" unicode="5" horiz-adv-x="415" 
d="M552 556q-66 0 -118 -11t-100 -17q-5 -1 -8.5 -1h-7.5q-25 -37 -49.5 -75.5t-49.5 -77.5q36 14 73.5 9t59.5 -22q19 -14 32.5 -36t16 -52.5t-8.5 -70.5t-42 -91q-28 -46 -63 -74t-72 -40t-72.5 -9t-63.5 18q-26 14 -40.5 34t-19.5 42t-3 44t9 40q13 35 36.5 49t45.5 16
q6 1 8 -3.5t-2 -10.5q-18 -28 -27.5 -56t-10.5 -53t5.5 -43.5t21.5 -27.5q19 -11 44 -6t51 22t50.5 43.5t42.5 56.5q18 32 28.5 62t13 55t-2.5 42.5t-17 24.5q-13 7 -31 5.5t-37 -10.5t-38.5 -25t-35.5 -38q-6 -8 -10.5 -7.5t-9.5 6.5q-12 14 -17.5 40.5t14.5 69.5
q17 36 42.5 80.5t57.5 94.5q-7 7 -11 14.5t-6 15.5q-4 13 12 13q35 -1 69.5 3t66 9t58 10t46.5 5q32 1 51.5 -13.5t28.5 -40.5q4 -13 -10 -13z" />
    <glyph glyph-name="six" unicode="6" horiz-adv-x="383" 
d="M89 166q-14 -54 -3.5 -86.5t25.5 -41.5t35 -5t41 18.5t42 39.5t37 58q32 64 35 113.5t-27 63.5q-15 7 -41 1.5t-53.5 -24.5t-52.5 -53t-38 -84zM466 528q-1 -20 -4.5 -41.5t-9.5 -42.5t-13.5 -39.5t-14.5 -33.5t-21 -5q-20 14 -24 44.5t10 69.5q6 16 11.5 32.5t8.5 29.5
t2.5 21.5t-6.5 9.5q-15 2 -42 -10.5t-60.5 -39.5t-70.5 -70t-72 -102q33 20 70.5 22.5t72.5 -19.5q23 -15 39 -38t20.5 -54.5t-4 -70.5t-34.5 -86q-26 -46 -55.5 -73t-61 -37.5t-62.5 -6.5t-59 20q-33 19 -51 55.5t-18.5 85.5t16.5 108t53 123q35 62 72 104.5t71 69.5
t61.5 41t43.5 19q30 10 55 5.5t41 -15.5q18 -12 27.5 -30.5t8.5 -45.5z" />
    <glyph glyph-name="seven" unicode="7" horiz-adv-x="337" 
d="M383 536q-40 -8 -74.5 -16t-64.5 -12q-25 -3 -43 0t-31 10.5t-20.5 19t-11.5 23.5t11 12q30 0 60.5 3.5t60 8.5t55.5 10t47 7q16 2 25.5 0.5t20.5 -16.5q9 -14 16.5 -30.5t12.5 -31.5t1 -23t-20 -23q-44 -42 -99 -103.5t-110.5 -129.5t-105.5 -137t-84 -126q-9 -14 -18 0
q-10 15 -8 43t25 71q15 28 39 64.5t54 77t64 83t68.5 82t68 74t61.5 59.5z" />
    <glyph glyph-name="eight" unicode="8" horiz-adv-x="388" 
d="M216 279q-45 -38 -80.5 -78t-53.5 -79q-16 -35 -15 -64t27 -42q13 -6 28.5 -7t32 3.5t32.5 14t29 23.5q13 13 23.5 28t16.5 33t5 41t-11 52q-7 18 -15.5 36.5t-18.5 38.5zM396 477q1 19 -1.5 37t-10 31t-19.5 19.5t-29 3.5q-18 -3 -36 -15t-31.5 -29.5t-22 -37.5
t-8.5 -40q0 -24 11 -54q37 26 74.5 47.5t72.5 37.5zM277 327q9 -18 19 -37t19 -39q13 -29 21 -58t6 -57.5t-15 -56.5t-40 -56q-20 -20 -47.5 -33t-57 -18.5t-58.5 -3t-51 13.5q-32 16 -48 39.5t-19 50t4 54.5t21 52q23 41 63.5 84t90.5 83q-12 27 -19.5 53t-4.5 48
q6 51 41 89t81 56q33 13 65.5 14.5t58 -9.5t40 -34.5t11.5 -60.5q41 10 62 -3q7 -4 7 -9t-8 -9q-51 -28 -115 -67.5t-127 -85.5z" />
    <glyph glyph-name="nine" unicode="9" horiz-adv-x="427" 
d="M308 220q-30 -17 -65.5 -20.5t-72.5 14.5q-23 11 -40 32.5t-24 52.5t0.5 72t34.5 91q50 92 115.5 125t130.5 1q35 -18 51.5 -53.5t15 -86t-21 -114.5t-56.5 -138q-57 -114 -118 -169.5t-136 -57.5q-21 0 -43.5 5t-41.5 17.5t-32 33.5t-14 53q-1 17 3 31t10 24.5
t13.5 17.5t13.5 11q8 5 14.5 5t4.5 -11q-15 -67 -3.5 -101.5t37.5 -43.5q44 -15 104 36t120 173zM361 369q16 40 22.5 73t6 57t-7 39t-16.5 21q-14 7 -34.5 0t-43 -25t-45 -45.5t-39.5 -60.5q-18 -34 -27 -64.5t-9.5 -55.5t6.5 -42.5t22 -24.5q17 -8 39.5 -3.5t45 21
t44 44.5t36.5 66z" />
    <glyph glyph-name="colon" unicode=":" horiz-adv-x="255" 
d="M43 43q10 20 26.5 30t30.5 5q15 -5 19 -22.5t-4 -37.5q-8 -19 -25 -29.5t-32 -5.5q-14 5 -19 23t4 37zM200 343q8 18 24.5 29t31.5 5q14 -6 18.5 -22.5t-3.5 -36.5t-24.5 -30t-31.5 -5t-19.5 22.5t4.5 37.5z" />
    <glyph glyph-name="semicolon" unicode=";" horiz-adv-x="264" 
d="M63 -16q-10 5 -15 17.5t0 29.5q6 23 21.5 35.5t31.5 11.5q18 -1 26 -21t-1 -47q-5 -15 -14.5 -27t-21.5 -20t-26 -10t-27 3q-5 2 -5 6t5 6q15 5 26 16zM210 343q8 17 24.5 28.5t31.5 5.5q13 -5 18 -22t-3 -37t-24.5 -30t-31.5 -5t-19.5 22.5t4.5 37.5z" />
    <glyph glyph-name="semicolon" unicode="&#x37e;" horiz-adv-x="264" 
d="M63 -16q-10 5 -15 17.5t0 29.5q6 23 21.5 35.5t31.5 11.5q18 -1 26 -21t-1 -47q-5 -15 -14.5 -27t-21.5 -20t-26 -10t-27 3q-5 2 -5 6t5 6q15 5 26 16zM210 343q8 17 24.5 28.5t31.5 5.5q13 -5 18 -22t-3 -37t-24.5 -30t-31.5 -5t-19.5 22.5t4.5 37.5z" />
    <glyph glyph-name="less" unicode="&#x3c;" horiz-adv-x="288" 
d="M158 267q17 -9 31 -18t26 -20q16 -14 21.5 -31t3.5 -32q-3 -18 -18 -7q-26 19 -59.5 36.5t-61.5 31.5q-14 7 -19 18.5t-9 34.5q-2 12 1 17t16 10q19 6 45 17t52.5 23t50.5 24.5t39 22.5q8 5 12 2t4 -11q0 -14 -9 -33t-28 -33q-17 -14 -44 -27t-54 -25z" />
    <glyph glyph-name="equal" unicode="=" horiz-adv-x="361" 
d="M126 182q-36 2 -52.5 16.5t-21.5 37.5q-2 7 0 11t11 3q20 -2 43 -0.5t46.5 4t45 4.5t38.5 1q38 -2 54 -16.5t21 -37.5q3 -15 -11 -14q-27 2 -51.5 0.5t-46 -3.5t-40.5 -4.5t-36 -1.5zM173 290q-35 1 -51 16t-21 38q-3 14 11 13q20 -1 43.5 0.5t46.5 3t45 3t39 0.5
q37 -2 53.5 -17t20.5 -38q2 -7 -0.5 -11t-12.5 -3q-54 5 -97 -0.5t-77 -4.5z" />
    <glyph glyph-name="greater" unicode="&#x3e;" horiz-adv-x="290" 
d="M192 276q-19 10 -35 20.5t-26 19.5q-17 15 -22.5 33.5t-3.5 31.5q3 20 18 8q31 -22 71.5 -44.5t75.5 -37.5q20 -8 9 -30q-11 -23 -20 -34t-24 -17q-37 -14 -80.5 -30.5t-78.5 -36.5q-8 -4 -11 -2t-4 12q-1 13 10 31t28 31q19 14 42.5 24.5t50.5 20.5z" />
    <glyph glyph-name="question" unicode="?" horiz-adv-x="385" 
d="M130 52q8 -20 6 -36.5t-12 -27.5t-27 -8t-28 22q-11 20 -9 40t14 33t30 5.5t26 -28.5zM194 528q20 33 47 56.5t57 35t61 10t58 -19.5q42 -27 51.5 -79.5t-20.5 -115.5q-29 -59 -78 -97.5t-107 -69.5q-56 -31 -80 -68.5t-35 -76.5q-5 -17 -18 -3q-10 10 -16 34t9 59
q13 31 41.5 58t84.5 59q46 26 83.5 64.5t60.5 86.5q7 15 12.5 33.5t7 35.5t-2.5 31t-16 21q-20 10 -45 0t-52 -35t-53 -62t-47 -80q-5 -10 -9.5 -10.5t-9.5 7.5q-11 17 -10.5 50.5t26.5 75.5z" />
    <glyph glyph-name="at" unicode="@" horiz-adv-x="586" 
d="M385 396q-9 0 -24 -8.5t-32 -24t-35.5 -37.5t-34.5 -49q-16 -26 -25.5 -50t-12.5 -43.5t1.5 -31.5t16.5 -12q23 -1 52.5 31.5t60.5 85.5q38 66 44 102t-11 37zM326 165q-19 -22 -43.5 -38.5t-52.5 -16.5t-44.5 17.5t-20.5 45.5t6 64t35 72q48 70 92.5 99.5t75.5 29.5
q23 0 36 -14.5t15 -34.5q7 11 13 21t13 18q6 7 9.5 8.5t8.5 -3.5q10 -10 12 -33.5t-12 -54.5q-6 -13 -16 -30t-21 -35.5t-21.5 -37t-17.5 -34.5q-13 -29 -14.5 -51t9.5 -25q16 -4 44.5 24t58.5 97q18 42 24.5 82.5t2 74.5t-19.5 59t-39 36q-26 11 -60 7.5t-71.5 -21
t-75.5 -49.5t-71 -79q-34 -48 -50.5 -98t-16.5 -93.5t15.5 -77t45.5 -46.5q21 -9 45 -10t48 5t45.5 17.5t36.5 26.5q5 5 10 4.5t5 -8.5q0 -11 -7 -29.5t-31 -32.5q-20 -12 -42.5 -16t-43.5 -3t-38.5 4.5t-29.5 8.5q-31 12 -52 30.5t-34.5 41.5t-20 49.5t-6.5 53.5
q-1 70 28 133t72.5 112t94 81t91.5 41q48 11 82 1t55 -32q41 -19 62 -52.5t26.5 -72.5t-1.5 -79.5t-20 -74.5q-29 -72 -72.5 -110t-87.5 -35q-29 2 -45.5 19.5t-18.5 43.5z" />
    <glyph glyph-name="A" unicode="A" horiz-adv-x="442" 
d="M152 201q46 4 90 10t79 7q6 39 13.5 81t17.5 82.5t20.5 78t22.5 66.5q-29 -32 -59.5 -70t-62 -80t-62.5 -86t-59 -89zM313 157q-27 -2 -54.5 -5t-54 -5.5t-49.5 -4t-41 -1.5q-46 -79 -76 -144q-3 -7 -8.5 -7t-9.5 5q-9 12 -10 36t15 66q5 11 11.5 25.5t15.5 31.5
q-17 9 -24 19t-9 15q-4 10 -1.5 13.5t13.5 1.5t22 -3t23 -2q29 51 68.5 111t82.5 118t87.5 108.5t84.5 83.5q22 18 36 -1q4 -5 6.5 -8.5t5 -7.5t5 -10t6.5 -15q8 -18 7.5 -35.5t-7.5 -37.5q-20 -60 -39.5 -134t-33.5 -157q23 -8 32.5 -21.5t12.5 -29.5q3 -14 -11 -9
q-18 5 -43 6q-5 -39 -9 -79.5t-6 -80.5q0 -16 -15 -9t-25.5 27.5t-11.5 63.5q0 15 1 34t3 42z" />
    <glyph glyph-name="B" unicode="B" horiz-adv-x="454" 
d="M244 238q-11 -2 -21 -3.5t-21 -3.5q-40 -4 -62 7q-20 -39 -38 -78t-29 -77q-8 -26 0 -36t32 -7t51 12t53.5 22.5t49.5 30.5t39 37q14 17 20 33.5t1 30t-23 22t-52 10.5zM167 288q74 17 133 48.5t98.5 67.5t56.5 71.5t8 61.5q-8 19 -28.5 22.5t-47.5 -2.5t-56.5 -17
t-55.5 -19q2 -17 -4.5 -40t-25.5 -58q-15 -28 -35.5 -62.5t-42.5 -72.5zM213 511q-30 2 -46.5 15t-21.5 25q-7 16 10 17q26 2 55.5 11t59 19t58.5 18.5t54 10.5q19 1 37.5 -2t34 -12t27.5 -25.5t19 -41.5q14 -51 2.5 -92.5t-37.5 -74.5q-22 -28 -61 -61.5t-95 -57.5
q28 -14 48 -42q8 -12 11.5 -28t1 -34.5t-11 -37.5t-24.5 -37q-17 -18 -38.5 -33.5t-44.5 -27.5t-47 -20t-45 -12q-29 -5 -48 -4t-36 9q-15 8 -28 20t-23 26q-6 8 -10 16t-5 19t1.5 27t11.5 40q15 42 36 89.5t46 95.5t53 95.5t56 89.5z" />
    <glyph glyph-name="C" unicode="C" horiz-adv-x="462" 
d="M388 206q4 8 10.5 8t10.5 -10q9 -25 3.5 -51t-19 -49t-31.5 -42t-34 -30q-54 -38 -111 -40.5t-98 19.5q-34 18 -59 62t-27 106q-1 53 12 103t35.5 95t52 83.5t61.5 69.5t64.5 52.5t60.5 32.5q41 16 76 17t59 -20q17 -14 32 -34t21 -39q13 -42 -9 -88q-11 -23 -21.5 -50
t-18.5 -49q-2 -6 -7.5 -9t-14.5 3q-17 11 -26 34.5t2 61.5q6 20 14.5 40t14.5 38t7.5 32.5t-7.5 23.5q-11 11 -41.5 2t-70 -35t-82 -68.5t-76.5 -98.5q-33 -55 -48.5 -108.5t-17.5 -98.5t8.5 -78.5t28.5 -48.5q24 -20 54.5 -17.5t63.5 24t66 61.5t62 96z" />
    <glyph glyph-name="D" unicode="D" horiz-adv-x="483" 
d="M263 511q4 -19 -1.5 -45.5t-24.5 -59.5t-42 -73.5t-45.5 -82.5t-42 -83t-30.5 -75q-19 -61 24 -45q68 26 124 65.5t98.5 85.5t72 95t44.5 94t15.5 83t-14.5 61q-13 21 -32.5 23.5t-43 -4t-50 -18.5t-52.5 -21zM210 501q-29 1 -45 16t-20 26q-3 8 -1.5 12.5t11.5 6.5
q26 3 49 11.5t44.5 17.5t44 17.5t46.5 12.5q48 8 85.5 -15.5t65.5 -72.5q23 -40 24.5 -89.5t-15.5 -102t-51 -105.5t-81 -100t-105.5 -84.5t-125.5 -59.5q-22 -8 -36.5 -6t-27.5 13q-9 8 -20 18t-22 25q-7 10 -11.5 18.5t-5 20t2.5 27.5t11 40q12 35 32 80t45 93t52.5 94.5
t53.5 85.5z" />
    <glyph glyph-name="E" unicode="E" horiz-adv-x="368" 
d="M218 525q-19 8 -28 21.5t-14 29.5q-3 13 11 12q31 -2 66 1.5t68.5 8.5t63.5 10t51 5q32 1 49.5 -11.5t26.5 -37.5q2 -6 0 -10.5t-11 -2.5q-54 1 -105.5 -9t-97.5 -18q-30 -45 -65.5 -107t-72.5 -129q20 4 38.5 5.5t32.5 2.5q38 2 56 -10t26 -35q2 -7 1 -11t-11 -4
q-41 0 -92 -8.5t-93 -19.5q-22 -42 -41.5 -82.5t-35.5 -75.5q18 6 38.5 11t41.5 9.5t40.5 7t34.5 3.5q37 2 57 -9.5t28 -34.5q2 -7 0.5 -11t-10.5 -4q-21 0 -50.5 -4t-60 -10t-60 -13t-50.5 -13q-14 -4 -23.5 -2.5t-18.5 12.5q-6 7 -11 17l-10 20q-7 13 -7 25t8 32
q17 46 43.5 102t57.5 114.5t64 116t65 106.5z" />
    <glyph glyph-name="F" unicode="F" horiz-adv-x="363" 
d="M214 526q-17 8 -26 22t-13 29q-3 12 11 12q31 -2 65.5 2t67.5 9t62 9.5t50 4.5q32 0 52 -14t30 -37q2 -6 0 -10.5t-12 -4.5q-57 1 -108.5 -10t-97.5 -18q-26 -43 -60 -101.5t-71 -126.5q20 4 36.5 5.5t30.5 2.5q38 2 57.5 -11.5t26.5 -36.5q5 -15 -11 -15q-19 0 -42 -2
t-47.5 -6t-49 -9.5t-45.5 -10.5q-29 -56 -55.5 -110.5t-48.5 -105.5q-6 -14 -17 -4q-14 12 -19 37.5t11 72.5q11 33 35 83.5t54.5 109t65.5 119.5t68 115z" />
    <glyph glyph-name="G" unicode="G" horiz-adv-x="500" 
d="M412 192q10 -35 -4.5 -68.5t-40 -60.5t-54 -45.5t-47.5 -23.5q-18 -5 -39 -8.5t-42.5 -2.5t-43 8t-42.5 23q-27 20 -46.5 56t-20.5 98q-1 54 14.5 105t41 97t58 86t67.5 71t69.5 52.5t62.5 30.5q42 14 75.5 13.5t59.5 -19.5q21 -15 33.5 -33t18.5 -38q13 -41 -7 -87
q-9 -20 -20 -47t-19 -49q-2 -6 -7.5 -9.5t-13.5 4.5q-17 12 -26.5 34.5t0.5 60.5q5 19 13 38t14 36.5t7.5 31.5t-6.5 22q-12 12 -45.5 3t-76 -35.5t-87.5 -69t-81 -96.5q-35 -53 -52.5 -106.5t-22 -98.5t2.5 -78.5t22 -47.5q21 -19 51 -16t63 24t64.5 56.5t54.5 80.5
q-24 -5 -47 -8.5t-41 -5.5q-38 -4 -61.5 10t-34.5 38q-8 16 10 16q29 0 58 4.5t56 9t52.5 9t48.5 4.5q38 1 59.5 -13.5t31.5 -37.5q4 -8 2 -13t-12 -3q-14 2 -32 1t-38 -3z" />
    <glyph glyph-name="H" unicode="H" horiz-adv-x="488" 
d="M558 465q-23 -41 -51.5 -90.5t-60.5 -108.5q17 -8 26 -19.5t13 -24.5q2 -14 -11 -11q-24 5 -56 3q-26 -49 -51.5 -102t-50.5 -110q-7 -17 -17 -2q-11 15 -14.5 39.5t11.5 70.5q5 15 16 40t26 56q-27 -3 -55 -7t-53.5 -7.5t-48 -5.5t-40.5 -2q-23 -47 -46 -95.5t-45 -99.5
q-3 -8 -8 -9.5t-10 5.5q-11 16 -14.5 40t9.5 70q5 16 16.5 42t26.5 60q-17 8 -24 17t-10 15q-5 9 -2.5 12.5t15.5 2.5q11 -1 21.5 -2t20.5 -1q24 50 52 105t55.5 105t51.5 91t39 63q14 18 24 -1q11 -21 7 -57.5t-32 -90.5q-22 -42 -51.5 -94.5t-62.5 -115.5q52 7 99.5 17
t97.5 13q24 48 52 100t54 99t49 84.5t38 57.5t25 -1q10 -22 5 -58.5t-36 -92.5z" />
    <glyph glyph-name="I" unicode="I" horiz-adv-x="182" 
d="M269 616q7 10 13 9t11 -10q11 -22 6.5 -59t-36.5 -94q-23 -41 -54 -96t-64.5 -116.5t-66.5 -127t-60 -126.5q-6 -14 -16 -2q-5 6 -9.5 15.5t-6 23t1 31.5t10.5 41q12 34 31.5 77t42.5 90t49.5 95.5t52.5 94t50.5 85.5t44.5 69z" />
    <glyph glyph-name="J" unicode="J" horiz-adv-x="437" 
d="M66 229q11 2 15.5 -2.5t-0.5 -17.5q-18 -53 -21.5 -89t2 -58.5t17 -33t23.5 -13.5q34 -8 64.5 13.5t59 61.5t55 91.5t51.5 103.5q20 42 45 92t49 97t45 85.5t33 56.5q12 19 24 -1q10 -17 11 -48.5t-18 -76.5q-12 -29 -35 -77.5t-49.5 -101.5t-53 -104t-47.5 -85
q-29 -48 -59 -77.5t-60 -44.5t-61 -18t-61 2q-57 10 -84.5 56.5t-10.5 111.5q8 32 27 52t39 25z" />
    <glyph glyph-name="K" unicode="K" horiz-adv-x="397" 
d="M125 210q-26 -51 -52 -106t-51 -113q-7 -15 -16 -3q-11 16 -15 40.5t10 69.5q6 21 23.5 61t41 89.5t51 104t54 104t50 89.5t38.5 61q13 17 24 -2q5 -9 7.5 -22t1 -31.5t-9 -41.5t-22.5 -51q-20 -35 -44 -78.5t-51 -94.5q49 37 99 78t97.5 83t90.5 84t79 81q12 14 19 -2
q5 -17 0.5 -42.5t-31.5 -62.5q-17 -23 -49.5 -56t-75 -70.5t-91.5 -76.5t-100 -75q24 -38 43 -71t28 -54q18 -43 14.5 -70t-14.5 -41q-10 -12 -18 2q-29 56 -61.5 109.5t-69.5 107.5z" />
    <glyph glyph-name="L" unicode="L" horiz-adv-x="353" 
d="M55 56q43 11 83 18.5t69 9.5q38 3 59 -9.5t29 -35.5q2 -6 1 -10.5t-11 -4.5q-19 0 -47 -4t-59 -10t-60.5 -12.5t-51.5 -12.5q-18 -5 -27.5 -3.5t-17.5 13.5q-7 10 -14.5 22t-11.5 21q-5 13 -5 25.5t8 32.5q12 31 32.5 75t46 94t53.5 101.5t54.5 98.5t49.5 84.5t38 58.5
q14 19 24 -2q9 -19 7.5 -52.5t-32.5 -88.5q-20 -36 -45.5 -81.5t-54.5 -98.5t-59 -111t-58 -118z" />
    <glyph glyph-name="M" unicode="M" horiz-adv-x="573" 
d="M269 435q-33 -50 -69.5 -107.5t-71.5 -116t-66 -116t-53 -107.5q-6 -15 -17 -2q-11 11 -15 37.5t13 71.5q14 36 48.5 99t78.5 136t91.5 146t88.5 128q14 21 32 6q15 -13 24 -26.5t12.5 -30.5t0.5 -39t-13 -52q-24 -72 -50.5 -159.5t-55.5 -193.5q41 67 87.5 129
t94.5 122.5t95 121.5t88 125q13 19 29 3q30 -31 26.5 -69.5t-23.5 -76.5q-26 -49 -57 -109t-61 -123.5t-56.5 -126.5t-45.5 -117q-5 -13 -16 -3q-12 10 -18 34.5t7 74.5q6 22 20 58t33.5 79.5t43 91.5t47.5 95q-43 -52 -85.5 -106t-81.5 -108t-73.5 -107.5t-61.5 -103.5
q-7 -15 -18 -7q-25 18 -35.5 46t-2.5 75q3 21 11 56.5t19 79t25 93t31 99.5z" />
    <glyph glyph-name="N" unicode="N" horiz-adv-x="459" 
d="M239 429q-28 -48 -60 -105.5t-62 -115.5t-55 -113.5t-40 -100.5q-5 -17 -17 -4q-13 14 -16.5 42.5t11.5 69.5q18 51 50 117.5t68.5 136t73.5 135.5t67 116q7 11 12.5 12.5t13.5 -3.5q14 -10 22.5 -21t12.5 -25.5t3.5 -33t-4.5 -44.5q-12 -72 -20 -163t-13 -197
q25 58 58 123.5t68 130t69.5 123t62.5 102.5q6 9 12 7.5t11 -9.5q6 -11 8 -24.5t-1 -31t-12 -39.5t-26 -50q-15 -25 -34.5 -60t-42 -76t-46 -86t-46 -89.5t-42 -85.5t-34.5 -74q-6 -14 -20 -6q-23 12 -34 34t-15 70q-2 23 -2 58.5t2 80t6 95.5t11 104z" />
    <glyph glyph-name="O" unicode="O" horiz-adv-x="537" 
d="M424 236q34 63 51 120.5t19.5 103t-7.5 75.5t-31 38q-18 7 -49.5 -2.5t-68.5 -34t-77 -64.5t-75 -95q-36 -56 -55 -113t-22 -105.5t9 -83t38 -45.5q25 -11 58 -1.5t69 36.5t72.5 70t68.5 101zM476 597q46 -20 66 -64t19 -99t-18.5 -114.5t-45.5 -111.5
q-30 -56 -68.5 -103.5t-82.5 -79t-92.5 -42t-99.5 8.5q-62 23 -88 74t-26 113q0 80 31 152.5t76.5 131t98 99t94.5 55.5q44 15 79.5 8.5t56.5 -28.5z" />
    <glyph glyph-name="P" unicode="P" horiz-adv-x="425" 
d="M146 257q84 16 146.5 51t102 75.5t55 81t5.5 66.5q-8 21 -29 23.5t-48 -4t-56 -17.5t-54 -18q0 -20 -8.5 -47t-29.5 -63q-20 -35 -40.5 -70.5t-43.5 -77.5zM206 509q-26 3 -40.5 14.5t-22.5 27.5q-8 17 10 18q31 3 60.5 11.5t58 17.5t55 16.5t52.5 8.5q19 1 36.5 -2.5
t33 -12.5t28 -25.5t21.5 -42.5q16 -45 6 -88t-36 -83q-19 -29 -48 -57t-66 -52t-81.5 -42t-93.5 -27q-35 -6 -62 10q-41 -80 -93 -204q-5 -14 -16 -3t-15.5 34.5t6.5 64.5q10 34 31 84t49.5 106.5t61 115.5t65.5 110z" />
    <glyph glyph-name="Q" unicode="Q" horiz-adv-x="543" 
d="M417 235q34 62 51 119.5t20 103t-7 76t-31 38.5q-18 7 -49 -2t-68 -33.5t-76.5 -64.5t-74.5 -95q-36 -55 -54.5 -111.5t-21.5 -104.5t9 -83t37 -46t58 -2t68.5 35.5t71.5 69.5t67 100zM226 -16q28 -14 55.5 -29.5t54.5 -26.5t53 -16.5t52 -0.5q13 2 14 -2.5t-4 -9.5
q-12 -16 -30 -25t-38.5 -11.5t-41.5 0t-39 8.5q-40 13 -74 34.5t-68 39.5t-72 27t-87 -2q-8 -2 -10.5 2t1.5 9q14 18 41.5 29t66.5 9h7q-37 28 -53.5 70.5t-16.5 91.5q0 80 31 152t76 130t96.5 97.5t92.5 53.5q45 16 80.5 9.5t57.5 -29.5q45 -20 64 -63.5t18 -98.5
t-18.5 -114t-44.5 -111q-24 -45 -53.5 -85t-63 -70t-71 -48t-76.5 -20z" />
    <glyph glyph-name="R" unicode="R" horiz-adv-x="458" 
d="M283 517q0 -21 -9 -48t-29 -65q-20 -36 -39.5 -69t-39.5 -70q83 18 145 52t101 72.5t54.5 76.5t4.5 65q-8 21 -29.5 24t-48.5 -3t-56 -17t-54 -18zM129 195q-20 -40 -42 -88t-47 -110q-6 -14 -16 -4q-11 11 -15.5 34.5t6.5 64.5q9 34 30.5 84.5t49.5 107.5t61 116t66 111
q-26 2 -40.5 12.5t-23.5 27.5q-7 14 11 17q31 4 61 12.5t58.5 17.5t55 16t51.5 8q38 2 69.5 -14t49.5 -67q16 -45 7 -89.5t-38 -82.5q-20 -27 -49.5 -52t-65.5 -46t-76 -37t-82 -26q29 -35 54 -70t41 -67q11 -20 13 -43t-8 -38q-8 -13 -16 -2q-50 68 -90 118t-75 89z" />
    <glyph glyph-name="S" unicode="S" horiz-adv-x="444" 
d="M-33 134q25 8 53 2t48 -23q15 -12 35 -26.5t42.5 -27.5t47 -21.5t48.5 -8.5q41 0 62 18q13 14 11 28.5t-13 23.5q-20 17 -55.5 37.5t-70 46t-60 56.5t-25.5 70q0 51 25.5 98t63 85t80 66.5t75.5 42.5q36 15 70 18t59 -20q19 -17 32 -40t18 -44q4 -15 2 -29.5t-7 -27.5
t-11.5 -24t-12.5 -19q-10 -13 -20 -28.5t-19 -30.5t-17 -29t-13 -23q-4 -7 -9 -9t-13 6q-14 14 -20 38t10 59q8 18 23.5 41t29.5 45.5t21 41.5t-2 28t-33 3t-55 -22.5t-65.5 -42t-63 -55.5t-48 -62.5t-20.5 -63.5q-1 -24 19 -46.5t49 -42t60.5 -37t52.5 -32.5
q29 -20 25.5 -53t-36.5 -71q-23 -26 -64.5 -40.5t-93 -8.5t-108 36.5t-109.5 94.5q-8 10 -6.5 15.5t8.5 7.5z" />
    <glyph glyph-name="T" unicode="T" horiz-adv-x="403" 
d="M276 525q-17 -3 -32 -4.5t-29 -2.5q-45 -2 -75.5 13.5t-38.5 43.5q-5 15 11 13q33 -3 78 1.5t90 10.5t84 11.5t60 4.5q32 -1 58 -11.5t37 -39.5q2 -6 0 -11t-12 -4q-37 4 -81.5 -1.5t-88.5 -13.5q1 -18 -6 -43.5t-27 -62.5q-45 -82 -104.5 -188t-118.5 -244
q-5 -14 -16 -3q-11 10 -17 32.5t4 58.5q9 31 32 83.5t54 114t67 125.5t71 117z" />
    <glyph glyph-name="U" unicode="U" horiz-adv-x="452" 
d="M76 -12q-18 7 -35 21t-27.5 35.5t-13 52t7.5 71.5q10 42 35 96.5t57.5 113.5t69 118t70.5 111q6 9 12.5 8t11.5 -9q12 -19 11 -51t-30 -88q-18 -36 -44.5 -80t-52 -91t-47.5 -93t-31 -86q-9 -38 -5.5 -65t25.5 -35q23 -9 49 2t53 38t55 67.5t54 91.5q21 40 50 94
t59.5 109.5t59.5 105.5t50 83q6 10 12.5 8.5t11.5 -9.5q9 -16 8 -48t-21 -76q-13 -29 -40.5 -82t-60.5 -112t-66.5 -115t-58.5 -91q-54 -74 -115.5 -95t-113.5 0z" />
    <glyph glyph-name="V" unicode="V" horiz-adv-x="403" 
d="M100 78q24 40 56.5 88.5t69 100t75 102.5t74.5 96.5t67.5 83t53.5 60.5q8 8 14.5 7t8.5 -12q5 -26 -6.5 -59.5t-48.5 -82.5q-27 -35 -68 -87.5t-88.5 -115.5t-97 -132t-93.5 -137q-5 -8 -11 -10.5t-17 5.5q-28 21 -39.5 51t-5.5 83q6 58 18 127.5t26.5 136.5t29.5 125.5
t29 94.5q9 22 22 6q17 -20 20 -51.5t-10 -89.5q-16 -72 -38 -173.5t-41 -216.5z" />
    <glyph glyph-name="W" unicode="W" horiz-adv-x="630" 
d="M395 406q-34 -44 -71.5 -95.5t-76 -106t-75 -109t-68.5 -105.5q-5 -8 -12.5 -10.5t-17.5 5.5q-26 23 -32.5 54.5t5.5 83.5q13 57 34 125.5t44 134.5t46.5 123.5t41.5 92.5q13 24 25 4q13 -22 12.5 -53t-22.5 -89q-25 -68 -59 -161.5t-66 -200.5q35 57 79.5 122.5
t91.5 131t93.5 126t85.5 107.5q5 6 12 7t13 -8q7 -11 11.5 -22t5 -25.5t-3.5 -34.5t-13 -48q-24 -71 -53.5 -161.5t-58.5 -199.5q25 41 57 89t67.5 97.5t72 98.5t70.5 92.5t64 79.5t52 59q9 9 15.5 8t8.5 -12q5 -26 -7.5 -60t-50.5 -85q-27 -36 -67 -87t-86 -112t-95 -129
t-94 -138q-6 -9 -13 -11.5t-17 6.5q-26 23 -34 54t3 84q6 28 15 61.5t20 70t23.5 74t24.5 72.5z" />
    <glyph glyph-name="X" unicode="X" horiz-adv-x="399" 
d="M280 387q66 67 126.5 127.5t101.5 98.5q9 8 15 5.5t8 -12.5q2 -11 1 -25.5t-8.5 -32t-21.5 -38t-37 -42.5q-35 -33 -79.5 -76t-93.5 -92q6 -43 13 -86t16 -82.5t20 -73t24 -55.5q5 -8 2 -13.5t-11 -4.5q-15 1 -29.5 7.5t-28 20.5t-25 38.5t-20.5 61.5q-13 57 -24 122
q-60 -62 -116 -125t-97 -120q-5 -6 -9.5 -5t-6.5 7q-7 17 -4 43t26 62q10 16 29 40t44.5 53t56 62t63.5 68l-22 144t-28 138q-3 17 13 14q19 -3 41 -21.5t36 -67.5q6 -22 12 -58.5t13 -81.5z" />
    <glyph glyph-name="Y" unicode="Y" horiz-adv-x="379" 
d="M174 197q-32 -57 -55.5 -109.5t-39.5 -97.5q-6 -15 -19 -3q-11 10 -16.5 35.5t6.5 64.5q8 27 24.5 65t37.5 80q1 46 3 96t5.5 99t8.5 94t12 81q2 12 8 14t13 -3q18 -11 28 -36.5t7 -79.5q-2 -42 -7 -90.5t-8 -105.5q35 39 77 82.5t84.5 85.5t82 79.5t69.5 63.5
q16 13 21 -5q6 -22 -5.5 -55t-55.5 -76q-27 -26 -57 -54.5t-64.5 -61.5t-74 -73t-85.5 -90z" />
    <glyph glyph-name="Z" unicode="Z" horiz-adv-x="441" 
d="M54 50q19 5 42 10.5t46.5 10t46.5 8t42 5.5q36 3 57.5 -9t30.5 -34q7 -15 -10 -15q-24 0 -54 -3.5t-61.5 -9.5t-63 -13.5t-57.5 -14.5q-20 -5 -31 -5t-19 14q-5 8 -13 20.5t-11 20.5q-6 15 -6.5 25.5t11.5 28.5q21 30 54 69t73.5 82t86.5 87.5t92 85.5t90 76.5t81 60.5
q-17 -3 -37.5 -7t-42 -8.5t-41.5 -8t-36 -5.5q-50 -5 -74 10.5t-32 40.5q-5 15 11 15q28 -1 60 2.5t63.5 8.5t59.5 9.5t49 6.5q16 2 26.5 -1t20.5 -16q11 -14 19 -31t14 -34q5 -15 0 -24t-23 -22q-56 -40 -118.5 -93t-124 -111.5t-119 -118.5t-102.5 -113z" />
    <glyph glyph-name="bracketleft" unicode="[" horiz-adv-x="316" 
d="M364 616q-42 -61 -88 -139t-90 -161.5t-84 -167.5t-69 -157q20 5 35 8q30 6 45 -3.5t26 -28.5q4 -7 2.5 -12t-11.5 -6q-18 -2 -45 -8.5t-46 -14.5q-12 -5 -19.5 -2.5t-15.5 11.5q-7 8 -12.5 15t-11.5 17q-8 12 -8 22t7 30q12 35 32 83t45.5 103t55 115t62 118t66 112.5
t66.5 98.5q11 15 19 20t19 9q14 5 34.5 7.5t35.5 3.5q28 1 41 -10q12 -11 24 -27q4 -5 1 -10.5t-12 -6.5q-23 -2 -51.5 -6.5t-52.5 -12.5z" />
    <glyph glyph-name="backslash" unicode="\" horiz-adv-x="355" 
d="M157 633q-1 12 5.5 15t14.5 -2q22 -11 39 -42.5t26 -95.5q6 -46 16.5 -115t23 -144.5t26 -148.5t26.5 -126q3 -16 -12 -13q-17 3 -34 20t-31 58q-8 25 -17.5 67t-19.5 94.5t-20 111.5t-18.5 116.5t-15 110.5t-9.5 94z" />
    <glyph glyph-name="bracketright" unicode="]" horiz-adv-x="319" 
d="M390 619q-13 -2 -25.5 -4.5t-24.5 -4.5q-17 -2 -31 10t-24 26q-7 10 -3 15t13 7q30 5 61 11t57 6q13 0 18.5 -3t10.5 -11t9 -17.5t9 -18.5q5 -11 5 -18t-6 -16q-44 -67 -90.5 -145.5t-91.5 -162.5t-88 -170t-79 -167q-6 -14 -12 -19.5t-20 -7.5q-15 -2 -29.5 -5t-28.5 -5
q-13 -2 -23.5 -2t-23.5 8q-17 12 -29 24q-5 5 -4 11.5t10 9.5q21 7 50 12.5t58 9.5q32 72 72.5 156.5t85 169.5t89.5 163.5t85 137.5z" />
    <glyph glyph-name="asciicircum" unicode="^" horiz-adv-x="267" 
d="M191 500q-23 -29 -47.5 -58.5t-41.5 -57.5q-8 -14 -18 -4q-4 3 -7.5 10t-5 17t1 22.5t11.5 27.5q9 14 22 33t28.5 39t32 40.5t30.5 37.5q6 6 10.5 6.5t11.5 -4.5q21 -15 25 -49q1 -13 4 -33t7 -42.5t8.5 -45t9.5 -40.5q2 -9 0.5 -11.5t-9.5 -3.5q-11 -1 -29.5 7t-26.5 37
q-4 14 -8.5 32.5t-8.5 39.5z" />
    <glyph glyph-name="underscore" unicode="_" horiz-adv-x="366" 
d="M433 -72q17 0 12 -14q-6 -14 -26 -26.5t-54 -12.5h-432q-15 0 -11 14q5 14 25.5 26.5t53.5 12.5h432z" />
    <glyph glyph-name="grave" unicode="`" horiz-adv-x="77" 
d="M12 756q14 -4 28 -15.5t21 -33.5q6 -20 8.5 -45.5t6.5 -48.5q2 -8 -2 -10.5t-9 -0.5q-10 2 -20 12t-18 28q-8 17 -13.5 45t-13.5 58q-2 8 2.5 10.5t9.5 0.5z" />
    <glyph glyph-name="a" unicode="a" 
d="M237 170q48 83 56.5 128t-13.5 47q-12 1 -31 -10t-40.5 -31t-44.5 -48.5t-44 -61.5q-20 -32 -32 -63.5t-16 -56t1 -40t20 -15.5t32.5 11t36 31t37.5 48t38 61zM324 325q10 18 19 33.5t17 27.5q13 19 24 6q11 -14 14 -43.5t-15 -67.5q-8 -17 -21 -38.5t-26.5 -45
t-26.5 -46.5t-22 -43q-9 -21 -14 -39t-4 -31t7 -20.5t19 -6.5q15 1 32.5 13t35 31.5t34 44t29.5 50.5q4 7 8.5 7.5t7.5 -6.5t2 -24t-11 -38t-26 -40.5t-35.5 -34.5t-40.5 -24t-42 -8q-41 2 -61.5 24.5t-20.5 57.5q-24 -31 -56.5 -54.5t-68.5 -23.5q-35 0 -55.5 21.5t-25 57
t8 80t43.5 89.5q61 88 116.5 125.5t93.5 37.5q32 0 47.5 -21.5t13.5 -50.5z" />
    <glyph glyph-name="b" unicode="b" horiz-adv-x="352" 
d="M263 350q-16 2 -33 -7.5t-40 -32.5q-17 -18 -34 -41.5t-34 -50.5t-32.5 -56.5t-29.5 -58.5q2 -22 12 -42t30 -25q13 -3 28.5 2t32.5 20.5t36.5 43.5t41.5 72q21 42 30.5 74.5t10.5 55t-4.5 34t-14.5 12.5zM312 151q-35 -79 -79 -120.5t-88 -41.5q-40 0 -65.5 19t-39.5 52
q-7 -16 -14.5 -33t-14.5 -33q-6 -16 -16 -3q-11 15 -15.5 39.5t10.5 70.5q7 21 26.5 63t46 95t57.5 111.5t61.5 113t57 98.5t43.5 68q13 19 25 -1q11 -21 8 -56t-34 -92q-6 -11 -16 -28t-22.5 -38t-25.5 -43t-25 -43q22 20 44 31t42 11q32 0 49 -20.5t20.5 -54t-5.5 -76.5
t-30 -89z" />
    <glyph glyph-name="c" unicode="c" horiz-adv-x="311" 
d="M247 386q38 -23 55 -55q8 -16 5.5 -33.5t-10 -36.5t-17.5 -39t-17 -40q-3 -9 -7 -11t-14 3q-18 9 -26.5 31t2.5 56q4 13 11 27.5t12 27t7 22t-3 13.5q-6 5 -22 -3.5t-36 -27.5t-41 -47.5t-38 -62.5q-21 -42 -28 -78t-2.5 -62.5t19 -41.5t36.5 -15q31 0 60 13t54.5 34
t46.5 46t36 49q4 6 9.5 6.5t8.5 -7.5q2 -6 -1.5 -23t-16.5 -37q-14 -22 -35.5 -41.5t-47 -34.5t-54 -24t-56.5 -9q-48 -1 -79.5 20t-45 56.5t-9 81t28.5 93.5q24 47 53.5 80.5t59 53t56.5 23.5t46 -7z" />
    <glyph glyph-name="d" unicode="d" horiz-adv-x="401" 
d="M268 343q-12 0 -30.5 -11t-40 -31t-44.5 -47.5t-44 -60.5q-20 -32 -32 -63t-15.5 -55.5t1.5 -40t20 -15.5q30 -1 68 39.5t73 109.5q44 84 55 129t-11 46zM277 108q-10 -22 -15 -40t-4.5 -31t6.5 -20t19 -6q15 1 32.5 13t34.5 31t33.5 43.5t29.5 50.5q4 7 8.5 7t7.5 -6
q3 -7 2.5 -24.5t-10.5 -37.5q-10 -21 -26 -40t-35.5 -34t-40.5 -23.5t-42 -7.5q-41 2 -61 23.5t-20 56.5q-24 -30 -56.5 -53.5t-67.5 -23.5t-55.5 21.5t-25 57t8 79.5t43.5 89q30 43 59 74t56 50t51 28t43 9q31 0 46 -20t14 -48q20 39 43.5 82t46 82.5t42.5 73t34 52.5
q16 22 24 0q5 -12 7 -27t-1.5 -33t-12 -40.5t-24.5 -50.5q-18 -32 -43.5 -77t-52.5 -94t-53 -97.5t-45 -88.5z" />
    <glyph glyph-name="e" unicode="e" horiz-adv-x="320" 
d="M101 193q18 -12 35 -11t32 10t28 23t24 28q12 16 21.5 32.5t15.5 31.5t7 26t-4 15q-8 6 -26 -1t-40 -26t-44.5 -47t-40.5 -64q-2 -5 -4 -9zM92 171q-24 -69 -9.5 -112.5t54.5 -45.5q31 -2 60 11t54.5 34t47 46.5t37.5 50.5q4 6 9 6t8 -7q3 -6 0 -24t-17 -38
q-32 -46 -85 -76.5t-111 -31.5q-48 -1 -79.5 20.5t-45.5 56.5t-9.5 81t28.5 94t54 82t60 53t57 23.5t46 -6.5t33 -23t26 -29q7 -9 8.5 -24t-2 -33.5t-13 -39t-25.5 -39.5q-18 -23 -39.5 -38t-45.5 -20.5t-49.5 1.5t-51.5 28z" />
    <glyph glyph-name="f" unicode="f" horiz-adv-x="245" 
d="M34 29q-21 -50 -37.5 -97t-26.5 -85t-12 -65.5t7 -38.5q8 -11 25 7t36 54t38 85t31 100q-43 4 -61 40zM101 18q7 36 9 72q1 28 -5 47.5t-11 17.5q-4 -2 -7.5 -11t-6 -21.5t-4.5 -25.5t-2 -22q-1 -24 6 -39t21 -18zM106 184q29 -9 41 -37.5t11 -78.5q0 -8 -0.5 -16.5
t-1.5 -17.5q29 19 56.5 53.5t47.5 73.5q5 9 11 9.5t10 -10.5t0.5 -27t-10.5 -33q-4 -9 -14.5 -23.5t-26.5 -29.5t-36.5 -29t-42.5 -22q-6 -38 -17 -76.5t-25 -74.5t-31 -67.5t-35 -53.5q-26 -32 -46 -36t-43 16q-9 8 -19 19.5t-16.5 29t-9.5 41t1 55.5q7 56 29.5 123t54 139
t70 145t77 140.5t74.5 125t64 99.5q6 9 14 8.5t11 -9.5q9 -26 3.5 -60.5t-37.5 -89.5q-15 -26 -35 -59t-42 -70.5t-44.5 -77.5t-42.5 -79z" />
    <glyph glyph-name="g" unicode="g" horiz-adv-x="401" 
d="M133 -73q-49 -29 -82 -66t-51.5 -72t-24 -62.5t0.5 -36.5q5 -7 21 7.5t38 46.5t48 79t50 104zM231 168q48 83 56.5 127.5t-13.5 46.5q-12 1 -30.5 -10t-40 -31t-44.5 -47.5t-44 -60.5q-20 -32 -32 -63.5t-15.5 -56t2 -40t20.5 -15.5t31.5 11t34.5 31t37 47.5t38 60.5z
M415 90q-29 -46 -80 -77t-114 -54q-21 -50 -44.5 -102.5t-49.5 -98t-54.5 -79t-58.5 -45.5q-15 -6 -29.5 -2.5t-28.5 23.5q-16 23 -25 51t5 73q11 34 32 62.5t49 51.5t62 42t71 33q8 17 14.5 34.5t14.5 34.5q-22 -22 -47.5 -36t-53.5 -14q-35 0 -55 21.5t-24.5 56t8 78.5
t42.5 89q29 43 58.5 74t56.5 50t51.5 28t43.5 9q30 0 45 -20t14 -46q9 15 17 28.5t16 26.5q6 11 13 12t12 -6q11 -14 14 -43.5t-16 -66.5q-11 -23 -27.5 -55.5t-35.5 -70t-37.5 -77t-34.5 -75.5q63 32 106 71t73 79q5 6 10 6t7 -8q2 -7 -2.5 -22.5t-17.5 -35.5z" />
    <glyph glyph-name="h" unicode="h" horiz-adv-x="377" 
d="M399 91q-11 -21 -27 -40.5t-35.5 -34.5t-41.5 -23.5t-44 -8.5q-63 0 -80.5 41t5.5 107q12 36 32 72.5t38 65.5t29 49t5 23q-5 3 -26 -7.5t-48 -31.5t-56 -50.5t-51 -65.5q-27 -45 -53 -94.5t-44 -95.5q-7 -16 -17 -4q-12 14 -16 37.5t12 68.5q9 25 30.5 68.5t51 96.5
t63.5 111t67 111t62.5 97t49.5 69q7 9 13.5 8.5t10.5 -9.5q10 -22 5.5 -58t-33.5 -84q-9 -15 -23 -37t-30 -47t-33.5 -52t-33.5 -52q15 15 32 28t33 23t30.5 15t24.5 4q13 -2 24 -11t18 -23.5t7 -33t-10 -37.5q-8 -17 -20.5 -38t-25.5 -43.5t-25.5 -45.5t-21.5 -42
q-9 -22 -13 -41t-2 -33t10 -22t22 -7q15 1 32.5 13.5t34.5 32t32.5 44t27.5 48.5q3 7 9 7t9 -6q4 -8 2.5 -23.5t-12.5 -38.5z" />
    <glyph glyph-name="i" unicode="i" horiz-adv-x="201" 
d="M69 -15q-29 0 -46.5 11.5t-26 31t-7 46t12.5 57.5q9 27 25 61.5t34.5 68t36.5 63.5t32 50q13 18 24 6t14 -41.5t-15 -67.5q-8 -17 -19 -37t-23 -41.5t-23 -43t-19 -40.5q-18 -44 -16 -70.5t26 -24.5q17 0 35 12t35.5 31t33 43.5t26.5 50.5q4 7 8.5 6.5t7.5 -6.5
q12 -23 -7 -62q-11 -23 -28 -42.5t-37 -33t-41.5 -21t-42.5 -7.5zM232 459q10 -20 6.5 -38t-13.5 -29t-27.5 -8t-28.5 23q-12 20 -9.5 40.5t14.5 33.5t30 5.5t28 -27.5z" />
    <glyph glyph-name="j" unicode="j" horiz-adv-x="178" 
d="M-99 -95q-49 -28 -82 -65t-52 -72.5t-24.5 -63t1.5 -36.5q5 -7 21.5 8.5t38.5 48t47.5 79t49.5 101.5zM9 -19q69 36 113 80.5t76 91.5q4 6 9 6.5t7 -7.5t-1 -23.5t-14 -35.5q-29 -52 -84.5 -88.5t-123.5 -65.5q-21 -50 -45.5 -102.5t-51 -98.5t-55 -79.5t-58.5 -44.5
q-14 -5 -28.5 -3.5t-28.5 22.5q-8 11 -15 23.5t-11.5 27.5t-4.5 33t8 40q12 34 33 62.5t49.5 52t63 42.5t71.5 33q25 61 54 124.5t57 121t54 106t46 78.5q12 19 24 6q11 -13 12.5 -42.5t-15.5 -67.5q-9 -21 -26 -55.5t-37 -74.5t-41 -82.5t-37 -79.5zM230 461q9 -20 6 -37
t-12 -28q-10 -11 -27.5 -8t-28.5 23t-8.5 39.5t13.5 32.5q12 14 30 6.5t27 -28.5z" />
    <glyph glyph-name="k" unicode="k" horiz-adv-x="367" 
d="M182 347q24 23 46.5 36.5t42.5 20.5q29 10 48 -1t34 -43q14 -29 10.5 -59.5t-31.5 -57.5q-26 -25 -58.5 -46t-80.5 -35q3 -62 22 -101t48 -42q15 -2 32.5 10.5t34.5 32.5t32.5 44.5t26.5 47.5q5 9 10.5 9.5t9.5 -8.5t1.5 -25.5t-13.5 -35.5q-9 -16 -22.5 -34.5t-31.5 -34
t-41.5 -26t-53.5 -10.5q-26 0 -49.5 11.5t-41 35t-27.5 59.5t-9 87q0 14 3.5 18t17.5 9q46 15 81.5 37.5t58 45t32 42t3.5 29.5q-8 14 -38 5.5t-70 -39.5q-28 -21 -51.5 -49.5t-46 -67.5t-46.5 -91t-53 -121q-2 -6 -7.5 -7t-10.5 5q-11 13 -13 38.5t12 71.5q7 23 24.5 63.5
t41.5 90.5t52.5 105.5t57.5 108t57 98t50 75.5q15 20 25 1q11 -23 7 -55.5t-36 -87.5q-9 -15 -20.5 -35t-23.5 -42t-24 -43.5t-22 -39.5z" />
    <glyph glyph-name="l" unicode="l" horiz-adv-x="230" 
d="M116 243q51 42 87.5 89.5t58.5 88.5t30.5 69.5t3.5 31.5t-20 -14.5t-37 -50t-47.5 -75.5t-51.5 -91q-14 -24 -24 -48zM98 200q-15 -37 -24 -70t-10.5 -58t5 -40.5t23.5 -16.5q18 -2 39.5 10t42.5 32t40.5 47t34.5 56q5 10 12 10.5t10 -10.5q7 -24 -10 -62
q-5 -11 -20.5 -30t-38 -37.5t-50.5 -31.5t-58 -12q-52 2 -76 39.5t-7 118.5q14 65 41 130.5t61.5 125.5t73.5 112.5t77 92.5q23 24 43 5q42 -37 23 -110q-12 -46 -37 -90.5t-57.5 -84t-68.5 -72t-69 -54.5z" />
    <glyph glyph-name="m" unicode="m" horiz-adv-x="565" 
d="M158 284q16 19 37.5 38.5t43 35.5t41 25.5t33.5 9.5q13 0 22.5 -9.5t14.5 -23.5t6 -31.5t-4 -33.5q18 18 38.5 34.5t41 30t38.5 21t30 7.5q13 0 21.5 -10.5t11.5 -26t0.5 -35t-9.5 -38.5q-7 -17 -18.5 -37t-25 -41.5t-26.5 -42.5t-22 -40q-11 -21 -13.5 -40t0.5 -33
t12 -21.5t23 -7.5q15 0 31 12t32 31t31.5 43.5t30.5 50.5q4 7 9 7t9 -5t1.5 -25.5t-10.5 -37.5q-11 -21 -27.5 -40.5t-36.5 -34.5t-42 -23.5t-44 -8.5q-33 0 -55 12t-32.5 32.5t-9.5 48t15 58.5t35 65.5t40 63.5t30.5 49t5.5 22q-3 1 -11 -1t-21 -10t-32 -23t-43 -39
q-63 -63 -102.5 -132.5t-71.5 -140.5q-10 -20 -23 -5q-6 6 -11.5 16t-7 25.5t2 36.5t14.5 48q12 31 35.5 69.5t45 73t34.5 58.5t6 27q-9 4 -43 -17.5t-82 -74.5q-45 -48 -81 -114t-66 -137q-7 -16 -19 -5q-17 14 -20 39.5t10 63.5q8 24 24.5 60t38 77.5t46 83.5t48.5 77
q11 17 21 0q13 -21 11.5 -49t-12.5 -58z" />
    <glyph glyph-name="n" unicode="n" horiz-adv-x="384" 
d="M160 294q17 18 37 36.5t40.5 32.5t38.5 22.5t30 6.5t23.5 -11.5t18 -24t6.5 -33t-9 -37.5q-8 -17 -20 -38t-25.5 -44t-26 -46t-21.5 -42q-10 -22 -13.5 -41t-1.5 -33t9.5 -22t21.5 -7q15 1 32 12.5t33.5 31t32.5 44t30 50.5q8 15 17 1q5 -8 3.5 -24.5t-12.5 -38.5
q-10 -21 -26.5 -40.5t-36 -34t-41.5 -23.5t-44 -9q-64 0 -81 42t5 107q12 37 32.5 73.5t38.5 66.5t28.5 49.5t3.5 22.5q-4 1 -16 -3.5t-30 -16t-40 -30t-46 -44.5q-22 -24 -41.5 -53.5t-37.5 -62.5t-34.5 -68t-32.5 -70q-7 -16 -19 -4q-15 15 -18.5 40t8.5 63q7 24 24.5 60
t39.5 76.5t47 82t49 76.5q11 17 21 0q11 -19 11 -43.5t-8 -51.5z" />
    <glyph glyph-name="o" unicode="o" horiz-adv-x="332" 
d="M249 215q-9 4 -19 12q-16 12 -30.5 36t-15.5 52q-20 -17 -40.5 -41t-36.5 -53t-26.5 -59t-14.5 -56.5t-2 -46.5t12 -28q10 -9 26 -6.5t35 15.5t39 36.5t38 58.5q11 21 20 41.5t15 38.5zM256 242q12 48 8 74q-4 24 -15 21.5t-15 -24.5q-4 -20 3 -40t19 -31zM342 215
q-10 -11 -27 -13q-8 -32 -23 -65.5t-36 -62.5t-46 -51.5t-53 -31.5q-27 -9 -61.5 -2t-64.5 46q-17 22 -22.5 48.5t-2.5 55.5t13.5 60t27.5 61q29 51 71.5 88.5t87.5 41.5q23 1 38 -6.5t30 -27.5q9 -12 18 -20.5t16.5 -19.5t11 -27t1.5 -43q-1 -6 -1 -11.5t-1 -11.5
q5 0 9.5 1t10.5 1q5 0 5.5 -3t-2.5 -7z" />
    <glyph glyph-name="p" unicode="p" horiz-adv-x="391" 
d="M108 181q-19 -47 -21 -88t19 -58q12 -10 29.5 -2.5t37 28t39.5 51t38 66.5q15 30 24 59.5t12.5 53.5t0.5 40.5t-12 21.5q-9 4 -24.5 -2.5t-33.5 -22t-37.5 -38.5t-37.5 -52q-8 -14 -16.5 -27.5t-17.5 -29.5zM209 4q37 2 66.5 15.5t53 34t41 45.5t29.5 51q5 11 11 9.5
t8 -9.5q2 -7 1 -25t-14 -41q-29 -52 -76.5 -77.5t-101.5 -29.5q-48 -3 -81.5 5t-59.5 32q-16 14 -24 31t-10 36q-35 -65 -72.5 -140t-73.5 -159q-3 -7 -7.5 -8t-9.5 6q-11 16 -13 40t12 70q7 24 25 64.5t42 89t51 100.5t53.5 99t50 85.5t39.5 59.5q8 10 14 9t10 -10
q7 -20 6 -45q16 14 35 25.5t38.5 16t38 0.5t34.5 -21q18 -19 23.5 -44.5t2.5 -55t-13 -60.5t-24 -62q-46 -101 -105 -137z" />
    <glyph glyph-name="q" unicode="q" horiz-adv-x="373" 
d="M237 168q48 83 56.5 128t-13.5 47q-12 1 -31 -10t-40.5 -31t-44.5 -48t-44 -61q-20 -32 -32.5 -64t-16 -57t1.5 -40.5t20 -15.5q31 0 68.5 42.5t75.5 109.5zM154 10q-17 -11 -35 -18t-37 -7q-35 0 -55.5 21.5t-25 56.5t8 79.5t43.5 90.5q60 87 116 124t94 37q33 0 48 -22
t13 -50q13 23 24.5 40t18.5 24q8 8 13.5 6.5t11.5 -9.5q9 -19 6 -51t-28 -77q-23 -41 -55 -98t-67.5 -124t-71 -139t-65.5 -143q-7 -16 -18 -4q-5 6 -9.5 13t-6.5 17.5t-0.5 25.5t7.5 36q9 32 27.5 77t42.5 94z" />
    <glyph glyph-name="r" unicode="r" horiz-adv-x="330" 
d="M165 316q46 6 103 46q18 12 27 2q7 -8 14 -19.5t11 -25t2 -27.5t-13 -26q-34 -38 -66 -82.5t-44 -83.5t-4.5 -65t29.5 -27q15 -1 30.5 9.5t31.5 28.5t30.5 42.5t26.5 51.5q7 14 14 1q4 -8 3.5 -25t-8.5 -37q-9 -22 -23.5 -40t-32.5 -31.5t-38 -20.5t-40 -6q-27 1 -46 13
t-28.5 32t-10 45.5t8.5 53.5q8 25 22.5 50t31 49t34 45.5t32.5 38.5q-33 -22 -63.5 -30t-53.5 -8q-14 -26 -37 -64t-46.5 -79.5t-43 -83.5t-26.5 -76q-2 -7 -6 -9.5t-11 4.5q-22 23 -22 56t20 71q9 16 24.5 40.5t33.5 51.5t36.5 53t32.5 46q-21 14 -18.5 40t17 51.5t34.5 45
t34 19.5q12 0 16.5 -9.5t3.5 -26.5t-7 -38.5t-15 -45.5z" />
    <glyph glyph-name="s" unicode="s" horiz-adv-x="302" 
d="M152 272q-22 -40 -48.5 -80.5t-55.5 -81.5q6 -22 14 -40t18 -30t21.5 -17.5t23.5 -1.5q17 5 24 33.5t8 67t-1.5 79.5t-3.5 71zM39 164q31 42 62 88t53 84q4 29 12 46t24 31q17 15 32 18.5t22 -3.5q8 -8 5 -17.5t-13 -26.5q-3 -5 -5.5 -9.5t-5.5 -9.5q-3 -35 -1.5 -66.5
t4.5 -61.5t5 -57.5t1 -53.5q-2 -29 -10 -58t-35 -47q50 19 82.5 58.5t51.5 80.5q4 8 10 7t9 -7q3 -7 1 -25t-15 -41q-29 -52 -76 -80t-101 -30q-22 -1 -43 2t-40 11.5t-35.5 23.5t-29.5 38q-9 17 -13 37t-2.5 39t8.5 35.5t20 27.5q19 16 21 -10q1 -6 1 -12t1 -12z" />
    <glyph glyph-name="t" unicode="t" horiz-adv-x="214" 
d="M125 389q-26 0 -42.5 9t-22.5 17q-8 11 -4 16t15 4q21 -1 42 0.5t41 3.5q23 42 43 74.5t33 49.5q7 10 13.5 9.5t10.5 -9.5q8 -21 6.5 -47.5t-19.5 -65.5q29 1 42.5 -9.5t19.5 -20.5q11 -19 -12 -19q-17 2 -38 0.5t-40 -4.5q-15 -25 -32 -55t-35 -62.5t-35.5 -66
t-31.5 -64.5q-12 -27 -16.5 -51.5t-1.5 -43.5t12.5 -30t25.5 -12q17 -1 35.5 11t37 32t35.5 46.5t31 54.5q5 9 11.5 10t9.5 -10q4 -12 1 -26t-11 -31q-5 -11 -19 -30.5t-35 -38.5t-48 -32.5t-57 -12.5q-25 1 -46 14.5t-32.5 38.5t-11 60t18.5 78q16 38 45 95.5t61 117.5z
" />
    <glyph glyph-name="u" unicode="u" horiz-adv-x="404" 
d="M196 81q-13 -18 -29.5 -35.5t-35 -31t-38.5 -21.5t-41 -6q-27 2 -41 15.5t-19 34t-2 45.5t11 50q17 50 53 118t85 137q6 8 13 8t13 -7q34 -51 -19 -135q-28 -44 -45 -77.5t-33 -69.5q-16 -37 -14 -61t19 -26q15 -1 32 10.5t36 32.5t39.5 49.5t40.5 61.5q47 76 73.5 129
t50.5 85q14 20 25 6t14 -44t-15 -68q-8 -17 -21 -38.5t-26.5 -44.5t-26 -46t-21.5 -42q-20 -43 -16.5 -71t30.5 -26q16 1 33 12.5t34 31t33.5 44t31.5 50.5q4 7 9.5 7.5t8.5 -6.5q3 -6 2.5 -24t-11.5 -39t-27.5 -40.5t-36.5 -34t-42 -23.5t-44 -9q-49 0 -69 27.5t-14 71.5z
" />
    <glyph glyph-name="v" unicode="v" horiz-adv-x="300" 
d="M68 29q27 44 63 96.5t74 103t73.5 94t61.5 69.5q16 16 19 -4q2 -16 -7.5 -36.5t-33.5 -50.5q-19 -24 -45 -54t-56.5 -68t-65 -85t-70.5 -104q-4 -6 -8 -10t-12 0q-29 14 -40.5 33t-9.5 59q1 26 7 64.5t14.5 81.5t19.5 87.5t24 83.5q7 19 20 8q25 -21 30 -50.5t-6 -75.5
q-7 -29 -14 -55t-13.5 -54t-13 -60t-11.5 -73z" />
    <glyph glyph-name="w" unicode="w" horiz-adv-x="490" 
d="M403 174q6 57 20.5 98.5t31 68.5t32 40.5t23.5 15.5q10 2 14 -8t1 -26q-3 -15 -8.5 -32t-15 -39t-25 -51t-38.5 -68q-26 -43 -51.5 -78t-51.5 -60t-52 -38.5t-51 -12.5q-32 1 -49 26t-15 57q-24 -31 -55 -55.5t-67 -22.5q-23 1 -37 13.5t-19.5 32t-3 44.5t12.5 53
q17 50 52.5 118t86.5 137q6 8 12.5 8t11.5 -7q18 -25 14 -57.5t-32 -77.5q-27 -43 -47 -79.5t-35 -72.5q-15 -37 -14 -60.5t18 -22.5q15 0 29.5 12t30.5 33t33.5 49t37.5 61q48 77 74.5 129.5t51.5 84.5q13 18 25 6q11 -14 13.5 -44t-15.5 -68q-8 -17 -21 -39t-26.5 -45
t-27 -46.5t-22.5 -43.5q-20 -43 -18.5 -67t23.5 -25q13 0 30.5 11.5t37 32.5t40.5 50.5t41 64.5z" />
    <glyph glyph-name="x" unicode="x" horiz-adv-x="391" 
d="M174 180q-4 28 -9 58t-10 54.5t-9.5 41t-8.5 16.5q-5 0 -14 -6.5t-20.5 -19.5t-24 -32.5t-23.5 -44.5q-3 -7 -8.5 -7.5t-7.5 5.5q-4 11 -1.5 25.5t7.5 28.5q7 18 21 35.5t31 31t36.5 20t38.5 3.5q23 -5 34.5 -21t18.5 -49q4 -18 7.5 -40t6.5 -46q41 33 79.5 69.5
t70.5 77.5q8 10 14 10t6 -12q0 -25 -14 -48.5t-40 -52.5q-17 -19 -45.5 -42.5t-63.5 -52.5q5 -32 9 -60.5t8 -48.5q6 -30 14.5 -42t17.5 -13q14 -1 28.5 11t29 31.5t27.5 43t24 46.5q3 7 8 7.5t7 -5.5q4 -9 3 -26t-12 -37q-23 -45 -58.5 -75t-73.5 -30q-40 0 -62 25.5
t-31 88.5q-1 5 -1.5 12.5t-2.5 16.5q-37 -31 -72.5 -65t-65.5 -72q-3 -3 -7.5 -5.5t-8 -2.5t-6 2.5t-1.5 8.5q2 26 17 50t43 54q18 20 42 40t52 43z" />
    <glyph glyph-name="y" unicode="y" horiz-adv-x="375" 
d="M104 -72q-49 -28 -82 -65t-52 -72t-24.5 -63t1.5 -37q5 -7 21.5 8.5t39 48t48 79t48.5 101.5zM386 97q-29 -47 -79 -77.5t-113 -56.5q-21 -50 -45 -103t-50 -99t-55 -79.5t-60 -45.5q-14 -5 -28.5 -2.5t-28.5 23.5q-15 22 -25 51t5 73q23 68 81 114t133 75
q8 17 15.5 35.5t15.5 36.5q-23 -24 -51 -40.5t-58 -14.5q-27 2 -41.5 16t-19.5 34t-2 45t12 50q8 24 21.5 54t30.5 63t38.5 67.5t45.5 68.5q6 8 13 8t12 -8q18 -24 13.5 -56t-32.5 -77q-27 -44 -45 -77.5t-32 -68.5q-15 -37 -13.5 -60.5t18.5 -25.5q15 -1 31.5 9.5t34 30.5
t36.5 47.5t38 60.5q16 28 32 58t31.5 58.5t30 54t27.5 44.5q13 18 25 7q10 -14 12.5 -44t-16.5 -68q-11 -22 -27.5 -54t-34.5 -69t-36.5 -76.5t-34.5 -75.5q59 32 103 72t74 82q4 5 9 5.5t7 -7.5q2 -7 -1.5 -22.5t-16.5 -35.5z" />
    <glyph glyph-name="z" unicode="z" horiz-adv-x="353" 
d="M196 -30q-50 -28 -83 -62.5t-52 -67t-23.5 -57t2.5 -33.5q7 -8 27.5 11t44.5 53t47.5 76t36.5 80zM205 3q7 34 -6 51q-5 7 -18.5 9t-30.5 -0.5t-37 -10.5t-39 -21q-5 -4 -10 -4.5t-7 5.5q-11 32 3 55.5t40 38.5q56 32 96 65.5t63.5 63t30.5 53t-3 36.5t-38 7t-63.5 -25
t-72.5 -49t-66 -66q-5 -6 -9 -4.5t-6 7.5q-6 20 3.5 50.5t37.5 57.5q30 29 69.5 48.5t75.5 24.5q34 5 57 -2t42 -34q18 -26 18.5 -59.5t-22.5 -73.5q-20 -33 -59.5 -68t-88.5 -66q18 1 34.5 -4t28.5 -16q19 -18 26 -49q35 18 65.5 50.5t54.5 78.5q3 6 9 6.5t9 -6.5
q3 -6 0 -24t-14 -38q-9 -16 -23 -30.5t-31 -26.5t-34.5 -21.5t-33.5 -16.5q0 -40 -17 -86t-42.5 -87.5t-54.5 -74t-53 -45.5q-15 -8 -31 -8.5t-35 22.5q-8 10 -16 21.5t-12.5 25.5t-4 31.5t9.5 38.5q28 64 84.5 104t120.5 66z" />
    <glyph glyph-name="braceleft" unicode="{" horiz-adv-x="193" 
d="M139 310q20 -22 19.5 -48.5t-19.5 -63.5q-10 -20 -26.5 -45.5t-31.5 -52.5t-24.5 -52t-5.5 -43q2 -11 -2.5 -14t-12.5 2q-22 14 -32 42.5t5 66.5q9 24 21.5 45t25 40.5t23.5 36.5t17 32q8 20 6.5 31.5t-10.5 19.5q-5 8 -4.5 15.5t11.5 8.5q13 1 26.5 8t25.5 24
q10 15 23 41.5t27 57t28 60.5t28 50q11 17 25 27t28.5 14.5t28.5 4.5t26 -2q9 -2 9 -7.5t-8 -10.5q-19 -13 -38 -41.5t-36.5 -60.5t-32.5 -63.5t-25 -50.5q-20 -35 -42 -52.5t-53 -19.5z" />
    <glyph glyph-name="bar" unicode="|" horiz-adv-x="224" 
d="M309 644q7 10 13.5 9t10.5 -10q10 -22 4.5 -57.5t-37.5 -92.5q-15 -27 -37 -66t-47.5 -85.5t-52 -97.5t-51.5 -100t-46.5 -94t-35.5 -80q-6 -15 -17 -2t-13.5 40t11.5 67q8 24 27.5 66.5t45 94.5t55.5 110t60.5 113t59 103.5t50.5 81.5z" />
    <glyph glyph-name="braceright" unicode="}" horiz-adv-x="306" 
d="M224 295q-17 18 -17 45.5t17 60.5q10 19 27.5 47t33 56.5t25.5 55t6 43.5q-6 20 15 12q26 -11 36.5 -34.5t-0.5 -55.5q-9 -27 -23.5 -53t-29.5 -49t-27.5 -42.5t-18.5 -34.5q-8 -20 -5.5 -32.5t10.5 -20.5q7 -7 2.5 -13t-16.5 -9q-25 -6 -46 -34q-11 -14 -23 -39.5
t-25 -54.5t-27 -57.5t-27 -48.5q-23 -34 -52 -42t-57 -3q-10 2 -9 7.5t9 10.5q17 10 35.5 37.5t35.5 60t32 64t26 50.5q37 67 93 73z" />
    <glyph glyph-name="asciitilde" unicode="~" horiz-adv-x="231" 
d="M0 670q5 15 21 30.5t40 17.5q19 1 37.5 -4.5t37.5 -10.5t39 -6.5t42 8.5q8 4 12 0.5t0 -13.5q-16 -39 -53 -45q-22 -5 -43.5 0t-42.5 11t-41 9t-39 -6q-15 -7 -10 9z" />
    <glyph glyph-name="nonbreakingspace" unicode="&#xa0;" horiz-adv-x="220" 
 />
    <glyph glyph-name="exclamdown" unicode="&#xa1;" horiz-adv-x="317" 
d="M86 -33q-6 -9 -13 -9t-12 11q-10 21 -5.5 58t35.5 93q21 37 46 83.5t50.5 95.5t50 97.5t43.5 90.5q4 8 7.5 9t9.5 -5q11 -12 15.5 -38t-12.5 -71q-15 -40 -40 -94.5t-54.5 -112t-61 -112.5t-59.5 -96zM311 530q-8 17 -4.5 35t11.5 29q9 11 26.5 7t28.5 -21
q12 -20 9.5 -40t-14.5 -33q-11 -12 -29 -5t-28 28z" />
    <glyph glyph-name="cent" unicode="&#xa2;" horiz-adv-x="353" 
d="M307 482q15 28 30.5 54t29.5 49q5 9 9 9.5t9 -7.5q8 -11 5 -34t-19 -55l-21 -42q10 -8 18 -17.5t13 -21.5q7 -16 4.5 -33.5t-11 -35.5t-19 -37t-18.5 -38q-4 -9 -8 -12t-15 4q-17 11 -23 31t7 52q4 12 11 25.5t12.5 26t7 22.5t-4.5 14q-11 7 -33.5 -2.5t-48.5 -31.5
t-52 -53.5t-42 -67.5q-28 -62 -21.5 -103t35.5 -52q15 -5 32.5 -2t35.5 13t34.5 26t28.5 37q8 14 16 2q8 -13 3.5 -31.5t-17.5 -35.5q-24 -31 -62 -42.5t-77 -0.5q-13 -24 -24.5 -47t-21.5 -45q-3 -8 -7 -8t-7 5q-5 8 -7 25t11 49q2 8 6 18t9 21q-24 16 -37.5 40t-16.5 53.5
t5 63t28 68.5q23 40 51.5 70t57.5 48.5t56 26t48 2.5z" />
    <glyph glyph-name="sterling" unicode="&#xa3;" horiz-adv-x="355" 
d="M380 361q-23 -23 -43.5 -27t-33.5 -1q-17 3 -5 15q16 17 29.5 37t22 38.5t10.5 32.5t-4 18q-12 7 -41.5 -8.5t-60.5 -42.5q-28 -25 -43 -55t-12 -53q15 4 31 4q23 1 39.5 -11t21.5 -28q2 -5 1 -7.5t-7 -2.5q-22 0 -40.5 -2.5t-34.5 -4.5q3 -20 -2 -40t-22 -39q13 2 24 3
t20 2q31 3 49.5 -8t26.5 -31q5 -12 -8 -12q-18 -1 -40.5 -4.5t-46.5 -8.5t-47 -10.5t-40 -11.5q-9 -3 -15 -2.5t-13 8.5t-13.5 16t-11.5 15q-12 15 5 24q14 7 29.5 17.5t29 22t24 24.5t15.5 26q-11 -3 -19.5 -5t-18.5 -3q-27 -2 -43.5 8.5t-23.5 26.5q-6 13 7 13q20 -1 43 4
t46 11q-5 14 -10.5 30.5t-3.5 36.5t15.5 44.5t46.5 54.5q15 13 34.5 25t40.5 17.5t43.5 2.5t43.5 -19q22 -17 30 -36.5t6 -39t-11 -36.5t-20 -28z" />
    <glyph glyph-name="currency" unicode="&#xa4;" 
d="M93 299q-36 -5 -58 5.5t-30 21.5q-15 19 12 19q26 -1 51.5 1.5t49.5 4.5q26 43 58 74t63.5 48t59.5 20.5t47 -8.5q20 -13 33.5 -27t21.5 -31q7 -16 4.5 -33t-11 -35t-19 -36.5t-18.5 -37.5q-4 -10 -8 -12.5t-14 3.5q-17 11 -23 31t6 52q4 12 11 25t12.5 25.5t7 22
t-5.5 14.5q-8 5 -22.5 0.5t-33 -16.5t-39 -30.5t-38.5 -42.5q27 -2 39 -10t19 -18q6 -8 3 -13.5t-15 -4.5q-17 1 -38 -0.5t-41 -3.5q-2 -4 -3.5 -7.5t-3.5 -7.5q-3 -7 -5.5 -13t-4.5 -12q30 2 42.5 -8t19.5 -20q6 -8 3.5 -14t-13.5 -5q-14 1 -30.5 -0.5t-33.5 -3.5
q-3 -32 6.5 -51t28.5 -26q15 -5 32.5 -2t35 12.5t34 25.5t28.5 37q8 12 15 2q9 -13 5 -31.5t-18 -35.5q-26 -32 -67 -42.5t-83 4.5q-35 13 -55.5 38t-26.5 59q-30 -3 -50 6t-28 20q-8 9 -4.5 14.5t14.5 4.5q18 0 34.5 1t32.5 3q3 19 11 44z" />
    <glyph glyph-name="yen" unicode="&#xa5;" horiz-adv-x="642" 
d="M664 86q-9 -23 -24.5 -42t-34 -32.5t-39 -21t-40.5 -6.5q-29 1 -49 14t-30.5 33.5t-11.5 47.5t8 57q8 25 22.5 51.5t32 51t36 46.5t34.5 40q-34 -20 -65.5 -28.5t-55.5 -8.5q-27 -62 -61.5 -117t-74.5 -96t-84 -65.5t-91 -24.5q-48 0 -79 21t-45 56t-9 80t29 93
q24 46 53.5 80t59 53.5t56.5 24t46 -6.5q38 -23 55 -56q8 -15 5.5 -33t-10 -36.5t-17.5 -38.5t-17 -39q-4 -11 -7 -13t-14 3q-18 9 -26.5 31.5t2.5 55.5q4 13 11.5 27.5t13 27.5t7.5 22.5t-4 13.5q-7 5 -23 -3.5t-35.5 -27.5t-41 -47t-38.5 -63q-21 -42 -28 -77.5
t-2.5 -61.5t19 -41t36.5 -16q41 -2 81.5 23.5t77.5 66.5t67 91.5t50 98.5q-20 7 -25.5 22.5t-2.5 34t14 37.5t24 35t27 26.5t25 10.5q12 0 16 -10t3 -27.5t-7.5 -40.5t-15.5 -47q52 7 109 48q8 6 16 8t14 -6q7 -8 14 -20t10.5 -26t1.5 -28.5t-13 -27.5q-18 -20 -35.5 -42
t-32.5 -44.5t-27 -45t-18 -42.5q-14 -42 -6.5 -68t31.5 -28q15 -1 31.5 10t33 30t31.5 44t27 53q3 7 7.5 7.5t7.5 -6.5q4 -8 4 -25.5t-9 -39.5z" />
    <glyph glyph-name="section" unicode="&#xa7;" horiz-adv-x="1051" 
d="M236 170q48 83 56 127.5t-13 46.5q-12 1 -30.5 -10t-40.5 -31t-44.5 -47.5t-43.5 -60.5q-20 -32 -32 -63.5t-15.5 -56.5t1.5 -40t20 -15q30 0 67 42.5t75 107.5zM595 108q-14 -42 -7 -67.5t31 -27.5q22 -2 48 21.5t53 63.5t52 91t45 105q-29 11 -30 38t13 55t35.5 50
t36.5 23q12 1 17 -9.5t4.5 -27.5t-6 -40t-13.5 -48q26 3 53.5 15.5t56.5 32.5q9 6 16.5 8t13.5 -6q7 -8 14 -20.5t10.5 -26t1.5 -28t-13 -27.5q-35 -41 -67 -88t-46 -86q-14 -42 -6.5 -68t31.5 -28q15 -1 31.5 9.5t33 29.5t31.5 44.5t27 53.5q3 7 8 7t7 -6q4 -9 5 -27
t-8 -38q-10 -23 -26 -41.5t-34.5 -32t-39 -21t-40.5 -7.5q-29 1 -49 13.5t-30.5 33t-11.5 47.5t8 57q8 26 22.5 52.5t32 51t36 47t34.5 40.5q-33 -21 -64 -29.5t-56 -8.5q-20 -50 -45.5 -103.5t-56 -98t-66.5 -73.5t-76 -30q-29 -1 -48.5 11.5t-29.5 33.5t-10.5 48.5
t8.5 57.5q8 26 22.5 52t32 51t36 47.5t34.5 40.5q-32 -22 -63.5 -30.5t-56.5 -8.5q-20 -49 -45.5 -101t-56 -95t-67 -72t-76.5 -33q-42 -4 -63.5 20t-19.5 63q-25 -30 -57.5 -54.5t-69.5 -24.5q-35 0 -55 21.5t-24.5 56t7.5 79t43 89.5q30 43 59 73.5t56 50t51 28t43 8.5
q30 0 45 -19t15 -45q11 19 20.5 32.5t14.5 20.5q13 18 24 6t14.5 -42t-14.5 -68q-8 -17 -20.5 -39t-26 -45t-26 -46.5t-21.5 -43.5q-19 -42 -15.5 -67.5t27.5 -22.5t50.5 26.5t53 61t51.5 86.5t45 103q-20 7 -26.5 22t-4 33t12.5 37.5t22.5 35.5t26.5 26.5t24 11.5
q12 1 16.5 -9.5t4 -27.5t-6 -40t-13.5 -48q26 3 53.5 15t56.5 32q9 6 16.5 8.5t13.5 -5.5q7 -9 14.5 -21.5t11 -26.5t1.5 -28.5t-13 -26.5q-36 -40 -68 -87t-46 -86z" />
    <glyph glyph-name="dieresis" unicode="&#xa8;" horiz-adv-x="161" 
d="M1 718q8 15 21 24.5t24 4.5q12 -5 16 -19t-4 -30t-21 -25t-25 -4t-15.5 19t4.5 30zM114 720q8 17 21 25t26 4q12 -4 15.5 -18.5t-3.5 -31.5q-6 -15 -20 -24t-26 -5t-16.5 19t3.5 31z" />
    <glyph glyph-name="copyright" unicode="&#xa9;" horiz-adv-x="550" 
d="M495 612q42 -18 62.5 -51t25 -73t-5 -82.5t-27.5 -79.5q-18 -38 -44 -67.5t-56 -50t-64 -31t-68 -8.5q-44 2 -73 21t-40.5 50t-5.5 70.5t32 81.5q24 40 51 69t53.5 45.5t49.5 20.5t39 -6q32 -20 45 -49q6 -14 3.5 -29.5t-9.5 -32.5t-16.5 -35t-16.5 -35q-4 -8 -7 -10.5
t-12 2.5q-15 8 -21 27.5t5 47.5q4 12 10 23.5t10.5 22t6 18t-2.5 10.5q-6 4 -19.5 -2t-30.5 -21t-35.5 -37.5t-35.5 -51.5q-21 -36 -28.5 -66.5t-4.5 -53t16 -35.5t33 -14q26 -2 51 8.5t48 29.5t43 45t35 56q13 25 24.5 60.5t14 71.5t-7 67t-38.5 47q-25 14 -60.5 12.5
t-74.5 -19t-78 -50.5t-71 -82q-32 -48 -46.5 -98t-13.5 -93.5t16 -77.5t43 -50q22 -13 46 -16.5t47.5 -0.5t45.5 11.5t40 20.5q7 5 10.5 4.5t2.5 -10.5q-1 -11 -10.5 -25.5t-35.5 -25.5q-41 -17 -83 -12t-79 27q-49 29 -72 73t-25 98q-3 70 24.5 133.5t70 113t92 82
t90.5 41.5q45 10 78.5 1t53.5 -30z" />
    <glyph glyph-name="ordfeminine" unicode="&#xaa;" horiz-adv-x="633" 
d="M248 218q-29 17 -46.5 44t-18.5 54q-20 -17 -40 -41t-37 -53q-16 -29 -26.5 -59t-15 -56t-2 -46t12.5 -29q20 -17 60 9t78 95q12 23 21 43t14 39zM257 247q5 22 6 39.5t-1 30.5q-2 12 -6 17t-9 4t-9.5 -7.5t-5.5 -17.5q-2 -19 4.5 -36.5t20.5 -29.5zM656 85
q-10 -23 -25.5 -42t-34 -33t-39 -21.5t-41.5 -6.5q-29 1 -49 14t-30.5 33.5t-11.5 47.5t8 58q7 25 22 51t32.5 50.5t36 47.5t34.5 41q-34 -22 -65.5 -30.5t-55.5 -8.5q-21 -34 -51.5 -56.5t-72.5 -24.5q-8 -32 -22.5 -65.5t-35 -63t-45.5 -52t-53 -31.5q-14 -5 -30 -6
t-32.5 3t-33 15t-31.5 31q-32 45 -24.5 105t39.5 120q14 26 32.5 49t39.5 40t43.5 28t45.5 13t37 -6t30 -28q9 -12 18.5 -20t16.5 -19t11 -27.5t2 -43.5q0 -4 -1 -7.5t-1 -8.5q21 4 41.5 18.5t36.5 43.5q-19 8 -24 23.5t-1 33.5t14.5 37t23.5 35t27 26t24 10q13 0 17 -12
t2 -30.5t-8.5 -40.5t-13.5 -42q26 4 52.5 16t55.5 32q10 7 17 8.5t13 -6.5q7 -8 14 -20t10.5 -26t1.5 -28.5t-13 -27.5q-18 -20 -35 -42t-32 -45t-27 -45t-19 -42q-14 -42 -6.5 -68t31.5 -28q15 -1 31.5 10t33 30t31.5 44.5t27 52.5q3 7 7.5 8t7.5 -6q4 -9 5 -27t-8 -38z
" />
    <glyph glyph-name="guillemotleft" unicode="&#xab;" horiz-adv-x="541" 
d="M265 -96q-49 -28 -82 -65t-52 -72t-24.5 -62.5t1.5 -36.5q6 -7 22.5 8t38.5 47.5t47.5 78.5t48.5 102zM250 222q-27 14 -46 40t-20 55q-20 -17 -40 -41.5t-37 -53.5q-16 -28 -26.5 -58t-15 -56.5t-2 -46.5t11.5 -28q10 -9 26 -7t35 15t39 36.5t38 57.5q25 48 37 87z
M257 247q5 21 6.5 38.5t-0.5 31.5q-3 24 -14.5 22t-15.5 -25q-3 -16 3.5 -35t20.5 -32zM578 150q2 -5 -0.5 -21.5t-14.5 -36.5q-30 -52 -85.5 -89t-123.5 -64q-21 -50 -45 -103t-50.5 -99t-55 -79.5t-58.5 -44.5q-14 -5 -28.5 -3.5t-28.5 21.5q-8 12 -15 25t-11 28t-4 32.5
t7 39.5q22 69 82 117t136 74q30 73 64 148t67 140q-45 -33 -100 -30q-8 -32 -22.5 -65.5t-35 -63t-46 -52t-53.5 -31.5q-14 -5 -30 -6t-32.5 3t-33 14.5t-31.5 30.5q-32 45 -24.5 105.5t41.5 119.5q15 25 33 48.5t38.5 41t42 28.5t44.5 12q24 2 39 -5t30 -28q9 -12 18 -20.5
t16.5 -19t11.5 -27t2 -43.5q0 -4 -1 -8.5t-2 -8.5q23 0 45.5 11.5t44.5 31.5t42.5 46t40.5 55q7 10 13 13t12 -5q11 -13 12.5 -42.5t-15.5 -67.5q-10 -21 -27 -55t-37.5 -74.5t-41 -83.5t-36.5 -80q69 37 113.5 81.5t76.5 91.5q4 5 9 5.5t7 -7.5zM594 460q8 -20 5 -37.5
t-11 -28.5q-11 -11 -27.5 -7.5t-28.5 22.5q-13 20 -10.5 41t15.5 33q12 11 30 5t27 -28z" />
    <glyph glyph-name="logicalnot" unicode="&#xac;" horiz-adv-x="557" 
d="M579 85q-9 -23 -24.5 -42t-34.5 -32.5t-39.5 -21t-41.5 -6.5q-29 1 -48.5 13.5t-30 33.5t-11 48t8.5 57q8 25 22.5 51t32 51t36 47.5t34.5 40.5q-34 -21 -65.5 -29.5t-56.5 -8.5q-25 -57 -56 -111t-66.5 -96.5t-74.5 -68.5t-78 -26q-25 0 -46.5 13.5t-33.5 38.5
t-11.5 60.5t18.5 78.5q7 18 18.5 42.5t25.5 52.5t30 57.5t32 58.5q-25 1 -41 9.5t-23 18.5t-3.5 15.5t14.5 4.5q24 -2 44 -0.5t38 3.5q23 42 42.5 74.5t33.5 49.5q7 11 13.5 10.5t10.5 -10.5q8 -20 6 -47.5t-20 -67.5q24 -2 38.5 -12.5t21.5 -22.5q9 -17 -14 -15
q-15 1 -33.5 1t-38.5 -2q-15 -26 -32.5 -56t-35.5 -62t-35.5 -65.5t-31.5 -64.5q-13 -28 -17 -53t-0.5 -43t13.5 -28.5t25 -10.5q22 1 52 23t61 59.5t61 88.5t53 109q-19 7 -24.5 22.5t-1.5 34t14.5 37.5t24 35.5t27.5 26.5t24 11q12 1 17 -9.5t3.5 -28t-8 -40.5t-16.5 -47
q26 2 53.5 14.5t55.5 31.5q19 15 29 2q7 -8 14.5 -20t11.5 -25.5t2 -28t-13 -27.5q-36 -41 -69 -87.5t-46 -86.5q-14 -42 -6 -68.5t31 -27.5q15 -1 32 10t33.5 30t32 44.5t27.5 53.5q3 6 7.5 7t7.5 -7q4 -9 4 -26.5t-9 -38.5z" />
    <glyph glyph-name="registered" unicode="&#xae;" horiz-adv-x="567" 
d="M455 481q-3 7 -12 8t-21.5 -2t-27 -8.5t-27.5 -9.5q-16 -25 -33.5 -52.5t-35.5 -58.5q37 10 68 26t52 34t31 34.5t6 28.5zM563 324q-29 -69 -74.5 -102.5t-91.5 -33.5q-45 0 -79.5 29.5t-49.5 87.5q-15 -27 -28.5 -54l-26.5 -53q-3 -7 -7.5 -7.5t-8.5 4.5q-8 11 -12 31
t10 57q12 32 38 81t60 105q-5 4 -10.5 9.5t-10.5 14.5q-4 8 -1.5 10.5t9.5 4.5q18 3 35 9t33.5 12.5t32.5 11.5t31 5q23 1 44 -11t32 -42q10 -29 3.5 -55t-23.5 -49q-10 -13 -25.5 -25.5t-33.5 -23.5t-38.5 -20t-39.5 -14q11 -42 30.5 -64t38.5 -23q10 0 23 5.5t27 19
t28.5 35.5t29.5 54q20 44 25.5 85t-0.5 74.5t-22 58t-40 34.5q-26 11 -60 7.5t-71.5 -21t-75.5 -49.5t-71 -78q-34 -47 -50 -96.5t-16.5 -93t14 -76.5t42.5 -48q21 -11 45 -12.5t48 3.5t45.5 15.5t36.5 24.5q15 13 15 -3q0 -11 -8 -28t-32 -31q-21 -12 -43 -16t-42.5 -2.5
t-38 6t-28.5 9.5q-59 26 -83.5 74t-24.5 103q0 47 13.5 90.5t35.5 82t51.5 70.5t61.5 57t64 41t59 22q48 10 80 1t53 -29q42 -19 64 -52t29 -72.5t0.5 -81.5t-21.5 -78z" />
    <glyph glyph-name="macron" unicode="&#xaf;" horiz-adv-x="748" 
d="M477 -72q-49 -29 -82.5 -66t-52 -72.5t-24 -63t1.5 -36.5q5 -7 21.5 8.5t39 48t48 79t48.5 102.5zM250 221q-26 14 -45 40t-20 55q-21 -17 -41.5 -41.5t-37.5 -53.5q-16 -28 -26.5 -58t-14.5 -56.5t-1.5 -46t12.5 -27.5q20 -18 59.5 8t77.5 94q13 23 22 44.5t15 41.5z
M257 246q9 44 6 70q-4 25 -15.5 23t-14.5 -25q-2 -16 3.5 -35t20.5 -33zM777 154q2 -7 -2 -22.5t-17 -35.5q-29 -47 -78.5 -77.5t-112.5 -55.5q-21 -51 -45 -104t-50.5 -99t-55.5 -79.5t-59 -45.5q-15 -6 -29 -3t-28 23q-8 12 -15 24.5t-10 27.5t-2.5 32.5t7.5 39.5
q10 34 31 62.5t49 52t62 42t71 33.5q8 18 15 35.5t15 36.5q-23 -24 -50.5 -41t-57.5 -14q-27 3 -41.5 16.5t-19.5 34t-2 45t11 49.5q7 20 18.5 45.5t25.5 53.5q-43 -28 -92 -25q-8 -32 -23.5 -66t-36 -63.5t-45.5 -51.5t-53 -31q-14 -5 -30 -6t-32.5 3t-32.5 14.5t-31 30.5
q-33 45 -25.5 105t41.5 120q15 26 33 49t38.5 40.5t42.5 28t45 12.5t37 -6t30 -28q9 -12 18.5 -20t16.5 -19t11 -27t2 -44q0 -4 -0.5 -7.5t-0.5 -8.5q25 1 48.5 14t46 34t44 48t41.5 57q13 19 26 1q17 -23 12.5 -55.5t-31.5 -77.5q-26 -44 -44.5 -77t-32.5 -70t-13.5 -60.5
t16.5 -25.5q30 -2 66.5 40t75.5 108q16 28 32.5 58t31.5 58.5t29.5 54.5t27.5 46q13 19 24 5q11 -13 13.5 -42.5t-16.5 -67.5q-11 -22 -27.5 -54.5t-34.5 -69.5t-37 -76t-35 -75q60 31 103.5 71t73.5 82q5 6 10 6t7 -8z" />
    <glyph glyph-name="macron" unicode="&#x2c9;" horiz-adv-x="748" 
d="M477 -72q-49 -29 -82.5 -66t-52 -72.5t-24 -63t1.5 -36.5q5 -7 21.5 8.5t39 48t48 79t48.5 102.5zM250 221q-26 14 -45 40t-20 55q-21 -17 -41.5 -41.5t-37.5 -53.5q-16 -28 -26.5 -58t-14.5 -56.5t-1.5 -46t12.5 -27.5q20 -18 59.5 8t77.5 94q13 23 22 44.5t15 41.5z
M257 246q9 44 6 70q-4 25 -15.5 23t-14.5 -25q-2 -16 3.5 -35t20.5 -33zM777 154q2 -7 -2 -22.5t-17 -35.5q-29 -47 -78.5 -77.5t-112.5 -55.5q-21 -51 -45 -104t-50.5 -99t-55.5 -79.5t-59 -45.5q-15 -6 -29 -3t-28 23q-8 12 -15 24.5t-10 27.5t-2.5 32.5t7.5 39.5
q10 34 31 62.5t49 52t62 42t71 33.5q8 18 15 35.5t15 36.5q-23 -24 -50.5 -41t-57.5 -14q-27 3 -41.5 16.5t-19.5 34t-2 45t11 49.5q7 20 18.5 45.5t25.5 53.5q-43 -28 -92 -25q-8 -32 -23.5 -66t-36 -63.5t-45.5 -51.5t-53 -31q-14 -5 -30 -6t-32.5 3t-32.5 14.5t-31 30.5
q-33 45 -25.5 105t41.5 120q15 26 33 49t38.5 40.5t42.5 28t45 12.5t37 -6t30 -28q9 -12 18.5 -20t16.5 -19t11 -27t2 -44q0 -4 -0.5 -7.5t-0.5 -8.5q25 1 48.5 14t46 34t44 48t41.5 57q13 19 26 1q17 -23 12.5 -55.5t-31.5 -77.5q-26 -44 -44.5 -77t-32.5 -70t-13.5 -60.5
t16.5 -25.5q30 -2 66.5 40t75.5 108q16 28 32.5 58t31.5 58.5t29.5 54.5t27.5 46q13 19 24 5q11 -13 13.5 -42.5t-16.5 -67.5q-11 -22 -27.5 -54.5t-34.5 -69.5t-37 -76t-35 -75q60 31 103.5 71t73.5 82q5 6 10 6t7 -8z" />
    <glyph glyph-name="degree" unicode="&#xb0;" horiz-adv-x="302" 
d="M285 565q-5 6 -14.5 4t-20.5 -10.5t-23 -21.5t-21 -29q-9 -15 -15 -31.5t-8.5 -31.5t-2 -27t5.5 -17q11 -11 31 3t41 49q10 18 17 36t10.5 33.5t3.5 26.5t-4 16zM258 613q13 0 27 -6.5t27 -23.5t19 -34.5t4 -40.5q-1 -23 -9.5 -48t-22.5 -46t-32.5 -36.5t-40.5 -19.5
q-17 -3 -38.5 3t-39.5 32q-20 29 -17.5 69t22.5 78q18 35 45 54t56 19z" />
    <glyph glyph-name="plusminus" unicode="&#xb1;" horiz-adv-x="956" 
d="M249 219q-29 15 -47 42t-19 56q-20 -17 -39.5 -41.5t-36.5 -53.5q-16 -28 -26.5 -58t-15 -56t-2 -46t12.5 -29t26 -7t34.5 15t38.5 36.5t38 57.5q12 23 21 44t15 40zM257 248q9 43 6 69q-3 24 -15 21.5t-15 -25.5q-2 -19 4 -36.5t20 -28.5zM496 108q-14 -42 -7.5 -69
t33.5 -27q22 0 48.5 23.5t53.5 63t52.5 90t45.5 104.5q-20 7 -26.5 22t-3.5 33.5t12.5 37.5t22.5 35.5t26.5 26.5t23.5 11q12 1 16.5 -9.5t4 -27.5t-5.5 -40t-14 -48q26 3 53.5 15.5t56.5 32.5q10 7 16.5 8.5t13.5 -6.5t14.5 -20.5t11 -26t1.5 -28t-13 -27.5
q-36 -41 -68 -88t-46 -86q-14 -42 -6 -68t31 -28q15 -1 31.5 9.5t33 29.5t32 44.5t27.5 53.5q3 7 7.5 7.5t7.5 -6.5q4 -9 4.5 -26.5t-8.5 -38.5q-10 -23 -25 -42t-34 -32.5t-39.5 -21t-41.5 -6.5q-29 1 -48.5 14t-30 33t-11.5 47t8 57q8 26 22.5 52.5t32 51t36 47t34.5 40.5
q-33 -21 -64.5 -29.5t-55.5 -8.5q-20 -50 -46 -103.5t-57 -98t-66.5 -73.5t-75.5 -30q-29 -1 -49 11.5t-30.5 33.5t-11 49t8.5 58q8 25 22.5 51.5t32 51.5t36 47t34.5 40q-34 -22 -66 -29.5t-56 -7.5q-21 -35 -51 -58t-72 -25q-8 -32 -23 -65.5t-35.5 -63t-45.5 -51.5
t-53 -31q-14 -5 -30 -6t-32.5 3t-33 14.5t-31.5 30.5q-32 45 -24.5 105.5t41.5 119.5q15 25 33.5 48.5t38.5 41t42 28.5t45 12q23 2 38 -5t30 -28q9 -12 18 -20.5t16.5 -19t11.5 -27t2 -43.5q0 -8 -3 -15q21 2 42 17t36 44q-19 8 -24 23t-1 33.5t14.5 37.5t24 35t27.5 26
t24 10q13 0 17 -12t2 -30.5t-8.5 -40.5t-13.5 -41q49 7 108 46q10 6 16.5 8.5t12.5 -5.5q7 -8 14.5 -20t11.5 -26t2 -28.5t-13 -26.5q-36 -41 -69 -88t-46 -86z" />
    <glyph glyph-name="acute" unicode="&#xb4;" horiz-adv-x="179" 
d="M173 707q5 -2 6.5 -7t-6.5 -9l-30 -15t-31.5 -15.5t-30 -14t-23.5 -9.5q-17 -5 -31 -5t-22 4q-12 7 0 16q22 14 48.5 31.5t46.5 26.5t41 6t32 -9z" />
    <glyph glyph-name="mu" unicode="&#xb5;" horiz-adv-x="645" 
d="M101 195q18 -11 34.5 -10t31.5 9t28 22t24 28q12 15 21.5 32t15.5 31.5t7 25.5t-4 15q-8 7 -26 -0.5t-40 -26t-44.5 -47t-39.5 -62.5q-2 -4 -4 -8.5t-4 -8.5zM667 88q-9 -23 -24.5 -42t-34.5 -33t-39.5 -21.5t-41.5 -6.5q-29 1 -48.5 14t-30 33.5t-11 48t8.5 57.5
q8 25 22 51t31.5 50.5t36 47t34.5 40.5q-33 -21 -65 -29.5t-55 -8.5q-31 -65 -66.5 -120t-75 -95.5t-81.5 -63t-87 -23.5q-48 -1 -79.5 20t-45 56t-9 80.5t28.5 93.5q24 46 53.5 79.5t59 53t56.5 24.5t46 -6t33 -22.5t26 -28.5q6 -9 7.5 -24t-2.5 -33t-13.5 -38t-24.5 -39
q-18 -23 -39 -38.5t-44.5 -20.5t-49 1.5t-51.5 27.5q-12 -34 -14 -62.5t4.5 -49.5t20.5 -33t33 -13q41 -2 81.5 23.5t76.5 67t66 91.5t51 98q-19 8 -25 23.5t-2.5 33.5t14 37.5t24 35.5t28 26.5t24.5 10.5q12 0 16 -10t3 -27.5t-7.5 -40.5t-15.5 -47q26 4 53 15.5t56 31.5
q9 6 16 8.5t12 -5.5q7 -8 14.5 -20.5t11.5 -27t2 -29t-13 -26.5q-18 -20 -35.5 -42t-33 -44.5t-28 -45t-18.5 -42.5q-13 -42 -5.5 -68.5t30.5 -27.5q16 -1 33 10t33.5 30.5t31.5 44.5t27 53q3 6 7.5 7t7.5 -6q4 -8 4 -26t-9 -39z" />
    <glyph glyph-name="mu" unicode="&#x3bc;" horiz-adv-x="645" 
d="M101 195q18 -11 34.5 -10t31.5 9t28 22t24 28q12 15 21.5 32t15.5 31.5t7 25.5t-4 15q-8 7 -26 -0.5t-40 -26t-44.5 -47t-39.5 -62.5q-2 -4 -4 -8.5t-4 -8.5zM667 88q-9 -23 -24.5 -42t-34.5 -33t-39.5 -21.5t-41.5 -6.5q-29 1 -48.5 14t-30 33.5t-11 48t8.5 57.5
q8 25 22 51t31.5 50.5t36 47t34.5 40.5q-33 -21 -65 -29.5t-55 -8.5q-31 -65 -66.5 -120t-75 -95.5t-81.5 -63t-87 -23.5q-48 -1 -79.5 20t-45 56t-9 80.5t28.5 93.5q24 46 53.5 79.5t59 53t56.5 24.5t46 -6t33 -22.5t26 -28.5q6 -9 7.5 -24t-2.5 -33t-13.5 -38t-24.5 -39
q-18 -23 -39 -38.5t-44.5 -20.5t-49 1.5t-51.5 27.5q-12 -34 -14 -62.5t4.5 -49.5t20.5 -33t33 -13q41 -2 81.5 23.5t76.5 67t66 91.5t51 98q-19 8 -25 23.5t-2.5 33.5t14 37.5t24 35.5t28 26.5t24.5 10.5q12 0 16 -10t3 -27.5t-7.5 -40.5t-15.5 -47q26 4 53 15.5t56 31.5
q9 6 16 8.5t12 -5.5q7 -8 14.5 -20.5t11.5 -27t2 -29t-13 -26.5q-18 -20 -35.5 -42t-33 -44.5t-28 -45t-18.5 -42.5q-13 -42 -5.5 -68.5t30.5 -27.5q16 -1 33 10t33.5 30.5t31.5 44.5t27 53q3 6 7.5 7t7.5 -6q4 -8 4 -26t-9 -39z" />
    <glyph glyph-name="paragraph" unicode="&#xb6;" horiz-adv-x="471" 
d="M621 551q-13 0 -26.5 0.5t-28.5 -0.5q-2 -17 -11 -37t-24 -46q-25 -41 -56 -95t-63.5 -115t-64.5 -126t-57 -129q-6 -15 -17 -2q-10 11 -13.5 34t8.5 65q10 35 34 89.5t55.5 116.5t68 125t72.5 116q-13 -1 -25 -3t-25 -4q-36 -59 -75.5 -128.5t-78 -141.5t-72.5 -142.5
t-58 -130.5q-3 -8 -8 -9.5t-10 5.5q-9 11 -13.5 34.5t7.5 64.5q8 26 23 63t36 81q-36 7 -63 29.5t-33 70.5q-6 47 13 87.5t54 74.5q30 29 71.5 52.5t90 39t103 23.5t111.5 7q38 -1 59 -18t28 -36q2 -6 0.5 -10.5t-12.5 -4.5z" />
    <glyph glyph-name="periodcentered" unicode="&#xb7;" horiz-adv-x="151" 
d="M130 246q-13 -23 -30.5 -29.5t-31.5 0.5q-15 7 -19.5 26t6.5 41q11 20 31 28.5t33 3.5q14 -5 19 -26t-8 -44z" />
    <glyph glyph-name="periodcentered" unicode="&#x2219;" horiz-adv-x="151" 
d="M130 246q-13 -23 -30.5 -29.5t-31.5 0.5q-15 7 -19.5 26t6.5 41q11 20 31 28.5t33 3.5q14 -5 19 -26t-8 -44z" />
    <glyph glyph-name="cedilla" unicode="&#xb8;" horiz-adv-x="599" 
d="M100 196q19 -12 35.5 -11t31.5 9.5t27.5 22.5t23.5 28q12 16 21.5 32.5t15.5 31t7 25.5t-4 15q-8 7 -26.5 -0.5t-40 -26t-44 -47t-39.5 -62.5q-2 -5 -4 -9zM389 146q-2 28 -4.5 61.5t-6 65.5t-7 60t-7.5 46q-3 10 3 13t16 1q25 -6 42 -27t23 -72q2 -20 4 -41t4 -44
q47 48 86 95t67 84q6 8 14 8t6 -13q-2 -18 -14.5 -40t-28.5 -44t-48.5 -60t-77.5 -80q2 -25 4 -47t4 -39q4 -30 12 -42t19 -12q13 0 28.5 12t31 31.5t29 43.5t23.5 47q4 7 10 6t8 -7q3 -11 1 -28t-14 -40q-26 -48 -62.5 -73t-74.5 -26q-40 -1 -60.5 25.5t-25.5 87.5v2
q-57 -45 -119 -77.5t-124 -35.5q-51 -2 -84.5 18.5t-48.5 56t-11 81.5t28 94q24 46 53.5 79.5t59 53t57 24.5t46.5 -6q18 -11 32.5 -22.5t25.5 -27.5q6 -9 7.5 -24.5t-2.5 -33.5t-13.5 -38t-24.5 -39q-18 -23 -39 -38.5t-44.5 -21t-48.5 1.5t-52 28q-12 -35 -13.5 -64.5
t6.5 -50.5t26 -32t44 -9q55 5 115.5 41t119.5 88z" />
    <glyph glyph-name="ordmasculine" unicode="&#xba;" horiz-adv-x="671" 
d="M695 85q-20 -45 -59.5 -73.5t-80.5 -27.5q-29 1 -48.5 13.5t-30 33t-11.5 47.5t8 57q8 25 22.5 51.5t32 51.5t36 47t34.5 40q-33 -20 -64.5 -28.5t-55.5 -8.5q-20 -50 -46 -103.5t-57.5 -98t-67.5 -73.5t-76 -30q-29 -1 -48.5 11.5t-29 33.5t-10.5 49t8 58q7 25 22 51.5
t33 51.5t37 47t35 40q-34 -20 -66 -28.5t-57 -8.5q-15 -28 -38.5 -68t-48 -84t-45 -88t-27.5 -80q-2 -7 -6.5 -9.5t-12.5 4.5q-23 24 -23 58.5t22 75.5q9 17 25.5 42.5t35.5 53.5t38 55.5t34 49.5q-16 9 -19.5 24.5t1 33.5t15.5 36.5t24 33.5t26 24.5t23 9.5q12 0 17 -10
t4 -27.5t-7.5 -40.5t-16.5 -47q26 4 52.5 16t55.5 31q11 7 17 8t13 -6q7 -8 14.5 -20t11.5 -26t2 -28.5t-13 -26.5q-36 -41 -69 -87.5t-46 -86.5q-14 -42 -6 -69.5t31 -26.5q22 1 48.5 24.5t53.5 62.5t52.5 89t45.5 104q-20 7 -26.5 22.5t-4 34t12.5 37.5t23 35.5t26.5 26.5
t23.5 11q12 1 16.5 -9.5t4 -28t-5.5 -40.5t-14 -48q51 7 110 48q10 8 16.5 9t13.5 -7t14 -20t11 -26t2 -28.5t-13 -26.5q-36 -41 -68 -87.5t-46 -86.5q-14 -42 -6 -68t31 -28q15 -1 31.5 9.5t33 29.5t32 44.5t27.5 53.5q7 16 15 0q4 -8 4.5 -25.5t-8.5 -39.5z" />
    <glyph glyph-name="guillemotright" unicode="&#xbb;" horiz-adv-x="923" 
d="M250 221q-26 14 -44.5 40t-20.5 55q-20 -17 -40 -41.5t-37 -53.5q-17 -28 -27.5 -58t-14.5 -56t-1.5 -46t12.5 -29t26 -6.5t34.5 15.5t38.5 36.5t38 57.5q25 46 36 86zM258 246q5 22 6.5 39t-0.5 31q-4 24 -15.5 22t-14.5 -25q-2 -16 3.5 -35t20.5 -32zM954 151
q4 -5 3 -25t-10 -38q-11 -21 -27.5 -40t-36.5 -34t-42 -23.5t-43 -8.5q-32 0 -53.5 12.5t-32 32.5t-9.5 47.5t14 57.5q9 21 21.5 43.5t26 44.5t26.5 41.5t22 34.5t13.5 24.5t0.5 11.5q-6 2 -32.5 -12t-74.5 -62q-62 -62 -101.5 -131t-71.5 -139q-9 -20 -23 -6
q-12 12 -16.5 41.5t15.5 83.5q8 21 21.5 45.5t28 49t29.5 47.5t25.5 41.5t15.5 30.5t0 14q-8 3 -42 -18.5t-82 -74.5q-44 -48 -80 -113t-66 -136q-3 -6 -7 -7.5t-12 4.5q-16 13 -19 38t9 63q8 25 25 61.5t39 78.5q-43 -29 -93 -25q-8 -32 -23 -66t-35.5 -64t-45.5 -52.5
t-53 -31.5q-14 -5 -29.5 -6t-32.5 3t-33.5 15t-31.5 31q-32 44 -24.5 104.5t41.5 120.5q14 25 32.5 48t39 40.5t42.5 28.5t45 13t37 -6t30 -28q9 -12 18.5 -20t17 -19t11 -27t1.5 -44v-8t-2 -8q24 0 48 13t47 35t44.5 50t40.5 58q5 8 11 8t11 -8q12 -20 10.5 -47.5
t-12.5 -56.5q17 19 38 38t42.5 35t40.5 25.5t33 9.5q13 0 22 -9.5t14.5 -23.5t6 -31.5t-3.5 -33.5q18 17 38.5 33.5t40.5 29.5t37.5 20.5t29.5 7.5q13 0 21.5 -10.5t11.5 -26t0.5 -34.5t-9.5 -37q-7 -17 -19 -37t-25 -41.5t-25.5 -42.5t-21.5 -39q-11 -21 -14 -40t0.5 -33
t12.5 -22t23 -7q15 1 30.5 12.5t31.5 30.5t31.5 43.5t29.5 51.5q4 7 8.5 6t8.5 -6z" />
    <glyph glyph-name="questiondown" unicode="&#xbf;" horiz-adv-x="369" 
d="M278 86q-20 -33 -47 -56.5t-57 -35t-61 -10t-58 19.5q-42 27 -51.5 79.5t20.5 115.5q14 30 34 53.5t44 43.5t51 37t56 33q56 31 80 68.5t35 76.5q4 16 18 3q10 -10 16 -34t-9 -59q-7 -16 -17 -30t-25 -28t-35.5 -28.5t-48.5 -30.5q-46 -26 -83.5 -64.5t-60.5 -86.5
q-7 -15 -13 -33.5t-7.5 -35.5t3 -31t16.5 -21q19 -11 44.5 -0.5t52.5 35.5t53 62t47 80q5 10 9.5 10.5t9.5 -7.5q11 -17 10.5 -50.5t-26.5 -75.5zM342 562q-8 20 -6 36.5t12 27.5t27 8t28 -22q11 -20 9 -40t-14 -33t-30 -5.5t-26 28.5z" />
    <glyph glyph-name="Agrave" unicode="&#xc0;" horiz-adv-x="442" 
d="M372 748q12 2 32 -1.5t37 -18.5q16 -14 35.5 -37t34.5 -43q9 -12 -5 -14q-11 -1 -23.5 2t-26.5 13q-17 12 -42 37l-47 47q-6 6 -3.5 10t8.5 5zM152 201q46 4 90 10t79 7q6 39 13.5 81t17.5 82.5t20.5 78t22.5 66.5q-29 -32 -59.5 -70t-62 -80t-62.5 -86t-59 -89zM313 157
q-27 -2 -54.5 -5t-54 -5.5t-49.5 -4t-41 -1.5q-46 -79 -76 -144q-3 -7 -8.5 -7t-9.5 5q-9 12 -10 36t15 66q5 11 11.5 25.5t15.5 31.5q-17 9 -24 19t-9 15q-4 10 -1.5 13.5t13.5 1.5t22 -3t23 -2q29 51 68.5 111t82.5 118t87.5 108.5t84.5 83.5q22 18 36 -1q4 -5 6.5 -8.5
t5 -7.5t5 -10t6.5 -15q8 -18 7.5 -35.5t-7.5 -37.5q-20 -60 -39.5 -134t-33.5 -157q23 -8 32.5 -21.5t12.5 -29.5q3 -14 -11 -9q-18 5 -43 6q-5 -39 -9 -79.5t-6 -80.5q0 -16 -15 -9t-25.5 27.5t-11.5 63.5q0 15 1 34t3 42z" />
    <glyph glyph-name="Aacute" unicode="&#xc1;" horiz-adv-x="442" 
d="M564 731q5 -3 6.5 -7.5t-6.5 -8.5q-14 -6 -30 -14.5t-32 -16t-30 -14t-23 -9.5q-17 -5 -31 -5t-22 5q-5 2 -6 6t6 9q22 14 48.5 32t46.5 26q21 9 41.5 6.5t31.5 -9.5zM152 201q46 4 90 10t79 7q6 39 13.5 81t17.5 82.5t20.5 78t22.5 66.5q-29 -32 -59.5 -70t-62 -80
t-62.5 -86t-59 -89zM313 157q-27 -2 -54.5 -5t-54 -5.5t-49.5 -4t-41 -1.5q-46 -79 -76 -144q-3 -7 -8.5 -7t-9.5 5q-9 12 -10 36t15 66q5 11 11.5 25.5t15.5 31.5q-17 9 -24 19t-9 15q-4 10 -1.5 13.5t13.5 1.5t22 -3t23 -2q29 51 68.5 111t82.5 118t87.5 108.5t84.5 83.5
q22 18 36 -1q4 -5 6.5 -8.5t5 -7.5t5 -10t6.5 -15q8 -18 7.5 -35.5t-7.5 -37.5q-20 -60 -39.5 -134t-33.5 -157q23 -8 32.5 -21.5t12.5 -29.5q3 -14 -11 -9q-18 5 -43 6q-5 -39 -9 -79.5t-6 -80.5q0 -16 -15 -9t-25.5 27.5t-11.5 63.5q0 15 1 34t3 42z" />
    <glyph glyph-name="Acircumflex" unicode="&#xc2;" horiz-adv-x="442" 
d="M448 693q-17 -12 -35.5 -22.5t-32.5 -18.5q-17 -9 -30.5 -10.5t-21.5 1.5q-6 1 -6 6t5 9q10 7 25 18t31.5 22.5t32 22.5t27.5 18q7 4 13 4q8 1 12.5 -4.5t7.5 -10.5q8 -14 20.5 -35.5t20.5 -34.5q7 -10 -6 -14q-14 -3 -26.5 1t-26.5 18q-9 9 -17 21.5t-14 22.5zM152 201
q46 4 90 10t79 7q6 39 13.5 81t17.5 82.5t20.5 78t22.5 66.5q-29 -32 -59.5 -70t-62 -80t-62.5 -86t-59 -89zM313 157q-27 -2 -54.5 -5t-54 -5.5t-49.5 -4t-41 -1.5q-46 -79 -76 -144q-3 -7 -8.5 -7t-9.5 5q-9 12 -10 36t15 66q5 11 11.5 25.5t15.5 31.5q-17 9 -24 19t-9 15
q-4 10 -1.5 13.5t13.5 1.5t22 -3t23 -2q29 51 68.5 111t82.5 118t87.5 108.5t84.5 83.5q22 18 36 -1q4 -5 6.5 -8.5t5 -7.5t5 -10t6.5 -15q8 -18 7.5 -35.5t-7.5 -37.5q-20 -60 -39.5 -134t-33.5 -157q23 -8 32.5 -21.5t12.5 -29.5q3 -14 -11 -9q-18 5 -43 6
q-5 -39 -9 -79.5t-6 -80.5q0 -16 -15 -9t-25.5 27.5t-11.5 63.5q0 15 1 34t3 42z" />
    <glyph glyph-name="Atilde" unicode="&#xc3;" horiz-adv-x="442" 
d="M345 690q5 12 22 24t40 12q18 0 35 -6.5t34 -12.5t35.5 -9t40.5 3q18 5 10 -12q-18 -32 -55 -35q-21 -2 -41 4.5t-39 13.5t-37.5 11t-36.5 -2q-13 -5 -8 9zM152 201q46 4 90 10t79 7q6 39 13.5 81t17.5 82.5t20.5 78t22.5 66.5q-29 -32 -59.5 -70t-62 -80t-62.5 -86
t-59 -89zM313 157q-27 -2 -54.5 -5t-54 -5.5t-49.5 -4t-41 -1.5q-46 -79 -76 -144q-3 -7 -8.5 -7t-9.5 5q-9 12 -10 36t15 66q5 11 11.5 25.5t15.5 31.5q-17 9 -24 19t-9 15q-4 10 -1.5 13.5t13.5 1.5t22 -3t23 -2q29 51 68.5 111t82.5 118t87.5 108.5t84.5 83.5
q22 18 36 -1q4 -5 6.5 -8.5t5 -7.5t5 -10t6.5 -15q8 -18 7.5 -35.5t-7.5 -37.5q-20 -60 -39.5 -134t-33.5 -157q23 -8 32.5 -21.5t12.5 -29.5q3 -14 -11 -9q-18 5 -43 6q-5 -39 -9 -79.5t-6 -80.5q0 -16 -15 -9t-25.5 27.5t-11.5 63.5q0 15 1 34t3 42z" />
    <glyph glyph-name="Adieresis" unicode="&#xc4;" horiz-adv-x="442" 
d="M358 706q8 16 21 25t24 4q12 -5 15.5 -19t-3.5 -29t-19.5 -24t-25.5 -5q-12 4 -16 18.5t4 29.5zM473 708q7 17 20.5 24.5t24.5 3.5q12 -4 15.5 -17.5t-3.5 -30.5q-6 -15 -20 -23t-25 -4q-12 4 -15.5 17.5t3.5 29.5zM152 201q46 4 90 10t79 7q6 39 13.5 81t17.5 82.5
t20.5 78t22.5 66.5q-29 -32 -59.5 -70t-62 -80t-62.5 -86t-59 -89zM313 157q-27 -2 -54.5 -5t-54 -5.5t-49.5 -4t-41 -1.5q-46 -79 -76 -144q-3 -7 -8.5 -7t-9.5 5q-9 12 -10 36t15 66q5 11 11.5 25.5t15.5 31.5q-17 9 -24 19t-9 15q-4 10 -1.5 13.5t13.5 1.5t22 -3t23 -2
q29 51 68.5 111t82.5 118t87.5 108.5t84.5 83.5q22 18 36 -1q4 -5 6.5 -8.5t5 -7.5t5 -10t6.5 -15q8 -18 7.5 -35.5t-7.5 -37.5q-20 -60 -39.5 -134t-33.5 -157q23 -8 32.5 -21.5t12.5 -29.5q3 -14 -11 -9q-18 5 -43 6q-5 -39 -9 -79.5t-6 -80.5q0 -16 -15 -9t-25.5 27.5
t-11.5 63.5q0 15 1 34t3 42z" />
    <glyph glyph-name="Aring" unicode="&#xc5;" horiz-adv-x="442" 
d="M527 738q-6 5 -17 -3t-17 -22q-8 -18 -7.5 -30.5t6.5 -16.5q5 -3 13.5 2.5t16.5 19.5q8 13 10 29t-5 21zM538 753q22 -18 23 -41t-12 -43q-11 -17 -29.5 -26t-37.5 5q-23 16 -26.5 39t7.5 44t32.5 30t42.5 -8zM152 201q46 4 90 10t79 7q6 39 13.5 81t17.5 82.5t20.5 78
t22.5 66.5q-29 -32 -59.5 -70t-62 -80t-62.5 -86t-59 -89zM313 157q-27 -2 -54.5 -5t-54 -5.5t-49.5 -4t-41 -1.5q-46 -79 -76 -144q-3 -7 -8.5 -7t-9.5 5q-9 12 -10 36t15 66q5 11 11.5 25.5t15.5 31.5q-17 9 -24 19t-9 15q-4 10 -1.5 13.5t13.5 1.5t22 -3t23 -2
q29 51 68.5 111t82.5 118t87.5 108.5t84.5 83.5q22 18 36 -1q4 -5 6.5 -8.5t5 -7.5t5 -10t6.5 -15q8 -18 7.5 -35.5t-7.5 -37.5q-20 -60 -39.5 -134t-33.5 -157q23 -8 32.5 -21.5t12.5 -29.5q3 -14 -11 -9q-18 5 -43 6q-5 -39 -9 -79.5t-6 -80.5q0 -16 -15 -9t-25.5 27.5
t-11.5 63.5q0 15 1 34t3 42z" />
    <glyph glyph-name="AE" unicode="&#xc6;" horiz-adv-x="651" 
d="M482 516q-32 -27 -68 -61.5t-73.5 -72.5t-76 -80t-74.5 -84q39 11 77 22.5t71 19.5q33 66 71 132t73 124zM128 142q-31 -40 -57.5 -78t-46.5 -73q-7 -13 -16 0q-8 13 -7 39t24 70q5 11 12.5 23t17.5 26q-14 7 -21.5 15t-9.5 13q-5 9 -3 12t13 3q12 -1 25.5 0t27.5 3
q34 46 78 99t92.5 104t97 95.5t91.5 73.5q13 9 28 16t32 11q19 4 45.5 8.5t54.5 8t55 6.5t47 3q38 1 58 -12.5t30 -37.5q2 -6 0 -11t-12 -4q-18 1 -44 -0.5t-54.5 -5.5t-58 -9.5t-55.5 -11.5q-29 -46 -66.5 -111t-75.5 -137q23 5 43.5 7t35.5 3q38 1 56.5 -13.5t25.5 -37.5
q5 -15 -12 -15q-21 0 -46 -2t-50 -6t-50 -9t-46 -10q-18 -38 -34.5 -73t-30.5 -67q18 6 39 11t41.5 8.5t39 6t32.5 3.5q38 2 59.5 -11.5t29.5 -36.5q2 -6 1 -10.5t-11 -4.5q-21 1 -49.5 -2.5t-58.5 -9.5t-58.5 -12.5t-49.5 -12.5t-32 -5t-19 14q-7 11 -12.5 20t-10.5 18
q-7 14 -7.5 26t7.5 32t16.5 42t19.5 45q-21 -6 -45 -11.5t-46.5 -10.5t-43.5 -9t-36 -5z" />
    <glyph glyph-name="Ccedilla" unicode="&#xc7;" horiz-adv-x="462" 
d="M121 10q-1 0 -1 0.5t-1 0.5q-34 18 -59 62t-27 106q-1 53 12 103t35.5 95t52 83.5t61.5 69.5t64.5 52.5t60.5 32.5q41 16 76 17t59 -20q17 -14 32 -34t21 -39q13 -42 -9 -88q-11 -23 -21.5 -50t-18.5 -49q-2 -6 -7.5 -9t-14.5 3q-17 11 -26 34.5t2 61.5q6 20 14.5 40
t14.5 38t7.5 32.5t-7.5 23.5q-11 11 -41.5 2t-70 -35t-82 -68.5t-76.5 -98.5q-33 -55 -48.5 -108.5t-17.5 -98.5t8.5 -78.5t28.5 -48.5q24 -20 54.5 -17.5t63.5 24t66 61.5t62 96q4 8 10.5 8t10.5 -10q9 -25 3.5 -51t-19 -49t-31.5 -42t-34 -30q-41 -29 -84 -37t-81 0
q-4 -8 -7 -14.5t-5 -10.5q25 -1 38 -27q8 -17 7.5 -27.5t-5.5 -18.5q-9 -15 -24.5 -22.5t-29.5 -7.5q-12 0 -25 6t-23 20q-5 7 -2 10.5t9 3.5q35 -2 54 9t16 16q-3 6 -12.5 5.5t-19.5 -2.5q-9 -2 -15.5 -0.5t-14.5 10.5q-7 8 -8 14t3 14q3 6 9 16t13 21z" />
    <glyph glyph-name="Egrave" unicode="&#xc8;" horiz-adv-x="368" 
d="M258 705q11 7 31 11t40 -4q21 -8 47.5 -22t47.5 -28q13 -8 0 -15q-9 -5 -22.5 -6t-29.5 3q-9 2 -22.5 7.5t-29 12t-31.5 13t-30 12.5q-7 3 -6.5 8t5.5 8zM218 525q-19 8 -28 21.5t-14 29.5q-3 13 11 12q31 -2 66 1.5t68.5 8.5t63.5 10t51 5q32 1 49.5 -11.5t26.5 -37.5
q2 -6 0 -10.5t-11 -2.5q-54 1 -105.5 -9t-97.5 -18q-30 -45 -65.5 -107t-72.5 -129q20 4 38.5 5.5t32.5 2.5q38 2 56 -10t26 -35q2 -7 1 -11t-11 -4q-41 0 -92 -8.5t-93 -19.5q-22 -42 -41.5 -82.5t-35.5 -75.5q18 6 38.5 11t41.5 9.5t40.5 7t34.5 3.5q37 2 57 -9.5
t28 -34.5q2 -7 0.5 -11t-10.5 -4q-21 0 -50.5 -4t-60 -10t-60 -13t-50.5 -13q-14 -4 -23.5 -2.5t-18.5 12.5q-6 7 -11 17l-10 20q-7 13 -7 25t8 32q17 46 43.5 102t57.5 114.5t64 116t65 106.5z" />
    <glyph glyph-name="Eacute" unicode="&#xc9;" horiz-adv-x="368" 
d="M465 705q5 -3 6.5 -7.5t-6.5 -8.5l-30 -15t-31.5 -15.5t-29.5 -14t-24 -9.5q-17 -5 -31 -5t-22 4q-5 2 -6 6.5t7 9.5q21 14 48 31.5t47 26.5q21 9 41 6t31 -9zM218 525q-19 8 -28 21.5t-14 29.5q-3 13 11 12q31 -2 66 1.5t68.5 8.5t63.5 10t51 5q32 1 49.5 -11.5
t26.5 -37.5q2 -6 0 -10.5t-11 -2.5q-54 1 -105.5 -9t-97.5 -18q-30 -45 -65.5 -107t-72.5 -129q20 4 38.5 5.5t32.5 2.5q38 2 56 -10t26 -35q2 -7 1 -11t-11 -4q-41 0 -92 -8.5t-93 -19.5q-22 -42 -41.5 -82.5t-35.5 -75.5q18 6 38.5 11t41.5 9.5t40.5 7t34.5 3.5
q37 2 57 -9.5t28 -34.5q2 -7 0.5 -11t-10.5 -4q-21 0 -50.5 -4t-60 -10t-60 -13t-50.5 -13q-14 -4 -23.5 -2.5t-18.5 12.5q-6 7 -11 17l-10 20q-7 13 -7 25t8 32q17 46 43.5 102t57.5 114.5t64 116t65 106.5z" />
    <glyph glyph-name="Ecircumflex" unicode="&#xca;" horiz-adv-x="368" 
d="M364 679q-15 -12 -30.5 -22.5t-28.5 -18.5q-15 -8 -29 -11t-22 -1q-14 5 -1 15q10 8 24.5 20t30 24.5l31 25t27.5 20.5q2 2 5.5 3.5t6.5 1.5q8 1 13.5 -3.5t8.5 -9.5q8 -14 21 -34t24 -32q4 -5 1.5 -9t-7.5 -6q-27 -8 -54 15l-10.5 10.5t-10.5 11.5zM218 525
q-19 8 -28 21.5t-14 29.5q-3 13 11 12q31 -2 66 1.5t68.5 8.5t63.5 10t51 5q32 1 49.5 -11.5t26.5 -37.5q2 -6 0 -10.5t-11 -2.5q-54 1 -105.5 -9t-97.5 -18q-30 -45 -65.5 -107t-72.5 -129q20 4 38.5 5.5t32.5 2.5q38 2 56 -10t26 -35q2 -7 1 -11t-11 -4q-41 0 -92 -8.5
t-93 -19.5q-22 -42 -41.5 -82.5t-35.5 -75.5q18 6 38.5 11t41.5 9.5t40.5 7t34.5 3.5q37 2 57 -9.5t28 -34.5q2 -7 0.5 -11t-10.5 -4q-21 0 -50.5 -4t-60 -10t-60 -13t-50.5 -13q-14 -4 -23.5 -2.5t-18.5 12.5q-6 7 -11 17l-10 20q-7 13 -7 25t8 32q17 46 43.5 102
t57.5 114.5t64 116t65 106.5z" />
    <glyph glyph-name="Edieresis" unicode="&#xcb;" horiz-adv-x="368" 
d="M272 683q7 15 20.5 23.5t24.5 4.5q12 -4 15.5 -17.5t-2.5 -30.5q-6 -16 -20 -24t-25 -4q-13 5 -16.5 18.5t3.5 29.5zM383 692q8 16 21 24.5t24 4.5q13 -5 16.5 -19t-3.5 -30q-7 -15 -20 -23t-25 -4t-16.5 18t3.5 29zM218 525q-19 8 -28 21.5t-14 29.5q-3 13 11 12
q31 -2 66 1.5t68.5 8.5t63.5 10t51 5q32 1 49.5 -11.5t26.5 -37.5q2 -6 0 -10.5t-11 -2.5q-54 1 -105.5 -9t-97.5 -18q-30 -45 -65.5 -107t-72.5 -129q20 4 38.5 5.5t32.5 2.5q38 2 56 -10t26 -35q2 -7 1 -11t-11 -4q-41 0 -92 -8.5t-93 -19.5q-22 -42 -41.5 -82.5
t-35.5 -75.5q18 6 38.5 11t41.5 9.5t40.5 7t34.5 3.5q37 2 57 -9.5t28 -34.5q2 -7 0.5 -11t-10.5 -4q-21 0 -50.5 -4t-60 -10t-60 -13t-50.5 -13q-14 -4 -23.5 -2.5t-18.5 12.5q-6 7 -11 17l-10 20q-7 13 -7 25t8 32q17 46 43.5 102t57.5 114.5t64 116t65 106.5z" />
    <glyph glyph-name="Igrave" unicode="&#xcc;" horiz-adv-x="182" 
d="M304 759q13 -4 27.5 -15.5t20.5 -33.5q5 -20 9 -45.5t6 -46.5q1 -16 -11 -13q-8 2 -18.5 12t-18.5 28t-14 46t-14 57q-2 8 2.5 10.5t10.5 0.5zM269 616q7 10 13 9t11 -10q11 -22 6.5 -59t-36.5 -94q-23 -41 -54 -96t-64.5 -116.5t-66.5 -127t-60 -126.5q-6 -14 -16 -2
q-5 6 -9.5 15.5t-6 23t1 31.5t10.5 41q12 34 31.5 77t42.5 90t49.5 95.5t52.5 94t50.5 85.5t44.5 69z" />
    <glyph glyph-name="Iacute" unicode="&#xcd;" horiz-adv-x="182" 
d="M462 728q5 -2 6.5 -7.5t-6.5 -9.5q-14 -7 -29.5 -15.5t-31 -16.5t-29.5 -15t-24 -10q-34 -11 -52 -3q-13 6 1 17q20 15 46.5 33t46.5 28t40 7t32 -8zM269 616q7 10 13 9t11 -10q11 -22 6.5 -59t-36.5 -94q-23 -41 -54 -96t-64.5 -116.5t-66.5 -127t-60 -126.5
q-6 -14 -16 -2q-5 6 -9.5 15.5t-6 23t1 31.5t10.5 41q12 34 31.5 77t42.5 90t49.5 95.5t52.5 94t50.5 85.5t44.5 69z" />
    <glyph glyph-name="Icircumflex" unicode="&#xce;" horiz-adv-x="182" 
d="M311 682q-15 -11 -31.5 -20t-28.5 -16q-15 -8 -29 -9.5t-22 1.5q-5 2 -6 6t6 9l25 17.5t31.5 22.5t32 23t27.5 18q6 4 13 4q7 1 12 -4.5t8 -10.5q8 -14 20 -35.5t21 -34.5q7 -10 -6 -14q-14 -3 -27 1t-27 18q-9 9 -19 24zM269 616q7 10 13 9t11 -10q11 -22 6.5 -59
t-36.5 -94q-23 -41 -54 -96t-64.5 -116.5t-66.5 -127t-60 -126.5q-6 -14 -16 -2q-5 6 -9.5 15.5t-6 23t1 31.5t10.5 41q12 34 31.5 77t42.5 90t49.5 95.5t52.5 94t50.5 85.5t44.5 69z" />
    <glyph glyph-name="Idieresis" unicode="&#xcf;" horiz-adv-x="182" 
d="M243 701q8 15 20.5 23.5t24.5 4.5q11 -4 14.5 -17.5t-3.5 -30.5q-7 -16 -20 -24t-25 -4q-11 4 -15 18t4 30zM345 700q8 16 21 23.5t24 4.5q13 -4 16.5 -18t-3.5 -30q-7 -15 -19 -23.5t-24 -3.5t-17.5 18.5t2.5 28.5zM269 616q7 10 13 9t11 -10q11 -22 6.5 -59t-36.5 -94
q-23 -41 -54 -96t-64.5 -116.5t-66.5 -127t-60 -126.5q-6 -14 -16 -2q-5 6 -9.5 15.5t-6 23t1 31.5t10.5 41q12 34 31.5 77t42.5 90t49.5 95.5t52.5 94t50.5 85.5t44.5 69z" />
    <glyph glyph-name="Ntilde" unicode="&#xd1;" horiz-adv-x="459" 
d="M320 669q5 13 22 25.5t40 11.5q18 -1 35 -7.5t34 -12.5t35.5 -9t40.5 4q8 2 11 -1.5t-1 -11.5q-18 -32 -54 -35q-21 -2 -41 4.5t-39.5 13t-38 10.5t-36.5 -2q-6 -2 -8.5 0.5t0.5 9.5zM241 429q-28 -48 -60 -105.5t-62 -115.5t-55 -113.5t-40 -100.5q-5 -17 -17 -4
q-13 14 -16.5 42.5t11.5 69.5q18 51 50 117.5t68.5 136t73.5 135.5t67 116q7 11 12.5 12.5t13.5 -3.5q14 -10 22.5 -21t12.5 -25.5t3.5 -33t-4.5 -44.5q-12 -72 -20 -163t-13 -197q25 58 58 123.5t68 130t69.5 123t62.5 102.5q6 9 12 7.5t11 -9.5q6 -11 8 -24.5t-1 -31
t-12 -39.5t-26 -50q-15 -25 -34.5 -60t-42 -76t-46 -86t-46 -89.5t-42 -85.5t-34.5 -74q-6 -14 -20 -6q-23 12 -34 34t-15 70q-2 23 -2 58.5t2 80t6 95.5t11 104z" />
    <glyph glyph-name="Ograve" unicode="&#xd2;" horiz-adv-x="537" 
d="M385 733q14 4 34 2.5t38 -15.5q17 -12 38 -33t38 -40q9 -11 -4 -14q-22 -5 -51 10q-17 11 -44.5 33.5t-51.5 41.5q-7 5 -4.5 9t7.5 6zM424 236q34 63 51 120.5t19.5 103t-7.5 75.5t-31 38q-18 7 -49.5 -2.5t-68.5 -34t-77 -64.5t-75 -95q-36 -56 -55 -113t-22 -105.5
t9 -83t38 -45.5q25 -11 58 -1.5t69 36.5t72.5 70t68.5 101zM476 597q46 -20 66 -64t19 -99t-18.5 -114.5t-45.5 -111.5q-30 -56 -68.5 -103.5t-82.5 -79t-92.5 -42t-99.5 8.5q-62 23 -88 74t-26 113q0 80 31 152.5t76.5 131t98 99t94.5 55.5q44 15 79.5 8.5t56.5 -28.5z" />
    <glyph glyph-name="Oacute" unicode="&#xd3;" horiz-adv-x="537" 
d="M585 715q5 -3 6 -8t-7 -8q-15 -5 -31.5 -11.5l-33 -13t-31 -11.5t-24.5 -8q-17 -5 -31 -2.5t-22 7.5q-5 2 -5 6t8 9q23 13 51 27.5t49 22.5q20 7 40 2.5t31 -12.5zM424 236q34 63 51 120.5t19.5 103t-7.5 75.5t-31 38q-18 7 -49.5 -2.5t-68.5 -34t-77 -64.5t-75 -95
q-36 -56 -55 -113t-22 -105.5t9 -83t38 -45.5q25 -11 58 -1.5t69 36.5t72.5 70t68.5 101zM476 597q46 -20 66 -64t19 -99t-18.5 -114.5t-45.5 -111.5q-30 -56 -68.5 -103.5t-82.5 -79t-92.5 -42t-99.5 8.5q-62 23 -88 74t-26 113q0 80 31 152.5t76.5 131t98 99t94.5 55.5
q44 15 79.5 8.5t56.5 -28.5z" />
    <glyph glyph-name="Ocircumflex" unicode="&#xd4;" horiz-adv-x="537" 
d="M425 687q-15 -10 -30.5 -19.5t-28.5 -15.5q-17 -8 -30.5 -9.5t-21.5 0.5q-6 2 -6 6.5t5 8.5q11 7 26 18.5t31 23t31.5 22.5t27.5 17q7 4 13 4q8 1 12.5 -3.5t7.5 -10.5q8 -15 20.5 -35.5t20.5 -34.5q7 -11 -6 -15q-28 -6 -53 19q-5 5 -9.5 11.5t-9.5 12.5zM424 236
q34 63 51 120.5t19.5 103t-7.5 75.5t-31 38q-18 7 -49.5 -2.5t-68.5 -34t-77 -64.5t-75 -95q-36 -56 -55 -113t-22 -105.5t9 -83t38 -45.5q25 -11 58 -1.5t69 36.5t72.5 70t68.5 101zM476 597q46 -20 66 -64t19 -99t-18.5 -114.5t-45.5 -111.5q-30 -56 -68.5 -103.5
t-82.5 -79t-92.5 -42t-99.5 8.5q-62 23 -88 74t-26 113q0 80 31 152.5t76.5 131t98 99t94.5 55.5q44 15 79.5 8.5t56.5 -28.5z" />
    <glyph glyph-name="Otilde" unicode="&#xd5;" horiz-adv-x="537" 
d="M376 683q7 12 24.5 22.5t40.5 7.5q18 -2 34.5 -10l33 -16t34.5 -13t41 -1q8 2 10.5 -2t-2.5 -12q-23 -30 -57 -29q-22 1 -41 9t-37.5 17t-36 15t-36.5 2q-7 -2 -9.5 1t1.5 9zM424 236q34 63 51 120.5t19.5 103t-7.5 75.5t-31 38q-18 7 -49.5 -2.5t-68.5 -34t-77 -64.5
t-75 -95q-36 -56 -55 -113t-22 -105.5t9 -83t38 -45.5q25 -11 58 -1.5t69 36.5t72.5 70t68.5 101zM476 597q46 -20 66 -64t19 -99t-18.5 -114.5t-45.5 -111.5q-30 -56 -68.5 -103.5t-82.5 -79t-92.5 -42t-99.5 8.5q-62 23 -88 74t-26 113q0 80 31 152.5t76.5 131t98 99
t94.5 55.5q44 15 79.5 8.5t56.5 -28.5z" />
    <glyph glyph-name="Odieresis" unicode="&#xd6;" horiz-adv-x="537" 
d="M332 698q7 16 20.5 23.5t24.5 3.5q12 -4 15.5 -17.5t-3.5 -29.5q-7 -15 -20.5 -23.5t-24.5 -4.5q-12 4 -15.5 17.5t3.5 30.5zM447 700q7 15 20 23.5t25 4.5q11 -4 14.5 -18t-3.5 -30q-6 -14 -19.5 -24t-24.5 -5q-12 5 -15.5 19t3.5 30zM424 236q34 63 51 120.5t19.5 103
t-7.5 75.5t-31 38q-18 7 -49.5 -2.5t-68.5 -34t-77 -64.5t-75 -95q-36 -56 -55 -113t-22 -105.5t9 -83t38 -45.5q25 -11 58 -1.5t69 36.5t72.5 70t68.5 101zM476 597q46 -20 66 -64t19 -99t-18.5 -114.5t-45.5 -111.5q-30 -56 -68.5 -103.5t-82.5 -79t-92.5 -42t-99.5 8.5
q-62 23 -88 74t-26 113q0 80 31 152.5t76.5 131t98 99t94.5 55.5q44 15 79.5 8.5t56.5 -28.5z" />
    <glyph glyph-name="Oslash" unicode="&#xd8;" horiz-adv-x="525" 
d="M493 473q-36 -39 -79.5 -86.5t-91.5 -101t-97.5 -111t-96.5 -117.5q11 -19 27 -26q25 -11 58 -2t69 36t72 70t67 100q36 68 54 129.5t18 108.5zM110 116q33 46 78 101.5t94.5 113t100.5 112.5t96 102q-9 20 -26 26q-18 7 -49 -2t-68 -34t-76.5 -65t-74.5 -94
q-45 -69 -62.5 -138.5t-12.5 -121.5zM540 527q15 -32 17 -71t-5 -81.5t-22 -85t-36 -81.5q-30 -55 -67.5 -102.5t-81 -78.5t-91.5 -41.5t-99 7.5q-16 5 -29 13.5t-23 18.5q-13 -17 -25 -32.5t-23 -31.5q-5 -7 -8.5 -6t-5.5 8q-2 9 0.5 28t21.5 54q5 5 8 13q-16 26 -23.5 57
t-7.5 63q0 53 14.5 103t38.5 95.5t55 84.5t64.5 69.5t66 52t60.5 30.5q45 15 79.5 8.5t55.5 -29.5q9 -4 17.5 -8.5t14.5 -11.5q18 19 34 34.5t30 28.5q16 14 19 -3q3 -19 -11 -47.5t-37 -56.5q-1 0 -1 -1z" />
    <glyph glyph-name="Ugrave" unicode="&#xd9;" horiz-adv-x="452" 
d="M301 717q12 4 32 3.5t39 -12.5q18 -11 40 -31.5t40 -37.5q10 -10 -3 -15q-22 -7 -51 8q-9 4 -21 12.5t-25.5 18t-27.5 19.5t-27 18q-7 5 -4.5 10t8.5 7zM76 -12q-18 7 -35 21t-27.5 35.5t-13 52t7.5 71.5q10 42 35 96.5t57.5 113.5t69 118t70.5 111q6 9 12.5 8t11.5 -9
q12 -19 11 -51t-30 -88q-18 -36 -44.5 -80t-52 -91t-47.5 -93t-31 -86q-9 -38 -5.5 -65t25.5 -35q23 -9 49 2t53 38t55 67.5t54 91.5q21 40 50 94t59.5 109.5t59.5 105.5t50 83q6 10 12.5 8.5t11.5 -9.5q9 -16 8 -48t-21 -76q-13 -29 -40.5 -82t-60.5 -112t-66.5 -115
t-58.5 -91q-54 -74 -115.5 -95t-113.5 0z" />
    <glyph glyph-name="Uacute" unicode="&#xda;" horiz-adv-x="452" 
d="M509 687q5 -3 5.5 -8.5t-7.5 -8.5q-14 -5 -31 -11.5t-33.5 -13t-31 -11.5t-24.5 -7q-17 -3 -30.5 -2t-21.5 5q-6 3 -6 8t8 9q23 12 51.5 26.5t48.5 21.5q21 8 41 3t31 -11zM76 -12q-18 7 -35 21t-27.5 35.5t-13 52t7.5 71.5q10 42 35 96.5t57.5 113.5t69 118t70.5 111
q6 9 12.5 8t11.5 -9q12 -19 11 -51t-30 -88q-18 -36 -44.5 -80t-52 -91t-47.5 -93t-31 -86q-9 -38 -5.5 -65t25.5 -35q23 -9 49 2t53 38t55 67.5t54 91.5q21 40 50 94t59.5 109.5t59.5 105.5t50 83q6 10 12.5 8.5t11.5 -9.5q9 -16 8 -48t-21 -76q-13 -29 -40.5 -82
t-60.5 -112t-66.5 -115t-58.5 -91q-54 -74 -115.5 -95t-113.5 0z" />
    <glyph glyph-name="Ucircumflex" unicode="&#xdb;" horiz-adv-x="452" 
d="M424 679q-16 -11 -32 -19.5t-28 -15.5q-15 -8 -29 -9.5t-22 0.5q-6 2 -6.5 6t6.5 9q10 7 25 18t31 23t32 23t28 18q2 2 5.5 2.5t5.5 0.5q8 2 13 -3.5t8 -11.5l20 -35t22 -35q7 -10 -7 -13t-26.5 0.5t-26.5 17.5q-5 5 -9.5 11.5t-9.5 12.5zM76 -12q-18 7 -35 21
t-27.5 35.5t-13 52t7.5 71.5q10 42 35 96.5t57.5 113.5t69 118t70.5 111q6 9 12.5 8t11.5 -9q12 -19 11 -51t-30 -88q-18 -36 -44.5 -80t-52 -91t-47.5 -93t-31 -86q-9 -38 -5.5 -65t25.5 -35q23 -9 49 2t53 38t55 67.5t54 91.5q21 40 50 94t59.5 109.5t59.5 105.5t50 83
q6 10 12.5 8.5t11.5 -9.5q9 -16 8 -48t-21 -76q-13 -29 -40.5 -82t-60.5 -112t-66.5 -115t-58.5 -91q-54 -74 -115.5 -95t-113.5 0z" />
    <glyph glyph-name="Udieresis" unicode="&#xdc;" horiz-adv-x="452" 
d="M326 684q8 16 20.5 24t24.5 4q11 -4 14.5 -18t-3.5 -30q-7 -15 -20 -23.5t-25 -4.5q-11 4 -15 17.5t4 30.5zM441 686q8 16 20.5 24t23.5 4q12 -4 15.5 -18t-3.5 -30q-7 -15 -20 -23.5t-25 -3.5q-11 5 -15 18t4 29zM76 -12q-18 7 -35 21t-27.5 35.5t-13 52t7.5 71.5
q10 42 35 96.5t57.5 113.5t69 118t70.5 111q6 9 12.5 8t11.5 -9q12 -19 11 -51t-30 -88q-18 -36 -44.5 -80t-52 -91t-47.5 -93t-31 -86q-9 -38 -5.5 -65t25.5 -35q23 -9 49 2t53 38t55 67.5t54 91.5q21 40 50 94t59.5 109.5t59.5 105.5t50 83q6 10 12.5 8.5t11.5 -9.5
q9 -16 8 -48t-21 -76q-13 -29 -40.5 -82t-60.5 -112t-66.5 -115t-58.5 -91q-54 -74 -115.5 -95t-113.5 0z" />
    <glyph glyph-name="germandbls" unicode="&#xdf;" horiz-adv-x="410" 
d="M448 405q-21 -28 -55.5 -53.5t-77.5 -42.5q23 -8 38 -21q38 -33 30 -91.5t-65 -123.5q-38 -42 -76.5 -61.5t-73.5 -22.5q-22 -2 -43 5t-38 26q-6 7 -4 11.5t12 4.5q21 0 43.5 5.5t45 16.5t43 26.5t37.5 34.5q19 22 33.5 44.5t22.5 42.5t8.5 36t-8.5 24q-11 11 -28.5 10.5
t-32.5 -3.5q-19 -4 -34.5 3.5t-29.5 31.5q-10 16 8 21q68 21 116.5 54t77 68t36 66t-5.5 47q-18 21 -43 12.5t-50 -29.5t-46.5 -47t-32.5 -41q-24 -33 -55 -85.5t-63.5 -115t-63.5 -129.5t-55 -130q-3 -8 -7.5 -8t-8.5 5q-11 16 -14.5 40t10.5 70q9 31 28 76t43.5 95
t51.5 99t53 88q13 19 28 39.5t32 40t37 35.5t42 26q19 9 39 13t39 1.5t36.5 -11t30.5 -25.5q28 -34 28.5 -80t-38.5 -98z" />
    <glyph glyph-name="agrave" unicode="&#xe0;" 
d="M186 505q11 6 31 8.5t40 -8.5t44 -28t44 -33q11 -9 -1 -14q-10 -4 -24 -4.5t-28 5.5q-9 4 -22 10.5t-27.5 15t-29.5 17t-28 16.5q-8 5 -6 9t7 6zM237 170q48 83 56.5 128t-13.5 47q-12 1 -31 -10t-40.5 -31t-44.5 -48.5t-44 -61.5q-20 -32 -32 -63.5t-16 -56t1 -40
t20 -15.5t32.5 11t36 31t37.5 48t38 61zM324 325q10 18 19 33.5t17 27.5q13 19 24 6q11 -14 14 -43.5t-15 -67.5q-8 -17 -21 -38.5t-26.5 -45t-26.5 -46.5t-22 -43q-9 -21 -14 -39t-4 -31t7 -20.5t19 -6.5q15 1 32.5 13t35 31.5t34 44t29.5 50.5q4 7 8.5 7.5t7.5 -6.5t2 -24
t-11 -38t-26 -40.5t-35.5 -34.5t-40.5 -24t-42 -8q-41 2 -61.5 24.5t-20.5 57.5q-24 -31 -56.5 -54.5t-68.5 -23.5q-35 0 -55.5 21.5t-25 57t8 80t43.5 89.5q61 88 116.5 125.5t93.5 37.5q32 0 47.5 -21.5t13.5 -50.5z" />
    <glyph glyph-name="aacute" unicode="&#xe1;" 
d="M444 504q14 -9 0 -16q-14 -6 -30 -14.5t-31.5 -16t-29.5 -14t-24 -9.5q-17 -5 -30.5 -5t-21.5 4q-13 6 1 16q10 7 22.5 15.5t25.5 16.5t25.5 15t21.5 11q20 9 40 6.5t31 -9.5zM237 170q48 83 56.5 128t-13.5 47q-12 1 -31 -10t-40.5 -31t-44.5 -48.5t-44 -61.5
q-20 -32 -32 -63.5t-16 -56t1 -40t20 -15.5t32.5 11t36 31t37.5 48t38 61zM324 325q10 18 19 33.5t17 27.5q13 19 24 6q11 -14 14 -43.5t-15 -67.5q-8 -17 -21 -38.5t-26.5 -45t-26.5 -46.5t-22 -43q-9 -21 -14 -39t-4 -31t7 -20.5t19 -6.5q15 1 32.5 13t35 31.5t34 44
t29.5 50.5q4 7 8.5 7.5t7.5 -6.5t2 -24t-11 -38t-26 -40.5t-35.5 -34.5t-40.5 -24t-42 -8q-41 2 -61.5 24.5t-20.5 57.5q-24 -31 -56.5 -54.5t-68.5 -23.5q-35 0 -55.5 21.5t-25 57t8 80t43.5 89.5q61 88 116.5 125.5t93.5 37.5q32 0 47.5 -21.5t13.5 -50.5z" />
    <glyph glyph-name="acircumflex" unicode="&#xe2;" 
d="M290 471q-17 -10 -32.5 -19t-27.5 -16q-16 -8 -29.5 -9.5t-21.5 0.5q-7 2 -7 6t6 9q11 7 26 18t31 23t31.5 23t27.5 18q3 2 6.5 2t6.5 1q8 2 12.5 -3t7.5 -10q8 -15 20.5 -36t20.5 -34q5 -7 2 -10t-8 -5q-14 -3 -26.5 0.5t-26.5 17.5q-11 11 -19 24zM237 170
q48 83 56.5 128t-13.5 47q-12 1 -31 -10t-40.5 -31t-44.5 -48.5t-44 -61.5q-20 -32 -32 -63.5t-16 -56t1 -40t20 -15.5t32.5 11t36 31t37.5 48t38 61zM324 325q10 18 19 33.5t17 27.5q13 19 24 6q11 -14 14 -43.5t-15 -67.5q-8 -17 -21 -38.5t-26.5 -45t-26.5 -46.5t-22 -43
q-9 -21 -14 -39t-4 -31t7 -20.5t19 -6.5q15 1 32.5 13t35 31.5t34 44t29.5 50.5q4 7 8.5 7.5t7.5 -6.5t2 -24t-11 -38t-26 -40.5t-35.5 -34.5t-40.5 -24t-42 -8q-41 2 -61.5 24.5t-20.5 57.5q-24 -31 -56.5 -54.5t-68.5 -23.5q-35 0 -55.5 21.5t-25 57t8 80t43.5 89.5
q61 88 116.5 125.5t93.5 37.5q32 0 47.5 -21.5t13.5 -50.5z" />
    <glyph glyph-name="atilde" unicode="&#xe3;" 
d="M189 442q5 14 21 28.5t38 18.5q17 3 33.5 -0.5t33.5 -7.5t35 -4t39 10q7 3 10.5 0.5t-0.5 -10.5q-14 -35 -50 -44q-21 -5 -40.5 -2.5t-38 6.5t-36.5 5t-35 -8q-7 -4 -9.5 -1t-0.5 9zM237 170q48 83 56.5 128t-13.5 47q-12 1 -31 -10t-40.5 -31t-44.5 -48.5t-44 -61.5
q-20 -32 -32 -63.5t-16 -56t1 -40t20 -15.5t32.5 11t36 31t37.5 48t38 61zM324 325q10 18 19 33.5t17 27.5q13 19 24 6q11 -14 14 -43.5t-15 -67.5q-8 -17 -21 -38.5t-26.5 -45t-26.5 -46.5t-22 -43q-9 -21 -14 -39t-4 -31t7 -20.5t19 -6.5q15 1 32.5 13t35 31.5t34 44
t29.5 50.5q4 7 8.5 7.5t7.5 -6.5t2 -24t-11 -38t-26 -40.5t-35.5 -34.5t-40.5 -24t-42 -8q-41 2 -61.5 24.5t-20.5 57.5q-24 -31 -56.5 -54.5t-68.5 -23.5q-35 0 -55.5 21.5t-25 57t8 80t43.5 89.5q61 88 116.5 125.5t93.5 37.5q32 0 47.5 -21.5t13.5 -50.5z" />
    <glyph glyph-name="adieresis" unicode="&#xe4;" 
d="M220 473q7 16 20 24t25 3q11 -5 15 -18t-4 -29q-5 -15 -19 -23.5t-25 -4.5q-12 4 -15.5 18t3.5 30zM329 473q8 16 21 25t24 4q12 -5 15.5 -19t-3.5 -29q-7 -16 -20.5 -25t-24.5 -4q-12 5 -16 19t4 29zM237 170q48 83 56.5 128t-13.5 47q-12 1 -31 -10t-40.5 -31
t-44.5 -48.5t-44 -61.5q-20 -32 -32 -63.5t-16 -56t1 -40t20 -15.5t32.5 11t36 31t37.5 48t38 61zM324 325q10 18 19 33.5t17 27.5q13 19 24 6q11 -14 14 -43.5t-15 -67.5q-8 -17 -21 -38.5t-26.5 -45t-26.5 -46.5t-22 -43q-9 -21 -14 -39t-4 -31t7 -20.5t19 -6.5
q15 1 32.5 13t35 31.5t34 44t29.5 50.5q4 7 8.5 7.5t7.5 -6.5t2 -24t-11 -38t-26 -40.5t-35.5 -34.5t-40.5 -24t-42 -8q-41 2 -61.5 24.5t-20.5 57.5q-24 -31 -56.5 -54.5t-68.5 -23.5q-35 0 -55.5 21.5t-25 57t8 80t43.5 89.5q61 88 116.5 125.5t93.5 37.5q32 0 47.5 -21.5
t13.5 -50.5z" />
    <glyph glyph-name="aring" unicode="&#xe5;" 
d="M350 519q-7 4 -17.5 -3t-16.5 -21q-8 -18 -7.5 -30t5.5 -16q4 -3 13 2t17 19t10.5 29.5t-4.5 19.5zM361 535q22 -18 22 -40.5t-12 -44.5q-10 -18 -29 -26t-38 6q-22 16 -25.5 39.5t7.5 44.5q11 20 32 29.5t43 -8.5zM237 170q48 83 56.5 128t-13.5 47q-12 1 -31 -10
t-40.5 -31t-44.5 -48.5t-44 -61.5q-20 -32 -32 -63.5t-16 -56t1 -40t20 -15.5t32.5 11t36 31t37.5 48t38 61zM324 325q10 18 19 33.5t17 27.5q13 19 24 6q11 -14 14 -43.5t-15 -67.5q-8 -17 -21 -38.5t-26.5 -45t-26.5 -46.5t-22 -43q-9 -21 -14 -39t-4 -31t7 -20.5t19 -6.5
q15 1 32.5 13t35 31.5t34 44t29.5 50.5q4 7 8.5 7.5t7.5 -6.5t2 -24t-11 -38t-26 -40.5t-35.5 -34.5t-40.5 -24t-42 -8q-41 2 -61.5 24.5t-20.5 57.5q-24 -31 -56.5 -54.5t-68.5 -23.5q-35 0 -55.5 21.5t-25 57t8 80t43.5 89.5q61 88 116.5 125.5t93.5 37.5q32 0 47.5 -21.5
t13.5 -50.5z" />
    <glyph glyph-name="ae" unicode="&#xe6;" horiz-adv-x="555" 
d="M280 342q-12 1 -31 -10t-41 -31t-44.5 -47.5t-42.5 -60.5t-32.5 -65t-16.5 -57t1.5 -40.5t20.5 -15.5q14 0 31 11.5t35 32t37.5 48.5t38.5 61q48 83 56 127.5t-12 46.5zM344 209q-2 -4 -5 -7.5t-5 -7.5q19 -14 36.5 -13.5t32.5 9t28.5 22.5t24.5 28q12 16 22 32.5t16 31
t7 25t-4 15.5q-8 7 -25 0t-38 -25t-45 -46t-45 -64zM571 89q-34 -50 -93 -79.5t-144 -29.5q-63 0 -92.5 24.5t-31.5 62.5q-25 -32 -58 -57.5t-71 -25.5q-34 0 -54 22t-24 57t8.5 79.5t43.5 89.5q60 86 115.5 123.5t93.5 37.5q31 0 46.5 -21.5t13.5 -48.5q9 18 17.5 32
t17.5 27q13 19 25 6q6 -6 9 -17.5t4 -25.5q35 25 65.5 30.5t49.5 -7.5q13 -8 20 -16t15 -19q6 -9 7.5 -24t-2 -33t-13 -38t-24.5 -39q-18 -23 -40.5 -38t-47.5 -19.5t-51.5 2.5t-53.5 30q-10 -18 -19.5 -35t-15.5 -32q-10 -21 -13.5 -39.5t2 -32t20 -21.5t41.5 -8
q46 0 82 13t64 34t49.5 47.5t39.5 52.5q4 6 9.5 5.5t7.5 -6.5t-1.5 -24.5t-16.5 -38.5z" />
    <glyph glyph-name="ccedilla" unicode="&#xe7;" horiz-adv-x="310" 
d="M66 0q-26 13 -42 37.5t-21 56t2 68t26 74.5q24 47 53.5 80.5t59 53t56.5 23.5t46 -7q38 -23 55 -55q8 -16 5.5 -33.5t-10 -36.5t-17.5 -39t-17 -40q-3 -9 -7 -11t-14 3q-18 9 -26.5 31t2.5 56q4 13 11 27.5t12 27t7 22t-3 13.5q-6 5 -22 -3.5t-36 -27.5t-41 -47.5
t-38 -62.5q-21 -42 -28 -78t-2.5 -62.5t19 -41.5t36.5 -15q31 0 60 13t54.5 34t46.5 46t36 49q4 6 9.5 6.5t8.5 -7.5q2 -6 -1.5 -23t-16.5 -37q-14 -22 -35.5 -41.5t-47 -34.5t-54 -24t-56.5 -9q-8 0 -15 0.5t-14 1.5q-5 -7 -7.5 -13t-4.5 -10q22 -1 36 -26q8 -15 7 -24
t-6 -18q-8 -14 -22.5 -21t-27.5 -7q-11 0 -23.5 5.5t-20.5 18.5q-5 7 -2 10t8 3q32 -2 49.5 8t14.5 15q-3 6 -11 5.5t-16 -2.5q-17 -4 -29 9q-8 8 -8 13.5t3 13.5q2 5 7.5 14t11.5 19z" />
    <glyph glyph-name="egrave" unicode="&#xe8;" horiz-adv-x="320" 
d="M175 499q12 4 32 3.5t39 -12.5q18 -11 40 -31.5t41 -38.5q5 -5 4 -8.5t-7 -5.5q-11 -2 -24.5 -1t-27.5 9q-9 4 -21 12.5t-25.5 18t-27.5 19.5t-26 19q-6 5 -4.5 9.5t7.5 6.5zM101 193q18 -12 35 -11t32 10t28 23t24 28q12 16 21.5 32.5t15.5 31.5t7 26t-4 15q-8 6 -26 -1
t-40 -26t-44.5 -47t-40.5 -64q-2 -5 -4 -9zM92 171q-24 -69 -9.5 -112.5t54.5 -45.5q31 -2 60 11t54.5 34t47 46.5t37.5 50.5q4 6 9 6t8 -7q3 -6 0 -24t-17 -38q-32 -46 -85 -76.5t-111 -31.5q-48 -1 -79.5 20.5t-45.5 56.5t-9.5 81t28.5 94t54 82t60 53t57 23.5t46 -6.5
t33 -23t26 -29q7 -9 8.5 -24t-2 -33.5t-13 -39t-25.5 -39.5q-18 -23 -39.5 -38t-45.5 -20.5t-49.5 1.5t-51.5 28z" />
    <glyph glyph-name="eacute" unicode="&#xe9;" horiz-adv-x="320" 
d="M405 491q5 -3 6.5 -8t-6.5 -9q-14 -6 -30 -13.5l-32 -15t-30.5 -13t-23.5 -8.5q-17 -5 -31 -4.5t-22 4.5q-5 2 -6 7t7 10q22 13 49.5 30t47.5 25t40 4.5t31 -9.5zM101 193q18 -12 35 -11t32 10t28 23t24 28q12 16 21.5 32.5t15.5 31.5t7 26t-4 15q-8 6 -26 -1t-40 -26
t-44.5 -47t-40.5 -64q-2 -5 -4 -9zM92 171q-24 -69 -9.5 -112.5t54.5 -45.5q31 -2 60 11t54.5 34t47 46.5t37.5 50.5q4 6 9 6t8 -7q3 -6 0 -24t-17 -38q-32 -46 -85 -76.5t-111 -31.5q-48 -1 -79.5 20.5t-45.5 56.5t-9.5 81t28.5 94t54 82t60 53t57 23.5t46 -6.5t33 -23
t26 -29q7 -9 8.5 -24t-2 -33.5t-13 -39t-25.5 -39.5q-18 -23 -39.5 -38t-45.5 -20.5t-49.5 1.5t-51.5 28z" />
    <glyph glyph-name="ecircumflex" unicode="&#xea;" horiz-adv-x="320" 
d="M252 465q-15 -11 -30.5 -20t-28.5 -16q-15 -8 -29.5 -9.5t-22.5 0.5q-5 2 -5 6.5t5 8.5q10 7 25 18.5t31.5 23.5t32.5 22.5t28 17.5q3 2 11 4q8 0 13 -4.5t8 -10.5l20 -35l20 -35q7 -12 -6 -15q-14 -3 -26.5 1t-26.5 18q-5 5 -9.5 11.5t-9.5 13.5zM101 193q18 -12 35 -11
t32 10t28 23t24 28q12 16 21.5 32.5t15.5 31.5t7 26t-4 15q-8 6 -26 -1t-40 -26t-44.5 -47t-40.5 -64q-2 -5 -4 -9zM92 171q-24 -69 -9.5 -112.5t54.5 -45.5q31 -2 60 11t54.5 34t47 46.5t37.5 50.5q4 6 9 6t8 -7q3 -6 0 -24t-17 -38q-32 -46 -85 -76.5t-111 -31.5
q-48 -1 -79.5 20.5t-45.5 56.5t-9.5 81t28.5 94t54 82t60 53t57 23.5t46 -6.5t33 -23t26 -29q7 -9 8.5 -24t-2 -33.5t-13 -39t-25.5 -39.5q-18 -23 -39.5 -38t-45.5 -20.5t-49.5 1.5t-51.5 28z" />
    <glyph glyph-name="edieresis" unicode="&#xeb;" horiz-adv-x="320" 
d="M166 473q7 15 20.5 23.5t24.5 4.5q12 -4 15.5 -18t-3.5 -30q-7 -15 -20.5 -24.5t-24.5 -4.5q-12 5 -15.5 19t3.5 30zM276 473q8 15 20 24t23 5q13 -5 16.5 -19t-3.5 -30q-7 -15 -20 -23t-25 -4q-11 4 -15 17.5t4 29.5zM101 193q18 -12 35 -11t32 10t28 23t24 28
q12 16 21.5 32.5t15.5 31.5t7 26t-4 15q-8 6 -26 -1t-40 -26t-44.5 -47t-40.5 -64q-2 -5 -4 -9zM92 171q-24 -69 -9.5 -112.5t54.5 -45.5q31 -2 60 11t54.5 34t47 46.5t37.5 50.5q4 6 9 6t8 -7q3 -6 0 -24t-17 -38q-32 -46 -85 -76.5t-111 -31.5q-48 -1 -79.5 20.5
t-45.5 56.5t-9.5 81t28.5 94t54 82t60 53t57 23.5t46 -6.5t33 -23t26 -29q7 -9 8.5 -24t-2 -33.5t-13 -39t-25.5 -39.5q-18 -23 -39.5 -38t-45.5 -20.5t-49.5 1.5t-51.5 28z" />
    <glyph glyph-name="igrave" unicode="&#xec;" horiz-adv-x="201" 
d="M122 504q17 2 34 -5.5t29 -26.5q10 -15 22.5 -38.5t21.5 -40.5q3 -6 1 -8t-9 -4q-9 -2 -20 3.5t-24 19.5q-14 15 -30 38t-32 49q-4 7 -1 9.5t8 3.5zM69 -15q-29 0 -46.5 11.5t-26 31t-7 46t12.5 57.5q9 27 25 61.5t34.5 68t36.5 63.5t32 50q13 18 24 6t14 -41.5
t-15 -67.5q-8 -17 -19 -37t-23 -41.5t-23 -43t-19 -40.5q-18 -44 -16 -70.5t26 -24.5q17 0 35 12t35.5 31t33 43.5t26.5 50.5q4 7 8.5 6.5t7.5 -6.5q12 -23 -7 -62q-11 -23 -28 -42.5t-37 -33t-41.5 -21t-42.5 -7.5z" />
    <glyph glyph-name="iacute" unicode="&#xed;" horiz-adv-x="201" 
d="M328 489q6 -3 7 -8.5t-5 -8.5q-14 -7 -30 -15.5t-31.5 -17t-29.5 -15.5t-23 -10q-33 -10 -53 -2q-13 5 0 15q21 15 47.5 33.5t46.5 28.5t40 7.5t31 -7.5zM69 -15q-29 0 -46.5 11.5t-26 31t-7 46t12.5 57.5q9 27 25 61.5t34.5 68t36.5 63.5t32 50q13 18 24 6t14 -41.5
t-15 -67.5q-8 -17 -19 -37t-23 -41.5t-23 -43t-19 -40.5q-18 -44 -16 -70.5t26 -24.5q17 0 35 12t35.5 31t33 43.5t26.5 50.5q4 7 8.5 6.5t7.5 -6.5q12 -23 -7 -62q-11 -23 -28 -42.5t-37 -33t-41.5 -21t-42.5 -7.5z" />
    <glyph glyph-name="icircumflex" unicode="&#xee;" horiz-adv-x="201" 
d="M190 452q-15 -10 -31 -19t-29 -16q-15 -8 -29 -9.5t-22 0.5q-5 2 -5.5 6t5.5 9q10 7 25 18.5t31.5 23t32 22.5t27.5 17q8 4 13 4q7 1 12 -3.5t8 -10.5q8 -15 20 -35.5t21 -34.5q4 -5 1.5 -9.5t-7.5 -5.5q-14 -3 -27 1t-27 18q-5 5 -9.5 11t-9.5 13zM69 -15
q-29 0 -46.5 11.5t-26 31t-7 46t12.5 57.5q9 27 25 61.5t34.5 68t36.5 63.5t32 50q13 18 24 6t14 -41.5t-15 -67.5q-8 -17 -19 -37t-23 -41.5t-23 -43t-19 -40.5q-18 -44 -16 -70.5t26 -24.5q17 0 35 12t35.5 31t33 43.5t26.5 50.5q4 7 8.5 6.5t7.5 -6.5q12 -23 -7 -62
q-11 -23 -28 -42.5t-37 -33t-41.5 -21t-42.5 -7.5z" />
    <glyph glyph-name="idieresis" unicode="&#xef;" horiz-adv-x="201" 
d="M114 472q6 16 20 23.5t25 4.5q13 -4 16.5 -17.5t-3.5 -30.5q-6 -15 -19.5 -23.5t-25.5 -4.5t-15.5 18t2.5 30zM213 472q8 15 20.5 23.5t24.5 4.5q11 -4 14.5 -17.5t-3.5 -30.5q-6 -15 -19 -23.5t-26 -4.5q-11 3 -15 17.5t4 30.5zM69 -15q-29 0 -46.5 11.5t-26 31t-7 46
t12.5 57.5q9 27 25 61.5t34.5 68t36.5 63.5t32 50q13 18 24 6t14 -41.5t-15 -67.5q-8 -17 -19 -37t-23 -41.5t-23 -43t-19 -40.5q-18 -44 -16 -70.5t26 -24.5q17 0 35 12t35.5 31t33 43.5t26.5 50.5q4 7 8.5 6.5t7.5 -6.5q12 -23 -7 -62q-11 -23 -28 -42.5t-37 -33
t-41.5 -21t-42.5 -7.5z" />
    <glyph glyph-name="ntilde" unicode="&#xf1;" horiz-adv-x="384" 
d="M178 442q5 14 21 28.5t38 18.5q17 3 33.5 -0.5t33.5 -7.5t35 -4t39 10q7 3 10.5 0.5t-0.5 -10.5q-14 -35 -50 -44q-21 -5 -40.5 -2.5t-38 6.5t-36.5 5t-35 -8q-7 -4 -9.5 -1t-0.5 9zM160 294q17 18 37 36.5t40.5 32.5t38.5 22.5t30 6.5t23.5 -11.5t18 -24t6.5 -33
t-9 -37.5q-8 -17 -20 -38t-25.5 -44t-26 -46t-21.5 -42q-10 -22 -13.5 -41t-1.5 -33t9.5 -22t21.5 -7q15 1 32 12.5t33.5 31t32.5 44t30 50.5q8 15 17 1q5 -8 3.5 -24.5t-12.5 -38.5q-10 -21 -26.5 -40.5t-36 -34t-41.5 -23.5t-44 -9q-64 0 -81 42t5 107q12 37 32.5 73.5
t38.5 66.5t28.5 49.5t3.5 22.5q-4 1 -16 -3.5t-30 -16t-40 -30t-46 -44.5q-22 -24 -41.5 -53.5t-37.5 -62.5t-34.5 -68t-32.5 -70q-7 -16 -19 -4q-15 15 -18.5 40t8.5 63q7 24 24.5 60t39.5 76.5t47 82t49 76.5q11 17 21 0q11 -19 11 -43.5t-8 -51.5z" />
    <glyph glyph-name="ograve" unicode="&#xf2;" horiz-adv-x="332" 
d="M195 494q13 4 33.5 3t38.5 -14q17 -11 39.5 -31.5t40.5 -38.5q12 -12 -4 -15q-23 -5 -51 9q-9 4 -21 12.5t-25.5 18.5t-27 20.5t-25.5 19.5q-7 5 -5 9.5t7 6.5zM249 215q-9 4 -19 12q-16 12 -30.5 36t-15.5 52q-20 -17 -40.5 -41t-36.5 -53t-26.5 -59t-14.5 -56.5
t-2 -46.5t12 -28q10 -9 26 -6.5t35 15.5t39 36.5t38 58.5q11 21 20 41.5t15 38.5zM256 242q12 48 8 74q-4 24 -15 21.5t-15 -24.5q-4 -20 3 -40t19 -31zM342 215q-10 -11 -27 -13q-8 -32 -23 -65.5t-36 -62.5t-46 -51.5t-53 -31.5q-27 -9 -61.5 -2t-64.5 46
q-17 22 -22.5 48.5t-2.5 55.5t13.5 60t27.5 61q29 51 71.5 88.5t87.5 41.5q23 1 38 -6.5t30 -27.5q9 -12 18 -20.5t16.5 -19.5t11 -27t1.5 -43q-1 -6 -1 -11.5t-1 -11.5q5 0 9.5 1t10.5 1q5 0 5.5 -3t-2.5 -7z" />
    <glyph glyph-name="oacute" unicode="&#xf3;" horiz-adv-x="332" 
d="M392 490q5 -3 6.5 -7.5t-6.5 -8.5l-30 -15t-31.5 -16t-30 -14t-23.5 -9q-37 -10 -53 0q-5 2 -5.5 6.5t5.5 8.5q22 14 49 31t46 26q21 10 41.5 7.5t31.5 -9.5zM249 215q-9 4 -19 12q-16 12 -30.5 36t-15.5 52q-20 -17 -40.5 -41t-36.5 -53t-26.5 -59t-14.5 -56.5t-2 -46.5
t12 -28q10 -9 26 -6.5t35 15.5t39 36.5t38 58.5q11 21 20 41.5t15 38.5zM256 242q12 48 8 74q-4 24 -15 21.5t-15 -24.5q-4 -20 3 -40t19 -31zM342 215q-10 -11 -27 -13q-8 -32 -23 -65.5t-36 -62.5t-46 -51.5t-53 -31.5q-27 -9 -61.5 -2t-64.5 46q-17 22 -22.5 48.5
t-2.5 55.5t13.5 60t27.5 61q29 51 71.5 88.5t87.5 41.5q23 1 38 -6.5t30 -27.5q9 -12 18 -20.5t16.5 -19.5t11 -27t1.5 -43q-1 -6 -1 -11.5t-1 -11.5q5 0 9.5 1t10.5 1q5 0 5.5 -3t-2.5 -7z" />
    <glyph glyph-name="ocircumflex" unicode="&#xf4;" horiz-adv-x="332" 
d="M241 453q-17 -11 -32 -20.5t-28 -15.5q-16 -8 -29.5 -9.5t-21.5 0.5q-7 2 -7 6.5t5 8.5q11 7 26 18.5t31.5 23.5t32 22.5t27.5 17.5q4 2 6.5 2.5t5.5 1.5q8 0 12 -4.5t8 -10.5q8 -14 20.5 -35t20.5 -35q7 -12 -6 -15q-28 -7 -52 19q-5 5 -9.5 11.5t-9.5 13.5zM249 215
q-9 4 -19 12q-16 12 -30.5 36t-15.5 52q-20 -17 -40.5 -41t-36.5 -53t-26.5 -59t-14.5 -56.5t-2 -46.5t12 -28q10 -9 26 -6.5t35 15.5t39 36.5t38 58.5q11 21 20 41.5t15 38.5zM256 242q12 48 8 74q-4 24 -15 21.5t-15 -24.5q-4 -20 3 -40t19 -31zM342 215q-10 -11 -27 -13
q-8 -32 -23 -65.5t-36 -62.5t-46 -51.5t-53 -31.5q-27 -9 -61.5 -2t-64.5 46q-17 22 -22.5 48.5t-2.5 55.5t13.5 60t27.5 61q29 51 71.5 88.5t87.5 41.5q23 1 38 -6.5t30 -27.5q9 -12 18 -20.5t16.5 -19.5t11 -27t1.5 -43q-1 -6 -1 -11.5t-1 -11.5q5 0 9.5 1t10.5 1
q5 0 5.5 -3t-2.5 -7z" />
    <glyph glyph-name="otilde" unicode="&#xf5;" horiz-adv-x="332" 
d="M148 429q5 14 21 28t38 18q17 3 33.5 -0.5t33.5 -7t35 -3.5t39 10q7 3 10.5 0t-0.5 -11q-8 -17 -20.5 -27.5t-29.5 -15.5q-21 -6 -40.5 -3t-38 7t-36.5 5.5t-35 -7.5q-15 -8 -10 7zM249 215q-9 4 -19 12q-16 12 -30.5 36t-15.5 52q-20 -17 -40.5 -41t-36.5 -53t-26.5 -59
t-14.5 -56.5t-2 -46.5t12 -28q10 -9 26 -6.5t35 15.5t39 36.5t38 58.5q11 21 20 41.5t15 38.5zM256 242q12 48 8 74q-4 24 -15 21.5t-15 -24.5q-4 -20 3 -40t19 -31zM342 215q-10 -11 -27 -13q-8 -32 -23 -65.5t-36 -62.5t-46 -51.5t-53 -31.5q-27 -9 -61.5 -2t-64.5 46
q-17 22 -22.5 48.5t-2.5 55.5t13.5 60t27.5 61q29 51 71.5 88.5t87.5 41.5q23 1 38 -6.5t30 -27.5q9 -12 18 -20.5t16.5 -19.5t11 -27t1.5 -43q-1 -6 -1 -11.5t-1 -11.5q5 0 9.5 1t10.5 1q5 0 5.5 -3t-2.5 -7z" />
    <glyph glyph-name="odieresis" unicode="&#xf6;" horiz-adv-x="332" 
d="M149 464q8 16 20.5 24t24.5 3q11 -5 14.5 -18t-2.5 -29t-19.5 -24.5t-25.5 -3.5q-11 5 -15.5 18.5t3.5 29.5zM258 465q7 15 20 23.5t25 4.5q11 -4 14.5 -18t-3.5 -30q-7 -15 -19.5 -24.5t-23.5 -4.5q-13 5 -16.5 19t3.5 30zM249 215q-9 4 -19 12q-16 12 -30.5 36
t-15.5 52q-20 -17 -40.5 -41t-36.5 -53t-26.5 -59t-14.5 -56.5t-2 -46.5t12 -28q10 -9 26 -6.5t35 15.5t39 36.5t38 58.5q11 21 20 41.5t15 38.5zM256 242q12 48 8 74q-4 24 -15 21.5t-15 -24.5q-4 -20 3 -40t19 -31zM342 215q-10 -11 -27 -13q-8 -32 -23 -65.5t-36 -62.5
t-46 -51.5t-53 -31.5q-27 -9 -61.5 -2t-64.5 46q-17 22 -22.5 48.5t-2.5 55.5t13.5 60t27.5 61q29 51 71.5 88.5t87.5 41.5q23 1 38 -6.5t30 -27.5q9 -12 18 -20.5t16.5 -19.5t11 -27t1.5 -43q-1 -6 -1 -11.5t-1 -11.5q5 0 9.5 1t10.5 1q5 0 5.5 -3t-2.5 -7z" />
    <glyph glyph-name="divide" unicode="&#xf7;" horiz-adv-x="749" 
d="M251 220q-26 14 -45 41t-20 56q-21 -17 -41 -42t-37 -53t-27.5 -58t-14.5 -56.5t-1.5 -47t12.5 -28.5t26 -5.5t34.5 15t38.5 36t38 57.5q25 46 37 85zM258 247q5 21 6.5 38.5t-0.5 31.5q-4 24 -15.5 21.5t-14.5 -24.5q-2 -17 3.5 -36t20.5 -31zM769 89q-10 -21 -26 -40
t-35.5 -34t-41.5 -23.5t-44 -8.5q-62 0 -79.5 41.5t4.5 105.5q13 37 33 73.5t38 66t28.5 49t4.5 21.5q-9 3 -46.5 -18t-85.5 -74q-44 -48 -79.5 -115t-66.5 -138q-2 -5 -7 -8t-12 5q-14 15 -17.5 39.5t9.5 62.5q8 23 24 59.5t39 76.5q-42 -28 -93 -25q-8 -32 -23 -65.5
t-36 -63t-46 -52t-53 -31.5q-14 -5 -29.5 -6t-32 3t-33 14.5t-31.5 30.5q-33 45 -25.5 105.5t41.5 119.5q15 25 33 48t38.5 40.5t42.5 28.5t45 13t37.5 -5.5t29.5 -27.5q9 -12 18.5 -20.5t17 -19.5t11 -27t1.5 -43v-8.5t-1 -9.5q24 0 47.5 13t47 34.5t45.5 49.5t42 59
q11 17 21 2q11 -19 11.5 -43.5t-7.5 -50.5q17 18 37 35.5t39.5 32t37.5 22.5t31 7q12 -2 23.5 -11.5t18 -24t6.5 -33t-9 -37.5q-8 -17 -20.5 -38t-25.5 -43.5t-25.5 -45.5t-21.5 -42q-10 -21 -14 -40t-1.5 -32.5t10.5 -21t22 -7.5q15 0 31 11.5t32.5 30.5t32 44t30.5 52
q3 6 9 6t8 -6q4 -9 2.5 -24.5t-12.5 -38.5z" />
    <glyph glyph-name="oslash" unicode="&#xf8;" horiz-adv-x="330" 
d="M261 263q-43 -52 -95 -109.5t-97 -114.5q1 -3 6 -8q20 -17 59.5 10t79.5 94q19 32 30.5 65.5t16.5 62.5zM64 100q19 26 42.5 56.5t49 61t52 60.5t50.5 56l-2 1q-1 0 -1 1q-11 9 -29.5 3.5t-39.5 -22t-42 -41.5t-38 -55t-27.5 -62t-14.5 -59zM305 318q8 -11 12.5 -28
t2.5 -46q-2 -36 -16 -76t-36.5 -76t-51 -63.5t-60.5 -37.5q-24 -8 -52 -5t-55 28q-7 -8 -12.5 -17t-11.5 -17q-5 -7 -8.5 -5.5t-5.5 8.5q-2 8 1 23t14 35q-14 22 -19 48.5t-1.5 55t14 57.5t26.5 58q15 25 33 48t38.5 40.5t42.5 28.5t45 13t38 -5.5t30 -28.5l2 -2
q14 13 25 25t20 21q7 7 12.5 6t6.5 -10q2 -16 -8 -35.5t-26 -42.5z" />
    <glyph glyph-name="ugrave" unicode="&#xf9;" horiz-adv-x="404" 
d="M136 492q12 5 32.5 4.5t38.5 -11.5q19 -12 41.5 -31.5t41.5 -37.5q5 -4 4 -8t-7 -6q-10 -2 -23.5 -1.5t-28.5 8.5q-9 4 -21.5 12t-26 17.5t-27.5 19.5t-26 18q-7 5 -5 9.5t7 6.5zM196 81q-13 -18 -29.5 -35.5t-35 -31t-38.5 -21.5t-41 -6q-27 2 -41 15.5t-19 34t-2 45.5
t11 50q17 50 53 118t85 137q6 8 13 8t13 -7q34 -51 -19 -135q-28 -44 -45 -77.5t-33 -69.5q-16 -37 -14 -61t19 -26q15 -1 32 10.5t36 32.5t39.5 49.5t40.5 61.5q47 76 73.5 129t50.5 85q14 20 25 6t14 -44t-15 -68q-8 -17 -21 -38.5t-26.5 -44.5t-26 -46t-21.5 -42
q-20 -43 -16.5 -71t30.5 -26q16 1 33 12.5t34 31t33.5 44t31.5 50.5q4 7 9.5 7.5t8.5 -6.5q3 -6 2.5 -24t-11.5 -39t-27.5 -40.5t-36.5 -34t-42 -23.5t-44 -9q-49 0 -69 27.5t-14 71.5z" />
    <glyph glyph-name="uacute" unicode="&#xfa;" horiz-adv-x="404" 
d="M394 479q14 -9 0 -16t-29.5 -15t-31.5 -15.5t-30 -14t-24 -9.5q-17 -5 -30.5 -5t-21.5 4q-13 6 1 16q21 14 48 31.5t47 26.5q21 9 40.5 6.5t30.5 -9.5zM196 81q-13 -18 -29.5 -35.5t-35 -31t-38.5 -21.5t-41 -6q-27 2 -41 15.5t-19 34t-2 45.5t11 50q17 50 53 118t85 137
q6 8 13 8t13 -7q34 -51 -19 -135q-28 -44 -45 -77.5t-33 -69.5q-16 -37 -14 -61t19 -26q15 -1 32 10.5t36 32.5t39.5 49.5t40.5 61.5q47 76 73.5 129t50.5 85q14 20 25 6t14 -44t-15 -68q-8 -17 -21 -38.5t-26.5 -44.5t-26 -46t-21.5 -42q-20 -43 -16.5 -71t30.5 -26
q16 1 33 12.5t34 31t33.5 44t31.5 50.5q4 7 9.5 7.5t8.5 -6.5q3 -6 2.5 -24t-11.5 -39t-27.5 -40.5t-36.5 -34t-42 -23.5t-44 -9q-49 0 -69 27.5t-14 71.5z" />
    <glyph glyph-name="ucircumflex" unicode="&#xfb;" horiz-adv-x="404" 
d="M280 455q-16 -11 -31.5 -21t-28.5 -16q-16 -8 -29.5 -9t-21.5 1q-6 2 -6 6t6 9q10 7 25 18.5t31 23t32 22.5t28 18q3 2 6 2.5t5 1.5q8 0 13.5 -4.5t8.5 -10.5q8 -14 19.5 -35.5t20.5 -34.5q8 -12 -7 -15q-28 -7 -52 19q-11 12 -19 25zM196 81q-13 -18 -29.5 -35.5
t-35 -31t-38.5 -21.5t-41 -6q-27 2 -41 15.5t-19 34t-2 45.5t11 50q17 50 53 118t85 137q6 8 13 8t13 -7q34 -51 -19 -135q-28 -44 -45 -77.5t-33 -69.5q-16 -37 -14 -61t19 -26q15 -1 32 10.5t36 32.5t39.5 49.5t40.5 61.5q47 76 73.5 129t50.5 85q14 20 25 6t14 -44
t-15 -68q-8 -17 -21 -38.5t-26.5 -44.5t-26 -46t-21.5 -42q-20 -43 -16.5 -71t30.5 -26q16 1 33 12.5t34 31t33.5 44t31.5 50.5q4 7 9.5 7.5t8.5 -6.5q3 -6 2.5 -24t-11.5 -39t-27.5 -40.5t-36.5 -34t-42 -23.5t-44 -9q-49 0 -69 27.5t-14 71.5z" />
    <glyph glyph-name="udieresis" unicode="&#xfc;" horiz-adv-x="404" 
d="M201 462q7 16 20 23.5t25 3.5q13 -4 16.5 -17.5t-3.5 -29.5q-7 -15 -20.5 -23.5t-24.5 -4.5q-12 4 -16 18.5t3 29.5zM310 462q8 16 21 25t24 4q12 -5 16 -19t-3 -29q-7 -16 -20.5 -24t-24.5 -5q-13 4 -17 18.5t4 29.5zM196 81q-13 -18 -29.5 -35.5t-35 -31t-38.5 -21.5
t-41 -6q-27 2 -41 15.5t-19 34t-2 45.5t11 50q17 50 53 118t85 137q6 8 13 8t13 -7q34 -51 -19 -135q-28 -44 -45 -77.5t-33 -69.5q-16 -37 -14 -61t19 -26q15 -1 32 10.5t36 32.5t39.5 49.5t40.5 61.5q47 76 73.5 129t50.5 85q14 20 25 6t14 -44t-15 -68q-8 -17 -21 -38.5
t-26.5 -44.5t-26 -46t-21.5 -42q-20 -43 -16.5 -71t30.5 -26q16 1 33 12.5t34 31t33.5 44t31.5 50.5q4 7 9.5 7.5t8.5 -6.5q3 -6 2.5 -24t-11.5 -39t-27.5 -40.5t-36.5 -34t-42 -23.5t-44 -9q-49 0 -69 27.5t-14 71.5z" />
    <glyph glyph-name="ydieresis" unicode="&#xff;" horiz-adv-x="375" 
d="M171 474q8 15 21 24.5t24 4.5q12 -5 16 -19t-4 -30t-21 -25t-25 -4t-15.5 19t4.5 30zM284 476q8 17 21 25t26 4q12 -4 15.5 -18.5t-3.5 -31.5q-6 -15 -20 -24t-26 -5t-16.5 19t3.5 31zM104 -72q-49 -28 -82 -65t-52 -72t-24.5 -63t1.5 -37q5 -7 21.5 8.5t39 48t48 79
t48.5 101.5zM386 97q-29 -47 -79 -77.5t-113 -56.5q-21 -50 -45 -103t-50 -99t-55 -79.5t-60 -45.5q-14 -5 -28.5 -2.5t-28.5 23.5q-15 22 -25 51t5 73q23 68 81 114t133 75q8 17 15.5 35.5t15.5 36.5q-23 -24 -51 -40.5t-58 -14.5q-27 2 -41.5 16t-19.5 34t-2 45t12 50
q8 24 21.5 54t30.5 63t38.5 67.5t45.5 68.5q6 8 13 8t12 -8q18 -24 13.5 -56t-32.5 -77q-27 -44 -45 -77.5t-32 -68.5q-15 -37 -13.5 -60.5t18.5 -25.5q15 -1 31.5 9.5t34 30.5t36.5 47.5t38 60.5q16 28 32 58t31.5 58.5t30 54t27.5 44.5q13 18 25 7q10 -14 12.5 -44
t-16.5 -68q-11 -22 -27.5 -54t-34.5 -69t-36.5 -76.5t-34.5 -75.5q59 32 103 72t74 82q4 5 9 5.5t7 -7.5q2 -7 -1.5 -22.5t-16.5 -35.5z" />
    <glyph glyph-name="dotlessi" unicode="&#x131;" horiz-adv-x="201" 
d="M69 -15q-29 0 -46.5 11.5t-26 31t-7 46t12.5 57.5q9 27 25 61.5t34.5 68t36.5 63.5t32 50q13 18 24 6t14 -41.5t-15 -67.5q-8 -17 -19 -37t-23 -41.5t-23 -43t-19 -40.5q-18 -44 -16 -70.5t26 -24.5q17 0 35 12t35.5 31t33 43.5t26.5 50.5q4 7 8.5 6.5t7.5 -6.5
q12 -23 -7 -62q-11 -23 -28 -42.5t-37 -33t-41.5 -21t-42.5 -7.5z" />
    <glyph glyph-name="OE" unicode="&#x152;" horiz-adv-x="746" 
d="M422 235q34 62 51 119.5t19.5 103t-7.5 75.5t-31 38q-19 7 -50 -2.5t-67.5 -34t-76 -64.5t-74.5 -95q-36 -56 -54.5 -112t-21.5 -104t9 -82.5t37 -45.5q24 -11 57 -2t69 35.5t72.5 70t67.5 100.5zM880 550q-21 1 -47.5 -1.5t-55 -7.5t-56.5 -11t-52 -13q-29 -43 -63 -101
t-69 -122q20 4 38 5.5t32 2.5q38 2 57 -11.5t26 -36.5q2 -8 0 -11.5t-11 -3.5q-42 -2 -93 -10t-94 -19q-20 -41 -38.5 -79t-33.5 -72q37 10 79 18t71 9q38 3 59 -10.5t30 -36.5q2 -6 0.5 -10.5t-12.5 -4.5q-21 0 -49 -3.5t-58 -9.5t-58.5 -12.5t-50.5 -12.5q-20 -5 -31 -4
t-19 13q-13 19 -24 40v1q-46 -35 -96 -48.5t-106 6.5q-62 23 -88.5 73t-26.5 112q0 53 14.5 103t38.5 95t55 84t64 70t66 52t61 31q42 15 78.5 8t57.5 -30q35 -16 54.5 -46t25.5 -70q12 21 25 41t24 38q7 11 16 20.5t21 13.5q17 5 38.5 9.5t43.5 8.5t43 6.5t36 2.5
q38 1 59 -14t29 -38q2 -6 0.5 -10t-10.5 -4z" />
    <glyph glyph-name="oe" unicode="&#x153;" horiz-adv-x="540" 
d="M248 213q-22 17 -41.5 45t-18.5 60q-20 -17 -42 -42.5t-39 -55.5q-16 -28 -26.5 -58t-15 -56.5t-2 -46.5t12.5 -28t26 -5.5t34.5 15t38.5 36t38 57.5q12 22 20 41.5t15 37.5zM321 193q18 -10 35 -9.5t32.5 8t29 21t25.5 30.5q11 16 20.5 32t15.5 30t7 24t-4 15
q-8 7 -26.5 -0.5t-41.5 -26t-46 -47t-40 -62.5q-2 -4 -3.5 -7.5t-3.5 -7.5zM256 239q6 23 7.5 42.5t-0.5 33.5q-3 25 -15 23.5t-14 -24.5q-2 -20 4.5 -40t17.5 -35zM557 91q-15 -23 -36.5 -42.5t-47 -34t-54 -23t-56.5 -8.5q-46 -1 -77 19t-45 54q-19 -23 -40.5 -38.5
t-43.5 -23.5q-14 -5 -29.5 -7t-32 2t-33 14.5t-31.5 30.5q-33 45 -25.5 105t41.5 120q15 26 33 49t39 40.5t43 28t45 12.5t37 -5.5t30 -28.5q10 -13 19.5 -21.5t17.5 -22.5q43 52 88.5 70.5t73.5 2.5q19 -11 33 -22.5t26 -28.5q13 -18 6 -54.5t-36 -77.5q-17 -24 -39.5 -39
t-48 -19.5t-52 2t-50.5 25.5q-12 -35 -13.5 -63.5t5.5 -49.5t21.5 -33t33.5 -13q31 -1 60 12t54 33.5t46.5 46.5t37.5 50q5 5 10 5t7 -7t-1 -24t-16 -36z" />
    <glyph glyph-name="Ydieresis" unicode="&#x178;" horiz-adv-x="379" 
d="M248 674q8 15 21 24.5t24 4.5q12 -5 16 -19t-4 -30t-21 -25t-25 -4t-15.5 19t4.5 30zM361 676q8 17 21 25t26 4q12 -4 15.5 -18.5t-3.5 -31.5q-6 -15 -20 -24t-26 -5t-16.5 19t3.5 31zM174 197q-32 -57 -55.5 -109.5t-39.5 -97.5q-6 -15 -19 -3q-11 10 -16.5 35.5
t6.5 64.5q8 27 24.5 65t37.5 80q1 46 3 96t5.5 99t8.5 94t12 81q2 12 8 14t13 -3q18 -11 28 -36.5t7 -79.5q-2 -42 -7 -90.5t-8 -105.5q35 39 77 82.5t84.5 85.5t82 79.5t69.5 63.5q16 13 21 -5q6 -22 -5.5 -55t-55.5 -76q-27 -26 -57 -54.5t-64.5 -61.5t-74 -73t-85.5 -90z
" />
    <glyph glyph-name="florin" unicode="&#x192;" horiz-adv-x="692" 
d="M105 -72q-49 -28 -82 -65t-52 -72.5t-24.5 -63t0.5 -36.5q5 -7 21.5 8.5t39 47.5t48 78.5t49.5 102.5zM214 7q78 41 139 111t102 176q-18 8 -23.5 23t-1.5 33.5t14.5 38t24 35t27 26t23.5 10.5q12 0 16.5 -10t3.5 -27.5t-7 -40.5t-15 -48q51 9 107 47q11 7 17 9t13 -6
t14.5 -20.5t11.5 -26.5t2 -28.5t-13 -26.5q-36 -40 -69 -87t-46 -86q-14 -42 -6 -69t31 -28q15 -1 32 10t33 30t31.5 44.5t27.5 53.5q3 6 8 7t8 -7t3.5 -25.5t-8.5 -39.5q-9 -23 -24.5 -41.5t-34.5 -32t-39.5 -20.5t-41.5 -7q-29 1 -48.5 13.5t-30 33t-12 47.5t7.5 57
q7 25 21 50.5t31.5 50t35.5 46.5t34 40q-32 -20 -61.5 -27t-53.5 -8q-23 -53 -50 -100t-62 -88t-81.5 -75t-109.5 -60q-21 -51 -45 -104t-50 -98.5t-55 -79.5t-60 -46q-14 -7 -29.5 -3.5t-28.5 23.5q-15 23 -25 51.5t5 72.5q23 68 81.5 114t133.5 75q8 18 15.5 36.5
t15.5 36.5q-23 -24 -51 -40.5t-58 -14.5q-27 2 -42 15.5t-19.5 34t-1.5 45.5t12 49q17 49 52 117t84 136q12 17 25 1q18 -25 13 -57t-32 -77q-26 -44 -44.5 -77.5t-32.5 -68.5q-15 -37 -13.5 -60.5t18.5 -25.5q29 -2 65 40t75 108q16 28 32.5 58t31.5 58.5t29.5 54
t27.5 44.5q14 19 25 7q11 -13 13 -43t-17 -67q-11 -22 -27 -53.5t-34 -68.5t-36.5 -75.5t-33.5 -74.5z" />
    <glyph glyph-name="circumflex" unicode="&#x2c6;" horiz-adv-x="197" 
d="M116 694q-16 -11 -31 -21t-28 -16q-16 -8 -29.5 -9t-21.5 1q-14 5 0 15q10 7 25 18.5t31 23t32 22.5t28 18q3 2 5.5 2.5t5.5 1.5q8 0 13 -4.5t8 -10.5q8 -14 20 -36t20 -34q7 -12 -6 -15q-28 -7 -52 19q-10 10 -20 25z" />
    <glyph glyph-name="caron" unicode="&#x2c7;" horiz-adv-x="672" 
d="M483 148q-3 28 -5.5 61t-5.5 65t-6 60t-7 46q-2 10 3.5 13t14.5 2q23 -5 42.5 -26.5t24.5 -72.5q2 -19 3.5 -39.5t3.5 -42.5q45 45 84 90t66 83q6 8 13.5 8.5t6.5 -13.5q-1 -18 -13.5 -39t-27.5 -43q-16 -23 -49.5 -60t-75.5 -78q2 -26 3.5 -49.5t3.5 -40.5
q4 -31 12.5 -42.5t19.5 -11.5q13 0 28.5 12t31 31.5t29 43.5t23.5 47q4 7 10 7t8 -8q2 -11 0.5 -28.5t-13.5 -39.5q-26 -48 -62.5 -72t-74.5 -26q-40 -2 -60.5 24.5t-26.5 87.5v4q-29 -24 -58 -45t-56.5 -36.5t-52.5 -25t-46 -9.5q-39 0 -59.5 23.5t-16.5 64.5
q-13 -17 -28.5 -33t-32.5 -28t-36 -19.5t-39 -5.5q-27 2 -41.5 16t-19.5 34t-2 45t12 50q17 49 53 117t85 136q12 16 25 1q17 -25 12.5 -57t-31.5 -77q-27 -44 -45.5 -77.5t-32.5 -68.5q-15 -37 -13.5 -60.5t18.5 -25.5q15 -1 32.5 10.5t36.5 32t39 48.5t40 61
q46 76 72.5 128.5t49.5 84.5q13 19 25 6q11 -14 14 -43.5t-15 -67.5q-8 -17 -21.5 -40.5t-28 -49.5t-28.5 -51.5t-23 -46.5q-7 -15 -11 -29.5t-4 -25t4.5 -16.5t15.5 -6q15 0 37.5 10.5t49 28.5t56 42t60.5 52z" />
    <glyph glyph-name="breve" unicode="&#x2d8;" horiz-adv-x="197" 
d="M116 694q-16 -11 -31 -21t-28 -16q-16 -8 -29.5 -9t-21.5 1q-14 5 0 15q10 7 25 18.5t31 23t32 22.5t28 18q3 2 5.5 2.5t5.5 1.5q8 0 13 -4.5t8 -10.5q8 -14 20 -36t20 -34q7 -12 -6 -15q-28 -7 -52 19q-10 10 -20 25z" />
    <glyph glyph-name="dotaccent" unicode="&#x2d9;" horiz-adv-x="695" 
d="M235 172q47 83 55.5 127t-13.5 46q-12 1 -30.5 -9.5t-40 -30.5t-44.5 -47.5t-44 -60.5q-20 -32 -32 -63.5t-15.5 -56.5t1.5 -40t20 -15q30 0 67.5 41.5t75.5 108.5zM484 149q-3 28 -5.5 61t-5.5 64.5t-6 59.5t-7 46q-2 11 3.5 14t16.5 1q25 -5 42.5 -26.5t22.5 -71.5
q2 -19 3.5 -39.5t3.5 -42.5q45 45 84 90t66 83q6 8 13.5 8t7.5 -13q-2 -18 -14 -39.5t-27 -43.5q-17 -23 -50 -60t-76 -78q2 -26 4.5 -49t4.5 -40q5 -29 12.5 -41.5t17.5 -12.5q13 0 29 12t31.5 31.5t29 43.5t23.5 47q3 7 9 7t8 -8q2 -11 1.5 -28t-13.5 -40
q-27 -48 -63.5 -73t-74.5 -26q-39 -1 -60 25.5t-27 87.5q0 2 -1 3q-29 -24 -57.5 -45t-56 -37t-52 -25t-45.5 -9q-35 0 -54.5 21.5t-18.5 57.5q-23 -29 -55 -51.5t-67 -22.5t-55 21.5t-24.5 56.5t8 79t42.5 90q29 44 58.5 75t56.5 50t51.5 27.5t43.5 8.5q32 0 46.5 -22
t12.5 -51q10 19 18.5 34t17.5 26q8 10 13.5 12.5t11.5 -5.5q11 -13 14 -42.5t-15 -67.5q-8 -17 -22 -40t-29 -48t-29 -50t-23 -44q-17 -35 -17.5 -60.5t21.5 -24.5q16 1 38 11.5t48.5 28.5t56 42t59.5 52z" />
    <glyph glyph-name="ring" unicode="&#x2da;" horiz-adv-x="105" 
d="M72 729q-7 4 -17 -3.5t-17 -21.5q-8 -17 -7.5 -29.5t5.5 -16.5q4 -3 13 2t17 19t10 30t-4 20zM83 744q20 -17 21 -40t-10 -43q-10 -18 -29 -27t-38 5q-23 17 -26.5 39.5t7.5 44.5q11 21 32 30t43 -9z" />
    <glyph glyph-name="ogonek" unicode="&#x2db;" horiz-adv-x="624" 
d="M249 218q-9 4 -19 12q-16 12 -30.5 36t-15.5 52q-20 -17 -40.5 -41t-36.5 -53t-26.5 -59t-14.5 -56.5t-2 -46.5t12 -28q10 -9 26 -6.5t35 15.5t39 36.5t38 58.5q11 21 20 41.5t15 38.5zM256 245q12 48 8 74q-4 24 -15 21.5t-15 -24.5q-4 -20 3 -40t19 -31zM342 218
q-10 -11 -27 -13q-8 -32 -23 -65.5t-36 -62.5t-46 -51.5t-53 -31.5q-27 -9 -61.5 -2t-64.5 46q-17 22 -22.5 48.5t-2.5 55.5t13.5 60t27.5 61q29 51 71.5 88.5t87.5 41.5q23 1 38 -6.5t30 -27.5q9 -12 18 -20.5t16.5 -19.5t11 -27t1.5 -43q-1 -6 -1 -11.5t-1 -11.5
q5 0 9.5 1t10.5 1q5 0 5.5 -3t-2.5 -7zM653 151q3 -8 2 -24t-13 -39q-23 -46 -58 -73.5t-73 -29.5q-40 -2 -62 24.5t-31 87.5q0 12 -3 30q-36 -31 -72 -65t-66 -71q-6 -7 -14 -9t-7 11q2 26 17.5 49.5t43.5 53.5q17 19 40.5 39t49.5 42q-4 28 -9 58.5t-10 58t-10.5 50
t-9.5 34.5q-4 10 1.5 13t16.5 2q28 -2 46 -22t25 -53q4 -18 7.5 -41t7.5 -47q41 34 80 71.5t71 79.5q8 10 15 10t7 -14q0 -24 -15 -47.5t-40 -52.5q-17 -20 -46.5 -43.5t-65.5 -52.5q5 -32 10 -61.5t8 -47.5q5 -30 14 -42.5t18 -12.5q14 0 28.5 11.5t29 31t27.5 43.5t24 48
q4 8 9 7t7 -7z" />
    <glyph glyph-name="tilde" unicode="&#x2dc;" horiz-adv-x="231" 
d="M0 670q5 15 21 30.5t40 17.5q19 1 37.5 -4.5t37.5 -10.5t39 -6.5t42 8.5q8 4 12 0.5t0 -13.5q-16 -39 -53 -45q-22 -5 -43.5 0t-42.5 11t-41 9t-39 -6q-15 -7 -10 9z" />
    <glyph glyph-name="hungarumlaut" unicode="&#x2dd;" horiz-adv-x="484" 
d="M339 209q45 45 83 90.5t65 83.5q7 9 14 8.5t6 -12.5q-1 -19 -11 -38.5t-26 -41.5q-17 -23 -51 -60.5t-76 -79.5q2 -26 3.5 -48.5t3.5 -39.5q4 -30 11.5 -41t18.5 -12q13 -1 28.5 11.5t31.5 32t30 43t25 46.5q3 7 8.5 6.5t7.5 -7.5q3 -11 2 -28t-14 -39q-28 -48 -65 -73.5
t-75 -25.5q-39 0 -59.5 25.5t-24.5 87.5q-27 -23 -54.5 -43.5t-54 -36t-51 -24.5t-45.5 -9q-29 0 -47 11.5t-26 31t-7 46t11 57.5q9 30 27.5 67.5t38.5 73t37.5 64t25.5 39.5q7 9 12.5 11.5t11.5 -5.5q12 -12 15 -42t-14 -68q-8 -17 -19.5 -38t-24.5 -43t-25 -43.5
t-20 -40.5q-18 -42 -15 -67.5t28 -23.5q31 2 83 38.5t110 90.5q-2 28 -4.5 60.5t-5.5 64t-6 59.5t-7 47q-2 11 4 14t16 1q24 -5 41 -27t22 -72q2 -19 3.5 -39t3.5 -42zM232 459q8 -20 5 -38.5t-11 -27.5q-11 -11 -28 -8t-28 23t-10 40t15 33q13 12 30.5 5t26.5 -27z" />
    <glyph glyph-name="Delta" unicode="&#x394;" horiz-adv-x="654" 
d="M96 -10q-44 5 -62 40q-21 -50 -37.5 -97t-26.5 -85t-11.5 -65.5t7.5 -38.5q9 -10 25.5 8t35.5 54t38 84.5t31 99.5zM102 17q3 19 5.5 37t3.5 35q2 29 -4.5 49t-12.5 17q-4 -2 -7.5 -11.5t-6.5 -21.5t-5 -25t-2 -22q0 -24 6.5 -39t22.5 -19zM373 178q-17 -47 -19.5 -85.5
t18.5 -55.5q12 -10 29.5 -2.5t36.5 27.5t39 50t37 66q15 30 24 59t12.5 53t0.5 40.5t-13 21.5q-9 4 -23.5 -2.5t-32 -21.5t-37 -38.5t-37.5 -52.5q-8 -13 -17 -27.5t-18 -31.5zM210 21q-14 -8 -29 -15t-31 -11q-6 -38 -16.5 -76t-25 -74t-31.5 -67t-35 -53q-26 -32 -46 -36
t-43 16q-10 8 -19.5 19.5t-16 29t-9 41t1.5 55.5q7 56 29.5 123t54 139t69.5 144.5t76.5 139.5t75 124.5t64.5 99.5q14 20 24 -1q10 -24 4.5 -59t-36.5 -91q-14 -26 -34.5 -59t-43 -70t-45.5 -76.5t-43 -78.5q53 -17 52 -116q0 -21 -3 -42q18 9 36 23t35 32t31.5 38.5
t25.5 41.5q16 31 35 64.5t37 64.5t33.5 56t25.5 40q7 10 14 9t11 -11q8 -20 7 -43q16 14 34.5 25t37.5 15.5t37.5 0.5t34.5 -21q18 -19 24 -44t3 -54t-13.5 -60.5t-24.5 -61.5q-47 -100 -105 -137q36 2 65.5 15.5t52.5 33.5t41 45t30 51q5 9 11.5 8.5t8.5 -8.5
q2 -6 -0.5 -24t-14.5 -41q-29 -53 -75.5 -78t-100.5 -28q-48 -3 -80.5 5t-58.5 31q-28 28 -34 66q-38 -71 -78 -152t-77 -166q-7 -17 -17 -4q-11 16 -13.5 40.5t11.5 69.5q8 24 25.5 63.5t40.5 88.5z" />
    <glyph glyph-name="Delta" unicode="&#x2206;" horiz-adv-x="654" 
d="M96 -10q-44 5 -62 40q-21 -50 -37.5 -97t-26.5 -85t-11.5 -65.5t7.5 -38.5q9 -10 25.5 8t35.5 54t38 84.5t31 99.5zM102 17q3 19 5.5 37t3.5 35q2 29 -4.5 49t-12.5 17q-4 -2 -7.5 -11.5t-6.5 -21.5t-5 -25t-2 -22q0 -24 6.5 -39t22.5 -19zM373 178q-17 -47 -19.5 -85.5
t18.5 -55.5q12 -10 29.5 -2.5t36.5 27.5t39 50t37 66q15 30 24 59t12.5 53t0.5 40.5t-13 21.5q-9 4 -23.5 -2.5t-32 -21.5t-37 -38.5t-37.5 -52.5q-8 -13 -17 -27.5t-18 -31.5zM210 21q-14 -8 -29 -15t-31 -11q-6 -38 -16.5 -76t-25 -74t-31.5 -67t-35 -53q-26 -32 -46 -36
t-43 16q-10 8 -19.5 19.5t-16 29t-9 41t1.5 55.5q7 56 29.5 123t54 139t69.5 144.5t76.5 139.5t75 124.5t64.5 99.5q14 20 24 -1q10 -24 4.5 -59t-36.5 -91q-14 -26 -34.5 -59t-43 -70t-45.5 -76.5t-43 -78.5q53 -17 52 -116q0 -21 -3 -42q18 9 36 23t35 32t31.5 38.5
t25.5 41.5q16 31 35 64.5t37 64.5t33.5 56t25.5 40q7 10 14 9t11 -11q8 -20 7 -43q16 14 34.5 25t37.5 15.5t37.5 0.5t34.5 -21q18 -19 24 -44t3 -54t-13.5 -60.5t-24.5 -61.5q-47 -100 -105 -137q36 2 65.5 15.5t52.5 33.5t41 45t30 51q5 9 11.5 8.5t8.5 -8.5
q2 -6 -0.5 -24t-14.5 -41q-29 -53 -75.5 -78t-100.5 -28q-48 -3 -80.5 5t-58.5 31q-28 28 -34 66q-38 -71 -78 -152t-77 -166q-7 -17 -17 -4q-11 16 -13.5 40.5t11.5 69.5q8 24 25.5 63.5t40.5 88.5z" />
    <glyph glyph-name="Omega" unicode="&#x3a9;" horiz-adv-x="603" 
d="M153 269q-46 -78 -104 -159q11 -45 32 -71t46 -18q16 5 22.5 33.5t7.5 66t-1 78t-3 70.5zM625 85q-9 -23 -24.5 -41.5t-34.5 -32t-39.5 -20.5t-41.5 -7q-29 1 -48.5 13.5t-30 33t-11 47.5t8.5 57q8 25 22.5 51.5t32 51.5t36 47t34.5 40q-33 -20 -64 -28.5t-56 -8.5
q-20 -50 -43 -99.5t-52 -91.5t-64 -71.5t-78 -38.5q-53 -11 -97.5 7t-70.5 66q-9 17 -13 36.5t-2.5 38t9 35t20.5 26.5q20 15 21 -10v-11.5t1 -11.5q32 42 62 87.5t53 83.5q3 29 11 45.5t23 30.5q17 16 32 19t22 -4q8 -8 5 -17.5t-13 -26.5q-2 -4 -4.5 -8.5t-5.5 -9.5
q-2 -34 -0.5 -65.5t4 -61t4 -57.5t0.5 -53q-2 -27 -9 -54.5t-30 -45.5q24 12 48 38t46.5 61t43 78t38.5 90q-20 7 -26.5 22.5t-4 34t12.5 37.5t23 35.5t26.5 26.5t23.5 11q12 1 17 -9.5t4.5 -28t-6 -40.5t-13.5 -48q50 7 110 47q19 16 30 3q7 -8 14 -20t10.5 -26t1.5 -28.5
t-13 -26.5q-18 -20 -35.5 -42.5t-33.5 -45t-28 -45t-18 -41.5q-13 -42 -5.5 -69t30.5 -28q16 -1 33 10t33.5 30t31.5 44.5t27 53.5q3 7 7.5 7t7.5 -7q4 -8 4 -25t-9 -40z" />
    <glyph glyph-name="Omega" unicode="&#x2126;" horiz-adv-x="603" 
d="M153 269q-46 -78 -104 -159q11 -45 32 -71t46 -18q16 5 22.5 33.5t7.5 66t-1 78t-3 70.5zM625 85q-9 -23 -24.5 -41.5t-34.5 -32t-39.5 -20.5t-41.5 -7q-29 1 -48.5 13.5t-30 33t-11 47.5t8.5 57q8 25 22.5 51.5t32 51.5t36 47t34.5 40q-33 -20 -64 -28.5t-56 -8.5
q-20 -50 -43 -99.5t-52 -91.5t-64 -71.5t-78 -38.5q-53 -11 -97.5 7t-70.5 66q-9 17 -13 36.5t-2.5 38t9 35t20.5 26.5q20 15 21 -10v-11.5t1 -11.5q32 42 62 87.5t53 83.5q3 29 11 45.5t23 30.5q17 16 32 19t22 -4q8 -8 5 -17.5t-13 -26.5q-2 -4 -4.5 -8.5t-5.5 -9.5
q-2 -34 -0.5 -65.5t4 -61t4 -57.5t0.5 -53q-2 -27 -9 -54.5t-30 -45.5q24 12 48 38t46.5 61t43 78t38.5 90q-20 7 -26.5 22.5t-4 34t12.5 37.5t23 35.5t26.5 26.5t23.5 11q12 1 17 -9.5t4.5 -28t-6 -40.5t-13.5 -48q50 7 110 47q19 16 30 3q7 -8 14 -20t10.5 -26t1.5 -28.5
t-13 -26.5q-18 -20 -35.5 -42.5t-33.5 -45t-28 -45t-18 -41.5q-13 -42 -5.5 -69t30.5 -28q16 -1 33 10t33.5 30t31.5 44.5t27 53.5q3 7 7.5 7t7.5 -7q4 -8 4 -25t-9 -40z" />
    <glyph glyph-name="pi" unicode="&#x3c0;" horiz-adv-x="512" 
d="M-99 -83q-49 -28 -82 -65t-51.5 -72.5t-24 -63t0.5 -36.5q5 -7 21 8.5t38.5 48t48 79t49.5 101.5zM8 -6q87 38 155.5 113t112.5 187q-19 7 -24 22t-1.5 33.5t14 37.5t24 35t27 26t23.5 11q12 1 17 -9t3.5 -27.5t-7.5 -40.5t-15 -48q51 7 107 47q11 8 17 9.5t13 -6.5
t14.5 -20.5t11 -26t1.5 -28t-13 -27.5q-18 -20 -35.5 -42t-32.5 -45t-27 -45.5t-19 -42.5q-14 -40 -6 -67.5t31 -28.5q15 0 31.5 11t33 30t32 44.5t27.5 53.5q7 16 15 0q4 -8 4.5 -26t-8.5 -39q-20 -45 -59.5 -73.5t-80.5 -27.5q-29 1 -48.5 13t-30 32.5t-11.5 48t8 57.5
q7 24 21.5 50t32 51t36 47.5t34.5 40.5q-33 -20 -63.5 -28.5t-54.5 -8.5q-23 -53 -50 -101t-65 -90.5t-89.5 -79t-122.5 -64.5q-21 -50 -45 -103t-50.5 -99t-55 -79.5t-58.5 -44.5q-16 -6 -30 -4t-28 23q-8 11 -15.5 24t-11.5 28t-4 33t8 40q11 33 32.5 62t50 53t62.5 42.5
t72 31.5q25 61 52.5 122.5t54.5 116.5t51.5 100.5t44.5 75.5q12 19 25 6q11 -12 12.5 -42t-15.5 -68q-9 -21 -25.5 -52.5t-35.5 -69t-38.5 -77.5t-35.5 -77zM223 459q9 -20 6 -38t-12 -29q-10 -11 -27 -7.5t-29 22.5q-13 20 -10.5 40.5t15.5 33.5q12 12 30 5t27 -27z" />
    <glyph glyph-name="endash" unicode="&#x2013;" horiz-adv-x="414" 
d="M117 199q-35 1 -51.5 16.5t-20.5 38.5q-2 7 -0.5 11t11.5 3q27 -2 61 -0.5t69.5 4t70 4.5t63.5 2q36 -1 52.5 -16.5t20.5 -37.5q2 -7 -0.5 -11.5t-11.5 -2.5q-24 3 -60 1.5t-74 -4.5t-73 -5.5t-57 -2.5z" />
    <glyph glyph-name="emdash" unicode="&#x2014;" horiz-adv-x="472" 
d="M116 200q-35 1 -51 16.5t-20 38.5q-2 7 -0.5 11t11.5 3q30 -2 70.5 0t84.5 5t87 5t79 1q38 -2 54 -17t20 -38q2 -7 -0.5 -11.5t-12.5 -2.5q-30 4 -74 2.5t-90 -5t-88.5 -6.5t-69.5 -2z" />
    <glyph glyph-name="quoteleft" unicode="&#x2018;" horiz-adv-x="257" 
d="M251 402q-9 13 -20 31.5t-22.5 39t-21.5 40t-17 34.5q-7 14 -10.5 30.5t2.5 30.5q3 8 10.5 9t15.5 -11q11 -15 24.5 -41.5t27 -56t24.5 -58t17 -47.5q4 -15 -6 -17q-11 -4 -24 16z" />
    <glyph glyph-name="quoteright" unicode="&#x2019;" horiz-adv-x="230" 
d="M171 440q-8 -10 -14.5 -12.5t-11.5 -1.5q-11 2 -4 18q9 18 23 45t30.5 55t32.5 53t29 39q10 11 16 9t9 -10q5 -14 0 -30t-13 -30q-9 -14 -21.5 -32.5t-26 -37t-26.5 -36t-23 -29.5z" />
    <glyph glyph-name="quotesinglbase" unicode="&#x201a;" horiz-adv-x="214" 
d="M2 -85q-8 -10 -14.5 -12.5t-11.5 -1.5q-11 2 -4 18q9 18 23 45t30.5 55t32.5 53t29 39q10 11 16 9t9 -10q5 -14 0 -30t-13 -30q-9 -14 -21.5 -32.5t-26 -37t-26.5 -36t-23 -29.5z" />
    <glyph glyph-name="quotedblleft" unicode="&#x201c;" horiz-adv-x="312" 
d="M253 395q-8 13 -20 33t-24 41.5t-23 42.5t-17 36q-7 15 -10 32.5t5 31.5q4 7 10.5 7.5t14.5 -11.5q10 -15 24 -43t27 -59t24.5 -61t17.5 -50q2 -8 1 -11t-5 -5q-5 -2 -11.5 1.5t-13.5 14.5zM308 420q-6 14 -14 33.5t-15.5 40t-14 41t-11.5 35.5t-5 32.5t9 30.5q5 7 12 6
t12 -12q8 -18 17 -45.5t16.5 -57.5t14 -59t9.5 -50q0 -8 -1.5 -11.5t-7.5 -3.5q-5 0 -10.5 4.5t-10.5 15.5z" />
    <glyph glyph-name="quotedblright" unicode="&#x201d;" horiz-adv-x="311" 
d="M216 400q-19 -16 -26 -11q-6 5 -5.5 8.5t5.5 11.5q11 17 30 42t40.5 51.5t42 49.5t35.5 36q9 8 17 5.5t9 -10.5q2 -17 -6 -32.5t-18 -28.5t-26 -30t-34 -34t-35 -32.5t-29 -25.5zM172 437q-8 -10 -14.5 -13t-11.5 -1q-10 3 -5 16q8 19 22 46t30 54.5t32 52t29 38.5
q8 9 14.5 7t9.5 -8q7 -16 2 -32t-15 -31q-9 -13 -20.5 -30.5t-24.5 -35.5t-25.5 -34.5t-22.5 -28.5z" />
    <glyph glyph-name="quotedblbase" unicode="&#x201e;" horiz-adv-x="296" 
d="M48 -105q-19 -16 -26 -11q-6 5 -5.5 8.5t5.5 11.5q11 17 30 42t40.5 51.5t42 49.5t35.5 36q9 8 17 5.5t9 -10.5q2 -17 -6 -32.5t-18 -28.5t-26 -30t-34 -34t-35 -32.5t-29 -25.5zM4 -68q-8 -10 -14.5 -13t-11.5 -1q-10 3 -5 16q8 19 22 46t30 54.5t32 52t29 38.5
q8 9 14.5 7t9.5 -8q7 -16 2 -32t-15 -31q-9 -13 -20.5 -30.5t-24.5 -35.5t-25.5 -34.5t-22.5 -28.5z" />
    <glyph glyph-name="dagger" unicode="&#x2020;" horiz-adv-x="326" 
d="M399 538q-8 -16 -26 -25.5t-42 -10.5h-32q-13 -22 -27 -46.5l-28 -49t-26.5 -47.5t-21.5 -42q-5 -11 -15 -1q-16 18 -2 62q8 23 24.5 56t36.5 68q-17 0 -34 -0.5t-32 -2.5q-16 -2 -10 12q5 11 17.5 22.5t39.5 15.5q19 3 48 3q13 22 25 41.5t20 33.5q4 7 7 6.5t8 -2.5
q8 -8 11.5 -27t-10.5 -45q-1 -2 -1.5 -3.5t-2.5 -3.5h63q17 0 10 -14z" />
    <glyph glyph-name="daggerdbl" unicode="&#x2021;" horiz-adv-x="444" 
d="M360 397q-38 -2 -75.5 -4.5t-69.5 -4.5q-29 -51 -65.5 -114t-64.5 -125q-12 -27 -16.5 -51.5t-1.5 -43.5t13 -30t26 -12t35 12t37 34t34.5 48t28.5 55q9 20 22 47.5t28.5 58.5t33 64.5t35.5 65.5zM131 386q-26 2 -41.5 11.5t-23.5 19.5t-3 14.5t16 4.5h37.5t42.5 1
q23 39 42.5 71t32.5 49q7 11 13.5 10.5t10.5 -10.5q8 -21 6.5 -48t-21.5 -68q40 2 77.5 4t68.5 4q23 39 41.5 70t30.5 47q8 10 14 9t10 -10q9 -20 7 -47t-20 -67q29 -2 42 -11.5t20 -20.5q11 -20 -13 -18q-26 2 -75 0q-14 -26 -32 -57t-36.5 -64t-36.5 -66.5t-32 -64.5
q-25 -56 -18 -95.5t38 -41.5q17 -1 35.5 11t36.5 32t35.5 46.5t31.5 54.5q5 9 11.5 10t9.5 -10q4 -12 1 -26t-11 -31q-5 -11 -19 -30.5t-35.5 -38.5t-48.5 -32.5t-57 -12.5q-31 2 -55 23t-32 59q-10 -14 -24 -29t-31 -27t-37.5 -19.5t-43.5 -6.5q-25 1 -46 14.5t-32.5 38.5
t-11 60t18.5 78q7 18 18.5 42.5t25.5 52t30 57t32 58.5z" />
    <glyph glyph-name="bullet" unicode="&#x2022;" horiz-adv-x="151" 
d="M130 246q-13 -23 -30.5 -29.5t-31.5 0.5q-15 7 -19.5 26t6.5 41q11 20 31 28.5t33 3.5q14 -5 19 -26t-8 -44z" />
    <glyph glyph-name="ellipsis" unicode="&#x2026;" horiz-adv-x="490" 
d="M192 42q9 21 26 31t32 5t19 -22.5t-4 -38.5q-8 -20 -25.5 -30t-32.5 -5t-19 22.5t4 37.5zM330 42q8 20 24 30t31 5q14 -5 18 -22t-4 -37q-8 -19 -24 -29.5t-31 -5.5t-18.5 22.5t4.5 36.5zM60 43q8 20 24.5 30.5t31.5 4.5q14 -6 18.5 -23t-3.5 -37q-8 -19 -25 -30t-31 -5
q-15 6 -19 23t4 37z" />
    <glyph glyph-name="perthousand" unicode="&#x2030;" horiz-adv-x="743" 
d="M250 221q-27 14 -46 40t-20 55q-20 -17 -40 -41.5t-37 -53.5q-16 -28 -26.5 -58t-15 -56.5t-2 -46.5t11.5 -28q10 -9 26 -6.5t35 15.5t39 36.5t38 57.5q13 23 22 44.5t15 41.5zM603 176q15 30 24 60t12 54t0 40t-12 20t-24 -2.5t-32.5 -21.5t-36.5 -38t-37 -52
q-8 -14 -17.5 -29t-19.5 -31q-17 -46 -19 -85t18 -56q12 -10 30 -2.5t37.5 27.5t39.5 50t37 66zM257 246q5 22 6.5 39t-0.5 31q-3 24 -14.5 22t-15.5 -25q-3 -16 3.5 -35t20.5 -32zM755 83q-28 -51 -75 -76.5t-101 -29.5q-47 -3 -80.5 5.5t-59.5 32.5q-29 27 -32 65
q-39 -72 -79.5 -153t-77.5 -166q-3 -7 -7.5 -8.5t-8.5 5.5q-11 15 -13.5 39.5t11.5 70.5q7 24 25.5 65.5t43.5 91.5t53 104t55 103q-41 -31 -94 -26q-8 -32 -23 -66t-35.5 -64t-46 -52.5t-53.5 -31.5t-61.5 -2.5t-64.5 45.5q-17 22 -22.5 48.5t-2.5 56t13.5 60t27.5 60.5
q14 25 32.5 48t39.5 41t43 28.5t45 12.5t37.5 -6t29.5 -28q9 -12 18 -20t16.5 -19t11.5 -27t2 -44q0 -4 -1 -8l-2 -8q24 0 48 13t47 34t44.5 49t41.5 59q7 10 13.5 9t10.5 -11q4 -9 6.5 -20t1.5 -25q16 15 35 27t38.5 17t38 1t34.5 -22q17 -19 22.5 -44.5t2.5 -54.5
t-13.5 -60t-24.5 -61q-23 -50 -49 -84.5t-54 -51.5q36 2 65.5 15t52.5 33t40.5 45t29.5 50q5 11 11.5 9.5t8.5 -9.5q2 -7 0 -24t-15 -41z" />
    <glyph glyph-name="guilsinglleft" unicode="&#x2039;" horiz-adv-x="691" 
d="M184 315q-20 -16 -40 -40t-37 -53q-16 -28 -26.5 -58t-15 -56.5t-2 -47t13.5 -28.5q10 -8 25.5 -5.5t34 15.5t38.5 36t38 57q12 23 21.5 43.5t14.5 39.5q-24 13 -44.5 39t-20.5 58zM599 217q-10 3 -18 11q-17 12 -32 36t-15 51q-20 -16 -40 -40t-37 -53
q-16 -28 -26.5 -58t-14 -56.5t-1 -47t11.5 -28.5q10 -9 25.5 -6.5t34 15.5t38.5 36.5t38 57.5q23 42 36 82zM607 243q5 23 6.5 41.5t-0.5 32.5q-3 24 -14 21.5t-15 -24.5q-4 -20 3.5 -40t19.5 -31zM263 317q-3 24 -15 21.5t-15 -25.5q-3 -21 3 -39.5t21 -29.5q5 23 6.5 41
t-0.5 32zM692 215q-9 -10 -28 -12q-8 -32 -23 -65.5t-35.5 -62.5t-45.5 -51t-52 -31q-14 -5 -29.5 -6t-32 3t-33 14.5t-31.5 30.5q-27 36 -26.5 83.5t20.5 98.5q-27 -13 -62 -13q-8 -32 -23 -66t-35.5 -63t-45.5 -51t-53 -31q-27 -9 -61 -3t-64 45q-17 22 -23 49t-3 56.5
t13.5 60t27.5 59.5q15 25 33 48t39 40.5t43 28.5t45 13t37.5 -5t29.5 -28q9 -12 18 -20.5t16.5 -19.5t11.5 -27t2 -43q0 -4 -0.5 -7.5t-0.5 -7.5q30 5 57.5 26.5t50.5 49.5q28 35 60.5 57.5t67.5 24.5q23 2 37.5 -5.5t29.5 -27.5q9 -12 18.5 -20.5t16.5 -19.5t11 -27t2 -43
q-1 -6 -1 -11.5t-2 -11.5h9.5t9.5 1q7 2 7.5 -2t-3.5 -8z" />
    <glyph glyph-name="guilsinglright" unicode="&#x203a;" horiz-adv-x="765" 
d="M249 218q-26 14 -45.5 41t-19.5 58q-20 -17 -40.5 -41.5t-37.5 -53.5q-16 -28 -26 -58t-14.5 -56t-2 -46t12.5 -29q20 -17 60 9t78 95q12 22 20 42t15 39zM263 318q-2 12 -6 17t-9 4t-9.5 -7.5t-5.5 -16.5q-5 -43 23 -68q6 22 7.5 40t-0.5 31zM790 90
q-11 -21 -27.5 -40.5t-36 -34.5t-41.5 -23.5t-44 -8.5q-49 0 -68.5 27t-13.5 71q-13 -17 -29 -34.5t-34 -31.5t-38.5 -22t-41.5 -6q-27 2 -41 16t-19 34t-2 45t11 50q13 40 38 86q-21 -10 -44 -15t-46 -3q-9 -32 -24 -64.5t-35.5 -61.5t-44.5 -50.5t-51 -30.5q-14 -5 -30 -6
t-32.5 3.5t-33 15.5t-31.5 31q-17 22 -22.5 48.5t-3 56t13 60t27.5 60.5q14 26 32.5 49t39.5 40t43 27.5t45 12.5t37.5 -6t30.5 -28q9 -11 18 -19.5t16 -19t11 -27t2 -44.5q0 -5 -0.5 -9.5t-1.5 -10.5q43 1 81.5 31t64.5 72q8 12 18.5 27t19.5 28q12 16 25 1
q17 -25 12.5 -57t-31.5 -77q-27 -44 -45.5 -77.5t-32.5 -68.5q-15 -37 -13.5 -60.5t18.5 -25.5q15 -1 32.5 10.5t36.5 32t39 48.5t40 61q46 76 72.5 128.5t49.5 84.5q13 19 25 6q11 -14 14 -43.5t-15 -67.5q-8 -17 -20.5 -38.5t-26 -44t-26 -45.5t-21.5 -42
q-20 -44 -16.5 -71.5t30.5 -25.5q15 1 32 12.5t34.5 31t34 44t30.5 50.5q4 7 9 7.5t9 -6.5t3 -24.5t-12 -37.5z" />
    <glyph glyph-name="fraction" unicode="&#x2044;" horiz-adv-x="563" 
d="M251 220q-27 14 -46 41t-20 56q-20 -17 -41 -41.5t-37 -53.5q-16 -28 -26.5 -58t-14.5 -56.5t-2 -47t12 -28.5q10 -9 26 -6.5t34.5 15.5t38.5 36.5t38 57.5q13 24 22 45t16 40zM257 247q6 21 7 38.5t-1 31.5q-1 12 -5 17t-9 4.5t-9.5 -7t-6.5 -17.5q-3 -17 3.5 -35.5
t20.5 -31.5zM590 150q5 -12 3.5 -27.5t-11.5 -35.5q-11 -23 -28 -42t-37 -33t-42 -21.5t-43 -7.5q-57 1 -72 43t6 104q8 21 18.5 47t23.5 53q-20 -15 -43.5 -21t-49.5 -4q-8 -32 -23 -65.5t-35.5 -63t-46 -52t-53.5 -31.5q-14 -5 -29.5 -6t-32 3t-33 14.5t-31.5 30.5
q-33 45 -25.5 105.5t41.5 119.5q15 25 33.5 48t38.5 40.5t42 28.5t45 13t38.5 -4.5t30.5 -28.5q8 -12 17 -20.5t16.5 -19.5t11.5 -27t2 -43q0 -7 -2 -17q23 0 45.5 11.5t44.5 31t42.5 45.5t40.5 55q13 20 25 6q11 -12 13.5 -41.5t-14.5 -67.5q-8 -17 -19 -37t-23 -42
t-23 -43.5t-19 -39.5q-19 -44 -17 -71t27 -25q16 1 34.5 12.5t36 31t33 44t26.5 50.5q3 7 8 7t9 -7zM533 407q-11 20 -9.5 40t13.5 33t30.5 5.5t27.5 -28.5t5 -37.5t-12 -27.5q-9 -11 -26.5 -8t-28.5 23z" />
    <glyph glyph-name="fraction" unicode="&#x2215;" horiz-adv-x="563" 
d="M251 220q-27 14 -46 41t-20 56q-20 -17 -41 -41.5t-37 -53.5q-16 -28 -26.5 -58t-14.5 -56.5t-2 -47t12 -28.5q10 -9 26 -6.5t34.5 15.5t38.5 36.5t38 57.5q13 24 22 45t16 40zM257 247q6 21 7 38.5t-1 31.5q-1 12 -5 17t-9 4.5t-9.5 -7t-6.5 -17.5q-3 -17 3.5 -35.5
t20.5 -31.5zM590 150q5 -12 3.5 -27.5t-11.5 -35.5q-11 -23 -28 -42t-37 -33t-42 -21.5t-43 -7.5q-57 1 -72 43t6 104q8 21 18.5 47t23.5 53q-20 -15 -43.5 -21t-49.5 -4q-8 -32 -23 -65.5t-35.5 -63t-46 -52t-53.5 -31.5q-14 -5 -29.5 -6t-32 3t-33 14.5t-31.5 30.5
q-33 45 -25.5 105.5t41.5 119.5q15 25 33.5 48t38.5 40.5t42 28.5t45 13t38.5 -4.5t30.5 -28.5q8 -12 17 -20.5t16.5 -19.5t11.5 -27t2 -43q0 -7 -2 -17q23 0 45.5 11.5t44.5 31t42.5 45.5t40.5 55q13 20 25 6q11 -12 13.5 -41.5t-14.5 -67.5q-8 -17 -19 -37t-23 -42
t-23 -43.5t-19 -39.5q-19 -44 -17 -71t27 -25q16 1 34.5 12.5t36 31t33 44t26.5 50.5q3 7 8 7t9 -7zM533 407q-11 20 -9.5 40t13.5 33t30.5 5.5t27.5 -28.5t5 -37.5t-12 -27.5q-9 -11 -26.5 -8t-28.5 23z" />
    <glyph glyph-name="trademark" unicode="&#x2122;" horiz-adv-x="577" 
d="M646 464q-14 -24 -30 -51.5t-31.5 -57t-30 -59.5t-26.5 -58q-5 -13 -15 -2t-14 30.5t10 56.5q8 19 19 43t26 52q-32 -38 -65 -82.5t-59 -82.5q-7 -10 -20 -2q-12 8 -21 23t-8 39q2 17 4.5 40.5t7.5 49.5q-25 -42 -49 -85.5t-44 -85.5q-3 -7 -7.5 -7.5t-8.5 4.5
q-8 11 -12 31t11 58q7 16 20 43.5t30 58.5t36 63t37 59q5 7 10.5 9.5t14.5 -7.5q8 -9 15 -16.5t13 -15.5q5 -7 4.5 -17.5t-2.5 -22.5q-2 -17 -7.5 -48t-9.5 -62q17 24 37.5 50t42 51t43 47.5t41.5 40.5q8 7 13 7.5t12 -7.5t12.5 -19.5t8.5 -22.5q2 -8 1 -19.5t-9 -25.5z
M363 557q-20 -28 -42 -61.5t-43.5 -70t-42 -74t-37.5 -73.5q-7 -16 -17 -1q-8 11 -12 31t11 56q13 32 38.5 77t57.5 98q-5 -1 -9 -1t-8 -1q-37 -4 -60 11.5t-31 39.5q-5 14 10 11q25 -5 52 -1.5t54.5 9.5t54.5 12.5t52 8.5q30 3 53 -9.5t34 -35.5q3 -5 0.5 -10t-10.5 -4
q-24 2 -51 -1.5t-54 -10.5z" />
    <glyph glyph-name="partialdiff" unicode="&#x2202;" horiz-adv-x="566" 
d="M95 -10q-45 5 -61 39q-21 -50 -37.5 -97t-26.5 -85t-12 -65.5t7 -38.5q8 -11 25 7.5t36 54.5t38 85t31 100zM101 17q7 37 9 73q2 28 -4 47.5t-12 17.5q-4 -2 -8 -11t-7 -21.5t-4.5 -25.5t-1.5 -22q0 -24 6.5 -40t21.5 -18zM105 184q37 -10 52.5 -40t12.5 -84
q-1 -7 -1 -13.5t-1 -14.5q23 15 46 41t44.5 60.5t40.5 75t34 84.5q-20 7 -26.5 22t-4 33.5t12.5 38t22.5 35.5t26 26.5t24.5 11.5q12 1 16.5 -9.5t4 -28t-6 -40.5t-13.5 -48q26 3 53.5 15t56.5 32q10 8 16.5 9.5t13.5 -6.5t14.5 -20.5t11 -26.5t1.5 -28.5t-13 -26.5
q-18 -20 -35.5 -42.5t-32.5 -45t-27 -44.5t-19 -41q-14 -42 -6 -68.5t31 -28.5q15 -1 31.5 10t33 30t32 44.5t27.5 53.5q7 16 15 0q4 -8 4 -25.5t-9 -39.5q-9 -23 -24.5 -41.5t-34.5 -32t-39.5 -20.5t-41.5 -7q-29 1 -48.5 13.5t-30 33t-11 47.5t8.5 57q8 25 22 51
t31.5 50.5t36 47t34.5 40.5q-33 -20 -64 -28.5t-55 -8.5q-16 -46 -38 -91.5t-49 -84t-57.5 -67.5t-64.5 -43q-7 -39 -19 -79t-27 -77.5t-33 -69.5t-36 -55q-29 -35 -52.5 -33.5t-44.5 20.5q-10 9 -19 20.5t-15.5 28t-8.5 39.5t2 55q7 55 29.5 122.5t54 139t69.5 144.5
t76.5 140.5t75 125.5t64.5 99q7 10 13.5 9t10.5 -10q11 -26 4.5 -60t-38.5 -90q-15 -26 -35 -59t-42 -70.5t-44.5 -77.5t-42.5 -79z" />
    <glyph glyph-name="product" unicode="&#x220f;" horiz-adv-x="539" 
d="M362 334q27 3 54 15t56 32q9 7 16.5 9t13.5 -6q7 -8 14 -20t10.5 -26t1.5 -28.5t-13 -26.5q-18 -20 -35.5 -42.5t-32.5 -45.5t-27 -45t-18 -42q-14 -41 -6.5 -68.5t31.5 -28.5q15 0 31.5 11t33 30t31.5 44.5t27 53.5q3 7 7.5 7t7.5 -7q4 -8 4 -25.5t-9 -39.5
q-9 -23 -24.5 -41.5t-34.5 -32t-39.5 -20.5t-41.5 -7q-29 1 -48.5 13t-30 32.5t-11 48t8.5 57.5q8 25 23 51.5t32.5 52t36.5 48t35 40.5q-34 -23 -66 -31.5t-57 -8.5q-23 -53 -53 -105t-65 -94t-73.5 -70t-79.5 -32q-29 -3 -47.5 7.5t-27 31t-7.5 48t11 58.5q11 35 29.5 73
t38 72.5t36.5 60.5t25 37q13 18 24 6t13.5 -42t-14.5 -68q-7 -17 -17.5 -35.5t-22.5 -39.5t-24 -43t-22 -46q-18 -43 -15.5 -68.5t26.5 -22.5t54.5 25t61.5 59t60 86.5t50 107.5q-19 7 -25 22t-2.5 33.5t14 38t24 35.5t27.5 26.5t25 10.5q12 0 16 -10.5t2.5 -28t-8 -40
t-15.5 -46.5zM232 459q9 -19 5 -37t-12 -29q-9 -11 -27 -8t-29 23t-9 40t14 33t30 5.5t28 -27.5z" />
    <glyph glyph-name="summation" unicode="&#x2211;" horiz-adv-x="718" 
d="M133 -70q-50 -29 -83 -66.5t-52 -72.5t-24.5 -62.5t1.5 -36.5q5 -7 21 8t38.5 47t48.5 79t50 104zM230 171q48 82 56.5 127t-12.5 47q-12 1 -30.5 -10t-40.5 -31t-44.5 -48t-43.5 -61q-20 -32 -32 -63.5t-15.5 -56t1.5 -39.5t20 -15q29 0 65.5 42t75.5 108zM178 40
q-22 -22 -47.5 -37t-54.5 -15q-34 0 -54 21.5t-24.5 57t8 79.5t43.5 89q60 86 115 123.5t93 37.5q31 0 46 -20t14 -46q9 15 17.5 29t16.5 26q13 20 25 5q11 -13 13 -42.5t-17 -67.5q-11 -22 -26.5 -53.5t-33.5 -68t-36.5 -75t-34.5 -74.5q78 40 139 109t101 175
q-18 8 -23.5 23.5t-1.5 33.5t14.5 37.5t24 35.5t27 26t23.5 11q13 1 17.5 -9.5t3.5 -28t-7.5 -40.5t-15.5 -48q50 9 108 47q19 15 29 2q7 -8 14.5 -20t11.5 -25.5t2 -28t-13 -27.5q-36 -41 -69 -87.5t-46 -86.5q-14 -42 -6 -68.5t31 -27.5q15 -1 32 10t33.5 30t32 44.5
t27.5 53.5q3 6 7.5 7t7.5 -7q4 -9 4 -26.5t-9 -38.5q-9 -23 -24.5 -42t-34.5 -32.5t-39.5 -21t-41.5 -6.5q-29 1 -48.5 13.5t-30 33.5t-11 48t8.5 57q8 25 22.5 51t32 50.5t36 47.5t34.5 41q-33 -21 -64.5 -30t-56.5 -9q-23 -53 -49.5 -100t-61.5 -87.5t-81 -74t-108 -58.5
q-21 -50 -45 -103t-50.5 -99t-55.5 -80.5t-60 -46.5q-14 -5 -28.5 -2.5t-28.5 23.5q-15 22 -24.5 51t4.5 73q22 67 80 113t135 77q14 36 28 68z" />
    <glyph glyph-name="radical" unicode="&#x221a;" horiz-adv-x="716" 
d="M738 86q-9 -23 -24.5 -41.5t-34 -32t-39 -20.5t-40.5 -7q-29 1 -49.5 13.5t-31 33t-11 47.5t8.5 57q8 25 22.5 51t32 51t36 47.5t34.5 40.5q-33 -21 -64 -29.5t-56 -8.5q-20 -50 -45.5 -101.5t-56 -95t-67 -72.5t-76.5 -32q-45 -4 -66.5 23t-17.5 70q-13 -18 -29 -35
t-33.5 -30t-37 -21t-40.5 -6q-27 2 -41.5 15.5t-19.5 34t-1.5 45.5t11.5 49q17 50 52 117.5t86 135.5q13 16 23 1q18 -25 14 -57t-31 -77q-26 -44 -45.5 -77.5t-33.5 -68.5q-15 -37 -13.5 -60.5t18.5 -25.5q15 -1 32.5 10.5t36.5 32t39 49t40 60.5q47 77 73 129t50 84
q13 17 24 6q11 -12 14 -42t-15 -68q-8 -17 -20.5 -38.5t-26 -44.5t-26.5 -46t-21 -42q-19 -43 -15.5 -69t26.5 -24q24 2 51 25.5t53.5 61.5t51 87t44.5 102q-20 7 -26.5 22.5t-4 34t12.5 38t23 35.5t26.5 26.5t23.5 11.5q12 1 17 -9.5t4.5 -28t-6 -40.5t-13.5 -48
q50 7 110 47q19 16 30 3q7 -8 14 -20.5t10.5 -26t1.5 -28t-13 -27.5q-18 -20 -35 -42.5t-32 -45t-27 -44.5t-19 -41q-14 -42 -6.5 -68.5t31.5 -28.5q15 -1 31.5 10t33 30t31.5 44.5t27 53.5q3 7 7.5 7t7.5 -7q4 -8 4 -25t-9 -40z" />
    <glyph glyph-name="infinity" unicode="&#x221e;" horiz-adv-x="862" 
d="M686 333q26 3 52.5 15t54.5 32q10 7 16.5 8.5t13.5 -6.5t14.5 -20t11 -26.5t1.5 -29t-13 -26.5q-36 -40 -68 -86.5t-46 -87.5t-6 -67.5t31 -28.5q15 -1 31.5 10t33 30t32 44.5t27.5 53.5q7 16 15 0q4 -8 4.5 -26t-8.5 -39q-10 -23 -25 -41.5t-34 -32t-39.5 -21
t-41.5 -6.5q-29 1 -48.5 13.5t-30 33t-11.5 47.5t8 57q7 25 21.5 51t32 50.5t36 47.5t35.5 41q-35 -22 -66.5 -30t-55.5 -8q-23 -46 -49 -99t-56.5 -98.5t-65 -75.5t-74.5 -31q-29 0 -48.5 12t-30 33t-11 48.5t8.5 57.5q8 25 23 51.5t32.5 52t36.5 48t35 40.5
q-34 -23 -65.5 -31.5t-57.5 -8.5q-23 -53 -53 -105t-65 -94t-74 -70t-79 -32q-29 -3 -47.5 7.5t-27.5 31t-8.5 48t11.5 58.5q12 35 31 73t38.5 72.5t36 60.5t24.5 37q7 9 12 11t12 -5q11 -12 13.5 -42t-14.5 -68q-15 -34 -40.5 -75.5t-45.5 -89.5q-17 -43 -14.5 -67.5
t25.5 -22.5q24 2 54.5 24t61.5 59t60 87t50 108q-20 7 -25.5 22t-2 33.5t14 38t24 35.5t28 26.5t24.5 10.5q12 0 16 -10.5t2.5 -28t-8 -40t-15.5 -46.5q26 3 53.5 15t56.5 32q10 6 16.5 8.5t11.5 -5.5q7 -8 14.5 -20.5t11.5 -26.5t2 -29t-13 -27q-18 -20 -35.5 -42
t-33.5 -44.5t-28 -44.5t-18 -42q-13 -42 -4.5 -67.5t31.5 -27.5q22 -2 50 21t55.5 62.5t53 90.5t43.5 107q-20 7 -27 22t-4.5 33t12.5 37.5t23 36t26.5 27t23.5 11.5q12 1 17 -10t5 -28.5t-4.5 -40.5t-13.5 -46zM231 456q9 -19 5 -37t-12 -29q-9 -11 -27 -8t-29 23t-9 40
t14 33t30 5.5t28 -27.5z" />
    <glyph glyph-name="integral" unicode="&#x222b;" horiz-adv-x="687" 
d="M714 150q4 -9 4 -26t-9 -39q-9 -23 -24.5 -42t-34.5 -32.5t-39.5 -21t-41.5 -6.5q-29 1 -48.5 13.5t-30 33.5t-11 48t8.5 57q8 25 22.5 51t32 51t36 47.5t34.5 40.5q-33 -21 -64 -29.5t-56 -8.5q-20 -50 -47 -103t-59.5 -96.5t-68 -71t-72.5 -26.5q-26 1 -49 12
t-40.5 34.5t-27.5 59.5t-10 86q0 14 4 19t18 10q46 15 81.5 37t58 44.5t32 42.5t3.5 30q-8 13 -37.5 5t-71.5 -40q-28 -21 -51.5 -49t-46.5 -67t-47 -91t-53 -121q-7 -15 -16 -4q-11 14 -13 39.5t12 70.5q7 23 24 63.5t41 90.5t52.5 105.5t57.5 108t56.5 98.5t49.5 76
q7 10 14 9.5t12 -8.5q11 -22 7 -55t-35 -89q-9 -15 -20 -35t-23 -41l-24 -42t-22 -39q45 44 87 56q29 8 48.5 -2.5t34.5 -42.5q14 -29 10.5 -59.5t-31.5 -56.5q-26 -25 -59.5 -46t-79.5 -36q1 -31 7 -57t15 -45t20 -30t23 -11q19 -1 45 21.5t53.5 60.5t53.5 87.5t45 102.5
q-20 7 -26.5 22.5t-4 34t12.5 38t23 35.5t26.5 26.5t23.5 11.5q12 1 17 -9.5t4.5 -28t-6 -41t-13.5 -48.5q26 4 53.5 16t56.5 32q19 15 28 2q7 -8 14.5 -20t11.5 -25.5t2 -28t-13 -27.5q-18 -20 -35.5 -43t-33.5 -45.5t-28 -44.5t-18 -41q-13 -42 -5.5 -68.5t30.5 -27.5
q16 -1 33 10t33.5 30t31.5 44.5t27 53.5q3 6 7.5 6.5t7.5 -6.5z" />
    <glyph glyph-name="approxequal" unicode="&#x2248;" horiz-adv-x="428" 
d="M152 -95q-49 -28 -82 -65.5t-52 -72.5t-24.5 -62.5t1.5 -36.5q5 -7 21.5 8.5t39 48t48 79t48.5 101.5zM160 287q-10 -20 -22 -40.5t-23 -43.5q36 29 66 63t53 68t40 66.5t27.5 57.5t14 41t-0.5 18q-4 3 -19.5 -15t-37 -50t-47.5 -74.5t-51 -90.5zM465 152q2 -7 -1 -23
t-14 -36q-30 -52 -85.5 -88.5t-123.5 -65.5q-21 -50 -45 -103t-50.5 -98.5t-55 -79t-58.5 -44.5q-14 -5 -28.5 -3.5t-28.5 22.5q-8 11 -15 23.5t-11 27.5t-4 32.5t7 39.5q22 69 82 117t136 74q16 39 33 79t34 78q-20 -13 -40.5 -17.5t-40.5 -3.5q-23 1 -44 14t-33 33
q-33 -68 -68 -146.5t-67 -164.5q-7 -17 -17 -4q-11 15 -16 39.5t10 70.5q13 41 35.5 98t51.5 122t63 132.5t70 129t73 112t71 80.5q24 21 42 5q41 -40 22 -109q-12 -46 -39.5 -96t-62.5 -96t-74.5 -85t-76.5 -63q8 -19 24.5 -30t36.5 -11t40 9t39 24.5t35 37.5t28 47
q22 47 43 83.5t38 61.5q13 19 24 6q11 -14 12.5 -43t-15.5 -67q-10 -21 -27 -55.5t-37.5 -75t-41 -83t-36.5 -79.5q69 37 113.5 82t76.5 91q4 5 9 6t7 -7zM475 395q-11 -11 -27.5 -7.5t-28.5 22.5q-13 20 -11 40.5t16 33.5q12 11 30 4.5t26 -26.5q8 -21 6 -39t-11 -28z" />
    <glyph glyph-name="notequal" unicode="&#x2260;" horiz-adv-x="964" 
d="M218 241q12 15 21.5 32t15 31.5t6.5 25.5t-3 15q-8 7 -26 -0.5t-40 -26t-44 -47t-39 -62.5q-3 -4 -4.5 -8.5t-4.5 -8.5q18 -11 34.5 -10t31.5 9t28 22t24 28zM505 107q-13 -42 -5.5 -68t30.5 -27q22 0 48.5 23.5t53.5 63t52.5 90.5t45.5 105q-20 7 -26.5 22t-3.5 33
t13 37.5t22.5 35.5t26 26.5t23.5 11.5q12 1 17 -9.5t4.5 -27.5t-6 -40t-14.5 -48q28 3 55.5 15t56.5 32q19 13 28 3q7 -9 14.5 -21t11.5 -26t2 -28.5t-13 -27.5q-18 -20 -36 -42.5t-33.5 -45.5t-27.5 -45t-18 -40q-13 -42 -5.5 -69t30.5 -28q16 -1 33 10t33.5 30t31 44.5
t26.5 53.5q3 7 8.5 7t7.5 -6q4 -9 4 -26t-9 -39q-9 -23 -24.5 -41.5t-34.5 -32t-39.5 -21t-41.5 -7.5q-29 1 -48.5 13.5t-30 33t-11 47.5t8.5 57q8 26 22.5 52t32 51t36 47.5t34.5 40.5q-33 -22 -64 -30.5t-56 -8.5q-20 -50 -46 -103t-57.5 -97.5t-67 -74t-75.5 -30.5
q-28 -1 -47.5 11.5t-30 34t-11 50t8.5 58.5q7 25 21.5 50.5t32 50t36 47t34.5 40.5q-33 -21 -65 -29.5t-55 -8.5q-31 -65 -66.5 -120t-74.5 -95t-81 -63t-87 -23q-48 0 -79 20.5t-45 55.5t-9 80t29 93q23 46 52.5 79.5t59 53t56.5 24.5t46 -6t33.5 -22.5t25.5 -28.5
q6 -9 7 -24t-2.5 -33t-13 -38t-24.5 -39q-18 -23 -39 -38t-44.5 -20t-49 1t-51.5 27q-12 -34 -14 -62t4.5 -49t20.5 -32.5t33 -12.5q41 -2 81.5 23.5t76.5 66t65.5 90.5t50.5 98q-19 8 -24.5 23.5t-2 33.5t14 37.5t23.5 35t27 26t24 11.5q12 0 16.5 -10.5t3.5 -27.5
t-7.5 -40t-15.5 -47q50 7 108 47q9 6 16 8.5t12 -5.5q7 -9 14.5 -21t11.5 -26t2 -28.5t-13 -27.5q-17 -20 -35 -42.5t-33.5 -45.5t-27.5 -45t-18 -41z" />
    <glyph glyph-name="lessequal" unicode="&#x2264;" horiz-adv-x="1040" 
d="M578 108q-13 -42 -5 -69t31 -27t50 23.5t54 63t52.5 90t45.5 104.5q-20 7 -26.5 22t-3.5 33.5t13 37.5t22.5 35.5t26 26.5t23.5 11q12 1 16.5 -9.5t4 -27.5t-6 -40t-13.5 -48q26 3 53.5 15.5t56.5 32.5q10 7 16.5 8.5t13.5 -6.5t14.5 -20.5t11 -26t1.5 -28t-13 -27.5
q-36 -41 -68.5 -88t-45.5 -86q-14 -42 -6 -68t31 -28q15 -1 32 9.5t33 29.5t31.5 44.5t27.5 53.5q3 6 7.5 7t7.5 -6q4 -9 4.5 -26.5t-8.5 -38.5q-10 -23 -25 -42t-34 -32.5t-39.5 -21t-41.5 -6.5q-29 1 -48.5 14t-30 33t-12 47t7.5 57q7 26 22 52.5t32.5 51t36 47t34.5 40.5
q-32 -21 -63.5 -29.5t-54.5 -8.5q-20 -50 -47 -103.5t-58.5 -98t-67.5 -73.5t-75 -29q-29 0 -48.5 12.5t-30 33t-11 48t8.5 57.5q8 26 22.5 52.5t32 51t36 47t34.5 40.5q-33 -21 -64.5 -29.5t-55.5 -8.5q-20 -50 -46 -102t-57 -95.5t-66.5 -72.5t-75.5 -32
q-45 -4 -66.5 23.5t-17.5 69.5q-13 -17 -29 -34t-34 -30t-37.5 -21t-39.5 -6q-27 2 -42 15.5t-20 34t-2 45.5t11 50q16 50 52.5 116.5t85.5 134.5q13 18 25 1q35 -47 -19 -132q-28 -44 -45.5 -77.5t-31.5 -70.5q-6 -16 -9 -31t-3 -27t4 -19.5t13 -8.5q15 -1 32 10.5t36 32.5
t39 49.5t40 61.5q47 76 73.5 128t49.5 83q8 11 13 12t12 -6q11 -12 13.5 -42t-14.5 -68q-8 -17 -20 -38.5t-25.5 -44.5t-26.5 -46t-22 -42q-19 -42 -16 -69t26 -24q24 3 51 26.5t53.5 61.5t51 87t44.5 103q-20 7 -26.5 22t-3.5 33.5t13 37.5t22.5 35.5t26 26.5t23.5 11
q12 1 17 -9.5t4 -27.5t-6 -40t-14 -48q27 3 54.5 15.5t56.5 32.5q19 14 29 2q7 -8 14.5 -20.5t11.5 -26.5t2 -28.5t-13 -26.5q-18 -20 -36 -43t-33.5 -46.5t-27.5 -45t-18 -39.5z" />
    <glyph glyph-name="greaterequal" unicode="&#x2265;" horiz-adv-x="733" 
d="M279 346q-12 1 -30.5 -10t-40 -31t-44.5 -48t-44 -61q-20 -32 -32 -63t-15.5 -55.5t1.5 -40t20 -15.5q30 -1 67.5 40.5t75.5 109.5q47 82 55.5 127t-13.5 47zM209 69q-24 -31 -56.5 -55.5t-69.5 -24.5q-35 0 -55.5 21.5t-25 57t8 79.5t43.5 89q60 86 116 123.5t94 37.5
q29 0 44 -20t15 -46q11 19 20.5 33t14.5 22q13 19 24 6q12 -14 15 -43t-14 -67q-8 -17 -20.5 -39t-26.5 -45.5t-27 -47t-21 -42.5q-18 -43 -15 -68t26 -23q24 2 52 25t55 60.5t51.5 86.5t42.5 104q-20 7 -27 22t-4 33.5t12.5 38t22.5 36t26.5 27t23.5 11.5q12 1 16 -9
t3.5 -27.5t-6 -40.5t-13.5 -49q27 3 54.5 15t56.5 32q11 8 17 9t13 -7t14 -20t11 -25.5t2 -28t-13 -27.5q-18 -20 -35.5 -43t-33 -45.5t-27.5 -44.5t-18 -41q-13 -42 -5.5 -68t30.5 -28q16 -1 32.5 10t33 30t31.5 44.5t27 53.5q3 6 7.5 7t7.5 -7q4 -9 4.5 -26.5t-8.5 -38.5
q-10 -23 -25 -42t-34 -32.5t-39.5 -21t-41.5 -6.5q-29 1 -48.5 13.5t-30 33.5t-11.5 48t8 57q7 25 21.5 50.5t32 50t36 47t34.5 40.5q-33 -20 -64 -28.5t-54 -8.5q-18 -53 -44 -105.5t-57.5 -94.5t-68 -69.5t-76.5 -30.5q-42 -3 -63.5 20.5t-20.5 61.5z" />
    <glyph glyph-name="lozenge" unicode="&#x25ca;" horiz-adv-x="574" 
d="M247 212q-29 20 -46.5 47.5t-17.5 55.5q-20 -16 -41 -40t-37 -53q-16 -28 -26 -58t-14.5 -56.5t-2 -47t12.5 -28.5q10 -9 26 -6.5t34.5 15.5t39 36.5t38.5 57.5q11 21 19 40t15 37zM255 242q12 48 8 75q-4 24 -15 21.5t-15 -24.5q-6 -41 22 -72zM463 247q35 24 62 56
t43 55q16 24 31 51t25.5 50t15 40t-0.5 20q-4 3 -19 -14.5t-37 -49t-48 -74.5t-51 -91q-6 -11 -11 -22t-10 -21zM445 205q-15 -38 -24.5 -72t-11 -60t5 -41.5t23.5 -16.5q18 -1 39 10.5t42 32t40.5 46.5t33.5 55q5 10 11.5 10.5t9.5 -10.5q4 -12 1 -27.5t-11 -33.5
q-5 -11 -20 -30t-37.5 -37t-50 -31t-57.5 -12q-50 2 -74.5 39t-7.5 117q5 21 10 39q-6 -1 -11.5 -1h-11.5q-19 0 -35 3q-9 -30 -24.5 -61t-35.5 -57.5t-43.5 -46t-48.5 -27.5q-14 -5 -30 -6t-33 3t-33.5 14.5t-30.5 30.5q-32 45 -24.5 105.5t41.5 119.5q15 25 33 48t38 40.5
t42 28.5t45 13t38 -5.5t30 -27.5q9 -12 18 -20.5t16 -19.5t11 -27t2 -43l-2 -18t-3 -20q7 -1 13.5 -1.5t14.5 -0.5h15.5t15.5 1q18 57 44.5 112.5t57.5 106.5t65.5 95.5t67.5 79.5q11 11 22 13t21 -8q40 -40 22 -109q-6 -21 -16 -44.5t-22.5 -46.5t-27 -44.5t-28.5 -39.5
q-31 -38 -63.5 -69t-71.5 -49z" />
    <glyph glyph-name="apple" horiz-adv-x="604" 
d="M331 -88q-45 -30 -76 -68t-48.5 -73.5t-22.5 -62.5t1 -36q3 -5 18 10.5t35.5 47.5t45 78.5t47.5 103.5zM139 -69q-50 -26 -84.5 -62t-54.5 -70.5t-26.5 -62t0.5 -36.5q5 -7 21.5 7t39.5 45.5t50 77t54 101.5zM239 169q48 83 56 127.5t-12 46.5q-12 1 -31 -10t-41 -31
t-44.5 -48t-43.5 -61q-20 -32 -32 -63t-15.5 -55.5t2 -40t20.5 -15.5q29 -1 66 41.5t75 108.5zM639 149q2 -5 -1.5 -22t-14.5 -37q-15 -26 -35.5 -46t-46.5 -36.5t-55.5 -30t-62.5 -26.5q-21 -51 -43.5 -103t-47 -98t-51.5 -81.5t-57 -51.5q-15 -8 -31.5 -3.5t-28.5 22.5
q-14 20 -22.5 50t4.5 70q20 64 69 113t135 87q8 23 18 44.5t20 44.5q-32 -26 -72.5 -45t-85.5 -36q-23 -51 -49 -103t-53.5 -96.5t-57.5 -77t-61 -43.5q-16 -5 -29.5 -1.5t-26.5 23.5q-8 12 -14.5 24.5t-10 27.5t-2 32.5t9.5 39.5q12 33 34 61t51 50.5t63 39.5t72 30
q8 17 15 33.5t15 33.5q-21 -22 -46.5 -36.5t-54.5 -14.5q-34 0 -54.5 21.5t-25 56.5t8 79t42.5 89q60 88 116 124.5t94 36.5q30 0 45 -20t15 -48q9 17 17.5 30.5t16.5 26.5q12 19 24 6q11 -14 13.5 -43.5t-16.5 -66.5q-11 -23 -27 -55.5t-34 -69.5t-36.5 -76t-34.5 -74
q67 33 112 70t75 79q34 69 65 127.5t54 93.5q8 11 12.5 12t11.5 -6q11 -12 12.5 -42t-15.5 -68q-9 -20 -25 -52l-35 -70t-39.5 -78.5t-36.5 -77.5q68 36 109.5 74t71.5 84q12 14 18 -1zM650 393q-9 -11 -27 -6.5t-29 21.5q-12 20 -9.5 40.5t14.5 32.5t30 6t27 -28
q8 -20 6 -37.5t-12 -28.5z" />
  </font>
</defs>
</svg>
