<?xml version="1.0" standalone="no"?>
<!DOCTYPE svg PUBLIC "-//W3C//DTD SVG 1.1//EN" "http://www.w3.org/Graphics/SVG/1.1/DTD/svg11.dtd" >
<svg xmlns="http://www.w3.org/2000/svg" xmlns:xlink="http://www.w3.org/1999/xlink" version="1.1">
<metadata>
Created by FontForge 20170731 at Tue Dec 25 03:00:00 2018
 By Aleksey,,,
Copyright (c) 2018 by Mark Simonson. All rights reserved.
</metadata>
<defs>
<font id="ProximaSoft-Medium" horiz-adv-x="559" >
  <font-face 
    font-family="Proxima Soft Medium"
    font-weight="500"
    font-stretch="normal"
    units-per-em="1000"
    panose-1="2 0 5 6 3 0 0 2 0 4"
    ascent="790"
    descent="-210"
    x-height="483"
    cap-height="667"
    bbox="-365 -326 1153 1084"
    underline-thickness="64"
    underline-position="-344"
    unicode-range="U+000D-FB04"
  />
<missing-glyph horiz-adv-x="500" 
d="M74 -48v758q0 19 11.5 30.5t30.5 11.5h267q19 0 30.5 -11.5t11.5 -30.5v-758q0 -19 -11.5 -30.5t-30.5 -11.5h-267q-19 0 -30.5 11.5t-11.5 30.5zM393 722h-288v-782h288v782z" />
    <glyph glyph-name="f_f_j" unicode="ffj" horiz-adv-x="824" 
d="M184 515v-32h64q16 0 28 -11.5t12 -27.5t-12 -28t-28 -12h-64v-364q0 -19 -13 -32t-31 -13q-19 0 -32.5 13t-13.5 32v364h-45q-16 0 -28 12t-12 28t12 27.5t28 11.5h45v32q0 75 40 118.5t107 43.5q25 0 48 -6q28 -9 28 -35q0 -16 -9.5 -26t-26.5 -10q-4 0 -12 1.5
t-13 1.5q-34 0 -53 -23t-19 -65zM480 515v-32h64q16 0 28 -11.5t12 -27.5t-12 -28t-28 -12h-64v-364q0 -19 -13 -32t-31 -13q-19 0 -32.5 13t-13.5 32v364h-45q-16 0 -28 12t-12 28t12 27.5t28 11.5h45v32q0 75 40 118.5t107 43.5q25 0 48 -6q28 -9 28 -35q0 -16 -9.5 -26
t-26.5 -10q-4 0 -12 1.5t-13 1.5q-34 0 -53 -23t-19 -65zM649 637q0 24 17 40.5t41 16.5t41 -16.5t17 -40.5t-17 -41t-41 -17q-23 0 -40.5 17t-17.5 41zM584 -195q-15 1 -26 12t-11 26t10 27t24 12l10 -1q72 0 72 81v481q0 19 13 32t32 13q18 0 31.5 -13t13.5 -32v-481
q0 -75 -39.5 -116.5t-111.5 -41.5q-14 0 -18 1z" />
    <glyph glyph-name="f_j" unicode="fj" horiz-adv-x="529" 
d="M184 515v-32h64q16 0 28 -11.5t12 -27.5t-12 -28t-28 -12h-64v-364q0 -19 -13 -32t-31 -13q-19 0 -32.5 13t-13.5 32v364h-45q-16 0 -28 12t-12 28t12 27.5t28 11.5h45v32q0 75 40 118.5t107 43.5q25 0 48 -6q28 -9 28 -35q0 -16 -9.5 -26t-26.5 -10q-4 0 -12 1.5
t-13 1.5q-34 0 -53 -23t-19 -65zM354 637q0 24 17 40.5t41 16.5t41 -16.5t17 -40.5t-17 -41t-41 -17q-23 0 -40.5 17t-17.5 41zM289 -195q-15 1 -26 12t-11 26t10 27t24 12l10 -1q72 0 72 81v481q0 19 13 32t32 13q18 0 31.5 -13t13.5 -32v-481q0 -75 -39.5 -116.5
t-111.5 -41.5q-14 0 -18 1z" />
    <glyph glyph-name="f_f" unicode="ff" horiz-adv-x="591" 
d="M184 515v-32h64q16 0 28 -11.5t12 -27.5t-12 -28t-28 -12h-64v-364q0 -19 -13 -32t-31 -13q-19 0 -32.5 13t-13.5 32v364h-45q-16 0 -28 12t-12 28t12 27.5t28 11.5h45v32q0 75 40 118.5t107 43.5q25 0 48 -6q28 -9 28 -35q0 -16 -9.5 -26t-26.5 -10q-4 0 -12 1.5
t-13 1.5q-34 0 -53 -23t-19 -65zM480 515v-32h64q16 0 28 -11.5t12 -27.5t-12 -28t-28 -12h-64v-364q0 -19 -13 -32t-31 -13q-19 0 -32.5 13t-13.5 32v364h-45q-16 0 -28 12t-12 28t12 27.5t28 11.5h45v32q0 75 40 118.5t107 43.5q25 0 48 -6q28 -9 28 -35q0 -16 -9.5 -26
t-26.5 -10q-4 0 -12 1.5t-13 1.5q-34 0 -53 -23t-19 -65z" />
    <glyph glyph-name="fi" unicode="fi" horiz-adv-x="529" 
d="M184 515v-32h64q16 0 28 -11.5t12 -27.5t-12 -28t-28 -12h-64v-364q0 -19 -13 -32t-31 -13q-19 0 -32.5 13t-13.5 32v364h-45q-16 0 -28 12t-12 28t12 27.5t28 11.5h45v32q0 75 40 118.5t107 43.5q25 0 48 -6q28 -9 28 -35q0 -16 -9.5 -26t-26.5 -10q-4 0 -12 1.5
t-13 1.5q-34 0 -53 -23t-19 -65zM354 637q0 24 17 40.5t41 16.5t41 -16.5t17 -40.5t-17 -41t-41 -17q-23 0 -40.5 17t-17.5 41zM368 40v403q0 19 13 32t32 13q18 0 31.5 -13t13.5 -32v-403q0 -19 -13.5 -32t-32.5 -13q-18 0 -31 13t-13 32z" />
    <glyph glyph-name="fl" unicode="fl" horiz-adv-x="529" 
d="M184 515v-32h64q16 0 28 -11.5t12 -27.5t-12 -28t-28 -12h-64v-364q0 -19 -13 -32t-31 -13q-19 0 -32.5 13t-13.5 32v364h-45q-16 0 -28 12t-12 28t12 27.5t28 11.5h45v32q0 75 40 118.5t107 43.5q25 0 48 -6q28 -9 28 -35q0 -16 -9.5 -26t-26.5 -10q-4 0 -12 1.5
t-13 1.5q-34 0 -53 -23t-19 -65zM368 40v587q0 19 13 32t32 13q18 0 31.5 -13t13.5 -32v-587q0 -19 -13.5 -32t-31.5 -13q-19 0 -32 13t-13 32z" />
    <glyph glyph-name="f_f_i" unicode="ffi" horiz-adv-x="824" 
d="M184 515v-32h64q16 0 28 -11.5t12 -27.5t-12 -28t-28 -12h-64v-364q0 -19 -13 -32t-31 -13q-19 0 -32.5 13t-13.5 32v364h-45q-16 0 -28 12t-12 28t12 27.5t28 11.5h45v32q0 75 40 118.5t107 43.5q25 0 48 -6q28 -9 28 -35q0 -16 -9.5 -26t-26.5 -10q-4 0 -12 1.5
t-13 1.5q-34 0 -53 -23t-19 -65zM480 515v-32h64q16 0 28 -11.5t12 -27.5t-12 -28t-28 -12h-64v-364q0 -19 -13 -32t-31 -13q-19 0 -32.5 13t-13.5 32v364h-45q-16 0 -28 12t-12 28t12 27.5t28 11.5h45v32q0 75 40 118.5t107 43.5q25 0 48 -6q28 -9 28 -35q0 -16 -9.5 -26
t-26.5 -10q-4 0 -12 1.5t-13 1.5q-34 0 -53 -23t-19 -65zM649 637q0 24 17 40.5t41 16.5t41 -16.5t17 -40.5t-17 -41t-41 -17q-23 0 -40.5 17t-17.5 41zM663 40v403q0 19 13 32t32 13q18 0 31.5 -13t13.5 -32v-403q0 -19 -13.5 -32t-32.5 -13q-18 0 -31 13t-13 32z" />
    <glyph glyph-name="f_f_l" unicode="ffl" horiz-adv-x="824" 
d="M184 515v-32h64q16 0 28 -11.5t12 -27.5t-12 -28t-28 -12h-64v-364q0 -19 -13 -32t-31 -13q-19 0 -32.5 13t-13.5 32v364h-45q-16 0 -28 12t-12 28t12 27.5t28 11.5h45v32q0 75 40 118.5t107 43.5q25 0 48 -6q28 -9 28 -35q0 -16 -9.5 -26t-26.5 -10q-4 0 -12 1.5
t-13 1.5q-34 0 -53 -23t-19 -65zM480 515v-32h64q16 0 28 -11.5t12 -27.5t-12 -28t-28 -12h-64v-364q0 -19 -13 -32t-31 -13q-19 0 -32.5 13t-13.5 32v364h-45q-16 0 -28 12t-12 28t12 27.5t28 11.5h45v32q0 75 40 118.5t107 43.5q25 0 48 -6q28 -9 28 -35q0 -16 -9.5 -26
t-26.5 -10q-4 0 -12 1.5t-13 1.5q-34 0 -53 -23t-19 -65zM663 40v587q0 19 13 32t32 13q18 0 31.5 -13t13.5 -32v-587q0 -19 -13.5 -32t-31.5 -13q-19 0 -32 13t-13 32z" />
    <glyph glyph-name="f_b" unicode="fb" horiz-adv-x="874" 
d="M184 515v-32h64q16 0 28 -11.5t12 -27.5t-12 -28t-28 -12h-64v-364q0 -19 -13 -32t-31 -13q-19 0 -32.5 13t-13.5 32v364h-45q-16 0 -28 12t-12 28t12 27.5t28 11.5h45v32q0 75 40 118.5t107 43.5q25 0 48 -6q28 -9 28 -35q0 -16 -9.5 -26t-26.5 -10q-4 0 -12 1.5
t-13 1.5q-34 0 -53 -23t-19 -65zM831 241q0 -116 -59.5 -184.5t-155.5 -68.5t-158 81v-29q0 -19 -13.5 -32t-31.5 -13q-19 0 -32 13t-13 32v587q0 19 13 32t32 13q18 0 31.5 -13t13.5 -32v-213q58 81 158 81q95 0 155 -70t60 -184zM738 241q0 78 -40 126t-106 48
q-39 0 -77 -20.5t-57 -51.5v-205q18 -30 56 -50t78 -20q66 0 106 47.5t40 125.5z" />
    <glyph glyph-name="f_h" unicode="fh" horiz-adv-x="856" 
d="M184 515v-32h64q16 0 28 -11.5t12 -27.5t-12 -28t-28 -12h-64v-364q0 -19 -13 -32t-31 -13q-19 0 -32.5 13t-13.5 32v364h-45q-16 0 -28 12t-12 28t12 27.5t28 11.5h45v32q0 75 40 118.5t107 43.5q25 0 48 -6q28 -9 28 -35q0 -16 -9.5 -26t-26.5 -10q-4 0 -12 1.5
t-13 1.5q-34 0 -53 -23t-19 -65zM694 40v271q0 55 -25.5 79.5t-77.5 24.5q-39 0 -75 -20t-58 -50v-305q0 -19 -13.5 -32t-31.5 -13q-19 0 -32 13t-13 32v587q0 19 13 32t32 13q18 0 31.5 -13t13.5 -32v-212q28 35 74.5 57.5t96.5 22.5q155 0 155 -154v-301q0 -19 -13 -32
t-32 -13q-18 0 -31.5 13t-13.5 32z" />
    <glyph glyph-name="f_k" unicode="fk" horiz-adv-x="816" 
d="M184 515v-32h64q16 0 28 -11.5t12 -27.5t-12 -28t-28 -12h-64v-364q0 -19 -13 -32t-31 -13q-19 0 -32.5 13t-13.5 32v364h-45q-16 0 -28 12t-12 28t12 27.5t28 11.5h45v32q0 75 40 118.5t107 43.5q25 0 48 -6q28 -9 28 -35q0 -16 -9.5 -26t-26.5 -10q-4 0 -12 1.5
t-13 1.5q-34 0 -53 -23t-19 -65zM779 40q0 -19 -12.5 -32t-31.5 -13q-23 0 -35 15l-167 197l-75 -70v-97q0 -19 -13.5 -32t-32.5 -13q-18 0 -31 13t-13 32v587q0 19 13 32t32 13q18 0 31.5 -13t13.5 -32v-389l243 239q11 11 29 11q17 0 29 -12.5t12 -29.5q0 -16 -13 -29
l-159 -155l169 -192q11 -14 11 -30z" />
    <glyph glyph-name=".notdef" horiz-adv-x="500" 
d="M74 -48v758q0 19 11.5 30.5t30.5 11.5h267q19 0 30.5 -11.5t11.5 -30.5v-758q0 -19 -11.5 -30.5t-30.5 -11.5h-267q-19 0 -30.5 11.5t-11.5 30.5zM393 722h-288v-782h288v782z" />
    <glyph glyph-name=".null" horiz-adv-x="0" 
 />
    <glyph glyph-name="nonmarkingreturn" horiz-adv-x="333" 
 />
    <glyph glyph-name="CR" unicode="&#xd;" horiz-adv-x="0" 
 />
    <glyph glyph-name="space" unicode=" " horiz-adv-x="258" 
 />
    <glyph glyph-name="exclam" unicode="!" horiz-adv-x="238" 
d="M79 228l-14 389q-1 22 15 38.5t38 16.5q23 0 39 -16t15 -39l-13 -389q-1 -16 -12.5 -27t-28.5 -11q-16 0 -27 11t-12 27zM118 114q26 0 44.5 -18.5t18.5 -43.5t-19 -43.5t-44 -18.5t-43 18.5t-18 43.5q0 26 18 44t43 18z" />
    <glyph glyph-name="quotedbl" unicode="&#x22;" horiz-adv-x="361" 
d="M79 418l-18 125q-10 70 -10 82q0 21 15 36.5t37 15.5t37.5 -15.5t15.5 -36.5q0 -12 -29 -207q-2 -22 -24 -22t-24 22zM235 418q-4 24 -11 71t-9 59q-9 68 -9 77q0 21 15.5 36.5t37.5 15.5q21 0 36 -15.5t15 -36.5q0 -11 -9 -78q-11 -81 -19 -129q-5 -22 -23 -22
q-22 0 -24 22z" />
    <glyph glyph-name="numbersign" unicode="#" horiz-adv-x="598" 
d="M573 458q0 -13 -9 -21.5t-21 -8.5h-89l-64 -190h73q13 0 21.5 -8.5t8.5 -21.5t-8.5 -22t-21.5 -9h-93l-53 -159q-7 -23 -32 -23q-13 0 -23 10t-10 23q0 2 2 12l46 137h-106l-53 -159q-7 -23 -32 -23q-13 0 -23 10t-10 23q0 4 2 12l45 137h-66q-13 0 -21.5 9t-8.5 21
q0 13 8.5 22t21.5 9h87l64 190h-71q-12 0 -21 8.5t-9 21.5t9 21.5t21 8.5h92l52 161q7 23 32 23q14 0 23.5 -9.5t9.5 -23.5q0 -10 -1 -12l-46 -139h106l52 161q9 23 32 23q14 0 24 -9.5t10 -23.5q0 -4 -2 -12l-47 -139h69q12 0 21 -8.5t9 -21.5zM319 238l65 190h-106
l-63 -190h104z" />
    <glyph glyph-name="dollar" unicode="$" horiz-adv-x="599" 
d="M340 -10v-60q0 -14 -10.5 -24.5t-24.5 -10.5q-15 0 -25.5 10.5t-10.5 24.5v59q-117 8 -200 76q-18 15 -18 38q0 20 14.5 34t33.5 14q16 0 29 -10q62 -50 141 -61v218q-105 27 -155.5 66t-53.5 123q0 77 58.5 130t150.5 59v62q0 14 10.5 24.5t25.5 10.5q14 0 24.5 -10.5
t10.5 -24.5v-63q94 -9 165 -62q20 -15 20 -39q0 -20 -14 -34t-33 -14q-14 0 -28 9q-45 37 -110 48v-195q67 -19 109 -39q105 -47 105 -160q0 -78 -54 -135q-53 -56 -160 -64zM269 407v180q-48 -4 -77 -29t-29 -64q0 -31 26 -51t80 -36zM452 180q0 37 -26.5 59t-85.5 40v-199
q54 6 83 34t29 66z" />
    <glyph glyph-name="percent" unicode="%" horiz-adv-x="739" 
d="M30 511q0 72 45.5 119t116.5 47q72 0 118 -47t46 -119q0 -70 -46 -117t-118 -47q-71 0 -116.5 47t-45.5 117zM146 20q0 6 5 14l399 626q7 12 22 12q10 0 17.5 -7.5t7.5 -17.5q0 -7 -3 -15l-402 -625q-7 -12 -20 -12q-10 0 -18 7.5t-8 17.5zM287 511q0 49 -26.5 80
t-68.5 31q-41 0 -67.5 -31t-26.5 -80q0 -48 26.5 -79.5t67.5 -31.5q42 0 68.5 31.5t26.5 79.5zM383 152q0 72 45.5 119t117.5 47t117.5 -47t45.5 -119q0 -71 -45.5 -117.5t-117.5 -46.5t-117.5 46.5t-45.5 117.5zM641 152q0 49 -26.5 80t-68.5 31t-68.5 -31t-26.5 -80
q0 -48 26.5 -79.5t68.5 -31.5t68.5 31.5t26.5 79.5z" />
    <glyph glyph-name="ampersand" unicode="&#x26;" horiz-adv-x="643" 
d="M585 38q0 -18 -13 -30.5t-30 -12.5q-12 0 -26 8q-35 28 -77 67q-83 -82 -195 -82q-93 0 -152 49q-59 50 -59 139q0 68 36.5 113.5t109.5 83.5q-49 85 -49 148q0 66 50 111t124 45q70 0 114 -36.5t44 -97.5q0 -46 -23 -81q-22 -31 -53 -52.5t-92 -52.5q23 -30 71 -89
q39 -46 74 -81q29 43 55 109q8 25 37 25q17 0 28.5 -11.5t11.5 -27.5q0 -11 -4 -18q-40 -84 -73 -130q8 -7 74 -61q17 -14 17 -35zM258 412q65 32 94 59.5t29 67.5q0 33 -20 51.5t-53 18.5q-37 0 -62 -25.5t-25 -64.5q0 -46 37 -107zM385 120q-52 51 -91 94q-61 75 -78 101
q-87 -55 -87 -132q0 -55 36 -88.5t89 -33.5q69 0 131 59z" />
    <glyph glyph-name="quotesingle" unicode="'" horiz-adv-x="206" 
d="M79 418l-18 125q-10 70 -10 82q0 21 15 36.5t37 15.5t37.5 -15.5t15.5 -36.5q0 -12 -29 -207q-2 -22 -24 -22t-24 22z" />
    <glyph glyph-name="parenleft" unicode="(" horiz-adv-x="262" 
d="M169 -172q-126 187 -126 415t126 415q10 16 30 16q16 0 27 -11t11 -26q0 -11 -4 -18q-48 -95 -70 -182.5t-22 -193.5q0 -104 22 -192t69 -184q5 -8 5 -17q0 -16 -11 -27t-27 -11q-20 0 -30 16z" />
    <glyph glyph-name="parenright" unicode=")" horiz-adv-x="262" 
d="M25 -150q0 10 4 17q47 95 69 181q23 89 23 195t-22 193.5t-70 182.5q-4 7 -4 18q0 15 11 26t26 11q20 0 30 -16q127 -188 127 -415t-127 -415q-10 -16 -30 -16q-15 0 -26 11t-11 27z" />
    <glyph glyph-name="asterisk" unicode="*" horiz-adv-x="343" 
d="M147 403l4 93l-78 -51q-4 -3 -13 -3q-10 0 -17 6.5t-7 16.5q0 15 13 22l83 42l-83 43q-13 7 -13 22q0 9 7 16t17 7q8 0 13 -3l78 -50l-4 93q-1 10 6.5 17.5t17.5 7.5q11 0 18.5 -7.5t6.5 -17.5l-5 -93l78 50q5 3 13 3q10 0 17.5 -7t7.5 -16q0 -14 -14 -22l-82 -43l82 -42
q14 -9 14 -22q0 -10 -7 -16.5t-18 -6.5q-10 0 -13 3l-78 51l5 -93q1 -10 -6.5 -18t-18.5 -8q-10 0 -17.5 8t-6.5 18z" />
    <glyph glyph-name="plus" unicode="+" horiz-adv-x="500" 
d="M283 307v-183q0 -13 -10 -22.5t-23 -9.5t-23 9.5t-10 22.5v183h-163q-12 0 -21 8.5t-9 21.5t9 21.5t21 8.5h163v176q0 13 10 23t23 10t23 -10t10 -23v-176h163q12 0 21.5 -9t9.5 -21t-9.5 -21t-21.5 -9h-163z" />
    <glyph glyph-name="comma" unicode="," horiz-adv-x="238" 
d="M96 -126q-11 0 -18.5 7.5t-7.5 19.5q0 11 8 19q41 41 47 78q-8 -2 -15 -2q-23 0 -38.5 16t-15.5 41q0 26 18 43.5t43 17.5q30 0 50 -23t20 -60q0 -85 -73 -150q-7 -7 -18 -7z" />
    <glyph glyph-name="hyphen" unicode="-" horiz-adv-x="300" 
d="M25 242q0 16 11.5 27.5t27.5 11.5h172q16 0 27.5 -11.5t11.5 -27.5t-11.5 -27.5t-27.5 -11.5h-172q-16 0 -27.5 11.5t-11.5 27.5z" />
    <glyph glyph-name="period" unicode="." horiz-adv-x="238" 
d="M118 114q26 0 44.5 -18.5t18.5 -43.5t-18.5 -44t-44.5 -19q-25 0 -43.5 18.5t-18.5 44.5t18.5 44t43.5 18z" />
    <glyph glyph-name="slash" unicode="/" horiz-adv-x="306" 
d="M11 7q0 4 2 12l219 651q3 9 11.5 15.5t18.5 6.5q14 0 23.5 -9.5t9.5 -23.5q0 -3 -2 -11l-219 -651q-7 -22 -31 -22q-13 0 -22.5 9.5t-9.5 22.5z" />
    <glyph glyph-name="zero" unicode="0" horiz-adv-x="614" 
d="M307 677q64 1 115 -28t82.5 -78.5t47.5 -110.5t16 -127t-16 -127t-47.5 -111t-82.5 -79t-115 -28q-64 -1 -115 28t-82.5 79t-47.5 111t-16 127t16 127t47.5 110.5t82.5 78.5t115 28zM307 588q-82 0 -121 -73q-38 -74 -38 -182q0 -109 38 -183q39 -73 121 -73q83 0 120 73
q39 74 39 183q0 108 -39 182q-37 73 -120 73z" />
    <glyph glyph-name="one" unicode="1" horiz-adv-x="359" 
d="M185 45v491l-81 -85q-13 -13 -31 -13q-17 0 -29.5 12.5t-12.5 29.5q0 16 12 30l142 145q20 17 42 17q24 0 41 -17t17 -41v-569q0 -20 -14.5 -35t-35.5 -15t-35.5 15t-14.5 35z" />
    <glyph glyph-name="two" unicode="2" horiz-adv-x="583" 
d="M39 53q0 25 21 42q125 94 204 163q74 65 109.5 117t35.5 101q0 53 -37 82.5t-93 29.5q-87 0 -154 -56q-13 -10 -28 -10q-19 0 -32 13t-13 32q0 21 16 34q85 76 210 76q97 0 165 -54t68 -147q0 -90 -77 -179q-78 -90 -231 -209h272q18 0 31.5 -12.5t13.5 -30.5
q0 -19 -13.5 -32t-31.5 -13h-384q-21 0 -36.5 15.5t-15.5 37.5z" />
    <glyph glyph-name="three" unicode="3" horiz-adv-x="565" 
d="M52 68q-15 14 -15 33t13 32t32 13q16 0 27 -11q69 -58 159 -58q69 0 108 30.5t39 83.5q0 105 -157 105h-33q-18 0 -31.5 13t-13.5 32q0 18 13.5 31t31.5 13h33q67 0 107 25.5t40 73.5t-40 76t-103 28q-82 0 -147 -54q-14 -9 -26 -9q-18 0 -30.5 12.5t-12.5 30.5
q0 16 15 31q85 78 210 78q105 0 169 -48q65 -48 65 -131q0 -63 -44 -104q-42 -39 -101 -50q58 -5 106.5 -49.5t48.5 -113.5q0 -86 -66.5 -139.5t-177.5 -53.5q-132 0 -219 80z" />
    <glyph glyph-name="four" unicode="4" horiz-adv-x="569" 
d="M544 204q0 -18 -13.5 -31t-31.5 -13h-52v-115q0 -20 -14.5 -35t-34.5 -15q-21 0 -36 15t-15 35v115h-265q-23 0 -40 16.5t-17 40.5q0 14 9 31l254 384q25 40 72 40q36 0 61.5 -25.5t25.5 -61.5v-337h52q18 0 31.5 -13t13.5 -31zM129 248h218v328z" />
    <glyph glyph-name="five" unicode="5" horiz-adv-x="595" 
d="M73 98q0 19 13.5 32.5t32.5 13.5q15 0 29 -11q62 -56 154 -56q64 0 104.5 37t40.5 93q0 60 -39 95.5t-104 35.5q-74 0 -130 -45q-15 -12 -36 -12q-23 0 -39.5 16t-16.5 39v278q0 53 53 53h330q18 0 31.5 -13t13.5 -32q0 -18 -13.5 -30.5t-31.5 -12.5h-283v-213
q59 59 153 59q89 0 151 -58.5t62 -155.5q0 -100 -69 -161.5t-176 -61.5q-131 0 -214 75q-16 13 -16 35z" />
    <glyph glyph-name="six" unicode="6" horiz-adv-x="596" 
d="M329 677q92 0 159 -53q20 -12 20 -36q0 -18 -13 -31t-31 -13q-16 0 -26 8q-47 36 -109 36q-84 0 -133 -70t-49 -171q0 -17 1 -22q25 38 75 68q51 30 108 30q96 0 158.5 -56.5t62.5 -157.5q0 -92 -67 -156.5t-173 -64.5q-132 0 -199 96t-67 248q0 150 74 247.5t209 97.5z
M306 337q-45 0 -87.5 -24.5t-69.5 -64.5q7 -70 45 -121q39 -50 113 -50q65 0 104.5 39t39.5 90q0 62 -40 96.5t-105 34.5z" />
    <glyph glyph-name="seven" unicode="7" horiz-adv-x="523" 
d="M146 44q0 9 5 21l230 514h-313q-18 0 -31 12.5t-13 30.5q0 19 13 32t31 13h386q20 0 34 -14t14 -34q0 -8 -4 -19l-256 -575q-13 -30 -46 -30q-21 0 -35.5 14.5t-14.5 34.5z" />
    <glyph glyph-name="eight" unicode="8" horiz-adv-x="588" 
d="M201 344q-66 20 -104.5 60.5t-38.5 98.5q0 83 69.5 128.5t167.5 45.5q97 0 166.5 -46t69.5 -128q0 -58 -39 -98.5t-105 -60.5q69 -22 111.5 -68t42.5 -106q0 -83 -70.5 -132.5t-175.5 -49.5q-107 0 -177.5 49t-70.5 133q0 60 42.5 106t111.5 68zM295 588
q-61 0 -98.5 -27.5t-37.5 -72.5t44 -71q43 -25 92 -33q47 7 91 33t44 71t-38 72.5t-97 27.5zM295 299q-49 -6 -98 -37t-49 -80q0 -47 42 -76t105 -29q59 0 103 29q43 28 43 76t-48.5 79.5t-97.5 37.5z" />
    <glyph glyph-name="nine" unicode="9" horiz-adv-x="596" 
d="M89 78q0 18 13 31t31 13q14 0 25 -8q46 -36 109 -36q88 0 135 70t47 170v23q-25 -37 -77 -69q-51 -30 -107 -30q-95 0 -158.5 57t-63.5 158q0 92 67 156.5t173 64.5q137 0 201 -97q66 -97 66 -248q0 -150 -74.5 -247t-208.5 -97q-90 0 -160 53q-18 11 -18 36zM288 589
q-65 0 -104 -39t-39 -90q0 -62 40 -96.5t105 -34.5q46 0 88 24t68 65q-4 67 -44 119q-39 52 -114 52z" />
    <glyph glyph-name="colon" unicode=":" horiz-adv-x="238" 
d="M118 490q26 0 44.5 -18.5t18.5 -44.5q0 -25 -19 -43.5t-44 -18.5t-43.5 18.5t-18.5 43.5q0 26 18.5 44.5t43.5 18.5zM118 114q26 0 44.5 -18.5t18.5 -43.5t-18.5 -44t-44.5 -19q-25 0 -43.5 18.5t-18.5 44.5t18.5 44t43.5 18z" />
    <glyph glyph-name="semicolon" unicode=";" horiz-adv-x="238" 
d="M56 427q0 26 18.5 44.5t43.5 18.5q26 0 44.5 -18.5t18.5 -44.5q0 -25 -19 -43.5t-44 -18.5t-43.5 18.5t-18.5 43.5zM96 -126q-11 0 -18.5 7.5t-7.5 19.5q0 11 8 19q41 41 47 78q-8 -2 -15 -2q-23 0 -38.5 16t-15.5 41q0 26 18 43.5t43 17.5q30 0 50 -23t20 -60
q0 -85 -73 -150q-7 -7 -18 -7z" />
    <glyph glyph-name="less" unicode="&#x3c;" horiz-adv-x="500" 
d="M24 335q0 29 27 42l379 183q7 4 14 4q14 0 23.5 -9.5t9.5 -23.5q0 -21 -20 -29l-357 -168l358 -166q19 -8 19 -30q0 -13 -9.5 -22.5t-22.5 -9.5q-9 0 -15 3l-379 183q-27 14 -27 43z" />
    <glyph glyph-name="equal" unicode="=" horiz-adv-x="500" 
d="M24 430q0 13 9 21.5t21 8.5h392q12 0 21.5 -9t9.5 -21t-9.5 -21t-21.5 -9h-392q-12 0 -21 8.5t-9 21.5zM24 237q0 13 9 22t21 9h392q12 0 21.5 -9t9.5 -22q0 -12 -9.5 -20.5t-21.5 -8.5h-392q-12 0 -21 8.5t-9 20.5z" />
    <glyph glyph-name="greater" unicode="&#x3e;" horiz-adv-x="500" 
d="M56 106q-13 0 -22.5 9.5t-9.5 22.5q0 20 18 30l357 166l-356 168q-19 9 -19 29q0 14 9.5 23.5t23.5 9.5q8 0 13 -4l379 -183q28 -14 28 -42q0 -29 -28 -43l-379 -183q-4 -3 -14 -3z" />
    <glyph glyph-name="question" unicode="?" horiz-adv-x="460" 
d="M252 407q44 30 60.5 50t16.5 49q0 36 -28 59t-78 23q-73 0 -123 -49q-10 -10 -28 -10q-19 0 -31.5 12.5t-12.5 30.5q0 21 15 33q77 72 190 72q90 0 144.5 -44t54.5 -112q-1 -39 -17 -69t-34 -46t-58 -45q-44 -31 -60.5 -50t-16.5 -45q0 -6 6 -20q2 -6 2 -10
q0 -18 -12 -30.5t-30 -12.5q-24 0 -36 22q-17 26 -17 59q0 42 21 69t72 64zM224 114q26 0 44.5 -18.5t18.5 -43.5t-18.5 -44t-44.5 -19q-25 0 -43.5 18.5t-18.5 44.5t18.5 44t43.5 18z" />
    <glyph glyph-name="at" unicode="@" horiz-adv-x="783" 
d="M747 324q0 -109 -54.5 -174t-125.5 -65q-40 0 -65 22.5t-28 56.5l-1 6q-27 -39 -68.5 -62t-85.5 -23q-69 0 -111.5 45.5t-42.5 118.5q-2 98 71.5 174.5t161.5 74.5q44 0 77.5 -20t49.5 -53l6 32q7 31 39 31q17 0 28.5 -11.5t11.5 -28.5q0 -6 -1 -8l-46 -220
q-2 -16 -2 -22q0 -23 12.5 -36.5t31.5 -13.5q38 0 71 45.5t33 130.5q0 122 -78 200t-203 78q-91 2 -175.5 -49t-134 -134.5t-47.5 -172.5q0 -120 81.5 -200.5t203.5 -80.5q92 0 172 47q4 4 11 4t11.5 -5t4.5 -12q0 -9 -8 -14q-92 -55 -195 -55q-132 -2 -225.5 91t-91.5 223
q-2 102 54 194.5t149.5 147t193.5 52.5q136 2 226.5 -91t88.5 -223zM484 233l28 133q-10 28 -36 47.5t-61 19.5q-68 0 -116.5 -54.5t-48.5 -123.5q0 -48 25.5 -76.5t70.5 -28.5q80 0 138 83z" />
    <glyph glyph-name="A" unicode="A" horiz-adv-x="666" 
d="M638 46q0 -21 -15 -36t-36 -15q-35 0 -47 32l-42 111h-331l-42 -111q-12 -32 -47 -32q-21 0 -36 15t-15 36q0 8 4 19l220 551q9 24 31.5 40t49.5 16t49.5 -15.5t32.5 -40.5l220 -551q4 -9 4 -19zM200 227h265l-133 353z" />
    <glyph glyph-name="B" unicode="B" horiz-adv-x="638" 
d="M74 53v561q0 53 54 53h259q86 0 137 -47t51 -123q0 -59 -33 -101t-83 -52q53 -8 91 -56t38 -108q0 -82 -52 -131t-141 -49h-267q-54 0 -54 53zM174 384h194q48 0 76 27t28 70q0 44 -28 71t-76 27h-194v-195zM174 88h199q52 0 82 28t30 77q0 45 -30 74t-82 29h-199v-208z
" />
    <glyph glyph-name="C" unicode="C" horiz-adv-x="671" 
d="M46 333q-2 148 98.5 247.5t243.5 97.5q142 0 232 -98q12 -12 12 -32q0 -19 -13.5 -33t-33.5 -14q-23 0 -36 16q-64 72 -161 72q-102 0 -170.5 -73t-68.5 -183t68.5 -183t170.5 -73q96 0 162 72q13 16 35 16q20 0 33.5 -13.5t13.5 -33.5t-12 -32q-92 -98 -232 -98
q-143 -3 -243.5 97t-98.5 248z" />
    <glyph glyph-name="D" unicode="D" horiz-adv-x="705" 
d="M74 53v561q0 53 54 53h184q151 2 249.5 -94.5t96.5 -239.5q2 -144 -96 -239t-250 -94h-184q-54 0 -54 53zM174 88h138q111 0 177 69.5t66 175.5q0 107 -65.5 176.5t-177.5 69.5h-138v-491z" />
    <glyph glyph-name="E" unicode="E" horiz-adv-x="573" 
d="M74 53v561q0 53 54 53h354q18 0 31.5 -13t13.5 -32q0 -18 -13.5 -30.5t-31.5 -12.5h-308v-195h301q18 0 31.5 -12.5t13.5 -30.5q0 -19 -13.5 -32t-31.5 -13h-301v-208h308q18 0 31.5 -12.5t13.5 -30.5q0 -19 -13.5 -32t-31.5 -13h-354q-54 0 -54 53z" />
    <glyph glyph-name="F" unicode="F" horiz-adv-x="556" 
d="M74 45v569q0 53 54 53h354q18 0 31.5 -13t13.5 -32q0 -18 -13.5 -30.5t-31.5 -12.5h-308v-195h301q18 0 31.5 -12.5t13.5 -30.5q0 -19 -13.5 -32t-31.5 -13h-301v-251q0 -20 -14.5 -35t-34.5 -15q-21 0 -36 15t-15 35z" />
    <glyph glyph-name="G" unicode="G" horiz-adv-x="715" 
d="M661 297v-153q0 -42 -27 -65q-103 -92 -242 -92q-144 -2 -246.5 97.5t-99.5 248.5q-3 149 99.5 248t246.5 97q138 0 229 -91q14 -12 14 -33q0 -19 -13.5 -32.5t-33.5 -13.5q-19 0 -33 13q-68 68 -163 68q-105 0 -174 -72t-69 -184q0 -111 69.5 -184t173.5 -73
q48 0 93.5 19t75.5 47v120h-175q-18 0 -31 13t-13 32q0 18 13 30.5t31 12.5h222q53 0 53 -53z" />
    <glyph glyph-name="H" unicode="H" horiz-adv-x="717" 
d="M543 45v253h-369v-253q0 -20 -14.5 -35t-34.5 -15q-21 0 -36 15t-15 35v577q0 20 15 35t35 15q21 0 35.5 -15t14.5 -35v-235h369v235q0 20 14.5 35t35.5 15t35.5 -15t14.5 -35v-577q0 -20 -14.5 -35t-35.5 -15t-35.5 15t-14.5 35z" />
    <glyph glyph-name="I" unicode="I" horiz-adv-x="249" 
d="M74 45v577q0 20 15 35t36 15q20 0 34.5 -15t14.5 -35v-577q0 -20 -14.5 -35t-34.5 -15q-21 0 -36 15t-15 35z" />
    <glyph glyph-name="J" unicode="J" horiz-adv-x="478" 
d="M19 72q0 19 13 32.5t32 13.5q14 0 25 -8q41 -33 89 -33q57 0 91 35.5t34 94.5v415q0 20 15 35t35 15q21 0 35.5 -15t14.5 -35v-416q0 -105 -59 -161.5t-159 -56.5q-85 0 -147 48q-19 13 -19 36z" />
    <glyph glyph-name="K" unicode="K" horiz-adv-x="611" 
d="M573 43q0 -20 -13.5 -34t-32.5 -14q-21 0 -35 14l-254 279l-64 -68v-175q0 -20 -14.5 -35t-35.5 -15q-20 0 -35 15t-15 35v577q0 20 15 35t35 15q21 0 35.5 -15t14.5 -35v-288l294 323q14 15 35 15q19 0 33 -13.5t14 -32.5q0 -20 -13 -32l-232 -247l255 -272
q13 -14 13 -32z" />
    <glyph glyph-name="L" unicode="L" horiz-adv-x="513" 
d="M74 53v569q0 20 15 35t36 15q20 0 34.5 -15t14.5 -35v-534h263q18 0 31.5 -12.5t13.5 -30.5q0 -19 -13.5 -32t-31.5 -13h-309q-54 0 -54 53z" />
    <glyph glyph-name="M" unicode="M" horiz-adv-x="822" 
d="M648 45v485l-210 -516q-7 -19 -27 -19q-21 0 -27 19l-210 516v-485q0 -20 -14.5 -35t-34.5 -15q-21 0 -36 15t-15 35v544q0 34 24.5 58.5t59.5 24.5q26 0 47.5 -14.5t30.5 -37.5l175 -433l175 433q9 23 30.5 37.5t47.5 14.5q35 0 59.5 -24.5t24.5 -58.5v-544
q0 -20 -15 -35t-36 -15q-20 0 -34.5 15t-14.5 35z" />
    <glyph glyph-name="N" unicode="N" horiz-adv-x="714" 
d="M528 21l-354 491v-467q0 -20 -14.5 -35t-34.5 -15q-21 0 -36 15t-15 35v561q0 27 19 46.5t47 19.5q34 0 53 -27l347 -478v455q0 20 14.5 35t34.5 15q21 0 36 -15t15 -35v-565q0 -25 -18 -43.5t-44 -18.5q-33 0 -50 26z" />
    <glyph glyph-name="O" unicode="O" horiz-adv-x="765" 
d="M382 678q145 2 241.5 -98t94.5 -247q2 -147 -94.5 -247.5t-241.5 -97.5q-145 -3 -241.5 97.5t-94.5 247.5q-2 147 94.5 247t241.5 98zM382 589q-104 0 -168.5 -72t-64.5 -184t64.5 -184t168.5 -72q103 0 168 72.5t65 183.5t-65 183.5t-168 72.5z" />
    <glyph glyph-name="P" unicode="P" horiz-adv-x="597" 
d="M74 45v569q0 53 54 53h227q98 0 155.5 -58.5t57.5 -146.5q0 -87 -58 -146t-155 -59h-181v-212q0 -20 -14.5 -35t-34.5 -15q-21 0 -36 15t-15 35zM342 579h-168v-234h168q54 0 88.5 32.5t34.5 84.5t-34.5 84.5t-88.5 32.5z" />
    <glyph glyph-name="Q" unicode="Q" horiz-adv-x="765" 
d="M628 90l31 -34q12 -13 12 -31q0 -19 -13.5 -32t-32.5 -13q-21 0 -33 15l-35 38q-76 -45 -175 -45q-145 -3 -241.5 97.5t-94.5 247.5q-2 147 94.5 247t241.5 98q145 2 241.5 -98t94.5 -247q0 -147 -90 -243zM493 104l-61 68q-11 14 -11 29q0 20 12.5 33t31.5 13
q22 0 35 -16l62 -68q53 71 53 170q0 111 -65 183.5t-168 72.5q-104 0 -168.5 -72t-64.5 -184t64.5 -184t168.5 -72q60 0 111 27z" />
    <glyph glyph-name="R" unicode="R" horiz-adv-x="618" 
d="M571 41q0 -18 -13.5 -32t-33.5 -14q-27 0 -42 21l-167 241h-141v-212q0 -20 -14.5 -35t-34.5 -15q-21 0 -36 15t-15 35v569q0 53 54 53h227q95 0 154.5 -56.5t59.5 -148.5q0 -78 -41.5 -128.5t-107.5 -63.5l141 -198q10 -11 10 -31zM174 579v-234h168q54 0 89 32.5
t35 84.5t-35 84.5t-89 32.5h-168z" />
    <glyph glyph-name="S" unicode="S" horiz-adv-x="590" 
d="M45 103q0 20 14.5 34t33.5 14q17 0 30 -10q79 -64 177 -64q71 0 108.5 29t37.5 74q-4 48 -37.5 68t-123.5 44q-78 21 -120 37q-111 46 -111 158q0 83 68 136.5t176 53.5q113 0 206 -65q21 -14 21 -38q0 -20 -14 -34t-33 -14q-14 0 -28 9q-66 53 -160 53q-60 0 -96.5 -26
t-36.5 -68q3 -41 36.5 -60t118.5 -40q70 -18 122 -40q114 -45 114 -165q0 -87 -64 -144t-188 -57q-138 0 -232 77q-19 16 -19 38z" />
    <glyph glyph-name="T" unicode="T" horiz-adv-x="573" 
d="M237 45v534h-168q-18 0 -31 12.5t-13 30.5q0 19 13 32t31 13h435q18 0 31.5 -13t13.5 -32q0 -18 -13.5 -30.5t-31.5 -12.5h-167v-534q0 -20 -15 -35t-35 -15q-21 0 -35.5 15t-14.5 35z" />
    <glyph glyph-name="U" unicode="U" horiz-adv-x="710" 
d="M74 261v361q0 20 15 35t36 15t35.5 -15t14.5 -35v-358q0 -88 47 -137.5t133 -49.5t132.5 49.5t46.5 137.5v358q0 20 15 35t36 15t35.5 -15t14.5 -35v-360q0 -130 -72 -202t-208 -72q-135 0 -208 72.5t-73 200.5z" />
    <glyph glyph-name="V" unicode="V" horiz-adv-x="666" 
d="M250 51l-218 549q-5 12 -5 19q0 22 15.5 37.5t37.5 15.5q36 0 50 -34l202 -529l203 529q5 15 19 24.5t30 9.5q22 0 37.5 -15.5t15.5 -37.5q0 -12 -4 -19l-218 -549q-10 -25 -32.5 -40.5t-50.5 -15.5q-27 0 -49.5 15.5t-32.5 40.5z" />
    <glyph glyph-name="W" unicode="W" horiz-adv-x="893" 
d="M572 46l-126 469l-126 -469q-5 -23 -23.5 -37t-42.5 -14t-42.5 14t-23.5 36l-160 558q-2 14 -2 16q0 22 15.5 37.5t37.5 15.5q39 0 51 -40l130 -500l137 503q5 16 18.5 26.5t31.5 10.5q17 0 30.5 -10.5t18.5 -26.5l136 -503l130 500q12 40 51 40q22 0 37.5 -15.5
t15.5 -37.5q0 -2 -2 -16l-159 -558q-6 -22 -24 -36t-42 -14t-42.5 14t-24.5 37z" />
    <glyph glyph-name="X" unicode="X" horiz-adv-x="656" 
d="M630 44q0 -21 -13.5 -35t-34.5 -14q-24 0 -38 15l-216 259l-215 -259q-15 -15 -38 -15q-21 0 -34.5 14t-13.5 35q0 16 12 31l228 267l-214 250q-11 16 -11 30q0 21 13.5 35.5t33.5 14.5q24 0 38 -17l201 -240l201 240q14 17 38 17q20 0 34 -15t14 -35q0 -14 -12 -30
l-214 -249l229 -268q12 -15 12 -31z" />
    <glyph glyph-name="Y" unicode="Y" horiz-adv-x="631" 
d="M580 598l-214 -319v-234q0 -20 -14.5 -35t-35.5 -15t-35.5 15t-14.5 35v234l-215 318q-8 11 -8 27q0 20 14 34t34 14q28 0 41 -22l184 -282l183 282q15 22 41 22q20 0 34 -14t14 -34q0 -15 -8 -26z" />
    <glyph glyph-name="Z" unicode="Z" horiz-adv-x="587" 
d="M41 57q0 19 11 33l352 489h-319q-18 0 -31 12.5t-13 30.5q0 19 13 32t31 13h396q23 0 40 -16.5t17 -40.5q0 -19 -11 -33l-352 -489h326q18 0 31 -12.5t13 -30.5q0 -19 -13 -32t-31 -13h-403q-23 0 -40 16.5t-17 40.5z" />
    <glyph glyph-name="bracketleft" unicode="[" horiz-adv-x="254" 
d="M42 -152v791q0 17 11.5 28t27.5 11h131q13 0 22 -9.5t9 -22.5t-9 -22.5t-22 -9.5h-102v-740h102q13 0 22 -9.5t9 -22.5t-9 -22.5t-22 -9.5h-131q-16 0 -27.5 11t-11.5 27z" />
    <glyph glyph-name="backslash" unicode="\" horiz-adv-x="306" 
d="M232 -3l-219 651q-2 8 -2 11q0 14 9.5 23.5t22.5 9.5q24 0 31 -22l219 -651q2 -8 2 -12q0 -13 -10 -22.5t-23 -9.5q-10 0 -18.5 6.5t-11.5 15.5z" />
    <glyph glyph-name="bracketright" unicode="]" horiz-adv-x="254" 
d="M10 -158q0 13 9.5 22.5t22.5 9.5h102v740h-102q-13 0 -22.5 9.5t-9.5 22.5q0 14 9.5 23t22.5 9h131q16 0 27.5 -11.5t11.5 -27.5v-791q0 -16 -11.5 -27t-27.5 -11h-132q-13 0 -22 9.5t-9 22.5z" />
    <glyph glyph-name="asciicircum" unicode="^" horiz-adv-x="434" 
d="M338 346l-121 257l-121 -257q-7 -18 -29 -18q-13 0 -22.5 9.5t-9.5 22.5q0 7 4 14l133 270q13 28 46 28q32 0 45 -28l133 -270q3 -12 3 -14q0 -13 -9 -22.5t-23 -9.5q-18 0 -29 18z" />
    <glyph glyph-name="underscore" unicode="_" horiz-adv-x="564" 
d="M-8 -72q0 13 9.5 22.5t22.5 9.5h516q13 0 22.5 -9.5t9.5 -22.5t-9.5 -22.5t-22.5 -9.5h-516q-13 0 -22.5 9.5t-9.5 22.5z" />
    <glyph glyph-name="grave" unicode="`" horiz-adv-x="233" 
d="M166 557l-113 97q-10 10 -10 22t8.5 20.5t20.5 8.5t21 -9l105 -105q7 -7 7 -17t-6.5 -16.5t-16.5 -6.5t-16 6z" />
    <glyph glyph-name="a" unicode="a" horiz-adv-x="532" 
d="M460 326v-286q0 -19 -13.5 -32t-31.5 -13t-31.5 13t-13.5 32v14q-57 -66 -158 -66q-67 0 -117.5 43.5t-50.5 116.5q0 75 49.5 116.5t118.5 41.5q104 0 158 -64v80q0 44 -32 70t-86 26q-65 0 -119 -42q-10 -7 -22 -7q-15 0 -25.5 11t-10.5 26q0 18 15 29q75 60 176 60
q90 0 142 -42.5t52 -126.5zM370 106v82q-41 55 -124 55q-49 0 -80 -26.5t-31 -69.5t31 -69.5t80 -26.5q83 0 124 55z" />
    <glyph glyph-name="b" unicode="b" horiz-adv-x="578" 
d="M535 241q0 -116 -59.5 -184.5t-155.5 -68.5t-158 81v-29q0 -19 -13.5 -32t-31.5 -13q-19 0 -32 13t-13 32v587q0 19 13 32t32 13q18 0 31.5 -13t13.5 -32v-213q58 81 158 81q95 0 155 -70t60 -184zM442 241q0 78 -40 126t-106 48q-39 0 -77 -20.5t-57 -51.5v-205
q18 -30 56 -50t78 -20q66 0 106 47.5t40 125.5z" />
    <glyph glyph-name="c" unicode="c" horiz-adv-x="496" 
d="M288 495q92 0 154 -56q14 -12 14 -30q0 -17 -11.5 -29t-28.5 -12q-16 0 -27 10q-40 37 -97 37q-69 0 -112.5 -48.5t-43.5 -124.5t43.5 -125t112.5 -49q57 0 97 37q10 10 26 10q17 0 29 -11.5t12 -28.5q0 -19 -14 -31q-62 -56 -154 -56q-108 0 -177 72t-69 182
q0 109 69 181t177 72z" />
    <glyph glyph-name="d" unicode="d" horiz-adv-x="578" 
d="M506 627v-587q0 -19 -13 -32t-32 -13q-18 0 -31.5 13t-13.5 32v29q-59 -81 -158 -81q-96 0 -156 68.5t-60 184.5q0 114 60.5 184t155.5 70q98 0 158 -82v214q0 19 13.5 32t31.5 13q19 0 32 -13t13 -32zM416 138v206q-19 30 -57 50.5t-77 20.5q-66 0 -106 -48t-40 -126
q0 -77 40 -125t106 -48q40 0 77.5 20t56.5 50z" />
    <glyph glyph-name="e" unicode="e" horiz-adv-x="560" 
d="M284 495q103 0 169 -70.5t66 -169.5q0 -20 -14 -31.5t-39 -11.5h-329q5 -65 50 -107.5t114 -42.5q66 0 120 39q7 5 20 5q15 0 25.5 -10.5t10.5 -25.5q0 -20 -16 -30q-70 -52 -169 -52q-109 0 -179.5 71t-70.5 183q-2 104 69 179.5t173 73.5zM136 277h295q-2 57 -40 100.5
t-107 43.5q-66 0 -104.5 -43t-43.5 -101z" />
    <glyph glyph-name="f" unicode="f" horiz-adv-x="296" 
d="M184 515v-32h64q16 0 28 -11.5t12 -27.5t-12 -28t-28 -12h-64v-364q0 -19 -13 -32t-31 -13q-19 0 -32.5 13t-13.5 32v364h-45q-16 0 -28 12t-12 28t12 27.5t28 11.5h45v32q0 75 40 118.5t107 43.5q25 0 48 -6q28 -9 28 -35q0 -16 -9.5 -26t-26.5 -10q-4 0 -12 1.5
t-13 1.5q-34 0 -53 -23t-19 -65z" />
    <glyph glyph-name="g" unicode="g" horiz-adv-x="577" 
d="M506 443v-424q0 -115 -69 -165q-68 -50 -171 -50q-106 0 -174 52q-16 12 -16 31q0 16 11 27t27 11q13 0 23 -7q50 -40 129 -40q67 0 108.5 35t41.5 103v64q-64 -84 -159 -84q-96 0 -155.5 67.5t-59.5 182.5q0 113 59.5 181t155.5 68q97 0 159 -82v30q0 19 13 32t32 13
q18 0 31.5 -13t13.5 -32zM416 148v196q-19 30 -57 50.5t-77 20.5q-66 0 -106 -46.5t-40 -122.5t40 -123t106 -47q39 0 77 21t57 51z" />
    <glyph glyph-name="h" unicode="h" horiz-adv-x="560" 
d="M398 40v271q0 55 -25.5 79.5t-77.5 24.5q-39 0 -75 -20t-58 -50v-305q0 -19 -13.5 -32t-31.5 -13q-19 0 -32 13t-13 32v587q0 19 13 32t32 13q18 0 31.5 -13t13.5 -32v-212q28 35 74.5 57.5t96.5 22.5q155 0 155 -154v-301q0 -19 -13 -32t-32 -13q-18 0 -31.5 13
t-13.5 32z" />
    <glyph glyph-name="i" unicode="i" horiz-adv-x="233" 
d="M58 637q0 24 17 40.5t41 16.5t41 -16.5t17 -40.5t-17 -41t-41 -17q-23 0 -40.5 17t-17.5 41zM72 40v403q0 19 13 32t32 13q18 0 31.5 -13t13.5 -32v-403q0 -19 -13.5 -32t-32.5 -13q-18 0 -31 13t-13 32z" />
    <glyph glyph-name="j" unicode="j" horiz-adv-x="233" 
d="M58 637q0 24 17 40.5t41 16.5t41 -16.5t17 -40.5t-17 -41t-41 -17q-23 0 -40.5 17t-17.5 41zM-7 -195q-15 1 -26 12t-11 26t10 27t24 12l10 -1q72 0 72 81v481q0 19 13 32t32 13q18 0 31.5 -13t13.5 -32v-481q0 -75 -39.5 -116.5t-111.5 -41.5q-14 0 -18 1z" />
    <glyph glyph-name="k" unicode="k" horiz-adv-x="520" 
d="M483 40q0 -19 -12.5 -32t-31.5 -13q-23 0 -35 15l-167 197l-75 -70v-97q0 -19 -13.5 -32t-32.5 -13q-18 0 -31 13t-13 32v587q0 19 13 32t32 13q18 0 31.5 -13t13.5 -32v-389l243 239q11 11 29 11q17 0 29 -12.5t12 -29.5q0 -16 -13 -29l-159 -155l169 -192
q11 -14 11 -30z" />
    <glyph glyph-name="l" unicode="l" horiz-adv-x="233" 
d="M72 40v587q0 19 13 32t32 13q18 0 31.5 -13t13.5 -32v-587q0 -19 -13.5 -32t-31.5 -13q-19 0 -32 13t-13 32z" />
    <glyph glyph-name="m" unicode="m" horiz-adv-x="820" 
d="M749 349v-309q0 -19 -13.5 -32t-32.5 -13q-18 0 -31 13t-13 32v282q0 93 -84 93q-34 0 -67 -20t-53 -49v-306q0 -19 -13 -32t-32 -13q-18 0 -31.5 13t-13.5 32v282q0 93 -85 93q-32 0 -64.5 -20t-53.5 -50v-305q0 -19 -13.5 -32t-31.5 -13q-19 0 -32 13t-13 32v403
q0 19 13 32t31 13q19 0 32.5 -13t13.5 -32v-28q18 28 62 54q46 26 94 26q105 0 131 -90q24 38 69 64t94 26q67 0 102 -37t35 -109z" />
    <glyph glyph-name="n" unicode="n" 
d="M488 339v-299q0 -19 -13.5 -32t-32.5 -13q-18 0 -31 13t-13 32v269q0 56 -25.5 81t-77.5 25q-39 0 -75 -20t-58 -50v-305q0 -19 -13.5 -32t-31.5 -13q-19 0 -32 13t-13 32v403q0 19 13 32t31 13q19 0 32.5 -13t13.5 -32v-27q29 34 75.5 56.5t95.5 22.5q155 0 155 -156z
" />
    <glyph glyph-name="o" unicode="o" horiz-adv-x="572" 
d="M42 242q0 107 68 180t176 73t176 -73t68 -180q0 -108 -68 -181t-176 -73t-176 73t-68 181zM436 242q0 73 -40.5 123t-109.5 50q-67 0 -108.5 -50.5t-41.5 -122.5q0 -73 41 -123.5t109 -50.5q69 0 109.5 50.5t40.5 123.5z" />
    <glyph glyph-name="p" unicode="p" horiz-adv-x="577" 
d="M535 242q0 -116 -59.5 -185t-155.5 -69q-98 0 -158 82v-214q0 -19 -13.5 -32t-31.5 -13q-19 0 -32 13t-13 32v587q0 19 13 32t32 13q18 0 31.5 -13t13.5 -32v-28q60 80 158 80q96 0 155.5 -68.5t59.5 -184.5zM441 242q0 76 -40 124.5t-105 48.5q-39 0 -77.5 -20.5
t-56.5 -50.5v-205q19 -30 57 -50.5t77 -20.5q66 0 105.5 48t39.5 126z" />
    <glyph glyph-name="q" unicode="q" horiz-adv-x="577" 
d="M506 443v-587q0 -19 -13.5 -32t-32.5 -13q-18 0 -31 13t-13 32v214q-62 -82 -159 -82q-96 0 -155.5 69t-59.5 185t59.5 184.5t155.5 68.5q98 0 159 -81v29q0 19 13 32t31 13q19 0 32.5 -13t13.5 -32zM416 139v205q-19 30 -57 50.5t-77 20.5q-66 0 -106 -48t-40 -125
q0 -78 40 -126t106 -48q39 0 77 20.5t57 50.5z" />
    <glyph glyph-name="r" unicode="r" horiz-adv-x="338" 
d="M326 448q0 -16 -12 -28t-35 -15q-30 -3 -67 -23q-34 -19 -50 -46v-296q0 -19 -13.5 -32t-31.5 -13q-19 0 -32 13t-13 32v403q0 19 13 32t31 13q19 0 32.5 -13t13.5 -32v-34q45 60 100 77q20 5 26 5q18 0 28 -12t10 -31z" />
    <glyph glyph-name="s" unicode="s" horiz-adv-x="468" 
d="M38 74q0 17 11.5 28t27.5 11q12 0 22 -7q64 -46 136 -46q50 0 77 18t27 51q0 31 -27.5 47.5t-89.5 30.5q-65 16 -92 26q-86 35 -86 119q0 61 50 102t134 41q93 0 161 -50q16 -12 16 -30q0 -15 -11 -26t-26 -11q-12 0 -20 7q-49 37 -119 37q-46 0 -72.5 -17t-26.5 -46
q0 -26 26 -41t86 -29q57 -13 94 -27q90 -35 90 -126q0 -66 -52 -107t-143 -41q-104 0 -176 54q-17 12 -17 32z" />
    <glyph glyph-name="t" unicode="t" horiz-adv-x="306" 
d="M297 36q0 -26 -23 -34q-31 -14 -69 -14q-57 0 -86 31t-29 88v297h-46q-16 0 -28 12t-12 28t12 27.5t28 11.5h46v92q0 19 13 32t32 13q18 0 31.5 -13t13.5 -32v-92h63q16 0 28 -11.5t12 -27.5t-11.5 -28t-28.5 -12h-63v-277q0 -27 12 -43t35 -16q8 0 19.5 3t12.5 3
q17 0 27.5 -10.5t10.5 -27.5z" />
    <glyph glyph-name="u" unicode="u" 
d="M488 443v-403q0 -19 -13.5 -32t-31.5 -13q-19 0 -32 13t-13 32v26q-71 -78 -172 -78q-154 0 -154 154v301q0 19 13 32t32 13q18 0 31.5 -13t13.5 -32v-271q0 -56 25 -80t77 -24q39 0 75.5 19t58.5 49v307q0 19 13 32t31 13q19 0 32.5 -13t13.5 -32z" />
    <glyph glyph-name="v" unicode="v" horiz-adv-x="497" 
d="M476 443q0 -7 -4 -18l-159 -387q-18 -43 -64 -43q-47 0 -65 43l-160 388q-3 8 -3 17q0 19 12.5 32t31.5 13q30 0 42 -28l141 -358l141 358q12 28 42 28q19 0 32 -13t13 -32z" />
    <glyph glyph-name="w" unicode="w" horiz-adv-x="744" 
d="M479 38l-107 333l-107 -333q-6 -19 -22 -31t-36 -12t-36.5 12t-21.5 31l-124 392q-2 10 -2 14q0 18 13 31t31 13q16 0 27.5 -9t15.5 -23l102 -341l111 337q4 16 18 26t31 10t31 -10t18 -26l111 -337l102 341q4 14 15.5 23t27.5 9q18 0 31 -13t13 -32q0 -4 -2 -14
l-124 -391q-5 -19 -21.5 -31t-36.5 -12t-36 12t-22 31z" />
    <glyph glyph-name="x" unicode="x" horiz-adv-x="491" 
d="M463 36q0 -16 -11.5 -28.5t-29.5 -12.5q-22 0 -32 15l-145 179l-143 -177q-14 -17 -32 -17t-30 12.5t-12 28.5q0 15 10 26l155 189l-145 168q-10 11 -10 26q0 18 12 30.5t30 12.5q19 0 30 -14l136 -162l135 162q14 14 30 14q18 0 30.5 -13t12.5 -30q0 -12 -11 -26
l-145 -168l156 -189q9 -11 9 -26z" />
    <glyph glyph-name="y" unicode="y" horiz-adv-x="497" 
d="M91 -115l11 -1q50 0 70 47l28 64l-177 431q-2 8 -2 17q0 19 12.5 32t31.5 13q30 0 42 -28l141 -356l141 356q12 28 42 28q19 0 32 -13t13 -32q0 -7 -4 -18l-214 -517q-41 -102 -154 -104q-13 0 -18 1q-16 2 -26.5 13t-10.5 27q0 17 12.5 28.5t29.5 11.5z" />
    <glyph glyph-name="z" unicode="z" horiz-adv-x="474" 
d="M44 46q0 17 9 29l248 329h-218q-16 0 -27.5 11.5t-11.5 27.5t11.5 28t27.5 12h297q19 0 32.5 -13t13.5 -32q0 -14 -10 -27l-250 -333h224q16 0 28 -11.5t12 -27.5t-12 -27.5t-28 -11.5h-300q-19 0 -32.5 13.5t-13.5 32.5z" />
    <glyph glyph-name="braceleft" unicode="{" horiz-adv-x="268" 
d="M57 -49v196q0 52 -37 66q-21 9 -21 31t21 31q37 14 37 66v195q0 62 39.5 102t93.5 40h38q13 0 22 -9.5t9 -22.5t-9 -22.5t-22 -9.5h-38q-27 0 -46 -22.5t-19 -55.5v-203q0 -70 -46 -89q46 -19 46 -89v-203q0 -33 19 -55.5t46 -22.5h38q13 0 22 -9.5t9 -22.5q0 -14 -9 -23
t-22 -9h-38q-54 0 -93.5 40t-39.5 101z" />
    <glyph glyph-name="bar" unicode="|" horiz-adv-x="212" 
d="M74 7v653q0 13 9.5 22.5t22.5 9.5t22.5 -9.5t9.5 -22.5v-653q0 -13 -9.5 -22.5t-22.5 -9.5t-22.5 9.5t-9.5 22.5z" />
    <glyph glyph-name="braceright" unicode="}" horiz-adv-x="268" 
d="M78 -190h-38q-12 0 -21.5 9t-9.5 23q0 13 9.5 22.5t21.5 9.5h38q27 0 46 22.5t19 55.5v203q0 70 46 89q-46 19 -46 89v203q0 33 -19 55.5t-46 22.5h-38q-12 0 -21.5 9.5t-9.5 22.5t9.5 22.5t21.5 9.5h38q54 0 94 -40t40 -102v-195q0 -53 36 -66q22 -9 22 -31t-22 -31
q-36 -13 -36 -66v-196q0 -61 -40 -101t-94 -40z" />
    <glyph glyph-name="asciitilde" unicode="~" horiz-adv-x="505" 
d="M475 633q-12 -105 -44 -159t-94 -54q-49 3 -70.5 28.5t-41.5 84.5q-16 42 -26.5 57.5t-30.5 15.5q-54 0 -74 -159q-1 -12 -10.5 -20.5t-21.5 -8.5q-15 0 -25 11t-8 26q13 104 45.5 157.5t93.5 53.5q48 -3 69 -28t43 -85q14 -41 25.5 -57.5t31.5 -16.5q55 0 74 161
q1 12 10 20.5t22 8.5q14 0 24 -11.5t8 -24.5z" />
    <glyph glyph-name="uni00A0" unicode="&#xa0;" horiz-adv-x="258" 
 />
    <glyph glyph-name="exclamdown" unicode="&#xa1;" horiz-adv-x="238" 
d="M181 431q0 -25 -18.5 -43.5t-44.5 -18.5q-25 0 -43 18t-18 44q0 25 18 43.5t43 18.5t44 -18.5t19 -43.5zM119 292q16 0 27.5 -11t12.5 -27l14 -388q1 -22 -15.5 -38.5t-38.5 -16.5q-23 0 -38.5 16t-15.5 39l14 388q1 16 12 27t28 11z" />
    <glyph glyph-name="cent" unicode="&#xa2;" horiz-adv-x="496" 
d="M456 75q0 -19 -14 -31q-51 -48 -124 -55v-60q0 -14 -10 -24t-25 -10q-14 0 -24 10t-10 24v62q-93 12 -150 82t-57 169t57 168.5t150 81.5v44q0 14 10 24t24 10q15 0 25 -10t10 -24v-42q73 -7 124 -55q14 -12 14 -30q0 -17 -11.5 -29t-28.5 -12q-16 0 -27 10
q-31 29 -71 35v-343q40 6 71 35q10 10 26 10q17 0 29 -11.5t12 -28.5zM249 74v336q-52 -14 -82.5 -59.5t-30.5 -108.5t30.5 -109t82.5 -59z" />
    <glyph glyph-name="sterling" unicode="&#xa3;" horiz-adv-x="527" 
d="M508 51q0 -26 -24 -39q-41 -25 -106 -25q-45 0 -101 25q-49 20 -79 20q-38 0 -96 -35q-4 -4 -16 -4q-16 0 -28 12t-12 28q0 22 20 36q106 67 106 141q0 32 -14 58h-112q-13 0 -22 9t-9 22t9 22t22 9h69l-1 1q-36 44 -51.5 75t-15.5 71q-2 83 68.5 142.5t161.5 57.5
q115 0 181 -75q12 -12 12 -30q0 -19 -13 -32t-32 -13q-22 0 -35 16q-39 51 -103 51q-56 0 -94 -33t-38 -86q0 -33 12 -59t41 -62l18 -24h123q13 0 22 -9t9 -22t-9 -22t-22 -9h-92q4 -20 4 -36q0 -78 -73 -126q26 8 52 8q31 0 76 -20q40 -18 66 -18q34 0 63 16q7 4 19 4
q19 0 31.5 -13t12.5 -32z" />
    <glyph glyph-name="currency" unicode="&#xa4;" horiz-adv-x="605" 
d="M502 188l55 -55q11 -14 11 -27q0 -16 -11.5 -27t-27.5 -11t-27 11l-55 55q-61 -43 -145 -43t-145 43l-54 -55q-11 -11 -27 -11t-27.5 11t-11.5 27q0 13 11 27l55 55q-44 64 -44 145q0 83 45 145l-56 56q-11 11 -11 27q0 15 11.5 26.5t27.5 11.5q13 0 27 -11l56 -56
q59 42 143 42q86 0 144 -42l56 55q12 12 27 12q16 0 27.5 -11.5t11.5 -27.5q0 -15 -11 -26l-56 -56q45 -62 45 -145q0 -81 -44 -145zM454 333q0 66 -41 113q-40 46 -111 46q-69 0 -110.5 -46.5t-41.5 -112.5q0 -68 41.5 -114.5t110.5 -46.5q70 0 111 47t41 114z" />
    <glyph glyph-name="yen" unicode="&#xa5;" horiz-adv-x="632" 
d="M588 624q0 -15 -8 -26l-175 -259h180q12 0 21 -8.5t9 -21.5q0 -12 -9 -21t-21 -9h-219v-99h219q12 0 21 -9t9 -21t-9 -21t-21 -9h-219v-75q0 -20 -14.5 -35t-35.5 -15t-35.5 15t-14.5 35v75h-218q-12 0 -21.5 9t-9.5 21t9.5 21t21.5 9h218v99h-218q-12 0 -21.5 9t-9.5 21
t9.5 21t21.5 9h178l-174 258q-9 13 -9 27q0 20 14 34t34 14q28 0 41 -22l184 -281l183 281q13 22 41 22q20 0 34 -14t14 -34z" />
    <glyph glyph-name="brokenbar" unicode="&#xa6;" horiz-adv-x="212" 
d="M74 398v262q0 13 9.5 22.5t22.5 9.5t22.5 -9.5t9.5 -22.5v-262q0 -13 -9.5 -22.5t-22.5 -9.5t-22.5 9.5t-9.5 22.5zM74 7v262q0 13 9.5 22.5t22.5 9.5t22.5 -9.5t9.5 -22.5v-262q0 -13 -9.5 -22.5t-22.5 -9.5t-22.5 9.5t-9.5 22.5z" />
    <glyph glyph-name="section" unicode="&#xa7;" horiz-adv-x="472" 
d="M426 68q0 -68 -53.5 -108.5t-141.5 -40.5q-101 0 -178 59q-14 12 -14 28q0 14 10.5 24.5t25.5 10.5q13 0 21 -8q61 -49 135 -49q49 0 78.5 21t29.5 57q0 32 -27.5 49t-95.5 33q-60 16 -90 28q-82 35 -82 116q0 46 30.5 79.5t79.5 46.5q-110 37 -110 125q0 58 51 98
t133 40q96 0 163 -51q13 -10 13 -27q0 -13 -9.5 -23t-23.5 -10q-11 0 -19 6q-52 40 -120 40q-46 0 -74 -20t-28 -53q3 -31 26.5 -43.5t90.5 -28.5q57 -14 92 -27q87 -31 87 -122q0 -87 -90 -128q90 -36 90 -122zM130 298q2 -16 9 -28t13.5 -19t28.5 -14.5t33.5 -11
t47.5 -12.5q76 31 76 91q0 34 -26.5 54t-78.5 33q-56 -15 -79.5 -37t-23.5 -56z" />
    <glyph glyph-name="dieresis" unicode="&#xa8;" horiz-adv-x="416" 
d="M51 618q0 22 15.5 37t37.5 15t37 -15t15 -37t-15 -37.5t-37 -15.5t-37.5 15.5t-15.5 37.5zM259 618q0 22 15.5 37t37.5 15q21 0 37 -15.5t16 -36.5q0 -22 -16 -37.5t-37 -15.5q-22 0 -37.5 15.5t-15.5 37.5z" />
    <glyph glyph-name="copyright" unicode="&#xa9;" horiz-adv-x="778" 
d="M389 679q139 2 243 -101.5t102 -243.5q2 -140 -102 -244t-243 -101q-139 -3 -243.5 101.5t-101.5 243.5q-3 139 101 243t244 102zM389 646q-126 2 -220.5 -92t-92.5 -220q-2 -126 92.5 -220.5t220.5 -92.5q126 -2 220.5 92.5t92.5 220.5q2 126 -92.5 220t-220.5 92z
M392 547q86 0 140 -59q4 -4 4 -11q0 -20 -19 -20q-7 0 -14 7q-45 48 -111 48q-69 0 -118.5 -50.5t-49.5 -126.5t49.5 -127.5t118.5 -51.5q66 0 111 48q7 7 14 7q19 0 19 -20q0 -8 -4 -11q-56 -59 -140 -59q-86 0 -147 62t-61 152t61 151t147 61z" />
    <glyph glyph-name="ordfeminine" unicode="&#xaa;" horiz-adv-x="380" 
d="M322 533v-178q0 -14 -10 -24t-24 -10t-23.5 10.5t-9.5 25.5v3q-37 -42 -106 -42q-46 0 -78.5 28.5t-32.5 75.5t32.5 75t78.5 28q69 0 106 -42v51q0 28 -21.5 45t-54.5 17q-43 0 -81 -29q-5 -5 -15 -5t-17.5 7.5t-7.5 17.5q0 14 10 21q55 40 121 40q61 0 97 -28.5
t36 -86.5zM255 397v50q-28 35 -79 35q-30 0 -50.5 -16.5t-20.5 -43.5t20 -43.5t51 -16.5q55 0 79 35z" />
    <glyph glyph-name="guillemotleft" unicode="&#xab;" horiz-adv-x="464" 
d="M185 69l-122 136q-16 19 -16 38q0 22 16 38l122 134q10 10 24 10q13 0 22.5 -9.5t9.5 -22.5t-8 -21l-116 -129l117 -131q8 -8 8 -22q0 -13 -10 -22.5t-23 -9.5t-24 11zM342 69l-122 136q-16 19 -16 38q0 22 16 38l122 134q10 10 24 10q13 0 22.5 -9.5t9.5 -22.5t-8 -21
l-116 -129l117 -131q8 -8 8 -22q0 -13 -10 -22.5t-23 -9.5t-24 11z" />
    <glyph glyph-name="logicalnot" unicode="&#xac;" horiz-adv-x="507" 
d="M440 203q-13 0 -22 9t-9 22v166h-355q-12 0 -21 8.5t-9 21.5t9 21.5t21 8.5h364q53 0 53 -53v-173q0 -13 -9 -22t-22 -9z" />
    <glyph glyph-name="uni00AD" unicode="&#xad;" horiz-adv-x="300" 
d="M25 242q0 16 11.5 27.5t27.5 11.5h172q16 0 27.5 -11.5t11.5 -27.5t-11.5 -27.5t-27.5 -11.5h-172q-16 0 -27.5 11.5t-11.5 27.5z" />
    <glyph glyph-name="registered" unicode="&#xae;" horiz-adv-x="494" 
d="M247 677q88 0 150 -62t62 -150t-62 -150t-150 -62t-150 62t-62 150t62 150t150 62zM247 647q-76 0 -129.5 -53t-53.5 -129q0 -75 54 -129t129 -54t128.5 54t53.5 129q0 76 -53.5 129t-128.5 53zM310 346l-61 93h-51v-84q0 -16 -15 -16q-7 0 -12 4.5t-5 11.5v211q0 8 6 14
t14 6h79q33 0 55 -20.5t22 -53.5q0 -30 -16.5 -48.5t-38.5 -22.5l52 -77q3 -5 3 -8q0 -7 -5.5 -12.5t-12.5 -5.5q-9 0 -14 8zM265 557h-67v-88h67q18 0 31 12.5t13 30.5t-13.5 31.5t-30.5 13.5z" />
    <glyph glyph-name="overscore" unicode="&#xaf;" horiz-adv-x="363" 
d="M19 596q0 12 8 20t19 8h271q11 0 19 -8t8 -20q0 -11 -8 -19t-19 -8h-271q-11 0 -19 8t-8 19z" />
    <glyph glyph-name="degree" unicode="&#xb0;" horiz-adv-x="296" 
d="M22 551q0 52 37 89t88 37q52 0 89 -37t37 -89t-37 -89q-36 -36 -89 -36q-51 0 -89 36q-36 38 -36 89zM77 551q0 -29 20.5 -50t49.5 -21t50.5 21t21.5 50t-21.5 50.5t-50.5 21.5t-49.5 -21.5t-20.5 -50.5z" />
    <glyph glyph-name="plusminus" unicode="&#xb1;" horiz-adv-x="500" 
d="M283 324v-183q0 -13 -10 -23t-23 -10t-23 10t-10 23v183h-163q-12 0 -21 9t-9 21q0 13 9 21.5t21 8.5h163v176q0 14 10 23.5t23 9.5q14 0 23.5 -9.5t9.5 -23.5v-176h163q12 0 21.5 -8.5t9.5 -20.5q0 -13 -9.5 -22t-21.5 -9h-163zM24 30q0 12 9 21t21 9h392q12 0 21.5 -9
t9.5 -22q0 -12 -9.5 -20.5t-21.5 -8.5h-392q-12 0 -21 8.5t-9 21.5z" />
    <glyph glyph-name="uni00B2" unicode="&#xb2;" horiz-adv-x="348" 
d="M14 455q0 17 15 28q117 81 167 130q48 48 48 89q0 32 -22.5 50t-57.5 18q-52 0 -95 -35q-8 -7 -18 -7q-12 0 -20.5 8.5t-8.5 21.5t10 23q53 46 134 46q65 0 106.5 -32t41.5 -88q0 -51 -45.5 -103.5t-146.5 -125.5h171q12 0 20.5 -8.5t8.5 -19.5q0 -12 -8.5 -20.5
t-20.5 -8.5h-245q-14 0 -24 10t-10 24z" />
    <glyph glyph-name="uni00B3" unicode="&#xb3;" horiz-adv-x="370" 
d="M35 461q-10 7 -10 23q0 12 8.5 20.5t21.5 8.5q12 0 18 -6q43 -36 98 -36q41 0 64 17t23 46q0 63 -99 63h-19q-11 0 -19.5 8.5t-8.5 19.5t8.5 19.5t19.5 8.5h18q94 0 94 58q0 27 -23.5 43t-61.5 16q-51 0 -92 -33q-7 -6 -17 -6q-11 0 -19.5 8.5t-8.5 19.5q0 13 11 22
q55 46 133 46q67 0 107 -29t40 -78q0 -37 -25.5 -62t-63.5 -31q36 -3 65 -28q31 -25 31 -69q0 -52 -42 -84t-112 -32q-86 0 -139 47z" />
    <glyph glyph-name="acute" unicode="&#xb4;" horiz-adv-x="233" 
d="M51 551q-10 0 -16.5 6.5t-6.5 16.5t7 17l105 105q9 9 21 9t20.5 -8.5t8.5 -20.5t-10 -22l-113 -97q-6 -6 -16 -6z" />
    <glyph glyph-name="uni00B5" unicode="&#xb5;" horiz-adv-x="573" 
d="M560 28q0 -16 -11 -27.5t-26 -12.5h-10q-92 0 -112 86q-59 -86 -148 -86q-65 0 -91 42v-174q0 -19 -13.5 -32t-32.5 -13q-18 0 -31 13t-13 32v587q0 19 13 32t32 13q18 0 31.5 -13t13.5 -32v-271q0 -105 103 -105q38 0 74.5 19.5t58.5 49.5v307q0 19 13 32t31 13
q19 0 32.5 -13t13.5 -32v-321q0 -52 34 -54l7 -1q31 -5 31 -39z" />
    <glyph glyph-name="paragraph" unicode="&#xb6;" horiz-adv-x="449" 
d="M335 -80v697h-86v-697q0 -10 -7.5 -17.5t-17.5 -7.5t-17.5 7.5t-7.5 17.5v403q-71 0 -121.5 50.5t-50.5 121.5t50.5 121.5t121.5 50.5h133q53 0 53 -53v-694q0 -10 -7.5 -17.5t-17.5 -7.5t-17.5 7.5t-7.5 17.5z" />
    <glyph glyph-name="middot" unicode="&#xb7;" horiz-adv-x="238" 
d="M56 244q0 26 18.5 44.5t43.5 18.5q26 0 44.5 -18.5t18.5 -44.5q0 -25 -19 -43.5t-44 -18.5t-43.5 18.5t-18.5 43.5z" />
    <glyph glyph-name="cedilla" unicode="&#xb8;" horiz-adv-x="209" 
d="M13 -170q-13 6 -13 20q0 10 7 16.5t16 6.5q6 0 12 -3q31 -19 66 -19q26 0 42.5 10.5t16.5 28.5q0 32 -36 32q-19 0 -29 -10q-5 -4 -15 -4q-25 0 -25 25q0 2 2 10l25 68h50l-26 -65q17 11 37 11q29 0 47.5 -19t18.5 -49q0 -36 -30 -59t-76 -23q-49 0 -90 23z" />
    <glyph glyph-name="uni00B9" unicode="&#xb9;" horiz-adv-x="242" 
d="M111 452v278l-49 -50q-6 -9 -21 -9q-12 0 -20.5 8.5t-8.5 20.5t9 21l93 94q11 11 28 11q16 0 28 -11.5t12 -27.5v-335q0 -15 -10.5 -25.5t-25.5 -10.5q-14 0 -24.5 10.5t-10.5 25.5z" />
    <glyph glyph-name="ordmasculine" unicode="&#xba;" horiz-adv-x="405" 
d="M202 648q74 0 120 -47.5t46 -117.5t-46 -117.5t-120 -47.5q-73 0 -119 47.5t-46 117.5t46 117.5t119 47.5zM202 591q-44 0 -69.5 -29.5t-25.5 -78.5t25.5 -79t69.5 -30t70 30t26 79t-26 78.5t-70 29.5z" />
    <glyph glyph-name="guillemotright" unicode="&#xbb;" horiz-adv-x="464" 
d="M65 90q0 14 8 22l117 131l-116 129q-8 8 -8 21t9.5 22.5t22.5 9.5q14 0 24 -10l122 -134q16 -16 16 -38q0 -19 -16 -38l-122 -136q-11 -11 -24 -11t-23 9.5t-10 22.5zM222 90q0 14 8 22l117 131l-116 129q-8 8 -8 21t9.5 22.5t22.5 9.5q14 0 24 -10l122 -134
q16 -16 16 -38q0 -19 -16 -38l-122 -136q-11 -11 -24 -11t-23 9.5t-10 22.5z" />
    <glyph glyph-name="onequarter" unicode="&#xbc;" horiz-adv-x="724" 
d="M111 298v278l-49 -50q-6 -9 -21 -9q-12 0 -20.5 8.5t-8.5 20.5t9 21l93 94q11 11 28 11q16 0 28 -11.5t12 -27.5v-335q0 -15 -10.5 -25.5t-25.5 -10.5q-14 0 -24.5 10.5t-10.5 25.5zM144 -5q-11 0 -18.5 7.5t-7.5 17.5q0 6 4 15l399 625q7 12 22 12q11 0 19 -7.5t8 -18.5
q0 -7 -4 -14l-400 -625q-9 -12 -22 -12zM717 124q0 -11 -8.5 -19.5t-19.5 -8.5h-33v-66q0 -14 -10.5 -24.5t-24.5 -10.5q-15 0 -25 10.5t-10 24.5v66h-169q-13 0 -22.5 9.5t-9.5 23.5q0 10 5 18l153 230q18 28 52 28q25 0 43 -18t18 -43v-191h33q11 0 19.5 -8.5t8.5 -20.5z
M460 153h126v186z" />
    <glyph glyph-name="onehalf" unicode="&#xbd;" horiz-adv-x="764" 
d="M111 298v278l-49 -50q-6 -9 -21 -9q-12 0 -20.5 8.5t-8.5 20.5t9 21l93 94q11 11 28 11q16 0 28 -11.5t12 -27.5v-335q0 -15 -10.5 -25.5t-25.5 -10.5q-14 0 -24.5 10.5t-10.5 25.5zM144 -5q-11 0 -18.5 7.5t-7.5 17.5q0 6 4 15l399 625q7 12 22 12q11 0 19 -7.5t8 -18.5
q0 -7 -4 -14l-400 -625q-9 -12 -22 -12zM430 34q0 18 15 28q117 81 167 130q48 48 48 89q0 32 -22.5 50t-57.5 18q-52 0 -95 -35q-8 -7 -18 -7q-12 0 -20.5 8.5t-8.5 21.5t10 23q53 46 134 46q65 0 106.5 -32t41.5 -88q0 -51 -45.5 -103.5t-146.5 -125.5h171q12 0 20.5 -8.5
t8.5 -19.5q0 -12 -8.5 -20.5t-20.5 -8.5h-245q-14 0 -24 10t-10 24z" />
    <glyph glyph-name="threequarters" unicode="&#xbe;" horiz-adv-x="823" 
d="M35 307q-10 7 -10 23q0 12 8.5 20.5t21.5 8.5q12 0 18 -6q43 -36 98 -36q41 0 64 17t23 46q0 63 -99 63h-19q-11 0 -19.5 8.5t-8.5 19.5t8.5 19.5t19.5 8.5h18q94 0 94 58q0 27 -23.5 43t-61.5 16q-51 0 -92 -33q-7 -6 -17 -6q-11 0 -19.5 8.5t-8.5 19.5q0 13 11 22
q55 46 133 46q67 0 107 -29t40 -78q0 -37 -25.5 -62t-63.5 -31q36 -3 65 -28q31 -25 31 -69q0 -52 -42 -84t-112 -32q-86 0 -139 47zM242 -5q-11 0 -18.5 7.5t-7.5 17.5q0 6 4 15l399 625q7 12 22 12q11 0 19 -7.5t8 -18.5q0 -7 -4 -14l-400 -625q-9 -12 -22 -12zM816 124
q0 -11 -8.5 -19.5t-19.5 -8.5h-33v-66q0 -14 -10.5 -24.5t-24.5 -10.5q-15 0 -25 10.5t-10 24.5v66h-169q-13 0 -22.5 9.5t-9.5 23.5q0 10 5 18l153 230q18 28 52 28q25 0 43 -18t18 -43v-191h33q11 0 19.5 -8.5t8.5 -20.5zM559 153h126v186z" />
    <glyph glyph-name="questiondown" unicode="&#xbf;" horiz-adv-x="395" 
d="M235 368q-25 0 -43.5 18.5t-18.5 43.5q0 26 18.5 44.5t43.5 18.5q26 0 44.5 -18.5t18.5 -44.5q0 -25 -18.5 -43.5t-44.5 -18.5zM208 75q-43 -29 -60.5 -49.5t-17.5 -48.5q0 -37 28.5 -60t78.5 -23q73 0 123 50q11 10 28 10q18 0 31 -12.5t13 -31.5q0 -20 -15 -33
q-78 -72 -190 -72q-90 0 -145 44.5t-55 111.5q0 39 15 68q15 27 34.5 45.5t59.5 46.5q45 32 61.5 51t16.5 45q0 8 -7 19q-1 3 -1 10q0 18 12 30.5t30 12.5q23 0 35 -21q18 -29 18 -59q0 -41 -21.5 -69.5t-71.5 -64.5z" />
    <glyph glyph-name="Agrave" unicode="&#xc0;" horiz-adv-x="666" 
d="M638 46q0 -21 -15 -36t-36 -15q-35 0 -47 32l-42 111h-331l-42 -111q-12 -32 -47 -32q-21 0 -36 15t-15 36q0 8 4 19l220 551q9 24 31.5 40t49.5 16t49.5 -15.5t32.5 -40.5l220 -551q4 -9 4 -19zM200 227h265l-133 353zM314 724l-113 97q-10 10 -10 22t8.5 20.5t20.5 8.5
t21 -9l105 -105q7 -7 7 -17t-6.5 -16.5t-16.5 -6.5t-16 6z" />
    <glyph glyph-name="Aacute" unicode="&#xc1;" horiz-adv-x="666" 
d="M638 46q0 -21 -15 -36t-36 -15q-35 0 -47 32l-42 111h-331l-42 -111q-12 -32 -47 -32q-21 0 -36 15t-15 36q0 8 4 19l220 551q9 24 31.5 40t49.5 16t49.5 -15.5t32.5 -40.5l220 -551q4 -9 4 -19zM200 227h265l-133 353zM339 718q-10 0 -16.5 6.5t-6.5 16.5t7 17l105 105
q9 9 21 9t20.5 -8.5t8.5 -20.5t-10 -22l-113 -97q-6 -6 -16 -6z" />
    <glyph glyph-name="Acircumflex" unicode="&#xc2;" horiz-adv-x="666" 
d="M638 46q0 -21 -15 -36t-36 -15q-35 0 -47 32l-42 111h-331l-42 -111q-12 -32 -47 -32q-21 0 -36 15t-15 36q0 8 4 19l220 551q9 24 31.5 40t49.5 16t49.5 -15.5t32.5 -40.5l220 -551q4 -9 4 -19zM200 227h265l-133 353zM409 726l-76 98l-76 -98q-6 -9 -18 -9
q-11 0 -18.5 7t-7.5 18q0 9 4 13l63 96q15 22 42 22h22q27 0 42 -22l63 -96q4 -4 4 -13q0 -11 -7.5 -18t-18.5 -7q-12 0 -18 9z" />
    <glyph glyph-name="Atilde" unicode="&#xc3;" horiz-adv-x="666" 
d="M638 46q0 -21 -15 -36t-36 -15q-35 0 -47 32l-42 111h-331l-42 -111q-12 -32 -47 -32q-21 0 -36 15t-15 36q0 8 4 19l220 551q9 24 31.5 40t49.5 16t49.5 -15.5t32.5 -40.5l220 -551q4 -9 4 -19zM200 227h265l-133 353zM315 770q-24 36 -45 36q-38 0 -44 -62
q-6 -22 -25 -22q-11 0 -19 8.5t-6 19.5q5 52 30.5 81.5t67.5 29.5q24 0 39.5 -11t35.5 -38q27 -36 46 -36q36 0 44 62q2 22 25 22q11 0 18.5 -8t6.5 -20q-5 -52 -30.5 -81.5t-67.5 -29.5q-25 0 -40.5 11t-35.5 38z" />
    <glyph glyph-name="Adieresis" unicode="&#xc4;" horiz-adv-x="666" 
d="M638 46q0 -21 -15 -36t-36 -15q-35 0 -47 32l-42 111h-331l-42 -111q-12 -32 -47 -32q-21 0 -36 15t-15 36q0 8 4 19l220 551q9 24 31.5 40t49.5 16t49.5 -15.5t32.5 -40.5l220 -551q4 -9 4 -19zM200 227h265l-133 353zM176 785q0 22 15.5 37t37.5 15t37 -15t15 -37
t-15 -37.5t-37 -15.5t-37.5 15.5t-15.5 37.5zM384 785q0 22 15.5 37t37.5 15q21 0 37 -15.5t16 -36.5q0 -22 -16 -37.5t-37 -15.5q-22 0 -37.5 15.5t-15.5 37.5z" />
    <glyph glyph-name="Aring" unicode="&#xc5;" horiz-adv-x="666" 
d="M638 46q0 -21 -15 -36t-36 -15q-35 0 -47 32l-42 111h-331l-42 -111q-12 -32 -47 -32q-21 0 -36 15t-15 36q0 8 4 19l220 551q9 24 31.5 40t49.5 16t49.5 -15.5t32.5 -40.5l220 -551q4 -9 4 -19zM200 227h265l-133 353zM333 908q41 0 70 -30t29 -71t-29 -71t-70 -30
t-70.5 30t-29.5 71t29.5 71t70.5 30zM333 862q-23 0 -39 -16t-16 -39t16.5 -39.5t38.5 -16.5q23 0 39 16.5t16 39.5t-16 39t-39 16z" />
    <glyph glyph-name="AE" unicode="&#xc6;" horiz-adv-x="953" 
d="M908 45q0 -19 -13.5 -32t-31.5 -13h-354q-54 0 -54 53v85h-261l-71 -121q-14 -22 -40 -22q-19 0 -33 13.5t-14 33.5q0 11 7 24l350 565q23 36 65 36h405q18 0 31.5 -13t13.5 -32q0 -18 -13.5 -30.5t-31.5 -12.5h-308v-195h301q18 0 31.5 -12.5t13.5 -30.5
q0 -19 -13.5 -32t-31.5 -13h-301v-208h308q18 0 31.5 -12.5t13.5 -30.5zM247 227h208v354z" />
    <glyph glyph-name="Ccedilla" unicode="&#xc7;" horiz-adv-x="671" 
d="M632 118q0 -20 -12 -32q-85 -90 -214 -98l-17 -42q17 11 37 11q29 0 47.5 -19t18.5 -49q0 -36 -30 -59t-76 -23q-49 0 -90 23q-13 6 -13 20q0 10 7 16.5t16 6.5q6 0 12 -3q31 -19 66 -19q26 0 42.5 10.5t16.5 28.5q0 32 -36 32q-19 0 -29 -10q-5 -4 -15 -4q-25 0 -25 25
q0 2 2 10l17 46q-133 10 -222.5 107t-88.5 237q-2 148 98.5 247.5t243.5 97.5q142 0 232 -98q12 -12 12 -32q0 -19 -13.5 -33t-33.5 -14q-23 0 -36 16q-64 72 -161 72q-102 0 -170.5 -73t-68.5 -183t68.5 -183t170.5 -73q96 0 162 72q13 16 35 16q20 0 33.5 -13.5
t13.5 -33.5z" />
    <glyph glyph-name="Egrave" unicode="&#xc8;" horiz-adv-x="573" 
d="M74 53v561q0 53 54 53h354q18 0 31.5 -13t13.5 -32q0 -18 -13.5 -30.5t-31.5 -12.5h-308v-195h301q18 0 31.5 -12.5t13.5 -30.5q0 -19 -13.5 -32t-31.5 -13h-301v-208h308q18 0 31.5 -12.5t13.5 -30.5q0 -19 -13.5 -32t-31.5 -13h-354q-54 0 -54 53zM286 724l-113 97
q-10 10 -10 22t8.5 20.5t20.5 8.5t21 -9l105 -105q7 -7 7 -17t-6.5 -16.5t-16.5 -6.5t-16 6z" />
    <glyph glyph-name="Eacute" unicode="&#xc9;" horiz-adv-x="573" 
d="M74 53v561q0 53 54 53h354q18 0 31.5 -13t13.5 -32q0 -18 -13.5 -30.5t-31.5 -12.5h-308v-195h301q18 0 31.5 -12.5t13.5 -30.5q0 -19 -13.5 -32t-31.5 -13h-301v-208h308q18 0 31.5 -12.5t13.5 -30.5q0 -19 -13.5 -32t-31.5 -13h-354q-54 0 -54 53zM311 718
q-10 0 -16.5 6.5t-6.5 16.5t7 17l105 105q9 9 21 9t20.5 -8.5t8.5 -20.5t-10 -22l-113 -97q-6 -6 -16 -6z" />
    <glyph glyph-name="Ecircumflex" unicode="&#xca;" horiz-adv-x="573" 
d="M74 53v561q0 53 54 53h354q18 0 31.5 -13t13.5 -32q0 -18 -13.5 -30.5t-31.5 -12.5h-308v-195h301q18 0 31.5 -12.5t13.5 -30.5q0 -19 -13.5 -32t-31.5 -13h-301v-208h308q18 0 31.5 -12.5t13.5 -30.5q0 -19 -13.5 -32t-31.5 -13h-354q-54 0 -54 53zM381 726l-76 98
l-76 -98q-6 -9 -18 -9q-11 0 -18.5 7t-7.5 18q0 9 4 13l63 96q15 22 42 22h22q27 0 42 -22l63 -96q4 -4 4 -13q0 -11 -7.5 -18t-18.5 -7q-12 0 -18 9z" />
    <glyph glyph-name="Edieresis" unicode="&#xcb;" horiz-adv-x="573" 
d="M74 53v561q0 53 54 53h354q18 0 31.5 -13t13.5 -32q0 -18 -13.5 -30.5t-31.5 -12.5h-308v-195h301q18 0 31.5 -12.5t13.5 -30.5q0 -19 -13.5 -32t-31.5 -13h-301v-208h308q18 0 31.5 -12.5t13.5 -30.5q0 -19 -13.5 -32t-31.5 -13h-354q-54 0 -54 53zM147 785
q0 22 15.5 37t37.5 15t37 -15t15 -37t-15 -37.5t-37 -15.5t-37.5 15.5t-15.5 37.5zM355 785q0 22 15.5 37t37.5 15q21 0 37 -15.5t16 -36.5q0 -22 -16 -37.5t-37 -15.5q-22 0 -37.5 15.5t-15.5 37.5z" />
    <glyph glyph-name="Igrave" unicode="&#xcc;" horiz-adv-x="249" 
d="M74 45v577q0 20 15 35t36 15q20 0 34.5 -15t14.5 -35v-577q0 -20 -14.5 -35t-34.5 -15q-21 0 -36 15t-15 35zM106 724l-113 97q-10 10 -10 22t8.5 20.5t20.5 8.5t21 -9l105 -105q7 -7 7 -17t-6.5 -16.5t-16.5 -6.5t-16 6z" />
    <glyph glyph-name="Iacute" unicode="&#xcd;" horiz-adv-x="249" 
d="M74 45v577q0 20 15 35t36 15q20 0 34.5 -15t14.5 -35v-577q0 -20 -14.5 -35t-34.5 -15q-21 0 -36 15t-15 35zM132 718q-10 0 -16.5 6.5t-6.5 16.5t7 17l105 105q9 9 21 9t20.5 -8.5t8.5 -20.5t-10 -22l-113 -97q-6 -6 -16 -6z" />
    <glyph glyph-name="Icircumflex" unicode="&#xce;" horiz-adv-x="249" 
d="M74 45v577q0 20 15 35t36 15q20 0 34.5 -15t14.5 -35v-577q0 -20 -14.5 -35t-34.5 -15q-21 0 -36 15t-15 35zM202 726l-76 98l-76 -98q-6 -9 -18 -9q-11 0 -18.5 7t-7.5 18q0 9 4 13l63 96q15 22 42 22h22q27 0 42 -22l63 -96q4 -4 4 -13q0 -11 -7.5 -18t-18.5 -7
q-12 0 -18 9z" />
    <glyph glyph-name="Idieresis" unicode="&#xcf;" horiz-adv-x="249" 
d="M74 45v577q0 20 15 35t36 15q20 0 34.5 -15t14.5 -35v-577q0 -20 -14.5 -35t-34.5 -15q-21 0 -36 15t-15 35zM-32 785q0 22 15.5 37t37.5 15t37 -15t15 -37t-15 -37.5t-37 -15.5t-37.5 15.5t-15.5 37.5zM176 785q0 22 15.5 37t37.5 15q21 0 37 -15.5t16 -36.5
q0 -22 -16 -37.5t-37 -15.5q-22 0 -37.5 15.5t-15.5 37.5z" />
    <glyph glyph-name="Eth" unicode="&#xd0;" horiz-adv-x="732" 
d="M685 333q2 -144 -96 -239t-250 -94h-184q-54 0 -54 53v238h-59q-15 0 -26.5 11t-11.5 27q0 15 11.5 26t26.5 11h59v248q0 53 54 53h184q151 2 249.5 -94.5t96.5 -239.5zM582 333q0 107 -65.5 176.5t-177.5 69.5h-138v-213h132q15 0 26.5 -11t11.5 -26q0 -16 -11.5 -27
t-26.5 -11h-132v-203h138q111 0 177 69.5t66 175.5z" />
    <glyph glyph-name="Ntilde" unicode="&#xd1;" horiz-adv-x="714" 
d="M528 21l-354 491v-467q0 -20 -14.5 -35t-34.5 -15q-21 0 -36 15t-15 35v561q0 27 19 46.5t47 19.5q34 0 53 -27l347 -478v455q0 20 14.5 35t34.5 15q21 0 36 -15t15 -35v-565q0 -25 -18 -43.5t-44 -18.5q-33 0 -50 26zM340 770q-24 36 -45 36q-38 0 -44 -62
q-5 -22 -25 -22q-11 0 -19 8.5t-6 19.5q5 52 30.5 81.5t67.5 29.5q24 0 39.5 -11t35.5 -38q27 -36 46 -36q36 0 44 62q2 22 25 22q11 0 18.5 -8t6.5 -20q-5 -52 -30.5 -81.5t-67.5 -29.5q-25 0 -40.5 11t-35.5 38z" />
    <glyph glyph-name="Ograve" unicode="&#xd2;" horiz-adv-x="765" 
d="M382 678q145 2 241.5 -98t94.5 -247q2 -147 -94.5 -247.5t-241.5 -97.5q-145 -3 -241.5 97.5t-94.5 247.5q-2 147 94.5 247t241.5 98zM382 589q-104 0 -168.5 -72t-64.5 -184t64.5 -184t168.5 -72q103 0 168 72.5t65 183.5t-65 183.5t-168 72.5zM363 724l-113 97
q-10 10 -10 22t8.5 20.5t20.5 8.5t21 -9l105 -105q7 -7 7 -17t-6.5 -16.5t-16.5 -6.5t-16 6z" />
    <glyph glyph-name="Oacute" unicode="&#xd3;" horiz-adv-x="765" 
d="M382 678q145 2 241.5 -98t94.5 -247q2 -147 -94.5 -247.5t-241.5 -97.5q-145 -3 -241.5 97.5t-94.5 247.5q-2 147 94.5 247t241.5 98zM382 589q-104 0 -168.5 -72t-64.5 -184t64.5 -184t168.5 -72q103 0 168 72.5t65 183.5t-65 183.5t-168 72.5zM388 718q-10 0 -16.5 6.5
t-6.5 16.5t7 17l105 105q9 9 21 9t20.5 -8.5t8.5 -20.5t-10 -22l-113 -97q-6 -6 -16 -6z" />
    <glyph glyph-name="Ocircumflex" unicode="&#xd4;" horiz-adv-x="765" 
d="M382 678q145 2 241.5 -98t94.5 -247q2 -147 -94.5 -247.5t-241.5 -97.5q-145 -3 -241.5 97.5t-94.5 247.5q-2 147 94.5 247t241.5 98zM382 589q-104 0 -168.5 -72t-64.5 -184t64.5 -184t168.5 -72q103 0 168 72.5t65 183.5t-65 183.5t-168 72.5zM458 726l-76 98l-76 -98
q-6 -9 -18 -9q-11 0 -18.5 7t-7.5 18q0 9 4 13l63 96q15 22 42 22h22q27 0 42 -22l63 -96q4 -4 4 -13q0 -11 -7.5 -18t-18.5 -7q-12 0 -18 9z" />
    <glyph glyph-name="Otilde" unicode="&#xd5;" horiz-adv-x="765" 
d="M382 678q145 2 241.5 -98t94.5 -247q2 -147 -94.5 -247.5t-241.5 -97.5q-145 -3 -241.5 97.5t-94.5 247.5q-2 147 94.5 247t241.5 98zM382 589q-104 0 -168.5 -72t-64.5 -184t64.5 -184t168.5 -72q103 0 168 72.5t65 183.5t-65 183.5t-168 72.5zM364 770q-24 36 -45 36
q-38 0 -44 -62q-5 -22 -25 -22q-11 0 -19 8.5t-6 19.5q5 52 30.5 81.5t67.5 29.5q24 0 39.5 -11t35.5 -38q27 -36 46 -36q36 0 44 62q2 22 25 22q11 0 18.5 -8t6.5 -20q-5 -52 -30.5 -81.5t-67.5 -29.5q-25 0 -40.5 11t-35.5 38z" />
    <glyph glyph-name="Odieresis" unicode="&#xd6;" horiz-adv-x="765" 
d="M382 678q145 2 241.5 -98t94.5 -247q2 -147 -94.5 -247.5t-241.5 -97.5q-145 -3 -241.5 97.5t-94.5 247.5q-2 147 94.5 247t241.5 98zM382 589q-104 0 -168.5 -72t-64.5 -184t64.5 -184t168.5 -72q103 0 168 72.5t65 183.5t-65 183.5t-168 72.5zM225 785q0 22 15.5 37
t37.5 15t37 -15t15 -37t-15 -37.5t-37 -15.5t-37.5 15.5t-15.5 37.5zM433 785q0 22 15.5 37t37.5 15q21 0 37 -15.5t16 -36.5q0 -22 -16 -37.5t-37 -15.5q-22 0 -37.5 15.5t-15.5 37.5z" />
    <glyph glyph-name="multiply" unicode="&#xd7;" horiz-adv-x="500" 
d="M250 291l-129 -129q-8 -8 -20 -8q-13 0 -22 9t-9 21t9 21l129 129l-129 128q-9 10 -9 22t9 21t22 9q12 0 21 -9l128 -129l129 129q9 9 21 9q13 0 21.5 -9t8.5 -21t-9 -22l-128 -128l128 -129q9 -9 9 -21t-8.5 -21t-21.5 -9q-10 0 -21 8z" />
    <glyph glyph-name="Oslash" unicode="&#xd8;" horiz-adv-x="765" 
d="M718 333q2 -147 -94.5 -247.5t-241.5 -97.5q-104 0 -186 52l-54 -75q-9 -13 -22 -13q-11 0 -18.5 7.5t-7.5 17.5q0 11 7 18l55 76q-110 100 -110 262q-2 147 94.5 247t241.5 98q99 0 179 -47l52 72q7 12 22 12q11 0 18.5 -7.5t7.5 -17.5q0 -11 -7 -18l-52 -71
q55 -48 85.5 -117.5t30.5 -150.5zM213 149l293 406q-53 34 -124 34q-104 0 -168.5 -72t-64.5 -184q0 -111 64 -184zM615 333q0 115 -69 189l-295 -406q55 -39 131 -39q103 0 168 72.5t65 183.5z" />
    <glyph glyph-name="Ugrave" unicode="&#xd9;" horiz-adv-x="710" 
d="M74 261v361q0 20 15 35t36 15t35.5 -15t14.5 -35v-358q0 -88 47 -137.5t133 -49.5t132.5 49.5t46.5 137.5v358q0 20 15 35t36 15t35.5 -15t14.5 -35v-360q0 -130 -72 -202t-208 -72q-135 0 -208 72.5t-73 200.5zM337 724l-113 97q-10 10 -10 22t8.5 20.5t20.5 8.5t21 -9
l105 -105q7 -7 7 -17t-6.5 -16.5t-16.5 -6.5t-16 6z" />
    <glyph glyph-name="Uacute" unicode="&#xda;" horiz-adv-x="710" 
d="M74 261v361q0 20 15 35t36 15t35.5 -15t14.5 -35v-358q0 -88 47 -137.5t133 -49.5t132.5 49.5t46.5 137.5v358q0 20 15 35t36 15t35.5 -15t14.5 -35v-360q0 -130 -72 -202t-208 -72q-135 0 -208 72.5t-73 200.5zM362 718q-10 0 -16.5 6.5t-6.5 16.5t7 17l105 105
q9 9 21 9t20.5 -8.5t8.5 -20.5t-10 -22l-113 -97q-6 -6 -16 -6z" />
    <glyph glyph-name="Ucircumflex" unicode="&#xdb;" horiz-adv-x="710" 
d="M74 261v361q0 20 15 35t36 15t35.5 -15t14.5 -35v-358q0 -88 47 -137.5t133 -49.5t132.5 49.5t46.5 137.5v358q0 20 15 35t36 15t35.5 -15t14.5 -35v-360q0 -130 -72 -202t-208 -72q-135 0 -208 72.5t-73 200.5zM432 726l-76 98l-76 -98q-6 -9 -18 -9q-11 0 -18.5 7
t-7.5 18q0 9 4 13l63 96q15 22 42 22h22q27 0 42 -22l63 -96q4 -4 4 -13q0 -11 -7.5 -18t-18.5 -7q-12 0 -18 9z" />
    <glyph glyph-name="Udieresis" unicode="&#xdc;" horiz-adv-x="710" 
d="M74 261v361q0 20 15 35t36 15t35.5 -15t14.5 -35v-358q0 -88 47 -137.5t133 -49.5t132.5 49.5t46.5 137.5v358q0 20 15 35t36 15t35.5 -15t14.5 -35v-360q0 -130 -72 -202t-208 -72q-135 0 -208 72.5t-73 200.5zM199 785q0 22 15.5 37t37.5 15t37 -15t15 -37t-15 -37.5
t-37 -15.5t-37.5 15.5t-15.5 37.5zM407 785q0 22 15.5 37t37.5 15q21 0 37 -15.5t16 -36.5q0 -22 -16 -37.5t-37 -15.5q-22 0 -37.5 15.5t-15.5 37.5z" />
    <glyph glyph-name="Yacute" unicode="&#xdd;" horiz-adv-x="631" 
d="M580 598l-214 -319v-234q0 -20 -14.5 -35t-35.5 -15t-35.5 15t-14.5 35v234l-215 318q-8 11 -8 27q0 20 14 34t34 14q28 0 41 -22l184 -282l183 282q15 22 41 22q20 0 34 -14t14 -34q0 -15 -8 -26zM323 718q-10 0 -16.5 6.5t-6.5 16.5t7 17l105 105q9 9 21 9t20.5 -8.5
t8.5 -20.5t-10 -22l-113 -97q-6 -6 -16 -6z" />
    <glyph glyph-name="Thorn" unicode="&#xde;" horiz-adv-x="597" 
d="M74 45v577q0 20 15 35t35 15q21 0 35.5 -15t14.5 -35v-71h181q97 0 155 -59.5t58 -146.5t-58 -145t-155 -58h-181v-97q0 -20 -14.5 -35t-34.5 -15q-21 0 -36 15t-15 35zM342 462h-168v-232h168q54 0 88.5 32t34.5 84q0 51 -34.5 83.5t-88.5 32.5z" />
    <glyph glyph-name="germandbls" unicode="&#xdf;" horiz-adv-x="569" 
d="M527 181q0 -89 -56 -141t-143 -52q-52 0 -98 21q-23 12 -23 35q0 16 11 27t27 11q7 0 23 -6q30 -11 60 -11q45 0 75.5 32.5t30.5 86.5q0 59 -44.5 96t-127.5 41q-14 1 -24.5 11.5t-10.5 25.5q0 14 9.5 24.5t22.5 11.5q58 7 89 36t31 72t-30 69t-71 26q-58 0 -89.5 -37
t-31.5 -111v-409q0 -18 -13.5 -31t-31.5 -13q-19 0 -32 12.5t-13 31.5v409q0 104 60.5 166t149.5 62q83 0 139.5 -47t56.5 -118q0 -52 -30.5 -90.5t-83.5 -56.5q71 -14 119.5 -65.5t48.5 -118.5z" />
    <glyph glyph-name="agrave" unicode="&#xe0;" horiz-adv-x="532" 
d="M460 326v-286q0 -19 -13.5 -32t-31.5 -13t-31.5 13t-13.5 32v14q-57 -66 -158 -66q-67 0 -117.5 43.5t-50.5 116.5q0 75 49.5 116.5t118.5 41.5q104 0 158 -64v80q0 44 -32 70t-86 26q-65 0 -119 -42q-10 -7 -22 -7q-15 0 -25.5 11t-10.5 26q0 18 15 29q75 60 176 60
q90 0 142 -42.5t52 -126.5zM370 106v82q-41 55 -124 55q-49 0 -80 -26.5t-31 -69.5t31 -69.5t80 -26.5q83 0 124 55zM249 577l-113 97q-10 10 -10 22t8.5 20.5t20.5 8.5t21 -9l105 -105q7 -7 7 -17t-6.5 -16.5t-16.5 -6.5t-16 6z" />
    <glyph glyph-name="aacute" unicode="&#xe1;" horiz-adv-x="532" 
d="M460 326v-286q0 -19 -13.5 -32t-31.5 -13t-31.5 13t-13.5 32v14q-57 -66 -158 -66q-67 0 -117.5 43.5t-50.5 116.5q0 75 49.5 116.5t118.5 41.5q104 0 158 -64v80q0 44 -32 70t-86 26q-65 0 -119 -42q-10 -7 -22 -7q-15 0 -25.5 11t-10.5 26q0 18 15 29q75 60 176 60
q90 0 142 -42.5t52 -126.5zM370 106v82q-41 55 -124 55q-49 0 -80 -26.5t-31 -69.5t31 -69.5t80 -26.5q83 0 124 55zM274 571q-10 0 -16.5 6.5t-6.5 16.5t7 17l105 105q9 9 21 9t20.5 -8.5t8.5 -20.5t-10 -22l-113 -97q-6 -6 -16 -6z" />
    <glyph glyph-name="acircumflex" unicode="&#xe2;" horiz-adv-x="532" 
d="M460 326v-286q0 -19 -13.5 -32t-31.5 -13t-31.5 13t-13.5 32v14q-57 -66 -158 -66q-67 0 -117.5 43.5t-50.5 116.5q0 75 49.5 116.5t118.5 41.5q104 0 158 -64v80q0 44 -32 70t-86 26q-65 0 -119 -42q-10 -7 -22 -7q-15 0 -25.5 11t-10.5 26q0 18 15 29q75 60 176 60
q90 0 142 -42.5t52 -126.5zM370 106v82q-41 55 -124 55q-49 0 -80 -26.5t-31 -69.5t31 -69.5t80 -26.5q83 0 124 55zM344 579l-76 98l-76 -98q-6 -9 -18 -9q-11 0 -18.5 7t-7.5 18q0 9 4 13l63 96q15 22 42 22h22q27 0 42 -22l63 -96q4 -4 4 -13q0 -11 -7.5 -18t-18.5 -7
q-12 0 -18 9z" />
    <glyph glyph-name="atilde" unicode="&#xe3;" horiz-adv-x="532" 
d="M460 326v-286q0 -19 -13.5 -32t-31.5 -13t-31.5 13t-13.5 32v14q-57 -66 -158 -66q-67 0 -117.5 43.5t-50.5 116.5q0 75 49.5 116.5t118.5 41.5q104 0 158 -64v80q0 44 -32 70t-86 26q-65 0 -119 -42q-10 -7 -22 -7q-15 0 -25.5 11t-10.5 26q0 18 15 29q75 60 176 60
q90 0 142 -42.5t52 -126.5zM370 106v82q-41 55 -124 55q-49 0 -80 -26.5t-31 -69.5t31 -69.5t80 -26.5q83 0 124 55zM250 623q-24 36 -45 36q-38 0 -44 -62q-5 -22 -25 -22q-11 0 -19 8.5t-6 19.5q5 52 30.5 81.5t67.5 29.5q24 0 39.5 -11t35.5 -38q27 -36 46 -36
q36 0 44 62q2 22 25 22q11 0 18.5 -8t6.5 -20q-5 -52 -30.5 -81.5t-67.5 -29.5q-25 0 -40.5 11t-35.5 38z" />
    <glyph glyph-name="adieresis" unicode="&#xe4;" horiz-adv-x="532" 
d="M460 326v-286q0 -19 -13.5 -32t-31.5 -13t-31.5 13t-13.5 32v14q-57 -66 -158 -66q-67 0 -117.5 43.5t-50.5 116.5q0 75 49.5 116.5t118.5 41.5q104 0 158 -64v80q0 44 -32 70t-86 26q-65 0 -119 -42q-10 -7 -22 -7q-15 0 -25.5 11t-10.5 26q0 18 15 29q75 60 176 60
q90 0 142 -42.5t52 -126.5zM370 106v82q-41 55 -124 55q-49 0 -80 -26.5t-31 -69.5t31 -69.5t80 -26.5q83 0 124 55zM110 638q0 22 15.5 37t37.5 15t37 -15t15 -37t-15 -37.5t-37 -15.5t-37.5 15.5t-15.5 37.5zM318 638q0 22 15.5 37t37.5 15q21 0 37 -15.5t16 -36.5
q0 -22 -16 -37.5t-37 -15.5q-22 0 -37.5 15.5t-15.5 37.5z" />
    <glyph glyph-name="aring" unicode="&#xe5;" horiz-adv-x="532" 
d="M460 326v-286q0 -19 -13.5 -32t-31.5 -13t-31.5 13t-13.5 32v14q-57 -66 -158 -66q-67 0 -117.5 43.5t-50.5 116.5q0 75 49.5 116.5t118.5 41.5q104 0 158 -64v80q0 44 -32 70t-86 26q-65 0 -119 -42q-10 -7 -22 -7q-15 0 -25.5 11t-10.5 26q0 18 15 29q75 60 176 60
q90 0 142 -42.5t52 -126.5zM370 106v82q-41 55 -124 55q-49 0 -80 -26.5t-31 -69.5t31 -69.5t80 -26.5q83 0 124 55zM268 761q41 0 70 -30t29 -71t-29 -71t-70 -30t-70.5 30t-29.5 71t29.5 71t70.5 30zM268 715q-23 0 -39 -16t-16 -39t16.5 -39.5t38.5 -16.5q23 0 39 16.5
t16 39.5t-16 39t-39 16z" />
    <glyph glyph-name="ae" unicode="&#xe6;" horiz-adv-x="883" 
d="M635 64q61 0 110 37q11 6 20 6q15 0 25.5 -10.5t10.5 -26.5q0 -18 -16 -30q-67 -52 -154 -52q-133 0 -192 107q-28 -49 -82 -78t-118 -29q-82 0 -139 42q-56 42 -56 118t51 116q51 42 126 42q111 0 173 -62v78q0 44 -35.5 70t-92.5 26q-75 0 -133 -43q-7 -7 -21 -7
q-15 0 -26 11t-11 27q0 18 16 30q77 59 183 59q66 0 112 -25.5t61 -73.5q61 99 178 99q97 0 157.5 -70.5t60.5 -169.5q0 -43 -54 -43h-305q5 -65 46 -106.5t105 -41.5zM619 421q-60 0 -96.5 -43.5t-39.5 -100.5h272q-2 57 -37.5 100.5t-98.5 43.5zM257 243
q-55 0 -88.5 -24.5t-33.5 -65.5q0 -42 33.5 -65.5t88.5 -23.5t96 35t41 79v9q-48 56 -137 56z" />
    <glyph glyph-name="ccedilla" unicode="&#xe7;" horiz-adv-x="496" 
d="M456 75q0 -19 -14 -31q-57 -51 -132 -55l-17 -43q17 11 36 11q29 0 48 -19t19 -49q0 -36 -30 -59t-76 -23q-50 0 -91 23q-13 6 -13 20q0 10 7 16.5t16 6.5q6 0 12 -3q31 -19 66 -19q26 0 42.5 10.5t16.5 28.5q0 32 -35 32q-20 0 -30 -10q-4 -4 -14 -4q-26 0 -26 25
q0 2 2 10l18 46q-97 9 -158 80t-61 173q0 109 69 181t177 72q92 0 154 -56q14 -12 14 -30q0 -17 -11.5 -29t-28.5 -12q-16 0 -27 10q-40 37 -97 37q-69 0 -112.5 -48.5t-43.5 -124.5t43.5 -125t112.5 -49q57 0 97 37q10 10 26 10q17 0 29 -11.5t12 -28.5z" />
    <glyph glyph-name="egrave" unicode="&#xe8;" horiz-adv-x="560" 
d="M284 495q103 0 169 -70.5t66 -169.5q0 -20 -14 -31.5t-39 -11.5h-329q5 -65 50 -107.5t114 -42.5q66 0 120 39q7 5 20 5q15 0 25.5 -10.5t10.5 -25.5q0 -20 -16 -30q-70 -52 -169 -52q-109 0 -179.5 71t-70.5 183q-2 104 69 179.5t173 73.5zM136 277h295q-2 57 -40 100.5
t-107 43.5q-66 0 -104.5 -43t-43.5 -101zM265 577l-113 97q-10 10 -10 22t8.5 20.5t20.5 8.5t21 -9l105 -105q7 -7 7 -17t-6.5 -16.5t-16.5 -6.5t-16 6z" />
    <glyph glyph-name="eacute" unicode="&#xe9;" horiz-adv-x="560" 
d="M284 495q103 0 169 -70.5t66 -169.5q0 -20 -14 -31.5t-39 -11.5h-329q5 -65 50 -107.5t114 -42.5q66 0 120 39q7 5 20 5q15 0 25.5 -10.5t10.5 -25.5q0 -20 -16 -30q-70 -52 -169 -52q-109 0 -179.5 71t-70.5 183q-2 104 69 179.5t173 73.5zM136 277h295q-2 57 -40 100.5
t-107 43.5q-66 0 -104.5 -43t-43.5 -101zM291 571q-10 0 -16.5 6.5t-6.5 16.5t7 17l105 105q9 9 21 9t20.5 -8.5t8.5 -20.5t-10 -22l-113 -97q-6 -6 -16 -6z" />
    <glyph glyph-name="ecircumflex" unicode="&#xea;" horiz-adv-x="560" 
d="M284 495q103 0 169 -70.5t66 -169.5q0 -20 -14 -31.5t-39 -11.5h-329q5 -65 50 -107.5t114 -42.5q66 0 120 39q7 5 20 5q15 0 25.5 -10.5t10.5 -25.5q0 -20 -16 -30q-70 -52 -169 -52q-109 0 -179.5 71t-70.5 183q-2 104 69 179.5t173 73.5zM136 277h295q-2 57 -40 100.5
t-107 43.5q-66 0 -104.5 -43t-43.5 -101zM361 579l-76 98l-76 -98q-6 -9 -18 -9q-11 0 -18.5 7t-7.5 18q0 9 4 13l63 96q15 22 42 22h22q27 0 42 -22l63 -96q4 -4 4 -13q0 -11 -7.5 -18t-18.5 -7q-12 0 -18 9z" />
    <glyph glyph-name="edieresis" unicode="&#xeb;" horiz-adv-x="560" 
d="M284 495q103 0 169 -70.5t66 -169.5q0 -20 -14 -31.5t-39 -11.5h-329q5 -65 50 -107.5t114 -42.5q66 0 120 39q7 5 20 5q15 0 25.5 -10.5t10.5 -25.5q0 -20 -16 -30q-70 -52 -169 -52q-109 0 -179.5 71t-70.5 183q-2 104 69 179.5t173 73.5zM136 277h295q-2 57 -40 100.5
t-107 43.5q-66 0 -104.5 -43t-43.5 -101zM127 638q0 22 15.5 37t37.5 15t37 -15t15 -37t-15 -37.5t-37 -15.5t-37.5 15.5t-15.5 37.5zM335 638q0 22 15.5 37t37.5 15q21 0 37 -15.5t16 -36.5q0 -22 -16 -37.5t-37 -15.5q-22 0 -37.5 15.5t-15.5 37.5z" />
    <glyph glyph-name="igrave" unicode="&#xec;" horiz-adv-x="233" 
d="M72 40v403q0 19 13 32t32 13q18 0 31.5 -13t13.5 -32v-403q0 -19 -13.5 -32t-32.5 -13q-18 0 -31 13t-13 32zM98 577l-113 97q-10 10 -10 22t8.5 20.5t20.5 8.5t21 -9l105 -105q7 -7 7 -17t-6.5 -16.5t-16.5 -6.5t-16 6z" />
    <glyph glyph-name="iacute" unicode="&#xed;" horiz-adv-x="233" 
d="M72 40v403q0 19 13 32t32 13q18 0 31.5 -13t13.5 -32v-403q0 -19 -13.5 -32t-32.5 -13q-18 0 -31 13t-13 32zM123 571q-10 0 -16.5 6.5t-6.5 16.5t7 17l105 105q9 9 21 9t20.5 -8.5t8.5 -20.5t-10 -22l-113 -97q-6 -6 -16 -6z" />
    <glyph glyph-name="icircumflex" unicode="&#xee;" horiz-adv-x="233" 
d="M72 40v403q0 19 13 32t32 13q18 0 31.5 -13t13.5 -32v-403q0 -19 -13.5 -32t-32.5 -13q-18 0 -31 13t-13 32zM193 579l-76 98l-76 -98q-6 -9 -18 -9q-11 0 -18.5 7t-7.5 18q0 9 4 13l63 96q15 22 42 22h22q27 0 42 -22l63 -96q4 -4 4 -13q0 -11 -7.5 -18t-18.5 -7
q-12 0 -18 9z" />
    <glyph glyph-name="idieresis" unicode="&#xef;" horiz-adv-x="233" 
d="M72 40v403q0 19 13 32t32 13q18 0 31.5 -13t13.5 -32v-403q0 -19 -13.5 -32t-32.5 -13q-18 0 -31 13t-13 32zM-40 638q0 22 15.5 37t37.5 15t37 -15t15 -37t-15 -37.5t-37 -15.5t-37.5 15.5t-15.5 37.5zM168 638q0 22 15.5 37t37.5 15q21 0 37 -15.5t16 -36.5
q0 -22 -16 -37.5t-37 -15.5q-22 0 -37.5 15.5t-15.5 37.5z" />
    <glyph glyph-name="eth" unicode="&#xf0;" horiz-adv-x="572" 
d="M530 248q0 -114 -66.5 -187t-177.5 -73q-108 0 -176 69t-68 174q0 104 62 173t157 69q98 0 158 -89q-47 87 -158 169l-125 -56q-2 -1 -11 -1q-25 0 -25 25q0 15 15 23l97 43l-37 24q-21 12 -21 37q0 18 13 31t31 13q14 0 24 -7q41 -25 83 -57l87 38q4 2 10 2
q11 0 18.5 -7t7.5 -17q0 -17 -16 -24l-63 -28q181 -157 181 -344zM436 231q0 69 -40.5 116t-109.5 47q-68 0 -109 -47.5t-41 -115.5q0 -69 41 -116t109 -47t109 46t41 117z" />
    <glyph glyph-name="ntilde" unicode="&#xf1;" 
d="M488 339v-299q0 -19 -13.5 -32t-32.5 -13q-18 0 -31 13t-13 32v269q0 56 -25.5 81t-77.5 25q-39 0 -75 -20t-58 -50v-305q0 -19 -13.5 -32t-31.5 -13q-19 0 -32 13t-13 32v403q0 19 13 32t31 13q19 0 32.5 -13t13.5 -32v-27q29 34 75.5 56.5t95.5 22.5q155 0 155 -156z
M263 623q-24 36 -45 36q-38 0 -44 -62q-6 -22 -25 -22q-11 0 -19 8.5t-6 19.5q5 52 30.5 81.5t67.5 29.5q24 0 39.5 -11t35.5 -38q27 -36 46 -36q36 0 44 62q2 22 25 22q11 0 18.5 -8t6.5 -20q-5 -52 -30.5 -81.5t-67.5 -29.5q-25 0 -40.5 11t-35.5 38z" />
    <glyph glyph-name="ograve" unicode="&#xf2;" horiz-adv-x="572" 
d="M42 242q0 107 68 180t176 73t176 -73t68 -180q0 -108 -68 -181t-176 -73t-176 73t-68 181zM436 242q0 73 -40.5 123t-109.5 50q-67 0 -108.5 -50.5t-41.5 -122.5q0 -73 41 -123.5t109 -50.5q69 0 109.5 50.5t40.5 123.5zM267 577l-113 97q-10 10 -10 22t8.5 20.5
t20.5 8.5t21 -9l105 -105q7 -7 7 -17t-6.5 -16.5t-16.5 -6.5t-16 6z" />
    <glyph glyph-name="oacute" unicode="&#xf3;" horiz-adv-x="572" 
d="M42 242q0 107 68 180t176 73t176 -73t68 -180q0 -108 -68 -181t-176 -73t-176 73t-68 181zM436 242q0 73 -40.5 123t-109.5 50q-67 0 -108.5 -50.5t-41.5 -122.5q0 -73 41 -123.5t109 -50.5q69 0 109.5 50.5t40.5 123.5zM293 571q-10 0 -16.5 6.5t-6.5 16.5t7 17l105 105
q9 9 21 9t20.5 -8.5t8.5 -20.5t-10 -22l-113 -97q-6 -6 -16 -6z" />
    <glyph glyph-name="ocircumflex" unicode="&#xf4;" horiz-adv-x="572" 
d="M42 242q0 107 68 180t176 73t176 -73t68 -180q0 -108 -68 -181t-176 -73t-176 73t-68 181zM436 242q0 73 -40.5 123t-109.5 50q-67 0 -108.5 -50.5t-41.5 -122.5q0 -73 41 -123.5t109 -50.5q69 0 109.5 50.5t40.5 123.5zM363 579l-76 98l-76 -98q-6 -9 -18 -9
q-11 0 -18.5 7t-7.5 18q0 9 4 13l63 96q15 22 42 22h22q27 0 42 -22l63 -96q4 -4 4 -13q0 -11 -7.5 -18t-18.5 -7q-12 0 -18 9z" />
    <glyph glyph-name="otilde" unicode="&#xf5;" horiz-adv-x="572" 
d="M42 242q0 107 68 180t176 73t176 -73t68 -180q0 -108 -68 -181t-176 -73t-176 73t-68 181zM436 242q0 73 -40.5 123t-109.5 50q-67 0 -108.5 -50.5t-41.5 -122.5q0 -73 41 -123.5t109 -50.5q69 0 109.5 50.5t40.5 123.5zM269 623q-24 36 -45 36q-38 0 -44 -62
q-6 -22 -25 -22q-11 0 -19 8.5t-6 19.5q5 52 30.5 81.5t67.5 29.5q24 0 39.5 -11t35.5 -38q27 -36 46 -36q36 0 44 62q2 22 25 22q11 0 18.5 -8t6.5 -20q-5 -52 -30.5 -81.5t-67.5 -29.5q-25 0 -40.5 11t-35.5 38z" />
    <glyph glyph-name="odieresis" unicode="&#xf6;" horiz-adv-x="572" 
d="M42 242q0 107 68 180t176 73t176 -73t68 -180q0 -108 -68 -181t-176 -73t-176 73t-68 181zM436 242q0 73 -40.5 123t-109.5 50q-67 0 -108.5 -50.5t-41.5 -122.5q0 -73 41 -123.5t109 -50.5q69 0 109.5 50.5t40.5 123.5zM129 638q0 22 15.5 37t37.5 15t37 -15t15 -37
t-15 -37.5t-37 -15.5t-37.5 15.5t-15.5 37.5zM337 638q0 22 15.5 37t37.5 15q21 0 37 -15.5t16 -36.5q0 -22 -16 -37.5t-37 -15.5q-22 0 -37.5 15.5t-15.5 37.5z" />
    <glyph glyph-name="divide" unicode="&#xf7;" horiz-adv-x="511" 
d="M205 523q0 21 15 35.5t35 14.5q21 0 36 -14.5t15 -35.5q0 -20 -15 -35.5t-36 -15.5q-20 0 -35 15.5t-15 35.5zM24 337q0 13 9 21.5t21 8.5h403q12 0 21 -8.5t9 -21.5t-9 -21.5t-21 -8.5h-403q-12 0 -21 8.5t-9 21.5zM205 147q0 21 15 36t35 15q21 0 36 -15t15 -36
q0 -20 -15 -34.5t-36 -14.5q-20 0 -35 14.5t-15 34.5z" />
    <glyph glyph-name="oslash" unicode="&#xf8;" horiz-adv-x="572" 
d="M530 242q0 -108 -68 -181t-176 -73q-73 0 -128 34l-42 -59q-8 -11 -21 -11q-9 0 -15.5 6t-6.5 15q0 7 6 15l43 60q-80 74 -80 194q0 107 68 180t176 73q74 0 133 -36l43 60q9 12 21 12q8 0 14.5 -6t6.5 -14q0 -7 -6 -16l-45 -63q77 -74 77 -190zM175 121l194 269
q-35 25 -83 25q-67 0 -108.5 -50.5t-41.5 -122.5q0 -73 39 -121zM436 242q0 69 -36 117l-192 -268q32 -23 78 -23q69 0 109.5 50.5t40.5 123.5z" />
    <glyph glyph-name="ugrave" unicode="&#xf9;" 
d="M488 443v-403q0 -19 -13.5 -32t-31.5 -13q-19 0 -32 13t-13 32v26q-71 -78 -172 -78q-154 0 -154 154v301q0 19 13 32t32 13q18 0 31.5 -13t13.5 -32v-271q0 -56 25 -80t77 -24q39 0 75.5 19t58.5 49v307q0 19 13 32t31 13q19 0 32.5 -13t13.5 -32zM261 577l-113 97
q-10 10 -10 22t8.5 20.5t20.5 8.5t21 -9l105 -105q7 -7 7 -17t-6.5 -16.5t-16.5 -6.5t-16 6z" />
    <glyph glyph-name="uacute" unicode="&#xfa;" 
d="M488 443v-403q0 -19 -13.5 -32t-31.5 -13q-19 0 -32 13t-13 32v26q-71 -78 -172 -78q-154 0 -154 154v301q0 19 13 32t32 13q18 0 31.5 -13t13.5 -32v-271q0 -56 25 -80t77 -24q39 0 75.5 19t58.5 49v307q0 19 13 32t31 13q19 0 32.5 -13t13.5 -32zM286 571
q-10 0 -16.5 6.5t-6.5 16.5t7 17l105 105q9 9 21 9t20.5 -8.5t8.5 -20.5t-10 -22l-113 -97q-6 -6 -16 -6z" />
    <glyph glyph-name="ucircumflex" unicode="&#xfb;" 
d="M488 443v-403q0 -19 -13.5 -32t-31.5 -13q-19 0 -32 13t-13 32v26q-71 -78 -172 -78q-154 0 -154 154v301q0 19 13 32t32 13q18 0 31.5 -13t13.5 -32v-271q0 -56 25 -80t77 -24q39 0 75.5 19t58.5 49v307q0 19 13 32t31 13q19 0 32.5 -13t13.5 -32zM356 579l-76 98
l-76 -98q-6 -9 -18 -9q-11 0 -18.5 7t-7.5 18q0 9 4 13l63 96q15 22 42 22h22q27 0 42 -22l63 -96q4 -4 4 -13q0 -11 -7.5 -18t-18.5 -7q-12 0 -18 9z" />
    <glyph glyph-name="udieresis" unicode="&#xfc;" 
d="M488 443v-403q0 -19 -13.5 -32t-31.5 -13q-19 0 -32 13t-13 32v26q-71 -78 -172 -78q-154 0 -154 154v301q0 19 13 32t32 13q18 0 31.5 -13t13.5 -32v-271q0 -56 25 -80t77 -24q39 0 75.5 19t58.5 49v307q0 19 13 32t31 13q19 0 32.5 -13t13.5 -32zM123 638q0 22 15.5 37
t37.5 15t37 -15t15 -37t-15 -37.5t-37 -15.5t-37.5 15.5t-15.5 37.5zM331 638q0 22 15.5 37t37.5 15q21 0 37 -15.5t16 -36.5q0 -22 -16 -37.5t-37 -15.5q-22 0 -37.5 15.5t-15.5 37.5z" />
    <glyph glyph-name="yacute" unicode="&#xfd;" horiz-adv-x="497" 
d="M91 -115l11 -1q50 0 70 47l28 64l-177 431q-2 8 -2 17q0 19 12.5 32t31.5 13q30 0 42 -28l141 -356l141 356q12 28 42 28q19 0 32 -13t13 -32q0 -7 -4 -18l-214 -517q-41 -102 -154 -104q-13 0 -18 1q-16 2 -26.5 13t-10.5 27q0 17 12.5 28.5t29.5 11.5zM255 571
q-10 0 -16.5 6.5t-6.5 16.5t7 17l105 105q9 9 21 9t20.5 -8.5t8.5 -20.5t-10 -22l-113 -97q-6 -6 -16 -6z" />
    <glyph glyph-name="thorn" unicode="&#xfe;" horiz-adv-x="577" 
d="M162 70v-214q0 -19 -13.5 -32t-31.5 -13q-19 0 -32 13t-13 32v771q0 19 13 32t31 13q19 0 32.5 -13t13.5 -32v-213q60 81 158 81q96 0 155.5 -68.5t59.5 -184.5t-59.5 -185t-155.5 -69q-98 0 -158 82zM296 415q-39 0 -77.5 -20.5t-56.5 -50.5v-205q19 -30 57 -50.5
t77 -20.5q66 0 105.5 48t39.5 126q0 76 -40 124.5t-105 48.5z" />
    <glyph glyph-name="ydieresis" unicode="&#xff;" horiz-adv-x="497" 
d="M91 -115l11 -1q50 0 70 47l28 64l-177 431q-2 8 -2 17q0 19 12.5 32t31.5 13q30 0 42 -28l141 -356l141 356q12 28 42 28q19 0 32 -13t13 -32q0 -7 -4 -18l-214 -517q-41 -102 -154 -104q-13 0 -18 1q-16 2 -26.5 13t-10.5 27q0 17 12.5 28.5t29.5 11.5zM91 638
q0 22 15.5 37t37.5 15t37 -15t15 -37t-15 -37.5t-37 -15.5t-37.5 15.5t-15.5 37.5zM299 638q0 22 15.5 37t37.5 15q21 0 37 -15.5t16 -36.5q0 -22 -16 -37.5t-37 -15.5q-22 0 -37.5 15.5t-15.5 37.5z" />
    <glyph glyph-name="Amacron" unicode="&#x100;" horiz-adv-x="666" 
d="M638 46q0 -21 -15 -36t-36 -15q-35 0 -47 32l-42 111h-331l-42 -111q-12 -32 -47 -32q-21 0 -36 15t-15 36q0 8 4 19l220 551q9 24 31.5 40t49.5 16t49.5 -15.5t32.5 -40.5l220 -551q4 -9 4 -19zM200 227h265l-133 353zM169 763q0 12 8 20t19 8h271q11 0 19 -8t8 -20
q0 -11 -8 -19t-19 -8h-271q-11 0 -19 8t-8 19z" />
    <glyph glyph-name="amacron" unicode="&#x101;" horiz-adv-x="532" 
d="M460 326v-286q0 -19 -13.5 -32t-31.5 -13t-31.5 13t-13.5 32v14q-57 -66 -158 -66q-67 0 -117.5 43.5t-50.5 116.5q0 75 49.5 116.5t118.5 41.5q104 0 158 -64v80q0 44 -32 70t-86 26q-65 0 -119 -42q-10 -7 -22 -7q-15 0 -25.5 11t-10.5 26q0 18 15 29q75 60 176 60
q90 0 142 -42.5t52 -126.5zM370 106v82q-41 55 -124 55q-49 0 -80 -26.5t-31 -69.5t31 -69.5t80 -26.5q83 0 124 55zM104 616q0 12 8 20t19 8h271q11 0 19 -8t8 -20q0 -11 -8 -19t-19 -8h-271q-11 0 -19 8t-8 19z" />
    <glyph glyph-name="Abreve" unicode="&#x102;" horiz-adv-x="666" 
d="M638 46q0 -21 -15 -36t-36 -15q-35 0 -47 32l-42 111h-331l-42 -111q-12 -32 -47 -32q-21 0 -36 15t-15 36q0 8 4 19l220 551q9 24 31.5 40t49.5 16t49.5 -15.5t32.5 -40.5l220 -551q4 -9 4 -19zM200 227h265l-133 353zM172 788q-8 8 -8 20q0 11 8 19t20 8q15 0 20 -8
q50 -53 120 -53t119 52q6 9 21 9q11 0 19 -8t8 -19q0 -9 -8 -20q-67 -69 -159 -69q-91 0 -160 69z" />
    <glyph glyph-name="abreve" unicode="&#x103;" horiz-adv-x="532" 
d="M460 326v-286q0 -19 -13.5 -32t-31.5 -13t-31.5 13t-13.5 32v14q-57 -66 -158 -66q-67 0 -117.5 43.5t-50.5 116.5q0 75 49.5 116.5t118.5 41.5q104 0 158 -64v80q0 44 -32 70t-86 26q-65 0 -119 -42q-10 -7 -22 -7q-15 0 -25.5 11t-10.5 26q0 18 15 29q75 60 176 60
q90 0 142 -42.5t52 -126.5zM370 106v82q-41 55 -124 55q-49 0 -80 -26.5t-31 -69.5t31 -69.5t80 -26.5q83 0 124 55zM107 641q-8 8 -8 20q0 11 8 19t20 8q15 0 20 -8q50 -53 120 -53t119 52q6 9 21 9q11 0 19 -8t8 -19q0 -9 -8 -20q-67 -69 -159 -69q-91 0 -160 69z" />
    <glyph glyph-name="Aogonek" unicode="&#x104;" horiz-adv-x="666" 
d="M635 -150q0 -19 -20 -28q-27 -8 -54 -8q-44 0 -73 20.5t-29 55.5q0 34 29.5 62.5t77.5 46.5q-20 11 -26 28l-42 111h-331l-42 -111q-12 -32 -47 -32q-21 0 -36 15t-15 36q0 8 4 19l220 551q9 24 31.5 40t49.5 16t49.5 -15.5t32.5 -40.5l220 -551q4 -9 4 -19
q0 -29 -23 -43q-41 -31 -56.5 -50.5t-15.5 -41.5q0 -15 11 -25t27 -10q5 0 14 2t11 2q12 0 20.5 -9t8.5 -21zM200 227h265l-133 353z" />
    <glyph glyph-name="aogonek" unicode="&#x105;" horiz-adv-x="532" 
d="M461 -150q0 -19 -20 -28q-26 -8 -54 -8q-44 0 -73 20.5t-29 55.5q0 34 30.5 63t79.5 47q-25 13 -25 40v14q-57 -66 -158 -66q-67 0 -117.5 43.5t-50.5 116.5q0 75 49.5 116.5t118.5 41.5q104 0 158 -64v80q0 44 -32 70t-86 26q-65 0 -119 -42q-10 -7 -22 -7
q-15 0 -25.5 11t-10.5 26q0 18 15 29q75 60 176 60q90 0 142 -42.5t52 -126.5v-286q0 -19 -14 -33q-1 0 -3 -2q-42 -32 -58 -52t-16 -42q0 -15 11.5 -25t27.5 -10q5 0 13.5 2t10.5 2q12 0 20.5 -9t8.5 -21zM370 106v82q-41 55 -124 55q-49 0 -80 -26.5t-31 -69.5t31 -69.5
t80 -26.5q83 0 124 55z" />
    <glyph glyph-name="Cacute" unicode="&#x106;" horiz-adv-x="671" 
d="M46 333q-2 148 98.5 247.5t243.5 97.5q142 0 232 -98q12 -12 12 -32q0 -19 -13.5 -33t-33.5 -14q-23 0 -36 16q-64 72 -161 72q-102 0 -170.5 -73t-68.5 -183t68.5 -183t170.5 -73q96 0 162 72q13 16 35 16q20 0 33.5 -13.5t13.5 -33.5t-12 -32q-92 -98 -232 -98
q-143 -3 -243.5 97t-98.5 248zM395 718q-10 0 -16.5 6.5t-6.5 16.5t7 17l105 105q9 9 21 9t20.5 -8.5t8.5 -20.5t-10 -22l-113 -97q-6 -6 -16 -6z" />
    <glyph glyph-name="cacute" unicode="&#x107;" horiz-adv-x="496" 
d="M288 495q92 0 154 -56q14 -12 14 -30q0 -17 -11.5 -29t-28.5 -12q-16 0 -27 10q-40 37 -97 37q-69 0 -112.5 -48.5t-43.5 -124.5t43.5 -125t112.5 -49q57 0 97 37q10 10 26 10q17 0 29 -11.5t12 -28.5q0 -19 -14 -31q-62 -56 -154 -56q-108 0 -177 72t-69 182
q0 109 69 181t177 72zM293 571q-10 0 -16.5 6.5t-6.5 16.5t7 17l105 105q9 9 21 9t20.5 -8.5t8.5 -20.5t-10 -22l-113 -97q-6 -6 -16 -6z" />
    <glyph glyph-name="Ccircumflex" unicode="&#x108;" horiz-adv-x="671" 
d="M46 333q-2 148 98.5 247.5t243.5 97.5q142 0 232 -98q12 -12 12 -32q0 -19 -13.5 -33t-33.5 -14q-23 0 -36 16q-64 72 -161 72q-102 0 -170.5 -73t-68.5 -183t68.5 -183t170.5 -73q96 0 162 72q13 16 35 16q20 0 33.5 -13.5t13.5 -33.5t-12 -32q-92 -98 -232 -98
q-143 -3 -243.5 97t-98.5 248zM465 726l-76 98l-76 -98q-6 -9 -18 -9q-11 0 -18.5 7t-7.5 18q0 9 4 13l63 96q15 22 42 22h22q27 0 42 -22l63 -96q4 -4 4 -13q0 -11 -7.5 -18t-18.5 -7q-12 0 -18 9z" />
    <glyph glyph-name="ccircumflex" unicode="&#x109;" horiz-adv-x="496" 
d="M288 495q92 0 154 -56q14 -12 14 -30q0 -17 -11.5 -29t-28.5 -12q-16 0 -27 10q-40 37 -97 37q-69 0 -112.5 -48.5t-43.5 -124.5t43.5 -125t112.5 -49q57 0 97 37q10 10 26 10q17 0 29 -11.5t12 -28.5q0 -19 -14 -31q-62 -56 -154 -56q-108 0 -177 72t-69 182
q0 109 69 181t177 72zM363 579l-76 98l-76 -98q-6 -9 -18 -9q-11 0 -18.5 7t-7.5 18q0 9 4 13l63 96q15 22 42 22h22q27 0 42 -22l63 -96q4 -4 4 -13q0 -11 -7.5 -18t-18.5 -7q-12 0 -18 9z" />
    <glyph glyph-name="Cdotaccent" unicode="&#x10a;" horiz-adv-x="671" 
d="M46 333q-2 148 98.5 247.5t243.5 97.5q142 0 232 -98q12 -12 12 -32q0 -19 -13.5 -33t-33.5 -14q-23 0 -36 16q-64 72 -161 72q-102 0 -170.5 -73t-68.5 -183t68.5 -183t170.5 -73q96 0 162 72q13 16 35 16q20 0 33.5 -13.5t13.5 -33.5t-12 -32q-92 -98 -232 -98
q-143 -3 -243.5 97t-98.5 248zM389 837q21 0 36.5 -16t15.5 -37q0 -22 -15 -37.5t-37 -15.5t-37.5 15.5t-15.5 37.5q0 21 15.5 37t37.5 16z" />
    <glyph glyph-name="cdotaccent" unicode="&#x10b;" horiz-adv-x="496" 
d="M288 495q92 0 154 -56q14 -12 14 -30q0 -17 -11.5 -29t-28.5 -12q-16 0 -27 10q-40 37 -97 37q-69 0 -112.5 -48.5t-43.5 -124.5t43.5 -125t112.5 -49q57 0 97 37q10 10 26 10q17 0 29 -11.5t12 -28.5q0 -19 -14 -31q-62 -56 -154 -56q-108 0 -177 72t-69 182
q0 109 69 181t177 72zM286 690q21 0 36.5 -16t15.5 -37q0 -22 -15 -37.5t-37 -15.5t-37.5 15.5t-15.5 37.5q0 21 15.5 37t37.5 16z" />
    <glyph glyph-name="Ccaron" unicode="&#x10c;" horiz-adv-x="671" 
d="M46 333q-2 148 98.5 247.5t243.5 97.5q142 0 232 -98q12 -12 12 -32q0 -19 -13.5 -33t-33.5 -14q-23 0 -36 16q-64 72 -161 72q-102 0 -170.5 -73t-68.5 -183t68.5 -183t170.5 -73q96 0 162 72q13 16 35 16q20 0 33.5 -13.5t13.5 -33.5t-12 -32q-92 -98 -232 -98
q-143 -3 -243.5 97t-98.5 248zM506 847q0 -8 -4 -12l-63 -96q-15 -22 -42 -22h-22q-27 0 -42 22l-63 96q-4 4 -4 12q0 11 7.5 18.5t18.5 7.5q12 0 18 -9l76 -98l76 98q6 9 18 9q11 0 18.5 -7.5t7.5 -18.5z" />
    <glyph glyph-name="ccaron" unicode="&#x10d;" horiz-adv-x="496" 
d="M288 495q92 0 154 -56q14 -12 14 -30q0 -17 -11.5 -29t-28.5 -12q-16 0 -27 10q-40 37 -97 37q-69 0 -112.5 -48.5t-43.5 -124.5t43.5 -125t112.5 -49q57 0 97 37q10 10 26 10q17 0 29 -11.5t12 -28.5q0 -19 -14 -31q-62 -56 -154 -56q-108 0 -177 72t-69 182
q0 109 69 181t177 72zM404 700q0 -8 -4 -12l-63 -96q-15 -22 -42 -22h-22q-27 0 -42 22l-63 96q-4 4 -4 12q0 11 7.5 18.5t18.5 7.5q12 0 18 -9l76 -98l76 98q6 9 18 9q11 0 18.5 -7.5t7.5 -18.5z" />
    <glyph glyph-name="Dcaron" unicode="&#x10e;" horiz-adv-x="705" 
d="M74 53v561q0 53 54 53h184q151 2 249.5 -94.5t96.5 -239.5q2 -144 -96 -239t-250 -94h-184q-54 0 -54 53zM174 88h138q111 0 177 69.5t66 175.5q0 107 -65.5 176.5t-177.5 69.5h-138v-491zM472 847q0 -8 -4 -12l-63 -96q-15 -22 -42 -22h-22q-27 0 -42 22l-63 96
q-4 4 -4 12q0 11 7.5 18.5t18.5 7.5q12 0 18 -9l76 -98l76 98q6 9 18 9q11 0 18.5 -7.5t7.5 -18.5z" />
    <glyph glyph-name="dcaron" unicode="&#x10f;" horiz-adv-x="657" 
d="M506 627v-587q0 -19 -13 -32t-32 -13q-18 0 -31.5 13t-13.5 32v29q-59 -81 -158 -81q-96 0 -156 68.5t-60 184.5q0 114 60.5 184t155.5 70q98 0 158 -82v214q0 19 13.5 32t31.5 13q19 0 32 -13t13 -32zM416 138v206q-19 30 -57 50.5t-77 20.5q-66 0 -106 -48t-40 -126
q0 -77 40 -125t106 -48q40 0 77.5 20t56.5 50zM559 493q0 11 12 20q33 33 40 69q-8 -2 -13 -2q-20 0 -32.5 13.5t-12.5 34.5t14.5 36t35.5 15q25 0 42 -20t17 -51q0 -76 -65 -131q-7 -6 -15 -6q-9 0 -16 6.5t-7 15.5z" />
    <glyph glyph-name="Dcroat" unicode="&#x110;" horiz-adv-x="732" 
d="M685 333q2 -144 -96 -239t-250 -94h-184q-54 0 -54 53v238h-59q-15 0 -26.5 11t-11.5 27q0 15 11.5 26t26.5 11h59v248q0 53 54 53h184q151 2 249.5 -94.5t96.5 -239.5zM582 333q0 107 -65.5 176.5t-177.5 69.5h-138v-213h132q15 0 26.5 -11t11.5 -26q0 -16 -11.5 -27
t-26.5 -11h-132v-203h138q111 0 177 69.5t66 175.5z" />
    <glyph glyph-name="dslash" unicode="&#x111;" horiz-adv-x="581" 
d="M577 561q0 -12 -8 -20t-19 -8h-44v-493q0 -19 -13 -32t-32 -13q-18 0 -31.5 13t-13.5 32v29q-59 -81 -158 -81q-96 0 -156 68.5t-60 184.5q0 114 60.5 184t155.5 70q98 0 158 -82v120h-130q-11 0 -19.5 8t-8.5 19q0 12 8.5 20t19.5 8h130v39q0 19 13.5 32t31.5 13
q19 0 32 -13t13 -32v-39h44q11 0 19 -8t8 -19zM416 138v206q-19 30 -57 50.5t-77 20.5q-66 0 -106 -48t-40 -126q0 -77 40 -125t106 -48q40 0 77.5 20t56.5 50z" />
    <glyph glyph-name="Emacron" unicode="&#x112;" horiz-adv-x="573" 
d="M74 53v561q0 53 54 53h354q18 0 31.5 -13t13.5 -32q0 -18 -13.5 -30.5t-31.5 -12.5h-308v-195h301q18 0 31.5 -12.5t13.5 -30.5q0 -19 -13.5 -32t-31.5 -13h-301v-208h308q18 0 31.5 -12.5t13.5 -30.5q0 -19 -13.5 -32t-31.5 -13h-354q-54 0 -54 53zM141 763q0 12 8 20
t19 8h271q11 0 19 -8t8 -20q0 -11 -8 -19t-19 -8h-271q-11 0 -19 8t-8 19z" />
    <glyph glyph-name="emacron" unicode="&#x113;" horiz-adv-x="560" 
d="M284 495q103 0 169 -70.5t66 -169.5q0 -20 -14 -31.5t-39 -11.5h-329q5 -65 50 -107.5t114 -42.5q66 0 120 39q7 5 20 5q15 0 25.5 -10.5t10.5 -25.5q0 -20 -16 -30q-70 -52 -169 -52q-109 0 -179.5 71t-70.5 183q-2 104 69 179.5t173 73.5zM136 277h295q-2 57 -40 100.5
t-107 43.5q-66 0 -104.5 -43t-43.5 -101zM121 616q0 12 8 20t19 8h271q11 0 19 -8t8 -20q0 -11 -8 -19t-19 -8h-271q-11 0 -19 8t-8 19z" />
    <glyph glyph-name="Ebreve" unicode="&#x114;" horiz-adv-x="573" 
d="M74 53v561q0 53 54 53h354q18 0 31.5 -13t13.5 -32q0 -18 -13.5 -30.5t-31.5 -12.5h-308v-195h301q18 0 31.5 -12.5t13.5 -30.5q0 -19 -13.5 -32t-31.5 -13h-301v-208h308q18 0 31.5 -12.5t13.5 -30.5q0 -19 -13.5 -32t-31.5 -13h-354q-54 0 -54 53zM144 788q-8 8 -8 20
q0 11 8 19t20 8q15 0 20 -8q50 -53 120 -53t119 52q6 9 21 9q11 0 19 -8t8 -19q0 -9 -8 -20q-67 -69 -159 -69q-91 0 -160 69z" />
    <glyph glyph-name="ebreve" unicode="&#x115;" horiz-adv-x="560" 
d="M284 495q103 0 169 -70.5t66 -169.5q0 -20 -14 -31.5t-39 -11.5h-329q5 -65 50 -107.5t114 -42.5q66 0 120 39q7 5 20 5q15 0 25.5 -10.5t10.5 -25.5q0 -20 -16 -30q-70 -52 -169 -52q-109 0 -179.5 71t-70.5 183q-2 104 69 179.5t173 73.5zM136 277h295q-2 57 -40 100.5
t-107 43.5q-66 0 -104.5 -43t-43.5 -101zM124 641q-8 8 -8 20q0 11 8 19t20 8q15 0 20 -8q50 -53 120 -53t119 52q6 9 21 9q11 0 19 -8t8 -19q0 -9 -8 -20q-67 -69 -159 -69q-91 0 -160 69z" />
    <glyph glyph-name="Edotaccent" unicode="&#x116;" horiz-adv-x="573" 
d="M74 53v561q0 53 54 53h354q18 0 31.5 -13t13.5 -32q0 -18 -13.5 -30.5t-31.5 -12.5h-308v-195h301q18 0 31.5 -12.5t13.5 -30.5q0 -19 -13.5 -32t-31.5 -13h-301v-208h308q18 0 31.5 -12.5t13.5 -30.5q0 -19 -13.5 -32t-31.5 -13h-354q-54 0 -54 53zM304 837
q21 0 36.5 -16t15.5 -37q0 -22 -15 -37.5t-37 -15.5t-37.5 15.5t-15.5 37.5q0 21 15.5 37t37.5 16z" />
    <glyph glyph-name="edotaccent" unicode="&#x117;" horiz-adv-x="560" 
d="M284 495q103 0 169 -70.5t66 -169.5q0 -20 -14 -31.5t-39 -11.5h-329q5 -65 50 -107.5t114 -42.5q66 0 120 39q7 5 20 5q15 0 25.5 -10.5t10.5 -25.5q0 -20 -16 -30q-70 -52 -169 -52q-109 0 -179.5 71t-70.5 183q-2 104 69 179.5t173 73.5zM136 277h295q-2 57 -40 100.5
t-107 43.5q-66 0 -104.5 -43t-43.5 -101zM284 690q21 0 36.5 -16t15.5 -37q0 -22 -15 -37.5t-37 -15.5t-37.5 15.5t-15.5 37.5q0 21 15.5 37t37.5 16z" />
    <glyph glyph-name="Eogonek" unicode="&#x118;" horiz-adv-x="573" 
d="M430 -89q0 -15 11 -25t27 -10q5 0 14 2t11 2q11 0 20 -9t9 -21q0 -19 -20 -28q-27 -8 -54 -8q-44 0 -73 20.5t-29 55.5q0 34 30.5 63t78.5 47h-327q-54 0 -54 53v561q0 53 54 53h354q18 0 31.5 -13t13.5 -32q0 -18 -13.5 -30.5t-31.5 -12.5h-308v-195h301
q18 0 31.5 -12.5t13.5 -30.5q0 -19 -13.5 -32t-31.5 -13h-301v-208h308q18 0 31.5 -12.5t13.5 -30.5q0 -23 -20 -37q0 -2 -3 -3q-42 -32 -58 -52t-16 -42z" />
    <glyph glyph-name="eogonek" unicode="&#x119;" horiz-adv-x="560" 
d="M42 242q-2 104 69 179.5t173 73.5q103 0 169 -70.5t66 -169.5q0 -43 -54 -43h-328q5 -65 50 -107.5t114 -42.5q66 0 120 39q7 5 19 5q16 0 26.5 -10.5t10.5 -26.5q0 -15 -12 -27q-85 -75 -85 -124q0 -20 11 -31t29 -11q4 0 14 2q13 2 24.5 -6.5t11.5 -22.5q0 -22 -23 -29
q-23 -6 -48 -6q-44 0 -73 20.5t-29 55.5q0 52 78 109q-44 -11 -83 -11q-109 0 -179.5 71t-70.5 183zM136 277h295q-2 57 -40 100.5t-107 43.5q-66 0 -104.5 -43t-43.5 -101z" />
    <glyph glyph-name="Ecaron" unicode="&#x11a;" horiz-adv-x="573" 
d="M74 53v561q0 53 54 53h354q18 0 31.5 -13t13.5 -32q0 -18 -13.5 -30.5t-31.5 -12.5h-308v-195h301q18 0 31.5 -12.5t13.5 -30.5q0 -19 -13.5 -32t-31.5 -13h-301v-208h308q18 0 31.5 -12.5t13.5 -30.5q0 -19 -13.5 -32t-31.5 -13h-354q-54 0 -54 53zM422 847q0 -8 -4 -12
l-63 -96q-15 -22 -42 -22h-22q-27 0 -42 22l-63 96q-4 4 -4 12q0 11 7.5 18.5t18.5 7.5q12 0 18 -9l76 -98l76 98q6 9 18 9q11 0 18.5 -7.5t7.5 -18.5z" />
    <glyph glyph-name="ecaron" unicode="&#x11b;" horiz-adv-x="560" 
d="M284 495q103 0 169 -70.5t66 -169.5q0 -20 -14 -31.5t-39 -11.5h-329q5 -65 50 -107.5t114 -42.5q66 0 120 39q7 5 20 5q15 0 25.5 -10.5t10.5 -25.5q0 -20 -16 -30q-70 -52 -169 -52q-109 0 -179.5 71t-70.5 183q-2 104 69 179.5t173 73.5zM136 277h295q-2 57 -40 100.5
t-107 43.5q-66 0 -104.5 -43t-43.5 -101zM402 700q0 -8 -4 -12l-63 -96q-15 -22 -42 -22h-22q-27 0 -42 22l-63 96q-4 4 -4 12q0 11 7.5 18.5t18.5 7.5q12 0 18 -9l76 -98l76 98q6 9 18 9q11 0 18.5 -7.5t7.5 -18.5z" />
    <glyph glyph-name="Gcircumflex" unicode="&#x11c;" horiz-adv-x="715" 
d="M661 297v-153q0 -42 -27 -65q-103 -92 -242 -92q-144 -2 -246.5 97.5t-99.5 248.5q-3 149 99.5 248t246.5 97q138 0 229 -91q14 -12 14 -33q0 -19 -13.5 -32.5t-33.5 -13.5q-19 0 -33 13q-68 68 -163 68q-105 0 -174 -72t-69 -184q0 -111 69.5 -184t173.5 -73
q48 0 93.5 19t75.5 47v120h-175q-18 0 -31 13t-13 32q0 18 13 30.5t31 12.5h222q53 0 53 -53zM469 726l-76 98l-76 -98q-6 -9 -18 -9q-11 0 -18.5 7t-7.5 18q0 9 4 13l63 96q15 22 42 22h22q27 0 42 -22l63 -96q4 -4 4 -13q0 -11 -7.5 -18t-18.5 -7q-12 0 -18 9z" />
    <glyph glyph-name="gcircumflex" unicode="&#x11d;" horiz-adv-x="577" 
d="M506 443v-424q0 -115 -69 -165q-68 -50 -171 -50q-106 0 -174 52q-16 12 -16 31q0 16 11 27t27 11q13 0 23 -7q50 -40 129 -40q67 0 108.5 35t41.5 103v64q-64 -84 -159 -84q-96 0 -155.5 67.5t-59.5 182.5q0 113 59.5 181t155.5 68q97 0 159 -82v30q0 19 13 32t32 13
q18 0 31.5 -13t13.5 -32zM416 148v196q-19 30 -57 50.5t-77 20.5q-66 0 -106 -46.5t-40 -122.5t40 -123t106 -47q39 0 77 21t57 51zM368 579l-76 98l-76 -98q-6 -9 -18 -9q-11 0 -18.5 7t-7.5 18q0 9 4 13l63 96q15 22 42 22h22q27 0 42 -22l63 -96q4 -4 4 -13
q0 -11 -7.5 -18t-18.5 -7q-12 0 -18 9z" />
    <glyph glyph-name="Gbreve" unicode="&#x11e;" horiz-adv-x="715" 
d="M661 297v-153q0 -42 -27 -65q-103 -92 -242 -92q-144 -2 -246.5 97.5t-99.5 248.5q-3 149 99.5 248t246.5 97q138 0 229 -91q14 -12 14 -33q0 -19 -13.5 -32.5t-33.5 -13.5q-19 0 -33 13q-68 68 -163 68q-105 0 -174 -72t-69 -184q0 -111 69.5 -184t173.5 -73
q48 0 93.5 19t75.5 47v120h-175q-18 0 -31 13t-13 32q0 18 13 30.5t31 12.5h222q53 0 53 -53zM232 788q-8 8 -8 20q0 11 8 19t20 8q15 0 20 -8q50 -53 120 -53t119 52q6 9 21 9q11 0 19 -8t8 -19q0 -9 -8 -20q-67 -69 -159 -69q-91 0 -160 69z" />
    <glyph glyph-name="gbreve" unicode="&#x11f;" horiz-adv-x="577" 
d="M506 443v-424q0 -115 -69 -165q-68 -50 -171 -50q-106 0 -174 52q-16 12 -16 31q0 16 11 27t27 11q13 0 23 -7q50 -40 129 -40q67 0 108.5 35t41.5 103v64q-64 -84 -159 -84q-96 0 -155.5 67.5t-59.5 182.5q0 113 59.5 181t155.5 68q97 0 159 -82v30q0 19 13 32t32 13
q18 0 31.5 -13t13.5 -32zM416 148v196q-19 30 -57 50.5t-77 20.5q-66 0 -106 -46.5t-40 -122.5t40 -123t106 -47q39 0 77 21t57 51zM131 641q-8 8 -8 20q0 11 8 19t20 8q15 0 20 -8q50 -53 120 -53t119 52q6 9 21 9q11 0 19 -8t8 -19q0 -9 -8 -20q-67 -69 -159 -69
q-91 0 -160 69z" />
    <glyph glyph-name="Gdotaccent" unicode="&#x120;" horiz-adv-x="715" 
d="M661 297v-153q0 -42 -27 -65q-103 -92 -242 -92q-144 -2 -246.5 97.5t-99.5 248.5q-3 149 99.5 248t246.5 97q138 0 229 -91q14 -12 14 -33q0 -19 -13.5 -32.5t-33.5 -13.5q-19 0 -33 13q-68 68 -163 68q-105 0 -174 -72t-69 -184q0 -111 69.5 -184t173.5 -73
q48 0 93.5 19t75.5 47v120h-175q-18 0 -31 13t-13 32q0 18 13 30.5t31 12.5h222q53 0 53 -53zM392 837q21 0 36.5 -16t15.5 -37q0 -22 -15 -37.5t-37 -15.5t-37.5 15.5t-15.5 37.5q0 21 15.5 37t37.5 16z" />
    <glyph glyph-name="gdotaccent" unicode="&#x121;" horiz-adv-x="577" 
d="M506 443v-424q0 -115 -69 -165q-68 -50 -171 -50q-106 0 -174 52q-16 12 -16 31q0 16 11 27t27 11q13 0 23 -7q50 -40 129 -40q67 0 108.5 35t41.5 103v64q-64 -84 -159 -84q-96 0 -155.5 67.5t-59.5 182.5q0 113 59.5 181t155.5 68q97 0 159 -82v30q0 19 13 32t32 13
q18 0 31.5 -13t13.5 -32zM416 148v196q-19 30 -57 50.5t-77 20.5q-66 0 -106 -46.5t-40 -122.5t40 -123t106 -47q39 0 77 21t57 51zM292 690q21 0 36.5 -16t15.5 -37q0 -22 -15 -37.5t-37 -15.5t-37.5 15.5t-15.5 37.5q0 21 15.5 37t37.5 16z" />
    <glyph glyph-name="uni0122" unicode="&#x122;" horiz-adv-x="715" 
d="M661 297v-153q0 -42 -27 -65q-103 -92 -242 -92q-144 -2 -246.5 97.5t-99.5 248.5q-3 149 99.5 248t246.5 97q138 0 229 -91q14 -12 14 -33q0 -19 -13.5 -32.5t-33.5 -13.5q-19 0 -33 13q-68 68 -163 68q-105 0 -174 -72t-69 -184q0 -111 69.5 -184t173.5 -73
q48 0 93.5 19t75.5 47v120h-175q-18 0 -31 13t-13 32q0 18 13 30.5t31 12.5h222q53 0 53 -53zM348 -253q0 11 12 20q33 33 40 69q-8 -2 -13 -2q-20 0 -32.5 13.5t-12.5 34.5t14.5 36t35.5 15q25 0 42 -20t17 -51q0 -76 -65 -131q-8 -6 -15 -6q-9 0 -16 6.5t-7 15.5z" />
    <glyph glyph-name="uni0123" unicode="&#x123;" horiz-adv-x="577" 
d="M233 629q0 78 65 131q8 6 15 6q9 0 16 -6.5t7 -15.5q0 -8 -12 -20q-35 -32 -40 -69q6 2 13 2q19 0 32 -13.5t13 -33.5q0 -22 -14.5 -37t-36.5 -15q-25 0 -41.5 19.5t-16.5 51.5zM506 443v-424q0 -115 -69 -165q-68 -50 -171 -50q-106 0 -174 52q-16 12 -16 31q0 16 11 27
t27 11q13 0 23 -7q50 -40 129 -40q67 0 108.5 35t41.5 103v64q-64 -84 -159 -84q-96 0 -155.5 67.5t-59.5 182.5q0 113 59.5 181t155.5 68q97 0 159 -82v30q0 19 13 32t32 13q18 0 31.5 -13t13.5 -32zM416 148v196q-19 30 -57 50.5t-77 20.5q-66 0 -106 -46.5t-40 -122.5
t40 -123t106 -47q39 0 77 21t57 51z" />
    <glyph glyph-name="Hcircumflex" unicode="&#x124;" horiz-adv-x="717" 
d="M543 45v253h-369v-253q0 -20 -14.5 -35t-34.5 -15q-21 0 -36 15t-15 35v577q0 20 15 35t35 15q21 0 35.5 -15t14.5 -35v-235h369v235q0 20 14.5 35t35.5 15t35.5 -15t14.5 -35v-577q0 -20 -14.5 -35t-35.5 -15t-35.5 15t-14.5 35zM436 726l-76 98l-76 -98q-6 -9 -18 -9
q-11 0 -18.5 7t-7.5 18q0 9 4 13l63 96q15 22 42 22h22q27 0 42 -22l63 -96q4 -4 4 -13q0 -11 -7.5 -18t-18.5 -7q-12 0 -18 9z" />
    <glyph glyph-name="hcircumflex" unicode="&#x125;" horiz-adv-x="560" 
d="M398 40v271q0 55 -25.5 79.5t-77.5 24.5q-39 0 -75 -20t-58 -50v-305q0 -19 -13.5 -32t-31.5 -13q-19 0 -32 13t-13 32v587q0 19 13 32t32 13q18 0 31.5 -13t13.5 -32v-212q28 35 74.5 57.5t96.5 22.5q155 0 155 -154v-301q0 -19 -13 -32t-32 -13q-18 0 -31.5 13
t-13.5 32zM357 726l-76 98l-76 -98q-6 -9 -18 -9q-11 0 -18.5 7t-7.5 18q0 9 4 13l63 96q15 22 42 22h22q27 0 42 -22l63 -96q4 -4 4 -13q0 -11 -7.5 -18t-18.5 -7q-12 0 -18 9z" />
    <glyph glyph-name="Hbar" unicode="&#x126;" horiz-adv-x="736" 
d="M734 525q0 -12 -8 -20t-19 -8h-54v-452q0 -20 -15 -35t-36 -15q-20 0 -34.5 15t-14.5 35v253h-369v-253q0 -20 -14.5 -35t-35.5 -15t-35.5 15t-14.5 35v452h-52q-11 0 -19.5 8t-8.5 20q0 11 8.5 19t19.5 8h52v70q0 20 14.5 35t35.5 15t35.5 -15t14.5 -35v-70h369v70
q0 20 14.5 35t35.5 15q20 0 35 -15t15 -35v-70h54q11 0 19 -8t8 -19zM553 387v110h-369v-110h369z" />
    <glyph glyph-name="hbar" unicode="&#x127;" horiz-adv-x="562" 
d="M491 341v-301q0 -19 -13.5 -32t-32.5 -13q-18 0 -31 13t-13 32v271q0 56 -25.5 80t-78.5 24q-38 0 -74 -20t-59 -50v-305q0 -19 -13.5 -32t-31.5 -13t-31.5 13t-13.5 32v493h-42q-11 0 -19.5 8t-8.5 20q0 11 8.5 19t19.5 8h42v39q0 19 13.5 32t31.5 13t31.5 -13t13.5 -32
v-39h132q11 0 19 -8t8 -19q0 -12 -8 -20t-19 -8h-132v-118q29 35 75.5 57.5t96.5 22.5q155 0 155 -154z" />
    <glyph glyph-name="Itilde" unicode="&#x128;" horiz-adv-x="249" 
d="M74 45v577q0 20 15 35t36 15q20 0 34.5 -15t14.5 -35v-577q0 -20 -14.5 -35t-34.5 -15q-21 0 -36 15t-15 35zM108 770q-24 36 -45 36q-38 0 -44 -62q-5 -22 -25 -22q-11 0 -19 8.5t-6 19.5q5 52 30.5 81.5t67.5 29.5q24 0 39.5 -11t35.5 -38q27 -36 46 -36q36 0 44 62
q2 22 25 22q11 0 18.5 -8t6.5 -20q-5 -52 -30.5 -81.5t-67.5 -29.5q-25 0 -40.5 11t-35.5 38z" />
    <glyph glyph-name="itilde" unicode="&#x129;" horiz-adv-x="233" 
d="M72 40v403q0 19 13 32t32 13q18 0 31.5 -13t13.5 -32v-403q0 -19 -13.5 -32t-32.5 -13q-18 0 -31 13t-13 32zM99 623q-24 36 -45 36q-38 0 -44 -62q-6 -22 -25 -22q-11 0 -19 8.5t-6 19.5q5 52 30.5 81.5t67.5 29.5q24 0 39.5 -11t35.5 -38q27 -36 46 -36q36 0 44 62
q2 22 25 22q11 0 18.5 -8t6.5 -20q-5 -52 -30.5 -81.5t-67.5 -29.5q-25 0 -40.5 11t-35.5 38z" />
    <glyph glyph-name="Imacron" unicode="&#x12a;" horiz-adv-x="249" 
d="M74 45v577q0 20 15 35t36 15q20 0 34.5 -15t14.5 -35v-577q0 -20 -14.5 -35t-34.5 -15q-21 0 -36 15t-15 35zM-38 763q0 12 8 20t19 8h271q11 0 19 -8t8 -20q0 -11 -8 -19t-19 -8h-271q-11 0 -19 8t-8 19z" />
    <glyph glyph-name="imacron" unicode="&#x12b;" horiz-adv-x="233" 
d="M72 40v403q0 19 13 32t32 13q18 0 31.5 -13t13.5 -32v-403q0 -19 -13.5 -32t-32.5 -13q-18 0 -31 13t-13 32zM-47 616q0 12 8 20t19 8h271q11 0 19 -8t8 -20q0 -11 -8 -19t-19 -8h-271q-11 0 -19 8t-8 19z" />
    <glyph glyph-name="Ibreve" unicode="&#x12c;" horiz-adv-x="249" 
d="M74 45v577q0 20 15 35t36 15q20 0 34.5 -15t14.5 -35v-577q0 -20 -14.5 -35t-34.5 -15q-21 0 -36 15t-15 35zM-35 788q-8 8 -8 20q0 11 8 19t20 8q15 0 20 -8q50 -53 120 -53t119 52q6 9 21 9q11 0 19 -8t8 -19q0 -9 -8 -20q-67 -69 -159 -69q-91 0 -160 69z" />
    <glyph glyph-name="ibreve" unicode="&#x12d;" horiz-adv-x="233" 
d="M72 40v403q0 19 13 32t32 13q18 0 31.5 -13t13.5 -32v-403q0 -19 -13.5 -32t-32.5 -13q-18 0 -31 13t-13 32zM-44 641q-8 8 -8 20q0 11 8 19t20 8q15 0 20 -8q50 -53 120 -53t119 52q6 9 21 9q11 0 19 -8t8 -19q0 -9 -8 -20q-67 -69 -159 -69q-91 0 -160 69z" />
    <glyph glyph-name="Iogonek" unicode="&#x12e;" horiz-adv-x="249" 
d="M159 9q1 -1 0.5 -2t-2.5 -2q-42 -32 -58 -52t-16 -42q0 -15 11 -25t27 -10q5 0 13.5 2t10.5 2q12 0 20.5 -8.5t8.5 -21.5q0 -20 -19 -28q-27 -8 -55 -8q-44 0 -73 20.5t-29 55.5q0 33 29.5 61.5t77.5 47.5q-31 13 -31 46v577q0 20 15 35t36 15q20 0 34.5 -15t14.5 -35
v-577q0 -21 -15 -36z" />
    <glyph glyph-name="iogonek" unicode="&#x12f;" horiz-adv-x="233" 
d="M58 637q0 24 17 40.5t41 16.5t41 -16.5t17 -40.5t-17 -41t-41 -17q-23 0 -40.5 17t-17.5 41zM162 443v-403q0 -25 -23 -39q-39 -30 -54 -49.5t-15 -40.5q0 -15 11 -25t27 -10q5 0 14 2t11 2q11 0 20 -9t9 -21q0 -19 -20 -28q-27 -8 -54 -8q-44 0 -73 20.5t-29 55.5
q0 34 30.5 63t79.5 47q-24 13 -24 40v403q0 19 13 32t32 13q18 0 31.5 -13t13.5 -32z" />
    <glyph glyph-name="Idot" unicode="&#x130;" horiz-adv-x="249" 
d="M74 45v577q0 20 15 35t36 15q20 0 34.5 -15t14.5 -35v-577q0 -20 -14.5 -35t-34.5 -15q-21 0 -36 15t-15 35zM125 837q21 0 36.5 -16t15.5 -37q0 -22 -15 -37.5t-37 -15.5t-37.5 15.5t-15.5 37.5q0 21 15.5 37t37.5 16z" />
    <glyph glyph-name="dotlessi" unicode="&#x131;" horiz-adv-x="233" 
d="M72 40v403q0 19 13 32t32 13q18 0 31.5 -13t13.5 -32v-403q0 -19 -13.5 -32t-32.5 -13q-18 0 -31 13t-13 32z" />
    <glyph glyph-name="IJ" unicode="&#x132;" horiz-adv-x="727" 
d="M74 45v577q0 20 15 35t36 15q20 0 34.5 -15t14.5 -35v-577q0 -20 -14.5 -35t-34.5 -15q-21 0 -36 15t-15 35zM268 72q0 19 13 32.5t32 13.5q14 0 25 -8q40 -33 89 -33q57 0 91 35.5t34 94.5v415q0 20 15 35t35 15q21 0 35.5 -15t14.5 -35v-416q0 -105 -59 -161.5
t-159 -56.5q-86 0 -147 48q-19 13 -19 36z" />
    <glyph glyph-name="ij" unicode="&#x133;" horiz-adv-x="466" 
d="M58 637q0 24 17 40.5t41 16.5t41 -16.5t17 -40.5t-17 -41t-41 -17q-23 0 -40.5 17t-17.5 41zM72 40v403q0 19 13 32t32 13q18 0 31.5 -13t13.5 -32v-403q0 -19 -13.5 -32t-32.5 -13q-18 0 -31 13t-13 32zM291 637q0 24 17 40.5t41 16.5t41 -16.5t17 -40.5t-17 -41
t-41 -17q-23 0 -40.5 17t-17.5 41zM226 -195q-15 1 -26 12t-11 26t10 27t24 12l10 -1q72 0 72 81v481q0 19 13 32t32 13q18 0 31.5 -13t13.5 -32v-481q0 -75 -39.5 -116.5t-111.5 -41.5q-14 0 -18 1z" />
    <glyph glyph-name="Jcircumflex" unicode="&#x134;" horiz-adv-x="478" 
d="M19 72q0 19 13 32.5t32 13.5q14 0 25 -8q41 -33 89 -33q57 0 91 35.5t34 94.5v415q0 20 15 35t35 15q21 0 35.5 -15t14.5 -35v-416q0 -105 -59 -161.5t-159 -56.5q-85 0 -147 48q-19 13 -19 36zM432 743l-76 98l-76 -98q-6 -9 -18 -9q-11 0 -18.5 7t-7.5 18q0 9 4 13
l63 96q15 22 42 22h22q27 0 42 -22l63 -96q4 -4 4 -13q0 -11 -7.5 -18t-18.5 -7q-12 0 -18 9z" />
    <glyph glyph-name="jcircumflex" unicode="&#x135;" horiz-adv-x="233" 
d="M-7 -195q-15 1 -26 12t-11 26t10 27t24 12l10 -1q72 0 72 81v481q0 19 13 32t32 13q18 0 31.5 -13t13.5 -32v-481q0 -75 -39.5 -116.5t-111.5 -41.5q-14 0 -18 1zM193 579l-76 98l-76 -98q-6 -9 -18 -9q-11 0 -18.5 7t-7.5 18q0 9 4 13l63 96q15 22 42 22h22q27 0 42 -22
l63 -96q4 -4 4 -13q0 -11 -7.5 -18t-18.5 -7q-12 0 -18 9z" />
    <glyph glyph-name="uni0136" unicode="&#x136;" horiz-adv-x="611" 
d="M573 43q0 -20 -13.5 -34t-32.5 -14q-21 0 -35 14l-254 279l-64 -68v-175q0 -20 -14.5 -35t-35.5 -15q-20 0 -35 15t-15 35v577q0 20 15 35t35 15q21 0 35.5 -15t14.5 -35v-288l294 323q14 15 35 15q19 0 33 -13.5t14 -32.5q0 -20 -13 -32l-232 -247l255 -272
q13 -14 13 -32zM267 -253q0 11 12 20q33 33 40 69q-8 -2 -13 -2q-20 0 -32.5 13.5t-12.5 34.5t14.5 36t35.5 15q25 0 42 -20t17 -51q0 -76 -65 -131q-7 -6 -15 -6q-9 0 -16 6.5t-7 15.5z" />
    <glyph glyph-name="uni0137" unicode="&#x137;" horiz-adv-x="520" 
d="M483 40q0 -19 -12.5 -32t-31.5 -13q-23 0 -35 15l-167 197l-75 -70v-97q0 -19 -13.5 -32t-32.5 -13q-18 0 -31 13t-13 32v587q0 19 13 32t32 13q18 0 31.5 -13t13.5 -32v-389l243 239q11 11 29 11q17 0 29 -12.5t12 -29.5q0 -16 -13 -29l-159 -155l169 -192
q11 -14 11 -30zM218 -253q0 11 12 20q33 33 40 69q-8 -2 -13 -2q-20 0 -32.5 13.5t-12.5 34.5t14.5 36t35.5 15q25 0 42 -20t17 -51q0 -76 -65 -131q-8 -6 -15 -6q-9 0 -16 6.5t-7 15.5z" />
    <glyph glyph-name="kgreenlandic" unicode="&#x138;" horiz-adv-x="520" 
d="M483 40q0 -19 -12.5 -32t-31.5 -13q-23 0 -35 15l-167 197l-75 -70v-97q0 -19 -13.5 -32t-32.5 -13q-18 0 -31 13t-13 32v403q0 19 13 32t32 13q18 0 31.5 -13t13.5 -32v-205l243 239q11 11 29 11q17 0 29 -12.5t12 -29.5q0 -16 -13 -29l-159 -155l169 -192
q11 -14 11 -30z" />
    <glyph glyph-name="Lacute" unicode="&#x139;" horiz-adv-x="513" 
d="M74 53v569q0 20 15 35t36 15q20 0 34.5 -15t14.5 -35v-534h263q18 0 31.5 -12.5t13.5 -30.5q0 -19 -13.5 -32t-31.5 -13h-309q-54 0 -54 53zM132 718q-10 0 -16.5 6.5t-6.5 16.5t7 17l105 105q9 9 21 9t20.5 -8.5t8.5 -20.5t-10 -22l-113 -97q-6 -6 -16 -6z" />
    <glyph glyph-name="lacute" unicode="&#x13a;" horiz-adv-x="233" 
d="M72 40v587q0 19 13 32t32 13q18 0 31.5 -13t13.5 -32v-587q0 -19 -13.5 -32t-31.5 -13q-19 0 -32 13t-13 32zM123 718q-10 0 -16.5 6.5t-6.5 16.5t7 17l105 105q9 9 21 9t20.5 -8.5t8.5 -20.5t-10 -22l-113 -97q-6 -6 -16 -6z" />
    <glyph glyph-name="uni013B" unicode="&#x13b;" horiz-adv-x="513" 
d="M74 53v569q0 20 15 35t36 15q20 0 34.5 -15t14.5 -35v-534h263q18 0 31.5 -12.5t13.5 -30.5q0 -19 -13.5 -32t-31.5 -13h-309q-54 0 -54 53zM231 -253q0 11 12 20q33 33 40 69q-8 -2 -13 -2q-20 0 -32.5 13.5t-12.5 34.5t14.5 36t35.5 15q25 0 42 -20t17 -51
q0 -76 -65 -131q-7 -6 -15 -6q-9 0 -16 6.5t-7 15.5z" />
    <glyph glyph-name="uni013C" unicode="&#x13c;" horiz-adv-x="233" 
d="M72 40v587q0 19 13 32t32 13q18 0 31.5 -13t13.5 -32v-587q0 -19 -13.5 -32t-31.5 -13q-19 0 -32 13t-13 32zM72 -253q0 11 12 20q33 33 40 69q-8 -2 -13 -2q-20 0 -32.5 13.5t-12.5 34.5t14.5 36t35.5 15q25 0 42 -20t17 -51q0 -76 -65 -131q-8 -6 -15 -6q-9 0 -16 6.5
t-7 15.5z" />
    <glyph glyph-name="Lcaron" unicode="&#x13d;" horiz-adv-x="513" 
d="M74 53v569q0 20 15 35t36 15q20 0 34.5 -15t14.5 -35v-534h263q18 0 31.5 -12.5t13.5 -30.5q0 -19 -13.5 -32t-31.5 -13h-309q-54 0 -54 53zM270 494q0 11 12 20q33 33 40 69q-8 -2 -13 -2q-20 0 -32.5 13.5t-12.5 34.5t14.5 36t35.5 15q25 0 42 -20t17 -51
q0 -76 -65 -131q-8 -6 -15 -6q-9 0 -16 6.5t-7 15.5z" />
    <glyph glyph-name="lcaron" unicode="&#x13e;" horiz-adv-x="309" 
d="M72 40v587q0 19 13 32t32 13q18 0 31.5 -13t13.5 -32v-587q0 -19 -13.5 -32t-31.5 -13q-19 0 -32 13t-13 32zM214 493q0 11 12 20q33 33 40 69q-8 -2 -13 -2q-20 0 -32.5 13.5t-12.5 34.5t14.5 36t35.5 15q25 0 42 -20t17 -51q0 -76 -65 -131q-8 -6 -15 -6q-9 0 -16 6.5
t-7 15.5z" />
    <glyph glyph-name="Ldot" unicode="&#x13f;" horiz-adv-x="513" 
d="M74 53v569q0 20 15 35t36 15q20 0 34.5 -15t14.5 -35v-534h263q18 0 31.5 -12.5t13.5 -30.5q0 -19 -13.5 -32t-31.5 -13h-309q-54 0 -54 53zM315 341q0 26 18.5 44.5t43.5 18.5q26 0 44.5 -18.5t18.5 -44.5q0 -25 -19 -43.5t-44 -18.5t-43.5 18.5t-18.5 43.5z" />
    <glyph glyph-name="ldot" unicode="&#x140;" horiz-adv-x="329" 
d="M72 40v587q0 19 13 32t32 13q18 0 31.5 -13t13.5 -32v-587q0 -19 -13.5 -32t-31.5 -13q-19 0 -32 13t-13 32zM218 244q0 26 18.5 44.5t43.5 18.5q26 0 44.5 -18.5t18.5 -44.5q0 -25 -19 -43.5t-44 -18.5t-43.5 18.5t-18.5 43.5z" />
    <glyph glyph-name="Lslash" unicode="&#x141;" horiz-adv-x="531" 
d="M499 45q0 -19 -13 -32t-31 -13h-310q-25 0 -39 14t-14 39v207l-33 -19q-8 -5 -18 -5q-15 0 -26 10.5t-11 26.5q0 21 19 32l69 40v277q0 20 14.5 35t35.5 15t35.5 -15t14.5 -35v-220l41 24q7 5 18 5q15 0 26 -10.5t11 -25.5q0 -21 -18 -32l-78 -45v-230h263q18 0 31 -12.5
t13 -30.5z" />
    <glyph glyph-name="lslash" unicode="&#x142;" horiz-adv-x="293" 
d="M288 398q0 -16 -15 -26l-82 -47v-285q0 -19 -13 -32t-31 -13q-19 0 -32.5 13t-13.5 32v234l-52 -30q-4 -4 -15 -4q-12 0 -21 8.5t-9 21.5q0 16 15 26l82 47v284q0 19 13.5 32t32.5 13q18 0 31 -13t13 -32v-233l52 30q4 4 15 4q12 0 21 -8.5t9 -21.5z" />
    <glyph glyph-name="Nacute" unicode="&#x143;" horiz-adv-x="714" 
d="M528 21l-354 491v-467q0 -20 -14.5 -35t-34.5 -15q-21 0 -36 15t-15 35v561q0 27 19 46.5t47 19.5q34 0 53 -27l347 -478v455q0 20 14.5 35t34.5 15q21 0 36 -15t15 -35v-565q0 -25 -18 -43.5t-44 -18.5q-33 0 -50 26zM364 718q-10 0 -16.5 6.5t-6.5 16.5t7 17l105 105
q9 9 21 9t20.5 -8.5t8.5 -20.5t-10 -22l-113 -97q-6 -6 -16 -6z" />
    <glyph glyph-name="nacute" unicode="&#x144;" 
d="M488 339v-299q0 -19 -13.5 -32t-32.5 -13q-18 0 -31 13t-13 32v269q0 56 -25.5 81t-77.5 25q-39 0 -75 -20t-58 -50v-305q0 -19 -13.5 -32t-31.5 -13q-19 0 -32 13t-13 32v403q0 19 13 32t31 13q19 0 32.5 -13t13.5 -32v-27q29 34 75.5 56.5t95.5 22.5q155 0 155 -156z
M287 571q-10 0 -16.5 6.5t-6.5 16.5t7 17l105 105q9 9 21 9t20.5 -8.5t8.5 -20.5t-10 -22l-113 -97q-6 -6 -16 -6z" />
    <glyph glyph-name="uni0145" unicode="&#x145;" horiz-adv-x="714" 
d="M528 21l-354 491v-467q0 -20 -14.5 -35t-34.5 -15q-21 0 -36 15t-15 35v561q0 27 19 46.5t47 19.5q34 0 53 -27l347 -478v455q0 20 14.5 35t34.5 15q21 0 36 -15t15 -35v-565q0 -25 -18 -43.5t-44 -18.5q-33 0 -50 26zM310 -253q0 11 12 20q33 33 40 69q-8 -2 -13 -2
q-20 0 -32.5 13.5t-12.5 34.5t14.5 36t35.5 15q25 0 42 -20t17 -51q0 -76 -65 -131q-8 -6 -15 -6q-9 0 -16 6.5t-7 15.5z" />
    <glyph glyph-name="uni0146" unicode="&#x146;" 
d="M488 339v-299q0 -19 -13.5 -32t-32.5 -13q-18 0 -31 13t-13 32v269q0 56 -25.5 81t-77.5 25q-39 0 -75 -20t-58 -50v-305q0 -19 -13.5 -32t-31.5 -13q-19 0 -32 13t-13 32v403q0 19 13 32t31 13q19 0 32.5 -13t13.5 -32v-27q29 34 75.5 56.5t95.5 22.5q155 0 155 -156z
M235 -253q0 11 12 20q33 33 40 69q-8 -2 -13 -2q-20 0 -32.5 13.5t-12.5 34.5t14.5 36t35.5 15q25 0 42 -20t17 -51q0 -76 -65 -131q-7 -6 -15 -6q-9 0 -16 6.5t-7 15.5z" />
    <glyph glyph-name="Ncaron" unicode="&#x147;" horiz-adv-x="714" 
d="M528 21l-354 491v-467q0 -20 -14.5 -35t-34.5 -15q-21 0 -36 15t-15 35v561q0 27 19 46.5t47 19.5q34 0 53 -27l347 -478v455q0 20 14.5 35t34.5 15q21 0 36 -15t15 -35v-565q0 -25 -18 -43.5t-44 -18.5q-33 0 -50 26zM475 847q0 -8 -4 -12l-63 -96q-15 -22 -42 -22h-22
q-27 0 -42 22l-63 96q-4 4 -4 12q0 11 7.5 18.5t18.5 7.5q12 0 18 -9l76 -98l76 98q6 9 18 9q11 0 18.5 -7.5t7.5 -18.5z" />
    <glyph glyph-name="ncaron" unicode="&#x148;" 
d="M488 339v-299q0 -19 -13.5 -32t-32.5 -13q-18 0 -31 13t-13 32v269q0 56 -25.5 81t-77.5 25q-39 0 -75 -20t-58 -50v-305q0 -19 -13.5 -32t-31.5 -13q-19 0 -32 13t-13 32v403q0 19 13 32t31 13q19 0 32.5 -13t13.5 -32v-27q29 34 75.5 56.5t95.5 22.5q155 0 155 -156z
M398 700q0 -8 -4 -12l-63 -96q-15 -22 -42 -22h-22q-27 0 -42 22l-63 96q-4 4 -4 12q0 11 7.5 18.5t18.5 7.5q12 0 18 -9l76 -98l76 98q6 9 18 9q11 0 18.5 -7.5t7.5 -18.5z" />
    <glyph glyph-name="napostrophe" unicode="&#x149;" 
d="M488 339v-299q0 -19 -13.5 -32t-32.5 -13q-18 0 -31 13t-13 32v269q0 56 -25.5 81t-77.5 25q-39 0 -75 -20t-58 -50v-305q0 -19 -13.5 -32t-31.5 -13q-19 0 -32 13t-13 32v403q0 19 13 32t31 13q19 0 32.5 -13t13.5 -32v-27q29 34 75.5 56.5t95.5 22.5q155 0 155 -156z
M62 563q0 11 12 20q33 33 40 69q-8 -2 -13 -2q-20 0 -32.5 13.5t-12.5 34.5t14.5 36t35.5 15q25 0 42 -20t17 -51q0 -76 -65 -131q-8 -6 -15 -6q-9 0 -16 6.5t-7 15.5z" />
    <glyph glyph-name="Eng" unicode="&#x14a;" horiz-adv-x="714" 
d="M640 622v-602q0 -105 -59 -160.5t-160 -55.5q-86 0 -148 48q-19 13 -19 36q0 19 13.5 32.5t31.5 13.5q15 0 26 -8q41 -33 89 -33q54 0 86 32t34 87l-360 500v-467q0 -20 -14.5 -35t-34.5 -15q-21 0 -36 15t-15 35v561q0 27 19 46.5t47 19.5q34 0 53 -27l347 -478v455
q0 20 14.5 35t34.5 15q21 0 36 -15t15 -35z" />
    <glyph glyph-name="eng" unicode="&#x14b;" 
d="M488 339v-377q0 -75 -39.5 -116.5t-111.5 -41.5q-15 0 -18 1q-15 1 -26 12t-11 26t10 27t24 12l10 -1q72 0 72 81v347q0 56 -25.5 81t-77.5 25q-39 0 -75 -20t-58 -50v-305q0 -19 -13.5 -32t-31.5 -13q-19 0 -32 13t-13 32v403q0 19 13 32t31 13q19 0 32.5 -13t13.5 -32
v-27q29 34 75.5 56.5t95.5 22.5q155 0 155 -156z" />
    <glyph glyph-name="Omacron" unicode="&#x14c;" horiz-adv-x="765" 
d="M382 678q145 2 241.5 -98t94.5 -247q2 -147 -94.5 -247.5t-241.5 -97.5q-145 -3 -241.5 97.5t-94.5 247.5q-2 147 94.5 247t241.5 98zM382 589q-104 0 -168.5 -72t-64.5 -184t64.5 -184t168.5 -72q103 0 168 72.5t65 183.5t-65 183.5t-168 72.5zM218 763q0 12 8 20t19 8
h271q11 0 19 -8t8 -20q0 -11 -8 -19t-19 -8h-271q-11 0 -19 8t-8 19z" />
    <glyph glyph-name="omacron" unicode="&#x14d;" horiz-adv-x="572" 
d="M42 242q0 107 68 180t176 73t176 -73t68 -180q0 -108 -68 -181t-176 -73t-176 73t-68 181zM436 242q0 73 -40.5 123t-109.5 50q-67 0 -108.5 -50.5t-41.5 -122.5q0 -73 41 -123.5t109 -50.5q69 0 109.5 50.5t40.5 123.5zM123 616q0 12 8 20t19 8h271q11 0 19 -8t8 -20
q0 -11 -8 -19t-19 -8h-271q-11 0 -19 8t-8 19z" />
    <glyph glyph-name="Obreve" unicode="&#x14e;" horiz-adv-x="765" 
d="M382 678q145 2 241.5 -98t94.5 -247q2 -147 -94.5 -247.5t-241.5 -97.5q-145 -3 -241.5 97.5t-94.5 247.5q-2 147 94.5 247t241.5 98zM382 589q-104 0 -168.5 -72t-64.5 -184t64.5 -184t168.5 -72q103 0 168 72.5t65 183.5t-65 183.5t-168 72.5zM221 788q-8 8 -8 20
q0 11 8 19t20 8q15 0 20 -8q50 -53 120 -53t119 52q6 9 21 9q11 0 19 -8t8 -19q0 -9 -8 -20q-67 -69 -159 -69q-91 0 -160 69z" />
    <glyph glyph-name="obreve" unicode="&#x14f;" horiz-adv-x="572" 
d="M42 242q0 107 68 180t176 73t176 -73t68 -180q0 -108 -68 -181t-176 -73t-176 73t-68 181zM436 242q0 73 -40.5 123t-109.5 50q-67 0 -108.5 -50.5t-41.5 -122.5q0 -73 41 -123.5t109 -50.5q69 0 109.5 50.5t40.5 123.5zM126 641q-8 8 -8 20q0 11 8 19t20 8q15 0 20 -8
q50 -53 120 -53t119 52q6 9 21 9q11 0 19 -8t8 -19q0 -9 -8 -20q-67 -69 -159 -69q-91 0 -160 69z" />
    <glyph glyph-name="Ohungarumlaut" unicode="&#x150;" horiz-adv-x="765" 
d="M382 678q145 2 241.5 -98t94.5 -247q2 -147 -94.5 -247.5t-241.5 -97.5q-145 -3 -241.5 97.5t-94.5 247.5q-2 147 94.5 247t241.5 98zM382 589q-104 0 -168.5 -72t-64.5 -184t64.5 -184t168.5 -72q103 0 168 72.5t65 183.5t-65 183.5t-168 72.5zM292 740q0 9 4 13l69 107
q8 14 25 14q12 0 21 -9t9 -22q0 -11 -7 -18l-79 -99q-6 -10 -18 -10q-10 0 -17 7t-7 17zM436 740q0 9 4 13l69 107q8 14 25 14q12 0 21 -9t9 -22q0 -11 -7 -18l-79 -99q-6 -10 -18 -10q-10 0 -17 7t-7 17z" />
    <glyph glyph-name="ohungarumlaut" unicode="&#x151;" horiz-adv-x="572" 
d="M42 242q0 107 68 180t176 73t176 -73t68 -180q0 -108 -68 -181t-176 -73t-176 73t-68 181zM436 242q0 73 -40.5 123t-109.5 50q-67 0 -108.5 -50.5t-41.5 -122.5q0 -73 41 -123.5t109 -50.5q69 0 109.5 50.5t40.5 123.5zM197 593q0 9 4 13l69 107q8 14 25 14q12 0 21 -9
t9 -22q0 -11 -7 -18l-79 -99q-6 -10 -18 -10q-10 0 -17 7t-7 17zM341 593q0 9 4 13l69 107q8 14 25 14q12 0 21 -9t9 -22q0 -11 -7 -18l-79 -99q-6 -10 -18 -10q-10 0 -17 7t-7 17z" />
    <glyph glyph-name="OE" unicode="&#x152;" horiz-adv-x="1099" 
d="M1053 45q0 -19 -13.5 -32t-31.5 -13h-354q-25 0 -39 14t-14 39v55q-33 -56 -95.5 -88t-132.5 -32q-141 -2 -235 97.5t-92 247.5q0 149 92 246.5t235 97.5q71 0 133 -31.5t95 -87.5v56q0 53 53 53h354q18 0 31.5 -13t13.5 -32q0 -18 -13.5 -30.5t-31.5 -12.5h-307v-195
h300q18 0 31.5 -12.5t13.5 -30.5q0 -19 -13.5 -32t-31.5 -13h-300v-208h307q18 0 31.5 -12.5t13.5 -30.5zM601 225v216q-27 71 -84 109t-132 38q-107 0 -171.5 -71.5t-64.5 -183.5t64.5 -184t171.5 -72q75 0 132 38.5t84 109.5z" />
    <glyph glyph-name="oe" unicode="&#x153;" horiz-adv-x="953" 
d="M694 62q66 0 121 39q7 5 19 5q16 0 26.5 -10t10.5 -26q0 -19 -17 -30q-70 -52 -168 -52q-140 0 -204 129q-66 -129 -196 -129q-108 0 -176 73t-68 181q0 107 68 180t176 73q76 0 123 -39q49 -40 74 -91q26 52 73 90q47 40 122 40q106 0 170 -73.5t64 -187.5
q0 -22 -53 -22h-328q5 -65 50 -107.5t113 -42.5zM677 421q-64 0 -104 -44t-43 -100h295q-3 58 -41.5 101t-106.5 43zM136 242q0 -74 41.5 -124.5t108.5 -50.5q68 0 109 50q41 52 41 125t-41 123t-109 50t-109 -50t-41 -123z" />
    <glyph glyph-name="Racute" unicode="&#x154;" horiz-adv-x="618" 
d="M571 41q0 -18 -13.5 -32t-33.5 -14q-27 0 -42 21l-167 241h-141v-212q0 -20 -14.5 -35t-34.5 -15q-21 0 -36 15t-15 35v569q0 53 54 53h227q95 0 154.5 -56.5t59.5 -148.5q0 -78 -41.5 -128.5t-107.5 -63.5l141 -198q10 -11 10 -31zM174 579v-234h168q54 0 89 32.5
t35 84.5t-35 84.5t-89 32.5h-168zM317 718q-10 0 -16.5 6.5t-6.5 16.5t7 17l105 105q9 9 21 9t20.5 -8.5t8.5 -20.5t-10 -22l-113 -97q-6 -6 -16 -6z" />
    <glyph glyph-name="racute" unicode="&#x155;" horiz-adv-x="338" 
d="M326 448q0 -16 -12 -28t-35 -15q-30 -3 -67 -23q-34 -19 -50 -46v-296q0 -19 -13.5 -32t-31.5 -13q-19 0 -32 13t-13 32v403q0 19 13 32t31 13q19 0 32.5 -13t13.5 -32v-34q45 60 100 77q20 5 26 5q18 0 28 -12t10 -31zM200 571q-10 0 -16.5 6.5t-6.5 16.5t7 17l105 105
q9 9 21 9t20.5 -8.5t8.5 -20.5t-10 -22l-113 -97q-6 -6 -16 -6z" />
    <glyph glyph-name="uni0156" unicode="&#x156;" horiz-adv-x="618" 
d="M571 41q0 -18 -13.5 -32t-33.5 -14q-27 0 -42 21l-167 241h-141v-212q0 -20 -14.5 -35t-34.5 -15q-21 0 -36 15t-15 35v569q0 53 54 53h227q95 0 154.5 -56.5t59.5 -148.5q0 -78 -41.5 -128.5t-107.5 -63.5l141 -198q10 -11 10 -31zM174 579v-234h168q54 0 89 32.5
t35 84.5t-35 84.5t-89 32.5h-168zM265 -253q0 11 12 20q33 33 40 69q-8 -2 -13 -2q-20 0 -32.5 13.5t-12.5 34.5t14.5 36t35.5 15q25 0 42 -20t17 -51q0 -76 -65 -131q-7 -6 -15 -6q-9 0 -16 6.5t-7 15.5z" />
    <glyph glyph-name="uni0157" unicode="&#x157;" horiz-adv-x="338" 
d="M326 448q0 -16 -12 -28t-35 -15q-30 -3 -67 -23q-34 -19 -50 -46v-296q0 -19 -13.5 -32t-31.5 -13q-19 0 -32 13t-13 32v403q0 19 13 32t31 13q19 0 32.5 -13t13.5 -32v-34q45 60 100 77q20 5 26 5q18 0 28 -12t10 -31zM74 -253q0 11 12 20q33 33 40 69q-8 -2 -13 -2
q-20 0 -32.5 13.5t-12.5 34.5t14.5 36t35.5 15q25 0 42 -20t17 -51q0 -76 -65 -131q-8 -6 -15 -6q-9 0 -16 6.5t-7 15.5z" />
    <glyph glyph-name="Rcaron" unicode="&#x158;" horiz-adv-x="618" 
d="M571 41q0 -18 -13.5 -32t-33.5 -14q-27 0 -42 21l-167 241h-141v-212q0 -20 -14.5 -35t-34.5 -15q-21 0 -36 15t-15 35v569q0 53 54 53h227q95 0 154.5 -56.5t59.5 -148.5q0 -78 -41.5 -128.5t-107.5 -63.5l141 -198q10 -11 10 -31zM174 579v-234h168q54 0 89 32.5
t35 84.5t-35 84.5t-89 32.5h-168zM428 847q0 -8 -4 -12l-63 -96q-15 -22 -42 -22h-22q-27 0 -42 22l-63 96q-4 4 -4 12q0 11 7.5 18.5t18.5 7.5q12 0 18 -9l76 -98l76 98q6 9 18 9q11 0 18.5 -7.5t7.5 -18.5z" />
    <glyph glyph-name="rcaron" unicode="&#x159;" horiz-adv-x="338" 
d="M326 448q0 -16 -12 -28t-35 -15q-30 -3 -67 -23q-34 -19 -50 -46v-296q0 -19 -13.5 -32t-31.5 -13q-19 0 -32 13t-13 32v403q0 19 13 32t31 13q19 0 32.5 -13t13.5 -32v-34q45 60 100 77q20 5 26 5q18 0 28 -12t10 -31zM311 700q0 -8 -4 -12l-63 -96q-15 -22 -42 -22h-22
q-27 0 -42 22l-63 96q-4 4 -4 12q0 11 7.5 18.5t18.5 7.5q12 0 18 -9l76 -98l76 98q6 9 18 9q11 0 18.5 -7.5t7.5 -18.5z" />
    <glyph glyph-name="Sacute" unicode="&#x15a;" horiz-adv-x="590" 
d="M45 103q0 20 14.5 34t33.5 14q17 0 30 -10q79 -64 177 -64q71 0 108.5 29t37.5 74q-4 48 -37.5 68t-123.5 44q-78 21 -120 37q-111 46 -111 158q0 83 68 136.5t176 53.5q113 0 206 -65q21 -14 21 -38q0 -20 -14 -34t-33 -14q-14 0 -28 9q-66 53 -160 53q-60 0 -96.5 -26
t-36.5 -68q3 -41 36.5 -60t118.5 -40q70 -18 122 -40q114 -45 114 -165q0 -87 -64 -144t-188 -57q-138 0 -232 77q-19 16 -19 38zM297 718q-10 0 -16.5 6.5t-6.5 16.5t7 17l105 105q9 9 21 9t20.5 -8.5t8.5 -20.5t-10 -22l-113 -97q-6 -6 -16 -6z" />
    <glyph glyph-name="sacute" unicode="&#x15b;" horiz-adv-x="468" 
d="M38 74q0 17 11.5 28t27.5 11q12 0 22 -7q64 -46 136 -46q50 0 77 18t27 51q0 31 -27.5 47.5t-89.5 30.5q-65 16 -92 26q-86 35 -86 119q0 61 50 102t134 41q93 0 161 -50q16 -12 16 -30q0 -15 -11 -26t-26 -11q-12 0 -20 7q-49 37 -119 37q-46 0 -72.5 -17t-26.5 -46
q0 -26 26 -41t86 -29q57 -13 94 -27q90 -35 90 -126q0 -66 -52 -107t-143 -41q-104 0 -176 54q-17 12 -17 32zM235 571q-10 0 -16.5 6.5t-6.5 16.5t7 17l105 105q9 9 21 9t20.5 -8.5t8.5 -20.5t-10 -22l-113 -97q-6 -6 -16 -6z" />
    <glyph glyph-name="Scircumflex" unicode="&#x15c;" horiz-adv-x="590" 
d="M45 103q0 20 14.5 34t33.5 14q17 0 30 -10q79 -64 177 -64q71 0 108.5 29t37.5 74q-4 48 -37.5 68t-123.5 44q-78 21 -120 37q-111 46 -111 158q0 83 68 136.5t176 53.5q113 0 206 -65q21 -14 21 -38q0 -20 -14 -34t-33 -14q-14 0 -28 9q-66 53 -160 53q-60 0 -96.5 -26
t-36.5 -68q3 -41 36.5 -60t118.5 -40q70 -18 122 -40q114 -45 114 -165q0 -87 -64 -144t-188 -57q-138 0 -232 77q-19 16 -19 38zM367 726l-76 98l-76 -98q-6 -9 -18 -9q-11 0 -18.5 7t-7.5 18q0 9 4 13l63 96q15 22 42 22h22q27 0 42 -22l63 -96q4 -4 4 -13q0 -11 -7.5 -18
t-18.5 -7q-12 0 -18 9z" />
    <glyph glyph-name="scircumflex" unicode="&#x15d;" horiz-adv-x="468" 
d="M38 74q0 17 11.5 28t27.5 11q12 0 22 -7q64 -46 136 -46q50 0 77 18t27 51q0 31 -27.5 47.5t-89.5 30.5q-65 16 -92 26q-86 35 -86 119q0 61 50 102t134 41q93 0 161 -50q16 -12 16 -30q0 -15 -11 -26t-26 -11q-12 0 -20 7q-49 37 -119 37q-46 0 -72.5 -17t-26.5 -46
q0 -26 26 -41t86 -29q57 -13 94 -27q90 -35 90 -126q0 -66 -52 -107t-143 -41q-104 0 -176 54q-17 12 -17 32zM305 579l-76 98l-76 -98q-6 -9 -18 -9q-11 0 -18.5 7t-7.5 18q0 9 4 13l63 96q15 22 42 22h22q27 0 42 -22l63 -96q4 -4 4 -13q0 -11 -7.5 -18t-18.5 -7
q-12 0 -18 9z" />
    <glyph glyph-name="uni015E" unicode="&#x15e;" horiz-adv-x="590" 
d="M314 -12l-17 -42q17 11 36 11q29 0 48 -19t19 -49q0 -36 -30 -59t-76 -23q-51 0 -91 23q-13 6 -13 20q0 10 7 16.5t16 6.5q5 0 13 -3q31 -19 65 -19q26 0 42.5 10.5t16.5 28.5q0 32 -35 32q-19 0 -29 -10q-5 -4 -15 -4q-11 0 -18.5 7t-7.5 18q0 2 2 10l18 46
q-119 9 -201 76q-19 16 -19 38q0 20 14.5 34t33.5 14q17 0 30 -10q79 -64 177 -64q71 0 108.5 29t37.5 74q-4 48 -37.5 68t-123.5 44q-78 21 -120 37q-111 46 -111 158q0 83 68 136.5t176 53.5q113 0 206 -65q21 -14 21 -38q0 -20 -14 -34t-33 -14q-14 0 -28 9
q-66 53 -160 53q-60 0 -96.5 -26t-36.5 -68q3 -41 36.5 -60t118.5 -40q70 -18 122 -40q114 -45 114 -165q0 -82 -58 -139q-59 -58 -176 -62z" />
    <glyph glyph-name="uni015F" unicode="&#x15f;" horiz-adv-x="468" 
d="M252 -11l-17 -43q17 11 36 11q30 0 48.5 -19t18.5 -49q0 -36 -30 -59t-76 -23q-51 0 -91 23q-12 7 -12 20q0 10 6.5 16.5t15.5 6.5q5 0 13 -3q31 -19 66 -19q25 0 41.5 10.5t16.5 28.5q0 32 -35 32q-19 0 -29 -10q-5 -4 -15 -4q-25 0 -25 25q0 2 2 10l17 46
q-86 6 -148 53q-17 12 -17 32q0 17 11.5 28t27.5 11q12 0 22 -7q64 -46 136 -46q50 0 77 18t27 51q0 31 -27.5 47.5t-89.5 30.5q-65 16 -92 26q-86 35 -86 119q0 61 50 102t134 41q93 0 161 -50q16 -12 16 -30q0 -15 -11 -26t-26 -11q-12 0 -20 7q-49 37 -119 37
q-46 0 -72.5 -17t-26.5 -46q0 -26 26 -41t86 -29q57 -13 94 -27q90 -35 90 -126q0 -62 -47 -102.5t-127 -44.5z" />
    <glyph glyph-name="Scaron" unicode="&#x160;" horiz-adv-x="590" 
d="M45 103q0 20 14.5 34t33.5 14q17 0 30 -10q79 -64 177 -64q71 0 108.5 29t37.5 74q-4 48 -37.5 68t-123.5 44q-78 21 -120 37q-111 46 -111 158q0 83 68 136.5t176 53.5q113 0 206 -65q21 -14 21 -38q0 -20 -14 -34t-33 -14q-14 0 -28 9q-66 53 -160 53q-60 0 -96.5 -26
t-36.5 -68q3 -41 36.5 -60t118.5 -40q70 -18 122 -40q114 -45 114 -165q0 -87 -64 -144t-188 -57q-138 0 -232 77q-19 16 -19 38zM408 847q0 -8 -4 -12l-63 -96q-15 -22 -42 -22h-22q-27 0 -42 22l-63 96q-4 4 -4 12q0 11 7.5 18.5t18.5 7.5q12 0 18 -9l76 -98l76 98
q6 9 18 9q11 0 18.5 -7.5t7.5 -18.5z" />
    <glyph glyph-name="scaron" unicode="&#x161;" horiz-adv-x="468" 
d="M38 74q0 17 11.5 28t27.5 11q12 0 22 -7q64 -46 136 -46q50 0 77 18t27 51q0 31 -27.5 47.5t-89.5 30.5q-65 16 -92 26q-86 35 -86 119q0 61 50 102t134 41q93 0 161 -50q16 -12 16 -30q0 -15 -11 -26t-26 -11q-12 0 -20 7q-49 37 -119 37q-46 0 -72.5 -17t-26.5 -46
q0 -26 26 -41t86 -29q57 -13 94 -27q90 -35 90 -126q0 -66 -52 -107t-143 -41q-104 0 -176 54q-17 12 -17 32zM346 700q0 -8 -4 -12l-63 -96q-15 -22 -42 -22h-22q-27 0 -42 22l-63 96q-4 4 -4 12q0 11 7.5 18.5t18.5 7.5q12 0 18 -9l76 -98l76 98q6 9 18 9q11 0 18.5 -7.5
t7.5 -18.5z" />
    <glyph glyph-name="uni0162" unicode="&#x162;" horiz-adv-x="573" 
d="M237 45v534h-168q-18 0 -31 12.5t-13 30.5q0 19 13 32t31 13h435q18 0 31.5 -13t13.5 -32q0 -18 -13.5 -30.5t-31.5 -12.5h-167v-534q0 -20 -15 -35t-35 -15q-21 0 -35.5 15t-14.5 35zM243 -253q0 11 12 20q33 33 40 69q-8 -2 -13 -2q-20 0 -32.5 13.5t-12.5 34.5
t14.5 36t35.5 15q25 0 42 -20t17 -51q0 -76 -65 -131q-7 -6 -15 -6q-9 0 -16 6.5t-7 15.5z" />
    <glyph glyph-name="uni0163" unicode="&#x163;" horiz-adv-x="306" 
d="M297 36q0 -26 -23 -34q-31 -14 -69 -14q-57 0 -86 31t-29 88v297h-46q-16 0 -28 12t-12 28t12 27.5t28 11.5h46v92q0 19 13 32t32 13q18 0 31.5 -13t13.5 -32v-92h63q16 0 28 -11.5t12 -27.5t-11.5 -28t-28.5 -12h-63v-277q0 -27 12 -43t35 -16q8 0 19.5 3t12.5 3
q17 0 27.5 -10.5t10.5 -27.5zM111 -253q0 11 12 20q33 33 40 69q-8 -2 -13 -2q-20 0 -32.5 13.5t-12.5 34.5t14.5 36t35.5 15q25 0 42 -20t17 -51q0 -76 -65 -131q-7 -6 -15 -6q-9 0 -16 6.5t-7 15.5z" />
    <glyph glyph-name="Tcaron" unicode="&#x164;" horiz-adv-x="573" 
d="M237 45v534h-168q-18 0 -31 12.5t-13 30.5q0 19 13 32t31 13h435q18 0 31.5 -13t13.5 -32q0 -18 -13.5 -30.5t-31.5 -12.5h-167v-534q0 -20 -15 -35t-35 -15q-21 0 -35.5 15t-14.5 35zM405 847q0 -8 -4 -12l-63 -96q-15 -22 -42 -22h-22q-27 0 -42 22l-63 96q-4 4 -4 12
q0 11 7.5 18.5t18.5 7.5q12 0 18 -9l76 -98l76 98q6 9 18 9q11 0 18.5 -7.5t7.5 -18.5z" />
    <glyph glyph-name="tcaron" unicode="&#x165;" horiz-adv-x="332" 
d="M297 36q0 -26 -23 -34q-31 -14 -69 -14q-57 0 -86 31t-29 88v297h-46q-16 0 -28 12t-12 28t12 27.5t28 11.5h46v92q0 19 13 32t32 13q18 0 31.5 -13t13.5 -32v-92h63q16 0 28 -11.5t12 -27.5t-11.5 -28t-28.5 -12h-63v-277q0 -27 12 -43t35 -16q8 0 19.5 3t12.5 3
q17 0 27.5 -10.5t10.5 -27.5zM244 563q0 11 12 20q33 33 40 69q-8 -2 -13 -2q-20 0 -32.5 13.5t-12.5 34.5t14.5 36t35.5 15q25 0 42 -20t17 -51q0 -76 -65 -131q-8 -6 -15 -6q-9 0 -16 6.5t-7 15.5z" />
    <glyph glyph-name="Tbar" unicode="&#x166;" horiz-adv-x="573" 
d="M549 622q0 -18 -13.5 -30.5t-31.5 -12.5h-167v-239h123q11 0 19.5 -8t8.5 -20q0 -11 -8.5 -19t-19.5 -8h-123v-240q0 -20 -15 -35t-35 -15q-21 0 -35.5 15t-14.5 35v240h-124q-11 0 -19 8t-8 20q0 11 8 19t19 8h124v239h-168q-18 0 -31 12.5t-13 30.5q0 19 13 32t31 13
h435q18 0 31.5 -13t13.5 -32z" />
    <glyph glyph-name="tbar" unicode="&#x167;" horiz-adv-x="306" 
d="M297 36q0 -26 -23 -34q-31 -14 -69 -14q-57 0 -86 31t-29 88v114h-58q-11 0 -19.5 8.5t-8.5 19.5t8.5 19t19.5 8h58v128h-46q-16 0 -28 12t-12 28t12 27.5t28 11.5h46v92q0 19 13 32t32 13q18 0 31.5 -13t13.5 -32v-92h63q16 0 28 -11.5t12 -27.5t-11.5 -28t-28.5 -12
h-63v-128h47q11 0 19 -8t8 -19t-8 -19.5t-19 -8.5h-47v-94q0 -27 12 -43t35 -16q8 0 19.5 3t12.5 3q17 0 27.5 -10.5t10.5 -27.5z" />
    <glyph glyph-name="Utilde" unicode="&#x168;" horiz-adv-x="710" 
d="M74 261v361q0 20 15 35t36 15t35.5 -15t14.5 -35v-358q0 -88 47 -137.5t133 -49.5t132.5 49.5t46.5 137.5v358q0 20 15 35t36 15t35.5 -15t14.5 -35v-360q0 -130 -72 -202t-208 -72q-135 0 -208 72.5t-73 200.5zM338 770q-24 36 -45 36q-38 0 -44 -62q-5 -22 -25 -22
q-11 0 -19 8.5t-6 19.5q5 52 30.5 81.5t67.5 29.5q24 0 39.5 -11t35.5 -38q27 -36 46 -36q36 0 44 62q2 22 25 22q11 0 18.5 -8t6.5 -20q-5 -52 -30.5 -81.5t-67.5 -29.5q-25 0 -40.5 11t-35.5 38z" />
    <glyph glyph-name="utilde" unicode="&#x169;" 
d="M488 443v-403q0 -19 -13.5 -32t-31.5 -13q-19 0 -32 13t-13 32v26q-71 -78 -172 -78q-154 0 -154 154v301q0 19 13 32t32 13q18 0 31.5 -13t13.5 -32v-271q0 -56 25 -80t77 -24q39 0 75.5 19t58.5 49v307q0 19 13 32t31 13q19 0 32.5 -13t13.5 -32zM262 623
q-24 36 -45 36q-38 0 -44 -62q-5 -22 -25 -22q-11 0 -19 8.5t-6 19.5q5 52 30.5 81.5t67.5 29.5q24 0 39.5 -11t35.5 -38q27 -36 46 -36q36 0 44 62q2 22 25 22q11 0 18.5 -8t6.5 -20q-5 -52 -30.5 -81.5t-67.5 -29.5q-25 0 -40.5 11t-35.5 38z" />
    <glyph glyph-name="Umacron" unicode="&#x16a;" horiz-adv-x="710" 
d="M74 261v361q0 20 15 35t36 15t35.5 -15t14.5 -35v-358q0 -88 47 -137.5t133 -49.5t132.5 49.5t46.5 137.5v358q0 20 15 35t36 15t35.5 -15t14.5 -35v-360q0 -130 -72 -202t-208 -72q-135 0 -208 72.5t-73 200.5zM192 763q0 12 8 20t19 8h271q11 0 19 -8t8 -20
q0 -11 -8 -19t-19 -8h-271q-11 0 -19 8t-8 19z" />
    <glyph glyph-name="umacron" unicode="&#x16b;" 
d="M488 443v-403q0 -19 -13.5 -32t-31.5 -13q-19 0 -32 13t-13 32v26q-71 -78 -172 -78q-154 0 -154 154v301q0 19 13 32t32 13q18 0 31.5 -13t13.5 -32v-271q0 -56 25 -80t77 -24q39 0 75.5 19t58.5 49v307q0 19 13 32t31 13q19 0 32.5 -13t13.5 -32zM116 616q0 12 8 20
t19 8h271q11 0 19 -8t8 -20q0 -11 -8 -19t-19 -8h-271q-11 0 -19 8t-8 19z" />
    <glyph glyph-name="Ubreve" unicode="&#x16c;" horiz-adv-x="710" 
d="M74 261v361q0 20 15 35t36 15t35.5 -15t14.5 -35v-358q0 -88 47 -137.5t133 -49.5t132.5 49.5t46.5 137.5v358q0 20 15 35t36 15t35.5 -15t14.5 -35v-360q0 -130 -72 -202t-208 -72q-135 0 -208 72.5t-73 200.5zM195 788q-8 8 -8 20q0 11 8 19t20 8q15 0 20 -8
q50 -53 120 -53t119 52q6 9 21 9q11 0 19 -8t8 -19q0 -9 -8 -20q-67 -69 -159 -69q-91 0 -160 69z" />
    <glyph glyph-name="ubreve" unicode="&#x16d;" 
d="M488 443v-403q0 -19 -13.5 -32t-31.5 -13q-19 0 -32 13t-13 32v26q-71 -78 -172 -78q-154 0 -154 154v301q0 19 13 32t32 13q18 0 31.5 -13t13.5 -32v-271q0 -56 25 -80t77 -24q39 0 75.5 19t58.5 49v307q0 19 13 32t31 13q19 0 32.5 -13t13.5 -32zM119 641q-8 8 -8 20
q0 11 8 19t20 8q15 0 20 -8q50 -53 120 -53t119 52q6 9 21 9q11 0 19 -8t8 -19q0 -9 -8 -20q-67 -69 -159 -69q-91 0 -160 69z" />
    <glyph glyph-name="Uring" unicode="&#x16e;" horiz-adv-x="710" 
d="M74 261v361q0 20 15 35t36 15t35.5 -15t14.5 -35v-358q0 -88 47 -137.5t133 -49.5t132.5 49.5t46.5 137.5v358q0 20 15 35t36 15t35.5 -15t14.5 -35v-360q0 -130 -72 -202t-208 -72q-135 0 -208 72.5t-73 200.5zM356 908q41 0 70 -30t29 -71t-29 -71t-70 -30t-70.5 30
t-29.5 71t29.5 71t70.5 30zM356 862q-23 0 -39 -16t-16 -39t16.5 -39.5t38.5 -16.5q23 0 39 16.5t16 39.5t-16 39t-39 16z" />
    <glyph glyph-name="uring" unicode="&#x16f;" 
d="M488 443v-403q0 -19 -13.5 -32t-31.5 -13q-19 0 -32 13t-13 32v26q-71 -78 -172 -78q-154 0 -154 154v301q0 19 13 32t32 13q18 0 31.5 -13t13.5 -32v-271q0 -56 25 -80t77 -24q39 0 75.5 19t58.5 49v307q0 19 13 32t31 13q19 0 32.5 -13t13.5 -32zM280 761q41 0 70 -30
t29 -71t-29 -71t-70 -30t-70.5 30t-29.5 71t29.5 71t70.5 30zM280 715q-23 0 -39 -16t-16 -39t16.5 -39.5t38.5 -16.5q23 0 39 16.5t16 39.5t-16 39t-39 16z" />
    <glyph glyph-name="Uhungarumlaut" unicode="&#x170;" horiz-adv-x="710" 
d="M74 261v361q0 20 15 35t36 15t35.5 -15t14.5 -35v-358q0 -88 47 -137.5t133 -49.5t132.5 49.5t46.5 137.5v358q0 20 15 35t36 15t35.5 -15t14.5 -35v-360q0 -130 -72 -202t-208 -72q-135 0 -208 72.5t-73 200.5zM266 740q0 9 4 13l69 107q8 14 25 14q12 0 21 -9t9 -22
q0 -11 -7 -18l-79 -99q-6 -10 -18 -10q-10 0 -17 7t-7 17zM410 740q0 9 4 13l69 107q8 14 25 14q12 0 21 -9t9 -22q0 -11 -7 -18l-79 -99q-6 -10 -18 -10q-10 0 -17 7t-7 17z" />
    <glyph glyph-name="uhungarumlaut" unicode="&#x171;" 
d="M488 443v-403q0 -19 -13.5 -32t-31.5 -13q-19 0 -32 13t-13 32v26q-71 -78 -172 -78q-154 0 -154 154v301q0 19 13 32t32 13q18 0 31.5 -13t13.5 -32v-271q0 -56 25 -80t77 -24q39 0 75.5 19t58.5 49v307q0 19 13 32t31 13q19 0 32.5 -13t13.5 -32zM190 593q0 9 4 13
l69 107q8 14 25 14q12 0 21 -9t9 -22q0 -11 -7 -18l-79 -99q-6 -10 -18 -10q-10 0 -17 7t-7 17zM334 593q0 9 4 13l69 107q8 14 25 14q12 0 21 -9t9 -22q0 -11 -7 -18l-79 -99q-6 -10 -18 -10q-10 0 -17 7t-7 17z" />
    <glyph glyph-name="Uogonek" unicode="&#x172;" horiz-adv-x="710" 
d="M74 261v361q0 20 15 35t36 15t35.5 -15t14.5 -35v-358q0 -88 47 -137.5t133 -49.5t132.5 49.5t46.5 137.5v358q0 20 15 35t36 15t35.5 -15t14.5 -35v-360q0 -98 -42 -164t-122 -93q-51 -17 -79.5 -42t-28.5 -52q0 -15 11 -25t27 -10q1 0 3 0.5t5 1t6 0.5q13 2 24 -6.5
t11 -22.5q0 -22 -22 -29q-22 -6 -48 -6q-44 0 -73 20.5t-29 55.5q0 59 85 98h-8q-135 0 -208 72.5t-73 200.5z" />
    <glyph glyph-name="uogonek" unicode="&#x173;" 
d="M396 -89q0 -15 11 -25t27 -10q5 0 14 2t11 2q11 0 20 -9t9 -21q0 -19 -20 -28q-27 -8 -54 -8q-44 0 -73 20.5t-29 55.5q0 34 30.5 63t79.5 47q-24 13 -24 40v26q-71 -78 -172 -78q-154 0 -154 154v301q0 19 13 32t32 13q18 0 31.5 -13t13.5 -32v-271q0 -56 25 -80t77 -24
q39 0 75.5 19t58.5 49v307q0 19 13 32t31 13q19 0 32.5 -13t13.5 -32v-403q0 -27 -24 -40q-37 -28 -52.5 -48t-15.5 -41z" />
    <glyph glyph-name="Wcircumflex" unicode="&#x174;" horiz-adv-x="893" 
d="M572 46l-126 469l-126 -469q-5 -23 -23.5 -37t-42.5 -14t-42.5 14t-23.5 36l-160 558q-2 14 -2 16q0 22 15.5 37.5t37.5 15.5q39 0 51 -40l130 -500l137 503q5 16 18.5 26.5t31.5 10.5q17 0 30.5 -10.5t18.5 -26.5l136 -503l130 500q12 40 51 40q22 0 37.5 -15.5
t15.5 -37.5q0 -2 -2 -16l-159 -558q-6 -22 -24 -36t-42 -14t-42.5 14t-24.5 37zM523 726l-76 98l-76 -98q-6 -9 -18 -9q-11 0 -18.5 7t-7.5 18q0 9 4 13l63 96q15 22 42 22h22q27 0 42 -22l63 -96q4 -4 4 -13q0 -11 -7.5 -18t-18.5 -7q-12 0 -18 9z" />
    <glyph glyph-name="wcircumflex" unicode="&#x175;" horiz-adv-x="744" 
d="M479 38l-107 333l-107 -333q-6 -19 -22 -31t-36 -12t-36.5 12t-21.5 31l-124 392q-2 10 -2 14q0 18 13 31t31 13q16 0 27.5 -9t15.5 -23l102 -341l111 337q4 16 18 26t31 10t31 -10t18 -26l111 -337l102 341q4 14 15.5 23t27.5 9q18 0 31 -13t13 -32q0 -4 -2 -14
l-124 -391q-5 -19 -21.5 -31t-36.5 -12t-36 12t-22 31zM449 563l-76 98l-76 -98q-6 -9 -18 -9q-11 0 -18.5 7t-7.5 18q0 9 4 13l63 96q15 22 42 22h22q27 0 42 -22l63 -96q4 -4 4 -13q0 -11 -7.5 -18t-18.5 -7q-12 0 -18 9z" />
    <glyph glyph-name="Ycircumflex" unicode="&#x176;" horiz-adv-x="631" 
d="M580 598l-214 -319v-234q0 -20 -14.5 -35t-35.5 -15t-35.5 15t-14.5 35v234l-215 318q-8 11 -8 27q0 20 14 34t34 14q28 0 41 -22l184 -282l183 282q15 22 41 22q20 0 34 -14t14 -34q0 -15 -8 -26zM393 726l-76 98l-76 -98q-6 -9 -18 -9q-11 0 -18.5 7t-7.5 18q0 9 4 13
l63 96q15 22 42 22h22q27 0 42 -22l63 -96q4 -4 4 -13q0 -11 -7.5 -18t-18.5 -7q-12 0 -18 9z" />
    <glyph glyph-name="ycircumflex" unicode="&#x177;" horiz-adv-x="497" 
d="M91 -115l11 -1q50 0 70 47l28 64l-177 431q-2 8 -2 17q0 19 12.5 32t31.5 13q30 0 42 -28l141 -356l141 356q12 28 42 28q19 0 32 -13t13 -32q0 -7 -4 -18l-214 -517q-41 -102 -154 -104q-13 0 -18 1q-16 2 -26.5 13t-10.5 27q0 17 12.5 28.5t29.5 11.5zM325 579l-76 98
l-76 -98q-6 -9 -18 -9q-11 0 -18.5 7t-7.5 18q0 9 4 13l63 96q15 22 42 22h22q27 0 42 -22l63 -96q4 -4 4 -13q0 -11 -7.5 -18t-18.5 -7q-12 0 -18 9z" />
    <glyph glyph-name="Ydieresis" unicode="&#x178;" horiz-adv-x="631" 
d="M580 598l-214 -319v-234q0 -20 -14.5 -35t-35.5 -15t-35.5 15t-14.5 35v234l-215 318q-8 11 -8 27q0 20 14 34t34 14q28 0 41 -22l184 -282l183 282q15 22 41 22q20 0 34 -14t14 -34q0 -15 -8 -26zM160 785q0 22 15.5 37t37.5 15t37 -15t15 -37t-15 -37.5t-37 -15.5
t-37.5 15.5t-15.5 37.5zM368 785q0 22 15.5 37t37.5 15q21 0 37 -15.5t16 -36.5q0 -22 -16 -37.5t-37 -15.5q-22 0 -37.5 15.5t-15.5 37.5z" />
    <glyph glyph-name="Zacute" unicode="&#x179;" horiz-adv-x="587" 
d="M41 57q0 19 11 33l352 489h-319q-18 0 -31 12.5t-13 30.5q0 19 13 32t31 13h396q23 0 40 -16.5t17 -40.5q0 -19 -11 -33l-352 -489h326q18 0 31 -12.5t13 -30.5q0 -19 -13 -32t-31 -13h-403q-23 0 -40 16.5t-17 40.5zM301 718q-10 0 -16.5 6.5t-6.5 16.5t7 17l105 105
q9 9 21 9t20.5 -8.5t8.5 -20.5t-10 -22l-113 -97q-6 -6 -16 -6z" />
    <glyph glyph-name="zacute" unicode="&#x17a;" horiz-adv-x="474" 
d="M44 46q0 17 9 29l248 329h-218q-16 0 -27.5 11.5t-11.5 27.5t11.5 28t27.5 12h297q19 0 32.5 -13t13.5 -32q0 -14 -10 -27l-250 -333h224q16 0 28 -11.5t12 -27.5t-12 -27.5t-28 -11.5h-300q-19 0 -32.5 13.5t-13.5 32.5zM244 571q-10 0 -16.5 6.5t-6.5 16.5t7 17
l105 105q9 9 21 9t20.5 -8.5t8.5 -20.5t-10 -22l-113 -97q-6 -6 -16 -6z" />
    <glyph glyph-name="Zdotaccent" unicode="&#x17b;" horiz-adv-x="587" 
d="M41 57q0 19 11 33l352 489h-319q-18 0 -31 12.5t-13 30.5q0 19 13 32t31 13h396q23 0 40 -16.5t17 -40.5q0 -19 -11 -33l-352 -489h326q18 0 31 -12.5t13 -30.5q0 -19 -13 -32t-31 -13h-403q-23 0 -40 16.5t-17 40.5zM294 837q21 0 36.5 -16t15.5 -37q0 -22 -15 -37.5
t-37 -15.5t-37.5 15.5t-15.5 37.5q0 21 15.5 37t37.5 16z" />
    <glyph glyph-name="zdotaccent" unicode="&#x17c;" horiz-adv-x="474" 
d="M44 46q0 17 9 29l248 329h-218q-16 0 -27.5 11.5t-11.5 27.5t11.5 28t27.5 12h297q19 0 32.5 -13t13.5 -32q0 -14 -10 -27l-250 -333h224q16 0 28 -11.5t12 -27.5t-12 -27.5t-28 -11.5h-300q-19 0 -32.5 13.5t-13.5 32.5zM237 690q21 0 36.5 -16t15.5 -37
q0 -22 -15 -37.5t-37 -15.5t-37.5 15.5t-15.5 37.5q0 21 15.5 37t37.5 16z" />
    <glyph glyph-name="Zcaron" unicode="&#x17d;" horiz-adv-x="587" 
d="M41 57q0 19 11 33l352 489h-319q-18 0 -31 12.5t-13 30.5q0 19 13 32t31 13h396q23 0 40 -16.5t17 -40.5q0 -19 -11 -33l-352 -489h326q18 0 31 -12.5t13 -30.5q0 -19 -13 -32t-31 -13h-403q-23 0 -40 16.5t-17 40.5zM412 847q0 -8 -4 -12l-63 -96q-15 -22 -42 -22h-22
q-27 0 -42 22l-63 96q-4 4 -4 12q0 11 7.5 18.5t18.5 7.5q12 0 18 -9l76 -98l76 98q6 9 18 9q11 0 18.5 -7.5t7.5 -18.5z" />
    <glyph glyph-name="zcaron" unicode="&#x17e;" horiz-adv-x="474" 
d="M44 46q0 17 9 29l248 329h-218q-16 0 -27.5 11.5t-11.5 27.5t11.5 28t27.5 12h297q19 0 32.5 -13t13.5 -32q0 -14 -10 -27l-250 -333h224q16 0 28 -11.5t12 -27.5t-12 -27.5t-28 -11.5h-300q-19 0 -32.5 13.5t-13.5 32.5zM355 700q0 -8 -4 -12l-63 -96q-15 -22 -42 -22
h-22q-27 0 -42 22l-63 96q-4 4 -4 12q0 11 7.5 18.5t18.5 7.5q12 0 18 -9l76 -98l76 98q6 9 18 9q11 0 18.5 -7.5t7.5 -18.5z" />
    <glyph glyph-name="longs" unicode="&#x17f;" horiz-adv-x="296" 
d="M317 636q0 -16 -9.5 -26t-26.5 -10q-4 0 -12 1.5t-13 1.5q-34 0 -53 -23t-19 -65v-475q0 -19 -13 -32t-31 -13q-19 0 -32.5 13t-13.5 32v364h-45q-16 0 -28 12t-12 28t12 27.5t28 11.5h45v32q0 75 40 118.5t107 43.5q25 0 48 -6q28 -9 28 -35z" />
    <glyph glyph-name="uni018F" unicode="&#x18f;" horiz-adv-x="746" 
d="M700 333q2 -150 -96 -249t-237 -97q-142 0 -234.5 92.5t-92.5 236.5q0 46 50 46h505q-9 101 -77 164t-165 63q-94 0 -162 -68q-14 -13 -34 -13q-19 0 -32.5 13.5t-13.5 32.5q0 21 14 33q91 91 228 91q146 2 248 -96.5t99 -248.5zM590 274h-446q11 -86 68 -142
q58 -56 147 -56t152 54q62 55 79 144z" />
    <glyph glyph-name="uni0192" unicode="&#x192;" horiz-adv-x="438" 
d="M446 624q0 -18 -13 -31t-31 -13q-2 0 -14 3q-12 6 -26 6q-34 0 -59 -22.5t-34 -62.5l-39 -174h97q16 0 28 -12t12 -29q0 -16 -12 -28t-28 -12h-115l-83 -376q-4 -17 -17 -28t-31 -11q-22 0 -36.5 15t-13.5 35l2 13l78 352h-29q-16 0 -28 12.5t-12 28.5t12 28t28 12h46
l43 193q16 70 65 112t116 42q40 0 68 -14q26 -14 26 -39z" />
    <glyph glyph-name="uni019D" unicode="&#x19d;" horiz-adv-x="714" 
d="M589 672q21 0 36 -15t15 -35v-565q0 -25 -18 -43.5t-44 -18.5q-33 0 -50 26l-354 491v-490q0 -105 -59 -161.5t-159 -56.5q-8 0 -10 1q-18 0 -31.5 13t-13.5 31t12 32t28 13q3 -1 9 -1q57 1 90.5 36.5t33.5 93.5v583q0 27 19 46.5t47 19.5q34 0 53 -27l347 -478v455
q0 20 14.5 35t34.5 15z" />
    <glyph glyph-name="Ohorn" unicode="&#x1a0;" horiz-adv-x="765" 
d="M659 537q59 -89 59 -204q2 -147 -94.5 -247.5t-241.5 -97.5q-145 -3 -241.5 97.5t-94.5 247.5q-2 147 94.5 247t241.5 98q157 0 252 -109q40 33 45 72q-6 -2 -12 -2q-17 0 -29 12.5t-12 31.5q0 20 13.5 33.5t32.5 13.5q23 0 38.5 -18t15.5 -47q0 -76 -67 -128zM615 333
q0 111 -65 183.5t-168 72.5q-104 0 -168.5 -72t-64.5 -184t64.5 -184t168.5 -72q103 0 168 72.5t65 183.5z" />
    <glyph glyph-name="ohorn" unicode="&#x1a1;" horiz-adv-x="572" 
d="M475 409q55 -69 55 -167q0 -108 -68 -181t-176 -73t-176 73t-68 181q0 107 68 180t176 73q96 0 161 -57q37 35 41 70q-6 -2 -12 -2q-18 0 -30 12.5t-12 31.5t13.5 32.5t33.5 13.5q22 0 37.5 -18t15.5 -47q0 -71 -59 -122zM436 242q0 73 -40.5 123t-109.5 50
q-67 0 -108.5 -50.5t-41.5 -122.5q0 -73 41 -123.5t109 -50.5q69 0 109.5 50.5t40.5 123.5z" />
    <glyph glyph-name="Uhorn" unicode="&#x1af;" horiz-adv-x="710" 
d="M635 573v-311q0 -130 -72 -202t-208 -72q-135 0 -208 72.5t-73 200.5v361q0 20 15 35t36 15t35.5 -15t14.5 -35v-358q0 -88 47 -137.5t133 -49.5t132.5 49.5t46.5 137.5v358q0 20 15 35t36 15t35.5 -15t14.5 -35v-6q27 14 46.5 39t21.5 50q-8 -2 -12 -2q-18 0 -30 12.5
t-12 31.5t13.5 32.5t32.5 13.5q24 0 39 -17.5t15 -47.5q0 -49 -30.5 -91.5t-83.5 -63.5z" />
    <glyph glyph-name="uhorn" unicode="&#x1b0;" 
d="M488 396v-356q0 -19 -13.5 -32t-31.5 -13q-19 0 -32 13t-13 32v26q-71 -78 -172 -78q-154 0 -154 154v301q0 19 13 32t32 13q18 0 31.5 -13t13.5 -32v-271q0 -56 25 -80t77 -24q39 0 75.5 19t58.5 49v307q0 19 13 32t31 13q19 0 32.5 -13t13.5 -32q42 36 43 73
q-6 -2 -11 -2q-19 0 -31 12.5t-12 31.5t13.5 32.5t33.5 13.5q24 0 39 -17.5t15 -47.5q0 -42 -24 -80.5t-66 -62.5z" />
    <glyph glyph-name="Gcaron" unicode="&#x1e6;" horiz-adv-x="715" 
d="M661 297v-153q0 -42 -27 -65q-103 -92 -242 -92q-144 -2 -246.5 97.5t-99.5 248.5q-3 149 99.5 248t246.5 97q138 0 229 -91q14 -12 14 -33q0 -19 -13.5 -32.5t-33.5 -13.5q-19 0 -33 13q-68 68 -163 68q-105 0 -174 -72t-69 -184q0 -111 69.5 -184t173.5 -73
q48 0 93.5 19t75.5 47v120h-175q-18 0 -31 13t-13 32q0 18 13 30.5t31 12.5h222q53 0 53 -53zM510 847q0 -8 -4 -12l-63 -96q-15 -22 -42 -22h-22q-27 0 -42 22l-63 96q-4 4 -4 12q0 11 7.5 18.5t18.5 7.5q12 0 18 -9l76 -98l76 98q6 9 18 9q11 0 18.5 -7.5t7.5 -18.5z" />
    <glyph glyph-name="gcaron" unicode="&#x1e7;" horiz-adv-x="577" 
d="M506 443v-424q0 -115 -69 -165q-68 -50 -171 -50q-106 0 -174 52q-16 12 -16 31q0 16 11 27t27 11q13 0 23 -7q50 -40 129 -40q67 0 108.5 35t41.5 103v64q-64 -84 -159 -84q-96 0 -155.5 67.5t-59.5 182.5q0 113 59.5 181t155.5 68q97 0 159 -82v30q0 19 13 32t32 13
q18 0 31.5 -13t13.5 -32zM416 148v196q-19 30 -57 50.5t-77 20.5q-66 0 -106 -46.5t-40 -122.5t40 -123t106 -47q39 0 77 21t57 51zM409 700q0 -8 -4 -12l-63 -96q-15 -22 -42 -22h-22q-27 0 -42 22l-63 96q-4 4 -4 12q0 11 7.5 18.5t18.5 7.5q12 0 18 -9l76 -98l76 98
q6 9 18 9q11 0 18.5 -7.5t7.5 -18.5z" />
    <glyph glyph-name="uni01EA" unicode="&#x1ea;" horiz-adv-x="765" 
d="M379 -89q0 -15 11 -25t27 -10q5 0 13.5 2t10.5 2q12 0 20.5 -8.5t8.5 -21.5q0 -20 -19 -28q-27 -8 -55 -8q-44 0 -73 20.5t-29 55.5q0 56 83 98q-142 -1 -237.5 99.5t-93.5 245.5q-2 147 94.5 247t241.5 98q145 2 241.5 -98t94.5 -247q0 -135 -77.5 -229t-204.5 -112
q-57 -47 -57 -81zM382 77q103 0 168 72.5t65 183.5t-65 183.5t-168 72.5q-104 0 -168.5 -72t-64.5 -184t64.5 -184t168.5 -72z" />
    <glyph glyph-name="uni01EB" unicode="&#x1eb;" horiz-adv-x="572" 
d="M271 -89q0 -15 11.5 -25t27.5 -10q5 0 13.5 2t10.5 2q12 0 20.5 -9t8.5 -21q0 -19 -20 -28q-26 -8 -54 -8q-44 0 -73 20.5t-29 55.5q0 57 83 98q-102 6 -165 78t-63 176q0 107 68 180t176 73t176 -73t68 -180q0 -97 -55.5 -167.5t-147.5 -83.5q-56 -43 -56 -80zM286 68
q69 0 109.5 50.5t40.5 123.5t-40.5 123t-109.5 50q-67 0 -108.5 -50.5t-41.5 -122.5q0 -73 41 -123.5t109 -50.5z" />
    <glyph glyph-name="Aringacute" unicode="&#x1fa;" horiz-adv-x="666" 
d="M638 46q0 -21 -15 -36t-36 -15q-35 0 -47 32l-42 111h-331l-42 -111q-12 -32 -47 -32q-21 0 -36 15t-15 36q0 8 4 19l220 551q9 24 31.5 40t49.5 16t49.5 -15.5t32.5 -40.5l220 -551q4 -9 4 -19zM200 227h265l-133 353zM333 908q41 0 70 -30t29 -71t-29 -71t-70 -30
t-70.5 30t-29.5 71t29.5 71t70.5 30zM333 862q-23 0 -39 -16t-16 -39t16.5 -39.5t38.5 -16.5q23 0 39 16.5t16 39.5t-16 39t-39 16zM339 930q-10 0 -16.5 6.5t-6.5 16.5t7 17l105 105q9 9 21 9t20.5 -8.5t8.5 -20.5t-10 -22l-113 -97q-6 -6 -16 -6z" />
    <glyph glyph-name="aringacute" unicode="&#x1fb;" horiz-adv-x="532" 
d="M460 326v-286q0 -19 -13.5 -32t-31.5 -13t-31.5 13t-13.5 32v14q-57 -66 -158 -66q-67 0 -117.5 43.5t-50.5 116.5q0 75 49.5 116.5t118.5 41.5q104 0 158 -64v80q0 44 -32 70t-86 26q-65 0 -119 -42q-10 -7 -22 -7q-15 0 -25.5 11t-10.5 26q0 18 15 29q75 60 176 60
q90 0 142 -42.5t52 -126.5zM370 106v82q-41 55 -124 55q-49 0 -80 -26.5t-31 -69.5t31 -69.5t80 -26.5q83 0 124 55zM268 761q41 0 70 -30t29 -71t-29 -71t-70 -30t-70.5 30t-29.5 71t29.5 71t70.5 30zM268 715q-23 0 -39 -16t-16 -39t16.5 -39.5t38.5 -16.5q23 0 39 16.5
t16 39.5t-16 39t-39 16zM274 783q-10 0 -16.5 6.5t-6.5 16.5t7 17l105 105q9 9 21 9t20.5 -8.5t8.5 -20.5t-10 -22l-113 -97q-6 -6 -16 -6z" />
    <glyph glyph-name="AEacute" unicode="&#x1fc;" horiz-adv-x="953" 
d="M908 45q0 -19 -13.5 -32t-31.5 -13h-354q-54 0 -54 53v85h-261l-71 -121q-14 -22 -40 -22q-19 0 -33 13.5t-14 33.5q0 11 7 24l350 565q23 36 65 36h405q18 0 31.5 -13t13.5 -32q0 -18 -13.5 -30.5t-31.5 -12.5h-308v-195h301q18 0 31.5 -12.5t13.5 -30.5
q0 -19 -13.5 -32t-31.5 -13h-301v-208h308q18 0 31.5 -12.5t13.5 -30.5zM247 227h208v354zM511 718q-10 0 -16.5 6.5t-6.5 16.5t7 17l105 105q9 9 21 9t20.5 -8.5t8.5 -20.5t-10 -22l-113 -97q-6 -6 -16 -6z" />
    <glyph glyph-name="aeacute" unicode="&#x1fd;" horiz-adv-x="883" 
d="M635 64q61 0 110 37q11 6 20 6q15 0 25.5 -10.5t10.5 -26.5q0 -18 -16 -30q-67 -52 -154 -52q-133 0 -192 107q-28 -49 -82 -78t-118 -29q-82 0 -139 42q-56 42 -56 118t51 116q51 42 126 42q111 0 173 -62v78q0 44 -35.5 70t-92.5 26q-75 0 -133 -43q-7 -7 -21 -7
q-15 0 -26 11t-11 27q0 18 16 30q77 59 183 59q66 0 112 -25.5t61 -73.5q61 99 178 99q97 0 157.5 -70.5t60.5 -169.5q0 -43 -54 -43h-305q5 -65 46 -106.5t105 -41.5zM619 421q-60 0 -96.5 -43.5t-39.5 -100.5h272q-2 57 -37.5 100.5t-98.5 43.5zM257 243
q-55 0 -88.5 -24.5t-33.5 -65.5q0 -42 33.5 -65.5t88.5 -23.5t96 35t41 79v9q-48 56 -137 56zM448 571q-10 0 -16.5 6.5t-6.5 16.5t7 17l105 105q9 9 21 9t20.5 -8.5t8.5 -20.5t-10 -22l-113 -97q-6 -6 -16 -6z" />
    <glyph glyph-name="Oslashacute" unicode="&#x1fe;" horiz-adv-x="765" 
d="M718 333q2 -147 -94.5 -247.5t-241.5 -97.5q-104 0 -186 52l-54 -75q-9 -13 -22 -13q-11 0 -18.5 7.5t-7.5 17.5q0 11 7 18l55 76q-110 100 -110 262q-2 147 94.5 247t241.5 98q99 0 179 -47l52 72q7 12 22 12q11 0 18.5 -7.5t7.5 -17.5q0 -11 -7 -18l-52 -71
q55 -48 85.5 -117.5t30.5 -150.5zM213 149l293 406q-53 34 -124 34q-104 0 -168.5 -72t-64.5 -184q0 -111 64 -184zM615 333q0 115 -69 189l-295 -406q55 -39 131 -39q103 0 168 72.5t65 183.5zM388 718q-10 0 -16.5 6.5t-6.5 16.5t7 17l105 105q9 9 21 9t20.5 -8.5
t8.5 -20.5t-10 -22l-113 -97q-6 -6 -16 -6z" />
    <glyph glyph-name="oslashacute" unicode="&#x1ff;" horiz-adv-x="572" 
d="M530 242q0 -108 -68 -181t-176 -73q-73 0 -128 34l-42 -59q-8 -11 -21 -11q-9 0 -15.5 6t-6.5 15q0 7 6 15l43 60q-80 74 -80 194q0 107 68 180t176 73q74 0 133 -36l43 60q9 12 21 12q8 0 14.5 -6t6.5 -14q0 -7 -6 -16l-45 -63q77 -74 77 -190zM175 121l194 269
q-35 25 -83 25q-67 0 -108.5 -50.5t-41.5 -122.5q0 -73 39 -121zM436 242q0 69 -36 117l-192 -268q32 -23 78 -23q69 0 109.5 50.5t40.5 123.5zM293 571q-10 0 -16.5 6.5t-6.5 16.5t7 17l105 105q9 9 21 9t20.5 -8.5t8.5 -20.5t-10 -22l-113 -97q-6 -6 -16 -6z" />
    <glyph glyph-name="uni0218" unicode="&#x218;" horiz-adv-x="590" 
d="M45 103q0 20 14.5 34t33.5 14q17 0 30 -10q79 -64 177 -64q71 0 108.5 29t37.5 74q-4 48 -37.5 68t-123.5 44q-78 21 -120 37q-111 46 -111 158q0 83 68 136.5t176 53.5q113 0 206 -65q21 -14 21 -38q0 -20 -14 -34t-33 -14q-14 0 -28 9q-66 53 -160 53q-60 0 -96.5 -26
t-36.5 -68q3 -41 36.5 -60t118.5 -40q70 -18 122 -40q114 -45 114 -165q0 -87 -64 -144t-188 -57q-138 0 -232 77q-19 16 -19 38zM246 -253q0 11 12 20q33 33 40 69q-8 -2 -13 -2q-20 0 -32.5 13.5t-12.5 34.5t14.5 36t35.5 15q25 0 42 -20t17 -51q0 -76 -65 -131
q-8 -6 -15 -6q-9 0 -16 6.5t-7 15.5z" />
    <glyph glyph-name="uni0219" unicode="&#x219;" horiz-adv-x="468" 
d="M38 74q0 17 11.5 28t27.5 11q12 0 22 -7q64 -46 136 -46q50 0 77 18t27 51q0 31 -27.5 47.5t-89.5 30.5q-65 16 -92 26q-86 35 -86 119q0 61 50 102t134 41q93 0 161 -50q16 -12 16 -30q0 -15 -11 -26t-26 -11q-12 0 -20 7q-49 37 -119 37q-46 0 -72.5 -17t-26.5 -46
q0 -26 26 -41t86 -29q57 -13 94 -27q90 -35 90 -126q0 -66 -52 -107t-143 -41q-104 0 -176 54q-17 12 -17 32zM184 -253q0 11 12 20q33 33 40 69q-8 -2 -13 -2q-20 0 -32.5 13.5t-12.5 34.5t14.5 36t35.5 15q25 0 42 -20t17 -51q0 -76 -65 -131q-8 -6 -15 -6q-9 0 -16 6.5
t-7 15.5z" />
    <glyph glyph-name="uni021A" unicode="&#x21a;" horiz-adv-x="573" 
d="M237 45v534h-168q-18 0 -31 12.5t-13 30.5q0 19 13 32t31 13h435q18 0 31.5 -13t13.5 -32q0 -18 -13.5 -30.5t-31.5 -12.5h-167v-534q0 -20 -15 -35t-35 -15q-21 0 -35.5 15t-14.5 35zM243 -253q0 11 12 20q33 33 40 69q-8 -2 -13 -2q-20 0 -32.5 13.5t-12.5 34.5
t14.5 36t35.5 15q25 0 42 -20t17 -51q0 -76 -65 -131q-7 -6 -15 -6q-9 0 -16 6.5t-7 15.5z" />
    <glyph glyph-name="uni021B" unicode="&#x21b;" horiz-adv-x="306" 
d="M297 36q0 -26 -23 -34q-31 -14 -69 -14q-57 0 -86 31t-29 88v297h-46q-16 0 -28 12t-12 28t12 27.5t28 11.5h46v92q0 19 13 32t32 13q18 0 31.5 -13t13.5 -32v-92h63q16 0 28 -11.5t12 -27.5t-11.5 -28t-28.5 -12h-63v-277q0 -27 12 -43t35 -16q8 0 19.5 3t12.5 3
q17 0 27.5 -10.5t10.5 -27.5zM111 -253q0 11 12 20q33 33 40 69q-8 -2 -13 -2q-20 0 -32.5 13.5t-12.5 34.5t14.5 36t35.5 15q25 0 42 -20t17 -51q0 -76 -65 -131q-7 -6 -15 -6q-9 0 -16 6.5t-7 15.5z" />
    <glyph glyph-name="uni0232" unicode="&#x232;" horiz-adv-x="631" 
d="M580 598l-214 -319v-234q0 -20 -14.5 -35t-35.5 -15t-35.5 15t-14.5 35v234l-215 318q-8 11 -8 27q0 20 14 34t34 14q28 0 41 -22l184 -282l183 282q15 22 41 22q20 0 34 -14t14 -34q0 -15 -8 -26zM153 763q0 12 8 20t19 8h271q11 0 19 -8t8 -20q0 -11 -8 -19t-19 -8
h-271q-11 0 -19 8t-8 19z" />
    <glyph glyph-name="uni0233" unicode="&#x233;" horiz-adv-x="497" 
d="M91 -115l11 -1q50 0 70 47l28 64l-177 431q-2 8 -2 17q0 19 12.5 32t31.5 13q30 0 42 -28l141 -356l141 356q12 28 42 28q19 0 32 -13t13 -32q0 -7 -4 -18l-214 -517q-41 -102 -154 -104q-13 0 -18 1q-16 2 -26.5 13t-10.5 27q0 17 12.5 28.5t29.5 11.5zM85 616
q0 12 8 20t19 8h271q11 0 19 -8t8 -20q0 -11 -8 -19t-19 -8h-271q-11 0 -19 8t-8 19z" />
    <glyph glyph-name="uni0237" unicode="&#x237;" horiz-adv-x="233" 
d="M-7 -195q-15 1 -26 12t-11 26t10 27t24 12l10 -1q72 0 72 81v481q0 19 13 32t32 13q18 0 31.5 -13t13.5 -32v-481q0 -75 -39.5 -116.5t-111.5 -41.5q-14 0 -18 1z" />
    <glyph glyph-name="uni0259" unicode="&#x259;" horiz-adv-x="560" 
d="M276 -12q-103 0 -166.5 69t-63.5 166q0 29 10 38.5t38 9.5h329q-5 65 -50 107.5t-114 42.5q-66 0 -120 -39q-8 -5 -20 -5q-15 0 -26 10.5t-11 25.5q0 18 16 30q70 52 170 52q109 0 179 -71t70 -183q0 -105 -69 -179t-172 -74zM423 206h-294q2 -57 40 -100.5t107 -43.5
q65 0 104.5 43.5t42.5 100.5z" />
    <glyph glyph-name="uni0272" unicode="&#x272;" 
d="M488 339v-299q0 -19 -13.5 -32t-32.5 -13q-18 0 -31 13t-13 32v269q0 56 -25.5 81t-77.5 25q-39 0 -75 -20t-58 -50v-383q0 -75 -39.5 -116.5t-111.5 -41.5q-14 0 -18 1q-15 1 -26 12t-11 26q0 16 11 27.5t26 11.5q2 -1 9 -1q70 2 70 81v481q0 19 13 32t32 13
q18 0 31.5 -13t13.5 -32v-27q29 34 75.5 56.5t95.5 22.5q155 0 155 -156z" />
    <glyph glyph-name="uni02B0" unicode="&#x2b0;" horiz-adv-x="401" 
d="M276 355v169q0 36 -16.5 51.5t-49.5 15.5q-51 0 -86 -42v-194q0 -14 -10 -24t-24 -10q-13 0 -23 10t-10 24v376q0 14 10 24t24 10q13 0 23 -10t10 -24v-134q46 51 115 51q105 0 105 -106v-187q0 -14 -9.5 -24t-24.5 -10q-14 0 -24 10t-10 24z" />
    <glyph glyph-name="uni02BC" unicode="&#x2bc;" horiz-adv-x="237" 
d="M96 436q-11 0 -18.5 8t-7.5 19q0 12 8 20q41 41 47 78q-9 -3 -15 -3q-23 0 -38.5 16t-15.5 41q0 26 18 44t43 18q30 0 50 -23t20 -60q0 -86 -73 -151q-8 -7 -18 -7z" />
    <glyph glyph-name="circumflex" unicode="&#x2c6;" horiz-adv-x="275" 
d="M213 559l-76 98l-76 -98q-6 -9 -18 -9q-11 0 -18.5 7t-7.5 18q0 9 4 13l63 96q15 22 42 22h22q27 0 42 -22l63 -96q4 -4 4 -13q0 -11 -7.5 -18t-18.5 -7q-12 0 -18 9z" />
    <glyph glyph-name="caron" unicode="&#x2c7;" horiz-adv-x="275" 
d="M257 680q0 -8 -4 -12l-63 -96q-15 -22 -42 -22h-22q-27 0 -42 22l-63 96q-4 4 -4 12q0 11 7.5 18.5t18.5 7.5q12 0 18 -9l76 -98l76 98q6 9 18 9q11 0 18.5 -7.5t7.5 -18.5z" />
    <glyph glyph-name="uni02C9" unicode="&#x2c9;" horiz-adv-x="363" 
d="M19 618q0 12 8 20t19 8h271q11 0 19 -8t8 -20q0 -11 -8 -19t-19 -8h-271q-11 0 -19 8t-8 19z" />
    <glyph glyph-name="uni02CB" unicode="&#x2cb;" horiz-adv-x="233" 
d="M166 557l-113 97q-10 10 -10 22t8.5 20.5t20.5 8.5t21 -9l105 -105q7 -7 7 -17t-6.5 -16.5t-16.5 -6.5t-16 6z" />
    <glyph glyph-name="breve" unicode="&#x2d8;" horiz-adv-x="351" 
d="M16 621q-8 8 -8 20q0 11 8 19t20 8q15 0 20 -8q50 -53 120 -53t119 52q6 9 21 9q11 0 19 -8t8 -19q0 -9 -8 -20q-67 -69 -159 -69q-91 0 -160 69z" />
    <glyph glyph-name="dotaccent" unicode="&#x2d9;" horiz-adv-x="137" 
d="M69 670q21 0 36.5 -16t15.5 -37q0 -22 -15 -37.5t-37 -15.5t-37.5 15.5t-15.5 37.5q0 21 15.5 37t37.5 16z" />
    <glyph glyph-name="ring" unicode="&#x2da;" horiz-adv-x="239" 
d="M120 741q41 0 70 -30t29 -71t-29 -71t-70 -30t-70.5 30t-29.5 71t29.5 71t70.5 30zM120 695q-23 0 -39 -16t-16 -39t16.5 -39.5t38.5 -16.5q23 0 39 16.5t16 39.5t-16 39t-39 16z" />
    <glyph glyph-name="ogonek" unicode="&#x2db;" horiz-adv-x="200" 
d="M12 -110q0 34 31 63.5t81 47.5q50 15 49 8q0 -2 -3 -4q-42 -32 -58 -52t-16 -42q0 -15 11.5 -25t27.5 -10q5 0 13.5 2t10.5 2q11 0 20 -9t9 -21q0 -19 -20 -28q-26 -8 -54 -8q-44 0 -73 20.5t-29 55.5z" />
    <glyph glyph-name="tilde" unicode="&#x2dc;" horiz-adv-x="317" 
d="M141 603q-24 36 -45 36q-38 0 -44 -62q-6 -22 -25 -22q-11 0 -19 8.5t-6 19.5q5 52 30.5 81.5t67.5 29.5q24 0 39.5 -11t35.5 -38q27 -36 46 -36q36 0 44 62q2 22 25 22q11 0 18.5 -8t6.5 -20q-5 -52 -30.5 -81.5t-67.5 -29.5q-25 0 -40.5 11t-35.5 38z" />
    <glyph glyph-name="hungarumlaut" unicode="&#x2dd;" horiz-adv-x="315" 
d="M15 573q0 9 4 13l69 107q8 14 25 14q12 0 21 -9t9 -22q0 -11 -7 -18l-79 -99q-6 -10 -18 -10q-10 0 -17 7t-7 17zM159 573q0 9 4 13l69 107q8 14 25 14q12 0 21 -9t9 -22q0 -11 -7 -18l-79 -99q-6 -10 -18 -10q-10 0 -17 7t-7 17z" />
    <glyph glyph-name="gravecomb" unicode="&#x300;" horiz-adv-x="0" 
d="M-67 557l-113 97q-10 10 -10 22t8.5 20.5t20.5 8.5t21 -9l105 -105q7 -7 7 -17t-6.5 -16.5t-16.5 -6.5t-16 6z" />
    <glyph glyph-name="acutecomb" unicode="&#x301;" horiz-adv-x="0" 
d="M-182 551q-10 0 -16.5 6.5t-6.5 16.5t7 17l105 105q9 9 21 9t20.5 -8.5t8.5 -20.5t-10 -22l-113 -97q-6 -6 -16 -6z" />
    <glyph glyph-name="uni0302" unicode="&#x302;" horiz-adv-x="0" 
d="M-62 559l-76 98l-76 -98q-6 -9 -18 -9q-11 0 -18.5 7t-7.5 18q0 9 4 13l63 96q15 22 42 22h22q27 0 42 -22l63 -96q4 -4 4 -13q0 -11 -7.5 -18t-18.5 -7q-12 0 -18 9z" />
    <glyph glyph-name="tildecomb" unicode="&#x303;" horiz-adv-x="0" 
d="M-176 603q-24 36 -45 36q-38 0 -44 -62q-5 -22 -25 -22q-11 0 -19 8.5t-6 19.5q5 52 30.5 81.5t67.5 29.5q24 0 39.5 -11t35.5 -38q27 -36 46 -36q36 0 44 62q2 22 25 22q11 0 18.5 -8t6.5 -20q-5 -52 -30.5 -81.5t-67.5 -29.5q-25 0 -40.5 11t-35.5 38z" />
    <glyph glyph-name="uni0304" unicode="&#x304;" horiz-adv-x="0" 
d="M-344 596q0 12 8 20t19 8h271q11 0 19 -8t8 -20q0 -11 -8 -19t-19 -8h-271q-11 0 -19 8t-8 19z" />
    <glyph glyph-name="uni0306" unicode="&#x306;" horiz-adv-x="0" 
d="M-335 621q-8 8 -8 20q0 11 8 19t20 8q15 0 20 -8q50 -53 120 -53t119 52q6 9 21 9q11 0 19 -8t8 -19q0 -9 -8 -20q-67 -69 -159 -69q-91 0 -160 69z" />
    <glyph glyph-name="uni0307" unicode="&#x307;" horiz-adv-x="0" 
d="M-68 670q21 0 36.5 -16t15.5 -37q0 -22 -15 -37.5t-37 -15.5t-37.5 15.5t-15.5 37.5q0 21 15.5 37t37.5 16z" />
    <glyph glyph-name="uni0308" unicode="&#x308;" horiz-adv-x="0" 
d="M-365 618q0 22 15.5 37t37.5 15t37 -15t15 -37t-15 -37.5t-37 -15.5t-37.5 15.5t-15.5 37.5zM-157 618q0 22 15.5 37t37.5 15q21 0 37 -15.5t16 -36.5q0 -22 -16 -37.5t-37 -15.5q-22 0 -37.5 15.5t-15.5 37.5z" />
    <glyph glyph-name="uni0309" unicode="&#x309;" horiz-adv-x="0" 
d="M-61 573q0 9 4 17q7 13 7 34q0 47 -44 47q-31 0 -44 -28q-6 -12 -21 -12q-10 0 -17.5 7t-7.5 17q0 6 4 13q31 48 86 48q43 0 69.5 -23.5t26.5 -67.5q0 -29 -19 -60q-7 -13 -21 -13q-9 0 -16 6.5t-7 14.5z" />
    <glyph glyph-name="uni030A" unicode="&#x30a;" horiz-adv-x="0" 
d="M-119 741q41 0 70 -30t29 -71t-29 -71t-70 -30t-70.5 30t-29.5 71t29.5 71t70.5 30zM-119 695q-23 0 -39 -16t-16 -39t16.5 -39.5t38.5 -16.5q23 0 39 16.5t16 39.5t-16 39t-39 16z" />
    <glyph glyph-name="uni030B" unicode="&#x30b;" horiz-adv-x="0" 
d="M-300 573q0 9 4 13l69 107q8 14 25 14q12 0 21 -9t9 -22q0 -11 -7 -18l-79 -99q-6 -10 -18 -10q-10 0 -17 7t-7 17zM-156 573q0 9 4 13l69 107q8 14 25 14q12 0 21 -9t9 -22q0 -11 -7 -18l-79 -99q-6 -10 -18 -10q-10 0 -17 7t-7 17z" />
    <glyph glyph-name="uni030C" unicode="&#x30c;" horiz-adv-x="0" 
d="M-18 680q0 -8 -4 -12l-63 -96q-15 -22 -42 -22h-22q-27 0 -42 22l-63 96q-4 4 -4 12q0 11 7.5 18.5t18.5 7.5q12 0 18 -9l76 -98l76 98q6 9 18 9q11 0 18.5 -7.5t7.5 -18.5z" />
    <glyph glyph-name="dotbelowcomb" unicode="&#x323;" horiz-adv-x="0" 
d="M-68 -65q22 0 37 -15.5t15 -37.5t-15 -37.5t-37 -15.5t-37.5 15.5t-15.5 37.5t15.5 37.5t37.5 15.5z" />
    <glyph glyph-name="uni0326" unicode="&#x326;" horiz-adv-x="0" 
d="M-164 -253q0 11 12 20q33 33 40 69q-8 -2 -13 -2q-20 0 -32.5 13.5t-12.5 34.5t14.5 36t35.5 15q25 0 42 -20t17 -51q0 -76 -65 -131q-8 -6 -15 -6q-9 0 -16 6.5t-7 15.5z" />
    <glyph glyph-name="uni0327" unicode="&#x327;" horiz-adv-x="0" 
d="M-196 -170q-13 6 -13 20q0 10 7 16.5t16 6.5q6 0 12 -3q31 -19 66 -19q26 0 42.5 10.5t16.5 28.5q0 32 -36 32q-19 0 -29 -10q-5 -4 -15 -4q-25 0 -25 25q0 2 2 10l25 68h50l-26 -65q17 11 37 11q29 0 47.5 -19t18.5 -49q0 -36 -30 -59t-76 -23q-49 0 -90 23z" />
    <glyph glyph-name="uni0328" unicode="&#x328;" horiz-adv-x="0" 
d="M-188 -110q0 34 31 63.5t81 47.5q50 15 49 8q0 -2 -3 -4q-42 -32 -58 -52t-16 -42q0 -15 11.5 -25t27.5 -10q5 0 13.5 2t10.5 2q11 0 20 -9t9 -21q0 -19 -20 -28q-26 -8 -54 -8q-44 0 -73 20.5t-29 55.5z" />
    <glyph glyph-name="uni037E" unicode="&#x37e;" horiz-adv-x="238" 
d="M56 427q0 26 18.5 44.5t43.5 18.5q26 0 44.5 -18.5t18.5 -44.5q0 -25 -19 -43.5t-44 -18.5t-43.5 18.5t-18.5 43.5zM96 -126q-11 0 -18.5 7.5t-7.5 19.5q0 11 8 19q41 41 47 78q-8 -2 -15 -2q-23 0 -38.5 16t-15.5 41q0 26 18 43.5t43 17.5q30 0 50 -23t20 -60
q0 -85 -73 -150q-7 -7 -18 -7z" />
    <glyph glyph-name="tonos" unicode="&#x384;" horiz-adv-x="128" 
d="M14 590l15 154q1 15 12 25t25 10q16 0 27.5 -11t11.5 -27q0 -2 -2 -12l-45 -148q-5 -16 -22 -16q-9 0 -16 8t-6 17z" />
    <glyph glyph-name="dieresistonos" unicode="&#x385;" horiz-adv-x="407" 
d="M169 591l15 153q1 15 11.5 25t25.5 10q16 0 27.5 -11t11.5 -27q0 -4 -2 -12l-44 -148q-5 -16 -22 -16q-10 0 -17 8t-6 18zM12 618q0 22 15.5 37t37.5 15q21 0 36.5 -15t15.5 -37t-15.5 -37.5t-36.5 -15.5q-22 0 -37.5 15.5t-15.5 37.5zM290 618q0 22 15 37t37 15
t37.5 -15t15.5 -37t-15.5 -37.5t-37.5 -15.5t-37 15.5t-15 37.5z" />
    <glyph glyph-name="Alphatonos" unicode="&#x386;" horiz-adv-x="666" 
d="M638 46q0 -21 -15 -36t-36 -15q-35 0 -47 32l-42 111h-331l-42 -111q-12 -32 -47 -32q-21 0 -36 15t-15 36q0 8 4 19l220 551q9 24 31.5 40t49.5 16t49.5 -15.5t32.5 -40.5l220 -551q4 -9 4 -19zM200 227h265l-133 353zM85 486l15 154q1 15 12 25t25 10q16 0 27.5 -11
t11.5 -27q0 -2 -2 -12l-45 -148q-5 -16 -22 -16q-9 0 -16 8t-6 17z" />
    <glyph glyph-name="Epsilontonos" unicode="&#x388;" horiz-adv-x="621" 
d="M122 53v561q0 53 54 53h354q18 0 31.5 -13t13.5 -32q0 -18 -13.5 -30.5t-31.5 -12.5h-308v-195h301q18 0 31.5 -12.5t13.5 -30.5q0 -19 -13.5 -32t-31.5 -13h-301v-208h308q18 0 31.5 -12.5t13.5 -30.5q0 -19 -13.5 -32t-31.5 -13h-354q-54 0 -54 53zM-13 486l15 154
q1 15 12 25t25 10q16 0 27.5 -11t11.5 -27q0 -2 -2 -12l-45 -148q-5 -16 -22 -16q-9 0 -16 8t-6 17z" />
    <glyph glyph-name="Etatonos" unicode="&#x389;" horiz-adv-x="765" 
d="M591 45v253h-369v-253q0 -20 -14.5 -35t-34.5 -15q-21 0 -36 15t-15 35v577q0 20 15 35t35 15q21 0 35.5 -15t14.5 -35v-235h369v235q0 20 14.5 35t35.5 15t35.5 -15t14.5 -35v-577q0 -20 -14.5 -35t-35.5 -15t-35.5 15t-14.5 35zM-13 486l15 154q1 15 12 25t25 10
q16 0 27.5 -11t11.5 -27q0 -2 -2 -12l-45 -148q-5 -16 -22 -16q-9 0 -16 8t-6 17z" />
    <glyph glyph-name="Iotatonos" unicode="&#x38a;" horiz-adv-x="296" 
d="M122 45v577q0 20 15 35t36 15q20 0 34.5 -15t14.5 -35v-577q0 -20 -14.5 -35t-34.5 -15q-21 0 -36 15t-15 35zM-13 486l15 154q1 15 12 25t25 10q16 0 27.5 -11t11.5 -27q0 -2 -2 -12l-45 -148q-5 -16 -22 -16q-9 0 -16 8t-6 17z" />
    <glyph glyph-name="Omicrontonos" unicode="&#x38c;" horiz-adv-x="783" 
d="M400 678q145 2 241.5 -98t94.5 -247q2 -147 -94.5 -247.5t-241.5 -97.5q-145 -3 -241.5 97.5t-94.5 247.5q-2 147 94.5 247t241.5 98zM400 589q-104 0 -168.5 -72t-64.5 -184t64.5 -184t168.5 -72q103 0 168 72.5t65 183.5t-65 183.5t-168 72.5zM-11 486l15 154
q1 15 12 25t25 10q16 0 27.5 -11t11.5 -27q0 -2 -2 -12l-45 -148q-5 -16 -22 -16q-9 0 -16 8t-6 17z" />
    <glyph glyph-name="Upsilontonos" unicode="&#x38e;" horiz-adv-x="696" 
d="M644 598l-214 -319v-234q0 -20 -14.5 -35t-35.5 -15t-35.5 15t-14.5 35v234l-215 318q-8 11 -8 27q0 20 14 34t34 14q28 0 41 -22l184 -282l183 282q15 22 41 22q20 0 34 -14t14 -34q0 -15 -8 -26zM-11 486l15 154q1 15 12 25t25 10q16 0 27.5 -11t11.5 -27q0 -2 -2 -12
l-45 -148q-5 -16 -22 -16q-9 0 -16 8t-6 17z" />
    <glyph glyph-name="Omegatonos" unicode="&#x38f;" horiz-adv-x="792" 
d="M73 353q0 142 94.5 233.5t241.5 91.5q148 0 242 -91t94 -234q0 -173 -147 -265h91q18 0 31 -12.5t13 -31.5q0 -18 -13 -31t-31 -13h-163q-22 0 -37 15t-15 36q0 35 31 48q62 25 99.5 88t37.5 147q0 108 -62.5 181t-170.5 73t-170.5 -73t-62.5 -181q0 -84 38 -147t100 -88
q31 -13 31 -48q0 -21 -15 -36t-37 -15h-163q-18 0 -31 13t-13 32q0 18 13 30.5t31 12.5h91q-148 93 -148 265zM-11 486l15 154q1 15 12 25t25 10q16 0 27.5 -11t11.5 -27q0 -2 -2 -12l-45 -148q-5 -16 -22 -16q-9 0 -16 8t-6 17z" />
    <glyph glyph-name="iotadieresistonos" unicode="&#x390;" horiz-adv-x="247" 
d="M72 107v336q0 19 13 32t32 13q18 0 31.5 -13t13.5 -32v-321q0 -23 9 -38t25 -16l7 -1q31 -5 31 -39q0 -16 -11 -27.5t-26 -12.5h-10q-115 0 -115 119zM97 611l15 153q1 15 11.5 25t25.5 10q16 0 27.5 -11t11.5 -27q0 -4 -2 -12l-44 -148q-5 -16 -22 -16q-10 0 -17 8
t-6 18zM-60 638q0 22 15.5 37t37.5 15q21 0 36.5 -15t15.5 -37t-15.5 -37.5t-36.5 -15.5q-22 0 -37.5 15.5t-15.5 37.5zM218 638q0 22 15 37t37 15t37.5 -15t15.5 -37t-15.5 -37.5t-37.5 -15.5t-37 15.5t-15 37.5z" />
    <glyph glyph-name="Alpha" unicode="&#x391;" horiz-adv-x="666" 
d="M638 46q0 -21 -15 -36t-36 -15q-35 0 -47 32l-42 111h-331l-42 -111q-12 -32 -47 -32q-21 0 -36 15t-15 36q0 8 4 19l220 551q9 24 31.5 40t49.5 16t49.5 -15.5t32.5 -40.5l220 -551q4 -9 4 -19zM200 227h265l-133 353z" />
    <glyph glyph-name="Beta" unicode="&#x392;" horiz-adv-x="638" 
d="M74 53v561q0 53 54 53h259q86 0 137 -47t51 -123q0 -59 -33 -101t-83 -52q53 -8 91 -56t38 -108q0 -82 -52 -131t-141 -49h-267q-54 0 -54 53zM174 384h194q48 0 76 27t28 70q0 44 -28 71t-76 27h-194v-195zM174 88h199q52 0 82 28t30 77q0 45 -30 74t-82 29h-199v-208z
" />
    <glyph glyph-name="Gamma" unicode="&#x393;" horiz-adv-x="548" 
d="M74 45v569q0 53 54 53h354q18 0 31.5 -13t13.5 -32q0 -18 -13.5 -30.5t-31.5 -12.5h-308v-534q0 -20 -14.5 -35t-34.5 -15q-21 0 -36 15t-15 35z" />
    <glyph glyph-name="uni0394" unicode="&#x394;" horiz-adv-x="666" 
d="M24 38q0 7 5 24l221 554q10 25 32.5 40.5t49.5 15.5q28 0 50.5 -15.5t32.5 -40.5l221 -554q5 -17 5 -24q0 -38 -47 -38h-523q-47 0 -47 38zM332 565l-185 -477h371z" />
    <glyph glyph-name="Epsilon" unicode="&#x395;" horiz-adv-x="573" 
d="M74 53v561q0 53 54 53h354q18 0 31.5 -13t13.5 -32q0 -18 -13.5 -30.5t-31.5 -12.5h-308v-195h301q18 0 31.5 -12.5t13.5 -30.5q0 -19 -13.5 -32t-31.5 -13h-301v-208h308q18 0 31.5 -12.5t13.5 -30.5q0 -19 -13.5 -32t-31.5 -13h-354q-54 0 -54 53z" />
    <glyph glyph-name="Zeta" unicode="&#x396;" horiz-adv-x="587" 
d="M41 57q0 19 11 33l352 489h-319q-18 0 -31 12.5t-13 30.5q0 19 13 32t31 13h396q23 0 40 -16.5t17 -40.5q0 -19 -11 -33l-352 -489h326q18 0 31 -12.5t13 -30.5q0 -19 -13 -32t-31 -13h-403q-23 0 -40 16.5t-17 40.5z" />
    <glyph glyph-name="Eta" unicode="&#x397;" horiz-adv-x="717" 
d="M543 45v253h-369v-253q0 -20 -14.5 -35t-34.5 -15q-21 0 -36 15t-15 35v577q0 20 15 35t35 15q21 0 35.5 -15t14.5 -35v-235h369v235q0 20 14.5 35t35.5 15t35.5 -15t14.5 -35v-577q0 -20 -14.5 -35t-35.5 -15t-35.5 15t-14.5 35z" />
    <glyph glyph-name="Theta" unicode="&#x398;" horiz-adv-x="765" 
d="M382 678q145 2 241.5 -98t94.5 -247q2 -147 -94.5 -247.5t-241.5 -97.5q-145 -3 -241.5 97.5t-94.5 247.5q-2 147 94.5 247t241.5 98zM382 589q-104 0 -168.5 -72t-64.5 -184t64.5 -184t168.5 -72q103 0 168 72.5t65 183.5t-65 183.5t-168 72.5zM200 341q0 18 13.5 30.5
t31.5 12.5h275q18 0 31.5 -12.5t13.5 -30.5q0 -19 -13.5 -32t-31.5 -13h-275q-18 0 -31.5 13t-13.5 32z" />
    <glyph glyph-name="Iota" unicode="&#x399;" horiz-adv-x="249" 
d="M74 45v577q0 20 15 35t36 15q20 0 34.5 -15t14.5 -35v-577q0 -20 -14.5 -35t-34.5 -15q-21 0 -36 15t-15 35z" />
    <glyph glyph-name="Kappa" unicode="&#x39a;" horiz-adv-x="611" 
d="M573 43q0 -20 -13.5 -34t-32.5 -14q-21 0 -35 14l-254 279l-64 -68v-175q0 -20 -14.5 -35t-35.5 -15q-20 0 -35 15t-15 35v577q0 20 15 35t35 15q21 0 35.5 -15t14.5 -35v-288l294 323q14 15 35 15q19 0 33 -13.5t14 -32.5q0 -20 -13 -32l-232 -247l255 -272
q13 -14 13 -32z" />
    <glyph glyph-name="Lambda" unicode="&#x39b;" horiz-adv-x="666" 
d="M535 29l-203 536l-202 -536q-14 -34 -50 -34q-22 0 -37.5 15.5t-15.5 37.5q0 7 5 19l219 549q9 24 31.5 40t49.5 16t49.5 -15.5t32.5 -40.5l219 -549q4 -7 4 -19q0 -22 -15.5 -37.5t-37.5 -15.5q-16 0 -30 9.5t-19 24.5z" />
    <glyph glyph-name="Mu" unicode="&#x39c;" horiz-adv-x="822" 
d="M648 45v485l-210 -516q-7 -19 -27 -19q-21 0 -27 19l-210 516v-485q0 -20 -14.5 -35t-34.5 -15q-21 0 -36 15t-15 35v544q0 34 24.5 58.5t59.5 24.5q26 0 47.5 -14.5t30.5 -37.5l175 -433l175 433q9 23 30.5 37.5t47.5 14.5q35 0 59.5 -24.5t24.5 -58.5v-544
q0 -20 -15 -35t-36 -15q-20 0 -34.5 15t-14.5 35z" />
    <glyph glyph-name="Nu" unicode="&#x39d;" horiz-adv-x="714" 
d="M528 21l-354 491v-467q0 -20 -14.5 -35t-34.5 -15q-21 0 -36 15t-15 35v561q0 27 19 46.5t47 19.5q34 0 53 -27l347 -478v455q0 20 14.5 35t34.5 15q21 0 36 -15t15 -35v-565q0 -25 -18 -43.5t-44 -18.5q-33 0 -50 26z" />
    <glyph glyph-name="Xi" unicode="&#x39e;" horiz-adv-x="618" 
d="M47 623q0 18 13 31t31 13h435q18 0 31 -13t13 -31q0 -19 -13 -31.5t-31 -12.5h-435q-18 0 -31 12.5t-13 31.5zM54 340q0 19 13 31.5t31 12.5h422q18 0 31 -12.5t13 -30.5q0 -19 -13 -32t-31 -13h-422q-18 0 -31 13t-13 31zM46 44q0 18 13.5 31t31.5 13h435q18 0 31 -12.5
t13 -31.5q0 -18 -13 -31t-31 -13h-435q-18 0 -31.5 13t-13.5 31z" />
    <glyph glyph-name="Omicron" unicode="&#x39f;" horiz-adv-x="765" 
d="M382 678q145 2 241.5 -98t94.5 -247q2 -147 -94.5 -247.5t-241.5 -97.5q-145 -3 -241.5 97.5t-94.5 247.5q-2 147 94.5 247t241.5 98zM382 589q-104 0 -168.5 -72t-64.5 -184t64.5 -184t168.5 -72q103 0 168 72.5t65 183.5t-65 183.5t-168 72.5z" />
    <glyph glyph-name="Pi" unicode="&#x3a0;" horiz-adv-x="717" 
d="M543 45v534h-369v-534q0 -20 -14.5 -35t-34.5 -15q-21 0 -36 15t-15 35v569q0 53 54 53h462q53 0 53 -53v-569q0 -20 -14.5 -35t-35.5 -15t-35.5 15t-14.5 35z" />
    <glyph glyph-name="Rho" unicode="&#x3a1;" horiz-adv-x="597" 
d="M74 45v569q0 53 54 53h227q98 0 155.5 -58.5t57.5 -146.5q0 -87 -58 -146t-155 -59h-181v-212q0 -20 -14.5 -35t-34.5 -15q-21 0 -36 15t-15 35zM342 579h-168v-234h168q54 0 88.5 32.5t34.5 84.5t-34.5 84.5t-88.5 32.5z" />
    <glyph glyph-name="Sigma" unicode="&#x3a3;" horiz-adv-x="578" 
d="M172 88h315q18 0 31.5 -12.5t13.5 -30.5q0 -19 -13.5 -32t-31.5 -13h-380q-25 0 -43 17.5t-18 42.5q0 23 16 40l213 242l-211 225q-17 17 -17 41t17.5 41.5t42.5 17.5h380q18 0 31.5 -13t13.5 -32q0 -18 -13.5 -30.5t-31.5 -12.5h-311l186 -200q17 -19 17 -37
q0 -21 -16 -37z" />
    <glyph glyph-name="Tau" unicode="&#x3a4;" horiz-adv-x="573" 
d="M237 45v534h-168q-18 0 -31 12.5t-13 30.5q0 19 13 32t31 13h435q18 0 31.5 -13t13.5 -32q0 -18 -13.5 -30.5t-31.5 -12.5h-167v-534q0 -20 -15 -35t-35 -15q-21 0 -35.5 15t-14.5 35z" />
    <glyph glyph-name="Upsilon" unicode="&#x3a5;" horiz-adv-x="631" 
d="M580 598l-214 -319v-234q0 -20 -14.5 -35t-35.5 -15t-35.5 15t-14.5 35v234l-215 318q-8 11 -8 27q0 20 14 34t34 14q28 0 41 -22l184 -282l183 282q15 22 41 22q20 0 34 -14t14 -34q0 -15 -8 -26z" />
    <glyph glyph-name="Phi" unicode="&#x3a6;" horiz-adv-x="820" 
d="M460 66v-21q0 -20 -15 -35t-35 -15q-21 0 -35.5 15t-14.5 35v21q-145 9 -229.5 81.5t-84.5 185.5t84.5 185.5t229.5 81.5v22q0 20 14.5 35t35.5 15q20 0 35 -15t15 -35v-22q146 -10 229.5 -82t83.5 -185t-84 -185.5t-229 -81.5zM360 155v356q-101 -10 -156 -56.5
t-55 -121.5t55 -121.5t156 -56.5zM670 333q0 73 -55.5 120t-154.5 57v-354q99 10 154.5 57t55.5 120z" />
    <glyph glyph-name="Chi" unicode="&#x3a7;" horiz-adv-x="656" 
d="M630 44q0 -21 -13.5 -35t-34.5 -14q-24 0 -38 15l-216 259l-215 -259q-15 -15 -38 -15q-21 0 -34.5 14t-13.5 35q0 16 12 31l228 267l-214 250q-11 16 -11 30q0 21 13.5 35.5t33.5 14.5q24 0 38 -17l201 -240l201 240q14 17 38 17q20 0 34 -15t14 -35q0 -14 -12 -30
l-214 -249l229 -268q12 -15 12 -31z" />
    <glyph glyph-name="Psi" unicode="&#x3a8;" horiz-adv-x="816" 
d="M690 672q22 0 37 -15t15 -36v-223q0 -118 -73.5 -189.5t-210.5 -82.5v-81q0 -20 -14.5 -35t-35.5 -15q-20 0 -35 15t-15 35v81q-138 11 -211 82t-73 189v225q0 20 15 35t36 15t35.5 -15t14.5 -35v-222q0 -79 47 -126.5t136 -57.5v406q0 20 15 35t36 15q20 0 34.5 -15
t14.5 -35v-406q89 10 135.5 57.5t46.5 126.5v221q0 20 15 35.5t35 15.5z" />
    <glyph glyph-name="uni03A9" unicode="&#x3a9;" horiz-adv-x="765" 
d="M46 353q0 142 94.5 233.5t241.5 91.5q148 0 242 -91t94 -234q0 -173 -147 -265h91q18 0 31 -12.5t13 -31.5q0 -18 -13 -31t-31 -13h-163q-22 0 -37 15t-15 36q0 35 31 48q62 25 99.5 88t37.5 147q0 108 -62.5 181t-170.5 73t-170.5 -73t-62.5 -181q0 -84 38 -147t100 -88
q31 -13 31 -48q0 -21 -15 -36t-37 -15h-163q-18 0 -31 13t-13 32q0 18 13 30.5t31 12.5h91q-148 93 -148 265z" />
    <glyph glyph-name="Iotadieresis" unicode="&#x3aa;" horiz-adv-x="249" 
d="M74 45v577q0 20 15 35t36 15q20 0 34.5 -15t14.5 -35v-577q0 -20 -14.5 -35t-34.5 -15q-21 0 -36 15t-15 35zM-32 785q0 22 15.5 37t37.5 15t37 -15t15 -37t-15 -37.5t-37 -15.5t-37.5 15.5t-15.5 37.5zM176 785q0 22 15.5 37t37.5 15q21 0 37 -15.5t16 -36.5
q0 -22 -16 -37.5t-37 -15.5q-22 0 -37.5 15.5t-15.5 37.5z" />
    <glyph glyph-name="Upsilondieresis" unicode="&#x3ab;" horiz-adv-x="631" 
d="M580 598l-214 -319v-234q0 -20 -14.5 -35t-35.5 -15t-35.5 15t-14.5 35v234l-215 318q-8 11 -8 27q0 20 14 34t34 14q28 0 41 -22l184 -282l183 282q15 22 41 22q20 0 34 -14t14 -34q0 -15 -8 -26zM160 785q0 22 15.5 37t37.5 15t37 -15t15 -37t-15 -37.5t-37 -15.5
t-37.5 15.5t-15.5 37.5zM368 785q0 22 15.5 37t37.5 15q21 0 37 -15.5t16 -36.5q0 -22 -16 -37.5t-37 -15.5q-22 0 -37.5 15.5t-15.5 37.5z" />
    <glyph glyph-name="alphatonos" unicode="&#x3ac;" horiz-adv-x="592" 
d="M579 28q0 -16 -11 -27.5t-27 -12.5h-9q-94 0 -111 89q-25 -40 -69 -64.5t-94 -24.5q-96 0 -156 68.5t-60 184.5q0 114 60.5 184t155.5 70q100 0 158 -83v31q0 19 13 32t32 13t32 -13t13 -32v-321q0 -49 35 -54l6 -1q15 -2 23.5 -13t8.5 -26zM416 138v205q-19 30 -57 50.5
t-77 20.5q-66 0 -106 -47.5t-40 -125.5q0 -77 40 -125t106 -48q40 0 77.5 20t56.5 50zM271 610l15 154q1 15 12 25t25 10q16 0 27.5 -11t11.5 -27q0 -2 -2 -12l-45 -148q-5 -16 -22 -16q-9 0 -16 8t-6 17z" />
    <glyph glyph-name="epsilontonos" unicode="&#x3ad;" horiz-adv-x="485" 
d="M42 130q0 51 40.5 82.5t90.5 34.5q-48 8 -84 38q-37 31 -37 79q0 61 55 95.5t150 34.5q102 0 171 -57q13 -10 13 -29q0 -14 -10.5 -25t-25.5 -11q-11 0 -21 7q-52 42 -127 42q-49 0 -80.5 -19t-31.5 -49q0 -35 30.5 -53.5t85.5 -18.5h48q17 0 29 -10.5t12 -26.5
q0 -17 -11 -26.5t-29 -9.5h-49q-125 0 -125 -71q0 -34 31.5 -55t85.5 -21q70 0 132 47q10 7 23 7q17 0 28.5 -12t11.5 -29q0 -20 -17 -32q-73 -54 -178 -54q-98 0 -154.5 39t-56.5 103zM239 610l15 154q1 15 12 25t25 10q16 0 27.5 -11t11.5 -27q0 -2 -2 -12l-45 -148
q-5 -16 -22 -16q-9 0 -16 8t-6 17z" />
    <glyph glyph-name="etatonos" unicode="&#x3ae;" 
d="M488 339v-483q0 -19 -13.5 -32t-31.5 -13q-19 0 -32 13t-13 32v453q0 56 -25.5 81t-77.5 25q-39 0 -75 -20t-58 -50v-305q0 -19 -13.5 -32t-31.5 -13q-19 0 -32 13t-13 32v403q0 19 13 32t31 13q19 0 32.5 -13t13.5 -32v-27q29 34 75.5 56.5t95.5 22.5q155 0 155 -156z
M260 610l15 154q1 15 12 25t25 10q16 0 27.5 -11t11.5 -27q0 -2 -2 -12l-45 -148q-5 -16 -22 -16q-9 0 -16 8t-6 17z" />
    <glyph glyph-name="iotatonos" unicode="&#x3af;" horiz-adv-x="247" 
d="M72 107v336q0 19 13 32t32 13q18 0 31.5 -13t13.5 -32v-321q0 -23 9 -38t25 -16l7 -1q31 -5 31 -39q0 -16 -11 -27.5t-26 -12.5h-10q-115 0 -115 119zM96 610l15 154q1 15 12 25t25 10q16 0 27.5 -11t11.5 -27q0 -2 -2 -12l-45 -148q-5 -16 -22 -16q-9 0 -16 8t-6 17z
" />
    <glyph glyph-name="upsilondieresistonos" unicode="&#x3b0;" horiz-adv-x="566" 
d="M72 213v230q0 19 13 32t32 13q18 0 31.5 -13t13.5 -32v-228q0 -69 30.5 -108t86.5 -39q70 0 110 52q41 53 41 132q0 95 -45 171q-6 10 -6 22q0 18 13 31t32 13q26 0 38 -22q61 -93 61 -215q0 -115 -66.5 -189.5t-177.5 -74.5q-100 0 -153.5 59.5t-53.5 165.5zM260 611
l15 153q1 15 11.5 25t25.5 10q16 0 27.5 -11t11.5 -27q0 -4 -2 -12l-44 -148q-5 -16 -22 -16q-10 0 -17 8t-6 18zM103 638q0 22 15.5 37t37.5 15q21 0 36.5 -15t15.5 -37t-15.5 -37.5t-36.5 -15.5q-22 0 -37.5 15.5t-15.5 37.5zM381 638q0 22 15 37t37 15t37.5 -15t15.5 -37
t-15.5 -37.5t-37.5 -15.5t-37 15.5t-15 37.5z" />
    <glyph glyph-name="alpha" unicode="&#x3b1;" horiz-adv-x="592" 
d="M579 28q0 -16 -11 -27.5t-27 -12.5h-9q-94 0 -111 89q-25 -40 -69 -64.5t-94 -24.5q-96 0 -156 68.5t-60 184.5q0 114 60.5 184t155.5 70q100 0 158 -83v31q0 19 13 32t32 13t32 -13t13 -32v-321q0 -49 35 -54l6 -1q15 -2 23.5 -13t8.5 -26zM416 138v205q-19 30 -57 50.5
t-77 20.5q-66 0 -106 -47.5t-40 -125.5q0 -77 40 -125t106 -48q40 0 77.5 20t56.5 50z" />
    <glyph glyph-name="beta" unicode="&#x3b2;" horiz-adv-x="578" 
d="M117 -189q-19 0 -32 13t-13 32v597q0 108 68 166t165 58q98 0 156.5 -48t58.5 -131q0 -64 -42 -104q-39 -39 -97 -50q58 -5 106 -51t48 -121q0 -80 -59 -132t-146 -52q-109 0 -168 81v-213q0 -19 -13.5 -32t-31.5 -13zM302 68q66 0 103 32t37 87q0 52 -37 80.5t-102 31.5
q-21 2 -34 13.5t-13 27.5q0 36 45 42q125 12 125 106q0 49 -34 78.5t-87 29.5q-64 0 -103.5 -38t-39.5 -105v-315q21 -31 58.5 -50.5t81.5 -19.5z" />
    <glyph glyph-name="gamma" unicode="&#x3b3;" horiz-adv-x="497" 
d="M203 -144v87q0 128 -44 255q-43 125 -116 226q-8 11 -8 24q0 17 12 28.5t29 11.5q19 0 31 -15q59 -71 102 -174q44 -102 55 -190q47 67 77 155q31 92 39 183q1 17 14 29t30 12q20 0 33 -14.5t12 -34.5q-9 -112 -57 -227q-46 -114 -119 -207v-149q0 -19 -13 -32t-32 -13
q-18 0 -31.5 13t-13.5 32z" />
    <glyph glyph-name="delta" unicode="&#x3b4;" horiz-adv-x="572" 
d="M530 222q0 -96 -66.5 -165t-172.5 -69q-110 0 -179.5 70t-69.5 167q0 70 36 123t98 81q-75 36 -75 107q0 61 50.5 102t134.5 41q91 0 159 -50q16 -12 16 -30q0 -15 -10.5 -26t-25.5 -11q-13 0 -21 7q-49 37 -118 37q-45 0 -71.5 -18.5t-26.5 -48.5q0 -23 23 -37t84 -33
q68 -20 117 -44q118 -57 118 -203zM442 222q0 52 -24 85q-22 31 -54.5 49.5t-93.5 38.5q-65 -21 -99.5 -65.5t-34.5 -104.5q0 -62 42.5 -109.5t109.5 -47.5q68 0 111 47t43 107z" />
    <glyph glyph-name="epsilon" unicode="&#x3b5;" horiz-adv-x="485" 
d="M42 130q0 51 40.5 82.5t90.5 34.5q-48 8 -84 38q-37 31 -37 79q0 61 55 95.5t150 34.5q102 0 171 -57q13 -10 13 -29q0 -14 -10.5 -25t-25.5 -11q-11 0 -21 7q-52 42 -127 42q-49 0 -80.5 -19t-31.5 -49q0 -35 30.5 -53.5t85.5 -18.5h48q17 0 29 -10.5t12 -26.5
q0 -17 -11 -26.5t-29 -9.5h-49q-125 0 -125 -71q0 -34 31.5 -55t85.5 -21q70 0 132 47q10 7 23 7q17 0 28.5 -12t11.5 -29q0 -20 -17 -32q-73 -54 -178 -54q-98 0 -154.5 39t-56.5 103z" />
    <glyph glyph-name="zeta" unicode="&#x3b6;" horiz-adv-x="488" 
d="M42 211q0 110 74.5 206.5t211.5 170.5h-235q-16 0 -28 12t-12 28t12 27.5t28 11.5h315q17 0 30 -12.5t13 -30.5q0 -22 -21 -36q-294 -170 -294 -370q0 -138 183 -138q133 0 133 -105q0 -42 -34 -113q-11 -24 -39 -24q-17 0 -29.5 12.5t-12.5 29.5q0 11 4 18q17 37 17 58
q0 20 -13 32t-37 12q-124 0 -195 55.5t-71 155.5z" />
    <glyph glyph-name="eta" unicode="&#x3b7;" 
d="M488 339v-483q0 -19 -13.5 -32t-31.5 -13q-19 0 -32 13t-13 32v453q0 56 -25.5 81t-77.5 25q-39 0 -75 -20t-58 -50v-305q0 -19 -13.5 -32t-31.5 -13q-19 0 -32 13t-13 32v403q0 19 13 32t31 13q19 0 32.5 -13t13.5 -32v-27q29 34 75.5 56.5t95.5 22.5q155 0 155 -156z
" />
    <glyph glyph-name="theta" unicode="&#x3b8;" horiz-adv-x="572" 
d="M530 334q0 -152 -64 -249t-180 -97q-114 0 -179 97.5t-65 248.5t65 248t179 97q116 0 180 -97t64 -248zM137 375h298q-13 224 -149 224t-149 -224zM435 296h-298q13 -228 149 -228q138 0 149 228z" />
    <glyph glyph-name="iota" unicode="&#x3b9;" horiz-adv-x="247" 
d="M72 107v336q0 19 13 32t32 13q18 0 31.5 -13t13.5 -32v-321q0 -23 9 -38t25 -16l7 -1q31 -5 31 -39q0 -16 -11 -27.5t-26 -12.5h-10q-115 0 -115 119z" />
    <glyph glyph-name="kappa" unicode="&#x3ba;" horiz-adv-x="520" 
d="M483 40q0 -19 -12.5 -32t-31.5 -13q-23 0 -35 15l-167 197l-75 -70v-97q0 -19 -13.5 -32t-32.5 -13q-18 0 -31 13t-13 32v403q0 19 13 32t32 13q18 0 31.5 -13t13.5 -32v-205l243 239q11 11 29 11q17 0 29 -12.5t12 -29.5q0 -16 -13 -29l-159 -155l169 -192
q11 -14 11 -30z" />
    <glyph glyph-name="lambda" unicode="&#x3bb;" horiz-adv-x="497" 
d="M389 23l-141 356l-141 -356q-4 -12 -16 -20t-26 -8q-19 0 -31.5 13t-12.5 32q0 10 2 16l177 432l-28 64q-20 47 -70 47q-8 0 -11 -1q-17 0 -29.5 11.5t-12.5 28.5q0 16 11 27t25 12q8 2 19 2q58 -2 95.5 -26.5t58.5 -77.5l214 -518q4 -9 4 -17q0 -19 -13 -32t-32 -13
q-30 0 -42 28z" />
    <glyph glyph-name="uni03BC" unicode="&#x3bc;" horiz-adv-x="573" 
d="M560 28q0 -16 -11 -27.5t-26 -12.5h-10q-92 0 -112 86q-59 -86 -148 -86q-65 0 -91 42v-174q0 -19 -13.5 -32t-32.5 -13q-18 0 -31 13t-13 32v587q0 19 13 32t32 13q18 0 31.5 -13t13.5 -32v-271q0 -105 103 -105q38 0 74.5 19.5t58.5 49.5v307q0 19 13 32t31 13
q19 0 32.5 -13t13.5 -32v-321q0 -52 34 -54l7 -1q31 -5 31 -39z" />
    <glyph glyph-name="nu" unicode="&#x3bd;" horiz-adv-x="497" 
d="M182 41l-158 386q-3 7 -3 16q0 19 12.5 32t31.5 13q29 0 41 -28l146 -370q115 162 128 357q1 17 14 29t30 12q20 0 33.5 -14.5t11.5 -34.5q-19 -213 -156 -412q-21 -32 -61 -32q-23 0 -42 12.5t-28 33.5z" />
    <glyph glyph-name="xi" unicode="&#x3be;" horiz-adv-x="488" 
d="M175 328q-46 7 -85 40q-37 31 -37 86q0 42 30 80t75 54h-62q-16 0 -28 12t-12 28t12 27.5t28 11.5h308q16 0 27.5 -12t11.5 -28t-11.5 -27.5t-27.5 -11.5h-154q-44 -10 -73.5 -41.5t-29.5 -68.5q0 -46 39 -72t103 -26h110q16 0 27.5 -11.5t11.5 -27.5t-11.5 -27.5
t-27.5 -11.5h-110q-72 0 -112.5 -28.5t-40.5 -84.5q0 -109 183 -109q133 0 133 -105q0 -40 -34 -112q-12 -25 -39 -25q-18 0 -31 13t-13 30q0 8 4 17q19 44 19 68q0 34 -50 34q-130 0 -198 43.5t-68 127.5q0 67 40 106q40 41 93 51z" />
    <glyph glyph-name="omicron" unicode="&#x3bf;" horiz-adv-x="572" 
d="M42 242q0 107 68 180t176 73t176 -73t68 -180q0 -108 -68 -181t-176 -73t-176 73t-68 181zM436 242q0 73 -40.5 123t-109.5 50q-67 0 -108.5 -50.5t-41.5 -122.5q0 -73 41 -123.5t109 -50.5q69 0 109.5 50.5t40.5 123.5z" />
    <glyph glyph-name="pi" unicode="&#x3c0;" horiz-adv-x="596" 
d="M592 444q0 -16 -12 -28t-28 -12h-46v-364q0 -19 -13 -32t-32 -13q-18 0 -31.5 13t-13.5 32v364h-236v-364q0 -19 -13.5 -32t-31.5 -13q-19 0 -32 13t-13 32v364h-46q-16 0 -28 12t-12 28t12 27.5t28 11.5h508q16 0 28 -11.5t12 -27.5z" />
    <glyph glyph-name="rho" unicode="&#x3c1;" horiz-adv-x="575" 
d="M162 70v-214q0 -19 -13.5 -32t-31.5 -13q-19 0 -32 13t-13 32v386q0 108 63.5 180.5t166.5 72.5q104 0 168.5 -73t64.5 -180q0 -116 -59.5 -185t-155.5 -69q-98 0 -158 82zM301 415q-65 0 -102 -51q-37 -49 -37 -122v-103q19 -30 57 -50.5t77 -20.5q66 0 105.5 48
t39.5 126q0 72 -38 122q-37 51 -102 51z" />
    <glyph glyph-name="uni03C2" unicode="&#x3c2;" horiz-adv-x="485" 
d="M288 495q92 0 154 -56q14 -12 14 -30q0 -17 -11.5 -29t-28.5 -12q-16 0 -27 10q-40 37 -97 37q-69 0 -112.5 -48.5t-43.5 -124.5q0 -81 47 -121.5t133 -40.5q71 0 104.5 -22.5t33.5 -70.5t-34 -125q-11 -24 -38 -24q-18 0 -30 12.5t-12 29.5q0 8 3 17q21 47 21 71
q0 32 -52 32q-125 0 -197.5 63.5t-72.5 178.5q0 109 69 181t177 72z" />
    <glyph glyph-name="sigma" unicode="&#x3c3;" horiz-adv-x="572" 
d="M514 403h-73q83 -68 83 -181q0 -100 -65 -167t-173 -67t-176 73t-68 181q0 104 69.5 172.5t186.5 68.5h216q16 0 28 -12t12 -28t-12 -28t-28 -12zM436 237q0 56 -24.5 99t-66.5 67h-47q-75 0 -118.5 -47t-43.5 -114q0 -73 41 -123.5t109 -50.5q69 0 109.5 49t40.5 120z
" />
    <glyph glyph-name="tau" unicode="&#x3c4;" horiz-adv-x="462" 
d="M443 443q0 -16 -12 -27.5t-28 -11.5h-132v-277q0 -27 12 -43t35 -16q10 0 23 5q10 2 11 2q15 0 25.5 -11.5t10.5 -27.5q0 -23 -23 -34q-33 -14 -69 -14q-57 0 -86 31t-29 88v297h-122q-16 0 -28 11.5t-12 27.5t12 28t28 12h344q17 0 28.5 -11.5t11.5 -28.5z" />
    <glyph glyph-name="upsilon" unicode="&#x3c5;" horiz-adv-x="566" 
d="M72 213v230q0 19 13 32t32 13q18 0 31.5 -13t13.5 -32v-228q0 -69 30.5 -108t86.5 -39q70 0 110 52q41 53 41 132q0 95 -45 171q-6 10 -6 22q0 18 13 31t32 13q26 0 38 -22q61 -93 61 -215q0 -115 -66.5 -189.5t-177.5 -74.5q-100 0 -153.5 59.5t-53.5 165.5z" />
    <glyph glyph-name="phi" unicode="&#x3c6;" horiz-adv-x="688" 
d="M389 -10v-134q0 -19 -13.5 -32t-31.5 -13t-31.5 13t-13.5 32v134q-121 5 -189 74t-68 187q0 71 36.5 129t100.5 96q11 6 20 6q17 0 29.5 -12t12.5 -29q0 -22 -18 -33q-87 -57 -87 -157q0 -86 43.5 -134t119.5 -49v360q0 25 18.5 43t43.5 17q138 -4 211.5 -70t73.5 -182
q0 -112 -67.5 -176.5t-189.5 -69.5zM552 236q0 78 -43.5 122t-119.5 45v-335q76 1 119.5 44.5t43.5 123.5z" />
    <glyph glyph-name="chi" unicode="&#x3c7;" horiz-adv-x="491" 
d="M474 -145q0 -17 -13.5 -30.5t-29.5 -13.5q-25 0 -39 21l-146 241l-147 -241q-13 -21 -38 -21q-17 0 -30 13.5t-13 30.5q0 13 6 23l169 280l-158 264q-7 10 -7 22q0 18 13 31t31 13q24 0 37 -21l137 -225l136 225q13 21 38 21q18 0 30.5 -13t12.5 -31q0 -12 -6 -22
l-159 -265l169 -279q7 -11 7 -23z" />
    <glyph glyph-name="psi" unicode="&#x3c8;" horiz-adv-x="710" 
d="M594 488q18 0 31.5 -13t13.5 -32v-216q0 -109 -57.5 -168.5t-181.5 -68.5v-134q0 -19 -13 -32t-31 -13q-19 0 -32.5 13t-13.5 32v134q-124 9 -181 68t-57 169v216q0 19 13 32t32 13q18 0 31.5 -13t13.5 -32v-216q0 -71 35.5 -109.5t112.5 -47.5v557q0 19 13.5 32t32.5 13
q18 0 31 -13t13 -32v-557q78 9 113.5 47.5t35.5 109.5v216q0 19 13 32t32 13z" />
    <glyph glyph-name="omega" unicode="&#x3c9;" horiz-adv-x="772" 
d="M386 132q-23 -71 -60 -107.5t-99 -36.5q-84 0 -134.5 70.5t-50.5 173.5q0 156 79 244q13 15 33 15q18 0 30.5 -13t12.5 -30q0 -14 -7 -24q-54 -72 -54 -192q0 -66 26 -116q27 -48 76 -48q51 0 77 47.5t26 126.5v82q0 19 13.5 32.5t31.5 13.5q19 0 32 -13.5t13 -32.5v-82
q0 -79 26 -126.5t76 -47.5q49 0 75 48q27 49 27 116q0 122 -52 191q-8 11 -8 24q0 18 12.5 31t31.5 13t32 -15q78 -88 78 -244q0 -103 -50 -173.5t-134 -70.5q-62 0 -99.5 37t-59.5 107z" />
    <glyph glyph-name="iotadieresis" unicode="&#x3ca;" horiz-adv-x="247" 
d="M72 107v336q0 19 13 32t32 13q18 0 31.5 -13t13.5 -32v-321q0 -23 9 -38t25 -16l7 -1q31 -5 31 -39q0 -16 -11 -27.5t-26 -12.5h-10q-115 0 -115 119zM-40 638q0 22 15.5 37t37.5 15t37 -15t15 -37t-15 -37.5t-37 -15.5t-37.5 15.5t-15.5 37.5zM168 638q0 22 15.5 37
t37.5 15q21 0 37 -15.5t16 -36.5q0 -22 -16 -37.5t-37 -15.5q-22 0 -37.5 15.5t-15.5 37.5z" />
    <glyph glyph-name="upsilondieresis" unicode="&#x3cb;" horiz-adv-x="566" 
d="M72 213v230q0 19 13 32t32 13q18 0 31.5 -13t13.5 -32v-228q0 -69 30.5 -108t86.5 -39q70 0 110 52q41 53 41 132q0 95 -45 171q-6 10 -6 22q0 18 13 31t32 13q26 0 38 -22q61 -93 61 -215q0 -115 -66.5 -189.5t-177.5 -74.5q-100 0 -153.5 59.5t-53.5 165.5zM123 638
q0 22 15.5 37t37.5 15t37 -15t15 -37t-15 -37.5t-37 -15.5t-37.5 15.5t-15.5 37.5zM331 638q0 22 15.5 37t37.5 15q21 0 37 -15.5t16 -36.5q0 -22 -16 -37.5t-37 -15.5q-22 0 -37.5 15.5t-15.5 37.5z" />
    <glyph glyph-name="omicrontonos" unicode="&#x3cc;" horiz-adv-x="572" 
d="M42 242q0 107 68 180t176 73t176 -73t68 -180q0 -108 -68 -181t-176 -73t-176 73t-68 181zM436 242q0 73 -40.5 123t-109.5 50q-67 0 -108.5 -50.5t-41.5 -122.5q0 -73 41 -123.5t109 -50.5q69 0 109.5 50.5t40.5 123.5zM266 610l15 154q1 15 12 25t25 10q16 0 27.5 -11
t11.5 -27q0 -2 -2 -12l-45 -148q-5 -16 -22 -16q-9 0 -16 8t-6 17z" />
    <glyph glyph-name="upsilontonos" unicode="&#x3cd;" horiz-adv-x="566" 
d="M72 213v230q0 19 13 32t32 13q18 0 31.5 -13t13.5 -32v-228q0 -69 30.5 -108t86.5 -39q70 0 110 52q41 53 41 132q0 95 -45 171q-6 10 -6 22q0 18 13 31t32 13q26 0 38 -22q61 -93 61 -215q0 -115 -66.5 -189.5t-177.5 -74.5q-100 0 -153.5 59.5t-53.5 165.5zM259 610
l15 154q1 15 12 25t25 10q16 0 27.5 -11t11.5 -27q0 -2 -2 -12l-45 -148q-5 -16 -22 -16q-9 0 -16 8t-6 17z" />
    <glyph glyph-name="omegatonos" unicode="&#x3ce;" horiz-adv-x="772" 
d="M386 132q-23 -71 -60 -107.5t-99 -36.5q-84 0 -134.5 70.5t-50.5 173.5q0 156 79 244q13 15 33 15q18 0 30.5 -13t12.5 -30q0 -14 -7 -24q-54 -72 -54 -192q0 -66 26 -116q27 -48 76 -48q51 0 77 47.5t26 126.5v82q0 19 13.5 32.5t31.5 13.5q19 0 32 -13.5t13 -32.5v-82
q0 -79 26 -126.5t76 -47.5q49 0 75 48q27 49 27 116q0 122 -52 191q-8 11 -8 24q0 18 12.5 31t31.5 13t32 -15q78 -88 78 -244q0 -103 -50 -173.5t-134 -70.5q-62 0 -99.5 37t-59.5 107zM366 610l15 154q1 15 12 25t25 10q16 0 27.5 -11t11.5 -27q0 -2 -2 -12l-45 -148
q-5 -16 -22 -16q-9 0 -16 8t-6 17z" />
    <glyph glyph-name="uni0401" unicode="&#x401;" horiz-adv-x="573" 
d="M74 53v561q0 53 54 53h354q18 0 31.5 -13t13.5 -32q0 -18 -13.5 -30.5t-31.5 -12.5h-308v-195h301q18 0 31.5 -12.5t13.5 -30.5q0 -19 -13.5 -32t-31.5 -13h-301v-208h308q18 0 31.5 -12.5t13.5 -30.5q0 -19 -13.5 -32t-31.5 -13h-354q-54 0 -54 53zM147 785
q0 22 15.5 37t37.5 15t37 -15t15 -37t-15 -37.5t-37 -15.5t-37.5 15.5t-15.5 37.5zM355 785q0 22 15.5 37t37.5 15q21 0 37 -15.5t16 -36.5q0 -22 -16 -37.5t-37 -15.5q-22 0 -37.5 15.5t-15.5 37.5z" />
    <glyph glyph-name="uni0402" unicode="&#x402;" horiz-adv-x="767" 
d="M535 80q93 12 93 112v26q0 58 -33.5 87t-106.5 29q-86 0 -151 -28v-261q0 -20 -15 -35t-36 -15q-20 0 -34.5 15t-14.5 35v534h-168q-18 0 -31 12.5t-13 30.5q0 19 13 32t31 13h435q18 0 31.5 -13t13.5 -32q0 -18 -13.5 -30.5t-31.5 -12.5h-167v-193q91 36 181 36
q210 0 210 -204v-26q0 -180 -179 -201q-20 -2 -36 11.5t-16 33.5q0 16 11 28.5t27 15.5z" />
    <glyph glyph-name="uni0403" unicode="&#x403;" horiz-adv-x="548" 
d="M74 45v569q0 53 54 53h354q18 0 31.5 -13t13.5 -32q0 -18 -13.5 -30.5t-31.5 -12.5h-308v-534q0 -20 -14.5 -35t-34.5 -15q-21 0 -36 15t-15 35zM324 718q-12 0 -20.5 8.5t-8.5 20.5q0 13 8 21l95 94q9 10 24 10q14 0 24 -10t10 -24q0 -17 -11 -26l-101 -86q-8 -8 -20 -8
z" />
    <glyph glyph-name="uni0404" unicode="&#x404;" horiz-adv-x="679" 
d="M550 149q13 16 35 16q20 0 33.5 -13.5t13.5 -33.5t-12 -32q-92 -98 -228 -98q-146 -3 -247 96.5t-99 248.5q-2 149 99 248t247 97q139 0 228 -98q12 -12 12 -32q0 -19 -13.5 -33t-33.5 -14q-23 0 -36 16q-64 72 -157 72q-91 0 -157 -57.5t-81 -147.5h328q18 0 31 -12.5
t13 -30.5q0 -19 -13 -32t-31 -13h-330q10 -96 78.5 -157.5t161.5 -61.5q92 0 158 72z" />
    <glyph glyph-name="uni0405" unicode="&#x405;" horiz-adv-x="590" 
d="M45 103q0 20 14.5 34t33.5 14q17 0 30 -10q79 -64 177 -64q71 0 108.5 29t37.5 74q-4 48 -37.5 68t-123.5 44q-78 21 -120 37q-111 46 -111 158q0 83 68 136.5t176 53.5q113 0 206 -65q21 -14 21 -38q0 -20 -14 -34t-33 -14q-14 0 -28 9q-66 53 -160 53q-60 0 -96.5 -26
t-36.5 -68q3 -41 36.5 -60t118.5 -40q70 -18 122 -40q114 -45 114 -165q0 -87 -64 -144t-188 -57q-138 0 -232 77q-19 16 -19 38z" />
    <glyph glyph-name="uni0406" unicode="&#x406;" horiz-adv-x="249" 
d="M74 45v577q0 20 15 35t36 15q20 0 34.5 -15t14.5 -35v-577q0 -20 -14.5 -35t-34.5 -15q-21 0 -36 15t-15 35z" />
    <glyph glyph-name="uni0407" unicode="&#x407;" horiz-adv-x="249" 
d="M74 45v577q0 20 15 35t36 15q20 0 34.5 -15t14.5 -35v-577q0 -20 -14.5 -35t-34.5 -15q-21 0 -36 15t-15 35zM-32 785q0 22 15.5 37t37.5 15t37 -15t15 -37t-15 -37.5t-37 -15.5t-37.5 15.5t-15.5 37.5zM176 785q0 22 15.5 37t37.5 15q21 0 37 -15.5t16 -36.5
q0 -22 -16 -37.5t-37 -15.5q-22 0 -37.5 15.5t-15.5 37.5z" />
    <glyph glyph-name="uni0408" unicode="&#x408;" horiz-adv-x="478" 
d="M19 72q0 19 13 32.5t32 13.5q14 0 25 -8q41 -33 89 -33q57 0 91 35.5t34 94.5v415q0 20 15 35t35 15q21 0 35.5 -15t14.5 -35v-416q0 -105 -59 -161.5t-159 -56.5q-85 0 -147 48q-19 13 -19 36z" />
    <glyph glyph-name="uni0409" unicode="&#x409;" horiz-adv-x="1066" 
d="M824 0h-228q-25 0 -39 14t-14 39v526h-245l-10 -116q-15 -166 -42.5 -267t-63 -144.5t-88.5 -56.5q-10 -3 -21 -3q-20 0 -34.5 14.5t-14.5 35.5q0 37 36 49q52 13 85 95q34 84 50 279l13 151q4 51 56 51h326q53 0 53 -53v-204h181q96 0 154.5 -59t58.5 -146t-58 -146
t-155 -59zM643 322v-234h168q54 0 88.5 32.5t34.5 84.5t-34.5 84.5t-88.5 32.5h-168z" />
    <glyph glyph-name="uni040A" unicode="&#x40a;" horiz-adv-x="1066" 
d="M125 672q20 0 34.5 -15t14.5 -35v-235h369v235q0 20 14.5 35t35.5 15t35.5 -15t14.5 -35v-235h193q91 0 146 -55.5t55 -138.5q0 -82 -55 -137.5t-146 -55.5h-240q-25 0 -39 14t-14 39v245h-369v-253q0 -20 -14.5 -35t-35.5 -15q-20 0 -35 15t-15 35v577q0 20 15 35t36 15
zM934 193q0 47 -30.5 76t-80.5 29h-180v-210h180q49 0 80 29t31 76z" />
    <glyph glyph-name="uni040B" unicode="&#x40b;" horiz-adv-x="787" 
d="M488 334q-86 0 -151 -28v-261q0 -20 -15 -35t-36 -15q-20 0 -34.5 15t-14.5 35v534h-168q-18 0 -31 12.5t-13 30.5q0 19 13 32t31 13h435q18 0 31.5 -13t13.5 -32q0 -18 -13.5 -30.5t-31.5 -12.5h-167v-193q91 36 181 36q111 0 160.5 -55t49.5 -180v-142q0 -20 -14.5 -35
t-35.5 -15t-35.5 15t-14.5 35v142q0 81 -31.5 114t-108.5 33z" />
    <glyph glyph-name="uni040C" unicode="&#x40c;" horiz-adv-x="611" 
d="M573 43q0 -20 -13.5 -34t-32.5 -14q-21 0 -35 14l-254 279l-64 -68v-175q0 -20 -14.5 -35t-35.5 -15q-20 0 -35 15t-15 35v577q0 20 15 35t35 15q21 0 35.5 -15t14.5 -35v-288l294 323q14 15 35 15q19 0 33 -13.5t14 -32.5q0 -20 -13 -32l-232 -247l255 -272
q13 -14 13 -32zM333 718q-12 0 -20.5 8.5t-8.5 20.5q0 13 8 21l95 94q9 10 24 10q14 0 24 -10t10 -24q0 -17 -11 -26l-101 -86q-8 -8 -20 -8z" />
    <glyph glyph-name="uni040E" unicode="&#x40e;" horiz-adv-x="638" 
d="M604 622q0 -15 -4 -23l-230 -477q-34 -70 -78 -102t-116 -32q-17 0 -35 3q-17 3 -27.5 15.5t-10.5 28.5q0 19 14.5 33t34.5 12l7 -1q8 -2 13 -2q38 0 62 20t51 72l2 4l-238 425q-6 12 -6 24q0 21 14.5 35.5t35.5 14.5q31 0 44 -27l203 -380l168 376q11 31 46 31
q21 0 35.5 -15t14.5 -35zM172 780q-9 10 -9 24t9.5 23.5t22.5 9.5q14 0 23 -9q42 -44 103 -44q62 0 102 43q10 10 23 10t23 -9.5t10 -23.5q0 -13 -10 -24q-61 -61 -148 -61q-86 0 -149 61z" />
    <glyph glyph-name="uni040F" unicode="&#x40f;" horiz-adv-x="699" 
d="M625 622v-569q0 -53 -53 -53h-178v-88q0 -18 -13 -31.5t-31 -13.5t-31 13.5t-13 31.5v88h-178q-54 0 -54 53v569q0 20 15 35t36 15q20 0 34.5 -15t14.5 -35v-534h351v534q0 20 14.5 35t35.5 15t35.5 -15t14.5 -35z" />
    <glyph glyph-name="uni0410" unicode="&#x410;" horiz-adv-x="666" 
d="M638 46q0 -21 -15 -36t-36 -15q-35 0 -47 32l-42 111h-331l-42 -111q-12 -32 -47 -32q-21 0 -36 15t-15 36q0 8 4 19l220 551q9 24 31.5 40t49.5 16t49.5 -15.5t32.5 -40.5l220 -551q4 -9 4 -19zM200 227h265l-133 353z" />
    <glyph glyph-name="uni0411" unicode="&#x411;" horiz-adv-x="597" 
d="M525 622q0 -18 -13.5 -30.5t-31.5 -12.5h-306v-169h181q97 0 155 -59t58 -146q0 -88 -57.5 -146.5t-155.5 -58.5h-227q-54 0 -54 53v561q0 53 54 53h352q18 0 31.5 -13t13.5 -32zM174 322v-234h168q54 0 88.5 32.5t34.5 84.5t-34.5 84.5t-88.5 32.5h-168z" />
    <glyph glyph-name="uni0412" unicode="&#x412;" horiz-adv-x="638" 
d="M74 53v561q0 53 54 53h259q86 0 137 -47t51 -123q0 -59 -33 -101t-83 -52q53 -8 91 -56t38 -108q0 -82 -52 -131t-141 -49h-267q-54 0 -54 53zM174 384h194q48 0 76 27t28 70q0 44 -28 71t-76 27h-194v-195zM174 88h199q52 0 82 28t30 77q0 45 -30 74t-82 29h-199v-208z
" />
    <glyph glyph-name="uni0413" unicode="&#x413;" horiz-adv-x="548" 
d="M74 45v569q0 53 54 53h354q18 0 31.5 -13t13.5 -32q0 -18 -13.5 -30.5t-31.5 -12.5h-308v-534q0 -20 -14.5 -35t-34.5 -15q-21 0 -36 15t-15 35z" />
    <glyph glyph-name="uni0414" unicode="&#x414;" horiz-adv-x="720" 
d="M696 35v-119q0 -18 -12.5 -31t-30.5 -13q-19 0 -32 13t-13 31v84h-498v-84q0 -18 -12.5 -31t-31.5 -13q-18 0 -31 13t-13 31v119q0 53 45 53h6q81 83 113 404l12 124q4 51 56 51h310q53 0 53 -53v-526h26q53 0 53 -53zM517 88v491h-233l-9 -93q-29 -320 -98 -398h340z
" />
    <glyph glyph-name="uni0415" unicode="&#x415;" horiz-adv-x="573" 
d="M74 53v561q0 53 54 53h354q18 0 31.5 -13t13.5 -32q0 -18 -13.5 -30.5t-31.5 -12.5h-308v-195h301q18 0 31.5 -12.5t13.5 -30.5q0 -19 -13.5 -32t-31.5 -13h-301v-208h308q18 0 31.5 -12.5t13.5 -30.5q0 -19 -13.5 -32t-31.5 -13h-354q-54 0 -54 53z" />
    <glyph glyph-name="uni0416" unicode="&#x416;" horiz-adv-x="928" 
d="M890 42q0 -19 -13.5 -33t-33.5 -14q-21 0 -38 18l-250 290h-41v-258q0 -20 -14.5 -35t-35.5 -15t-35.5 15t-14.5 35v258h-41l-250 -290q-18 -18 -38 -18q-19 0 -33 14t-14 33q0 17 10 30l245 274l-223 250q-11 11 -11 29q0 19 14 33t33 14q22 0 38 -19l230 -271h40v240
q0 20 14.5 35t35.5 15t35.5 -15t14.5 -35v-240h40l230 271q13 19 37 19q20 0 34 -14t14 -33q0 -18 -11 -29l-224 -250l245 -274q11 -14 11 -30z" />
    <glyph glyph-name="uni0417" unicode="&#x417;" horiz-adv-x="592" 
d="M38 102q0 18 13 31t31 13q16 0 27 -9q76 -60 172 -60q75 0 117.5 30.5t42.5 83.5q0 105 -167 105h-75q-19 0 -33 13t-14 32q0 18 14 31t33 13h75q71 0 113.5 25.5t42.5 73.5t-43 76t-111 28q-91 0 -161 -56q-14 -8 -24 -8q-18 0 -30.5 12.5t-12.5 30.5q0 22 16 32
q91 78 221 78q106 0 176 -49t70 -130q0 -63 -44 -104q-42 -39 -101 -50q58 -5 106.5 -49.5t48.5 -113.5q0 -84 -72 -138.5t-185 -54.5q-140 0 -230 80q-16 13 -16 34z" />
    <glyph glyph-name="uni0418" unicode="&#x418;" horiz-adv-x="714" 
d="M125 672q20 0 34.5 -15t14.5 -35v-470l347 492q20 28 54 28q27 0 46 -19t19 -46v-562q0 -20 -15 -35t-36 -15q-20 0 -34.5 15t-14.5 35v481l-354 -505q-20 -26 -51 -26q-25 0 -43 18.5t-18 43.5v565q0 20 15 35t36 15z" />
    <glyph glyph-name="uni0419" unicode="&#x419;" horiz-adv-x="714" 
d="M125 672q20 0 34.5 -15t14.5 -35v-470l347 492q20 28 54 28q27 0 46 -19t19 -46v-562q0 -20 -15 -35t-36 -15q-20 0 -34.5 15t-14.5 35v481l-354 -505q-20 -26 -51 -26q-25 0 -43 18.5t-18 43.5v565q0 20 15 35t36 15zM208 780q-9 10 -9 24t9.5 23.5t22.5 9.5q14 0 23 -9
q42 -44 103 -44q62 0 102 43q10 10 23 10t23 -9.5t10 -23.5q0 -13 -10 -24q-61 -61 -148 -61q-86 0 -149 61z" />
    <glyph glyph-name="uni041A" unicode="&#x41a;" horiz-adv-x="611" 
d="M573 43q0 -20 -13.5 -34t-32.5 -14q-21 0 -35 14l-254 279l-64 -68v-175q0 -20 -14.5 -35t-35.5 -15q-20 0 -35 15t-15 35v577q0 20 15 35t35 15q21 0 35.5 -15t14.5 -35v-288l294 323q14 15 35 15q19 0 33 -13.5t14 -32.5q0 -20 -13 -32l-232 -247l255 -272
q13 -14 13 -32z" />
    <glyph glyph-name="uni041B" unicode="&#x41b;" horiz-adv-x="717" 
d="M543 45v534h-245l-10 -116q-15 -166 -42.5 -267t-63 -144.5t-88.5 -56.5q-10 -3 -21 -3q-20 0 -34.5 14.5t-14.5 35.5q0 37 36 49q52 13 85 95q34 84 50 279l13 151q4 51 56 51h326q53 0 53 -53v-569q0 -20 -14.5 -35t-35.5 -15t-35.5 15t-14.5 35z" />
    <glyph glyph-name="uni041C" unicode="&#x41c;" horiz-adv-x="822" 
d="M648 45v485l-210 -516q-7 -19 -27 -19q-21 0 -27 19l-210 516v-485q0 -20 -14.5 -35t-34.5 -15q-21 0 -36 15t-15 35v544q0 34 24.5 58.5t59.5 24.5q26 0 47.5 -14.5t30.5 -37.5l175 -433l175 433q9 23 30.5 37.5t47.5 14.5q35 0 59.5 -24.5t24.5 -58.5v-544
q0 -20 -15 -35t-36 -15q-20 0 -34.5 15t-14.5 35z" />
    <glyph glyph-name="uni041D" unicode="&#x41d;" horiz-adv-x="717" 
d="M543 45v253h-369v-253q0 -20 -14.5 -35t-34.5 -15q-21 0 -36 15t-15 35v577q0 20 15 35t35 15q21 0 35.5 -15t14.5 -35v-235h369v235q0 20 14.5 35t35.5 15t35.5 -15t14.5 -35v-577q0 -20 -14.5 -35t-35.5 -15t-35.5 15t-14.5 35z" />
    <glyph glyph-name="uni041E" unicode="&#x41e;" horiz-adv-x="765" 
d="M382 678q145 2 241.5 -98t94.5 -247q2 -147 -94.5 -247.5t-241.5 -97.5q-145 -3 -241.5 97.5t-94.5 247.5q-2 147 94.5 247t241.5 98zM382 589q-104 0 -168.5 -72t-64.5 -184t64.5 -184t168.5 -72q103 0 168 72.5t65 183.5t-65 183.5t-168 72.5z" />
    <glyph glyph-name="uni041F" unicode="&#x41f;" horiz-adv-x="717" 
d="M543 45v534h-369v-534q0 -20 -14.5 -35t-34.5 -15q-21 0 -36 15t-15 35v569q0 53 54 53h462q53 0 53 -53v-569q0 -20 -14.5 -35t-35.5 -15t-35.5 15t-14.5 35z" />
    <glyph glyph-name="uni0420" unicode="&#x420;" horiz-adv-x="597" 
d="M74 45v569q0 53 54 53h227q98 0 155.5 -58.5t57.5 -146.5q0 -87 -58 -146t-155 -59h-181v-212q0 -20 -14.5 -35t-34.5 -15q-21 0 -36 15t-15 35zM342 579h-168v-234h168q54 0 88.5 32.5t34.5 84.5t-34.5 84.5t-88.5 32.5z" />
    <glyph glyph-name="uni0421" unicode="&#x421;" horiz-adv-x="671" 
d="M46 333q-2 148 98.5 247.5t243.5 97.5q142 0 232 -98q12 -12 12 -32q0 -19 -13.5 -33t-33.5 -14q-23 0 -36 16q-64 72 -161 72q-102 0 -170.5 -73t-68.5 -183t68.5 -183t170.5 -73q96 0 162 72q13 16 35 16q20 0 33.5 -13.5t13.5 -33.5t-12 -32q-92 -98 -232 -98
q-143 -3 -243.5 97t-98.5 248z" />
    <glyph glyph-name="uni0422" unicode="&#x422;" horiz-adv-x="573" 
d="M237 45v534h-168q-18 0 -31 12.5t-13 30.5q0 19 13 32t31 13h435q18 0 31.5 -13t13.5 -32q0 -18 -13.5 -30.5t-31.5 -12.5h-167v-534q0 -20 -15 -35t-35 -15q-21 0 -35.5 15t-14.5 35z" />
    <glyph glyph-name="uni0423" unicode="&#x423;" horiz-adv-x="638" 
d="M604 622q0 -15 -4 -23l-230 -477q-34 -70 -78 -102t-116 -32q-17 0 -35 3q-17 3 -27.5 15.5t-10.5 28.5q0 19 14.5 33t34.5 12l7 -1q8 -2 13 -2q38 0 62 20t51 72l2 4l-238 425q-6 12 -6 24q0 21 14.5 35.5t35.5 14.5q31 0 44 -27l203 -380l168 376q11 31 46 31
q21 0 35.5 -15t14.5 -35z" />
    <glyph glyph-name="uni0424" unicode="&#x424;" horiz-adv-x="820" 
d="M460 66v-21q0 -20 -15 -35t-35 -15q-21 0 -35.5 15t-14.5 35v21q-145 9 -229.5 81.5t-84.5 185.5t84.5 185.5t229.5 81.5v22q0 20 14.5 35t35.5 15q20 0 35 -15t15 -35v-22q146 -10 229.5 -82t83.5 -185t-84 -185.5t-229 -81.5zM360 155v356q-101 -10 -156 -56.5
t-55 -121.5t55 -121.5t156 -56.5zM670 333q0 73 -55.5 120t-154.5 57v-354q99 10 154.5 57t55.5 120z" />
    <glyph glyph-name="uni0425" unicode="&#x425;" horiz-adv-x="656" 
d="M630 44q0 -21 -13.5 -35t-34.5 -14q-24 0 -38 15l-216 259l-215 -259q-15 -15 -38 -15q-21 0 -34.5 14t-13.5 35q0 16 12 31l228 267l-214 250q-11 16 -11 30q0 21 13.5 35.5t33.5 14.5q24 0 38 -17l201 -240l201 240q14 17 38 17q20 0 34 -15t14 -35q0 -14 -12 -30
l-214 -249l229 -268q12 -15 12 -31z" />
    <glyph glyph-name="uni0426" unicode="&#x426;" horiz-adv-x="728" 
d="M704 35v-119q0 -18 -12.5 -31t-30.5 -13q-19 0 -32 13t-13 31v84h-488q-54 0 -54 53v569q0 20 15 35t36 15q20 0 34.5 -15t14.5 -35v-534h351v534q0 20 14.5 35t35.5 15t35.5 -15t14.5 -35v-534h26q53 0 53 -53z" />
    <glyph glyph-name="uni0427" unicode="&#x427;" horiz-adv-x="621" 
d="M295 333q86 0 151 28v261q0 20 15 35t35 15q21 0 35.5 -15t14.5 -35v-577q0 -20 -14.5 -35t-34.5 -15q-21 0 -36 15t-15 35v236q-92 -36 -181 -36q-111 0 -160.5 55t-49.5 180v142q0 20 14.5 35t35.5 15t35.5 -15t14.5 -35v-142q0 -81 31.5 -114t108.5 -33z" />
    <glyph glyph-name="uni0428" unicode="&#x428;" horiz-adv-x="956" 
d="M881 622v-569q0 -53 -53 -53h-700q-54 0 -54 53v569q0 20 15 35t36 15q20 0 34.5 -15t14.5 -35v-534h254v534q0 20 14.5 35t35.5 15t35.5 -15t14.5 -35v-534h253v534q0 20 14.5 35t35.5 15t35.5 -15t14.5 -35z" />
    <glyph glyph-name="uni0429" unicode="&#x429;" horiz-adv-x="984" 
d="M961 35v-119q0 -18 -13 -31t-31 -13q-19 0 -32 13t-13 31v84h-744q-54 0 -54 53v569q0 20 15 35t36 15q20 0 34.5 -15t14.5 -35v-534h254v534q0 20 14.5 35t35.5 15t35.5 -15t14.5 -35v-534h253v534q0 20 14.5 35t35.5 15t35.5 -15t14.5 -35v-534h26q54 0 54 -53z" />
    <glyph glyph-name="uni042A" unicode="&#x42a;" horiz-adv-x="760" 
d="M237 53v526h-168q-18 0 -31 12.5t-13 30.5q0 19 13 32t31 13h214q54 0 54 -53v-204h180q97 0 155.5 -59t58.5 -146t-58.5 -146t-155.5 -59h-227q-25 0 -39 14t-14 39zM337 322v-234h167q55 0 89.5 32.5t34.5 84.5t-34.5 84.5t-89.5 32.5h-167z" />
    <glyph glyph-name="uni042B" unicode="&#x42b;" horiz-adv-x="810" 
d="M174 622v-212h181q97 0 155 -59t58 -146q0 -88 -57.5 -146.5t-155.5 -58.5h-227q-54 0 -54 53v569q0 20 15 35t36 15q20 0 34.5 -15t14.5 -35zM635 45v577q0 20 15 35t36 15q20 0 34.5 -15t14.5 -35v-577q0 -20 -14.5 -35t-34.5 -15q-21 0 -36 15t-15 35zM174 322v-234
h168q54 0 88.5 32.5t34.5 84.5t-34.5 84.5t-88.5 32.5h-168z" />
    <glyph glyph-name="uni042C" unicode="&#x42c;" horiz-adv-x="597" 
d="M174 622v-212h181q97 0 155 -59t58 -146q0 -88 -57.5 -146.5t-155.5 -58.5h-227q-54 0 -54 53v569q0 20 15 35t36 15q20 0 34.5 -15t14.5 -35zM174 322v-234h168q54 0 88.5 32.5t34.5 84.5t-34.5 84.5t-88.5 32.5h-168z" />
    <glyph glyph-name="uni042D" unicode="&#x42d;" horiz-adv-x="679" 
d="M633 333q2 -149 -99 -248.5t-247 -96.5q-136 0 -228 98q-12 12 -12 32t14 33.5t33 13.5q22 0 35 -16q66 -72 158 -72q93 0 161.5 61.5t78.5 157.5h-330q-18 0 -31 13t-13 32q0 18 13 30.5t31 12.5h328q-15 90 -81 147.5t-157 57.5q-93 0 -157 -72q-13 -16 -36 -16
q-19 0 -33 14t-14 33q0 20 12 32q89 98 228 98q146 2 247 -97t99 -248z" />
    <glyph glyph-name="uni042E" unicode="&#x42e;" horiz-adv-x="1003" 
d="M957 333q2 -147 -95 -247t-241 -98q-138 0 -230.5 87t-104.5 223h-112v-253q0 -20 -14.5 -35t-34.5 -15q-21 0 -36 15t-15 35v577q0 20 15 35t35 15q21 0 35.5 -15t14.5 -35v-235h115q17 129 108 210t224 81q144 2 241 -98.5t95 -246.5zM854 333q0 111 -65 183.5
t-168 72.5q-105 0 -169.5 -72t-64.5 -184q0 -111 65 -183.5t169 -72.5q103 0 168 72.5t65 183.5z" />
    <glyph glyph-name="uni042F" unicode="&#x42f;" horiz-adv-x="618" 
d="M544 614v-569q0 -21 -15 -35.5t-36 -14.5q-20 0 -34.5 15t-14.5 35v212h-141l-166 -241q-18 -21 -42 -21q-20 0 -34 14t-14 32t10 31l141 198q-66 15 -107 65.5t-41 126.5q0 92 59 148.5t154 56.5h228q53 0 53 -53zM444 345v234h-168q-54 0 -88.5 -32.5t-34.5 -84.5
t34.5 -84.5t88.5 -32.5h168z" />
    <glyph glyph-name="uni0430" unicode="&#x430;" horiz-adv-x="532" 
d="M460 326v-286q0 -19 -13.5 -32t-31.5 -13t-31.5 13t-13.5 32v14q-57 -66 -158 -66q-67 0 -117.5 43.5t-50.5 116.5q0 75 49.5 116.5t118.5 41.5q104 0 158 -64v80q0 44 -32 70t-86 26q-65 0 -119 -42q-10 -7 -22 -7q-15 0 -25.5 11t-10.5 26q0 18 15 29q75 60 176 60
q90 0 142 -42.5t52 -126.5zM370 106v82q-41 55 -124 55q-49 0 -80 -26.5t-31 -69.5t31 -69.5t80 -26.5q83 0 124 55z" />
    <glyph glyph-name="uni0431" unicode="&#x431;" horiz-adv-x="573" 
d="M364 660l71 11q3 1 11 1q38 0 38 -37t-48 -44l-84 -14q-112 -18 -168 -67t-71 -133q30 48 80 75t109 27q99 0 163 -68.5t64 -167.5q0 -107 -67 -181t-176 -74q-112 0 -177.5 81t-65.5 217q0 170 72 259t249 115zM286 415q-68 0 -109 -50t-41 -121q0 -74 41 -125t109 -51
q70 0 110 51q40 50 40 125q0 72 -40.5 121.5t-109.5 49.5z" />
    <glyph glyph-name="uni0432" unicode="&#x432;" horiz-adv-x="544" 
d="M72 53v377q0 53 53 53h205q76 0 117.5 -34t41.5 -90q0 -41 -22.5 -70.5t-58.5 -39.5q39 -9 64.5 -42.5t25.5 -75.5q0 -61 -42.5 -96t-122.5 -35h-208q-25 0 -39 14t-14 39zM330 404h-168v-117h168q31 0 49 16t18 42q0 27 -18 43t-49 16zM333 208h-171v-129h171
q34 0 53 17t19 47q0 28 -19.5 46.5t-52.5 18.5z" />
    <glyph glyph-name="uni0433" unicode="&#x433;" horiz-adv-x="444" 
d="M72 40v390q0 53 53 53h264q16 0 28 -11.5t12 -27.5t-11.5 -28t-28.5 -12h-227v-364q0 -19 -13.5 -32t-31.5 -13q-19 0 -32 13t-13 32z" />
    <glyph glyph-name="uni0434" unicode="&#x434;" horiz-adv-x="566" 
d="M543 26v-115q0 -16 -12 -27.5t-28 -11.5t-27.5 11.5t-11.5 27.5v89h-367v-89q0 -16 -11.5 -27.5t-27.5 -11.5t-28 11.5t-12 27.5v115q0 49 43 53q51 79 68 291l6 62q2 51 55 51h245q53 0 53 -53v-351h3q52 0 52 -53zM398 79v325h-184l-5 -57q-15 -204 -61 -268h250z" />
    <glyph glyph-name="uni0435" unicode="&#x435;" horiz-adv-x="560" 
d="M284 495q103 0 169 -70.5t66 -169.5q0 -20 -14 -31.5t-39 -11.5h-329q5 -65 50 -107.5t114 -42.5q66 0 120 39q7 5 20 5q15 0 25.5 -10.5t10.5 -25.5q0 -20 -16 -30q-70 -52 -169 -52q-109 0 -179.5 71t-70.5 183q-2 104 69 179.5t173 73.5zM136 277h295q-2 57 -40 100.5
t-107 43.5q-66 0 -104.5 -43t-43.5 -101z" />
    </font>
</defs>
</svg>
