<?xml version="1.0" standalone="no"?>
<!DOCTYPE svg PUBLIC "-//W3C//DTD SVG 1.1//EN" "http://www.w3.org/Graphics/SVG/1.1/DTD/svg11.dtd" >
<svg xmlns="http://www.w3.org/2000/svg" xmlns:xlink="http://www.w3.org/1999/xlink" version="1.1">
<metadata>
Created by FontForge 20170731 at Tue Dec 25 03:00:00 2018
 By Aleksey,,,
Copyright (c) 2018 by Mark Simonson. All rights reserved.
</metadata>
<defs>
<font id="ProximaSoft-Regular" horiz-adv-x="551" >
  <font-face 
    font-family="Proxima Soft"
    font-weight="400"
    font-stretch="normal"
    units-per-em="1000"
    panose-1="2 0 5 6 3 0 0 2 0 4"
    ascent="790"
    descent="-210"
    x-height="483"
    cap-height="667"
    bbox="-356 -317 1136 1083"
    underline-thickness="54"
    underline-position="-319"
    unicode-range="U+000D-FB04"
  />
<missing-glyph horiz-adv-x="507" 
d="M78 -48v758q0 19 11.5 30.5t30.5 11.5h267q19 0 30.5 -11.5t11.5 -30.5v-758q0 -19 -11.5 -30.5t-30.5 -11.5h-267q-19 0 -30.5 11.5t-11.5 30.5zM397 722h-288v-782h288v782z" />
    <glyph glyph-name="f_f_j" unicode="ffj" horiz-adv-x="792" 
d="M306 641q0 -13 -8 -21.5t-22 -8.5q-3 0 -13.5 2t-15.5 2q-37 0 -56.5 -24.5t-19.5 -70.5v-37h69q14 0 23.5 -9.5t9.5 -23.5q0 -13 -9.5 -23t-23.5 -10h-69v-384q0 -15 -11 -26t-26 -11q-16 0 -27 11t-11 26v384h-51q-14 0 -24 10t-10 23t10 23t24 10h51v37q0 74 38 115.5
t102 41.5q24 0 47 -6q23 -7 23 -30zM589 641q0 -13 -8 -21.5t-22 -8.5q-3 0 -13.5 2t-15.5 2q-37 0 -56.5 -24.5t-19.5 -70.5v-37h69q14 0 23.5 -9.5t9.5 -23.5q0 -13 -9.5 -23t-23.5 -10h-69v-384q0 -15 -11 -26t-26 -11q-16 0 -27 11t-11 26v384h-51q-14 0 -24 10t-10 23
t10 23t24 10h51v37q0 74 38 115.5t102 41.5q25 0 47 -6q23 -7 23 -30zM628 631q0 21 15 36t35 15q21 0 36 -15t15 -36t-15 -35.5t-36 -14.5q-20 0 -35 14.5t-15 35.5zM550 -194q-12 1 -21 10t-9 22t8.5 23t20.5 10q1 0 6.5 -1t10.5 -1q75 0 75 84v497q0 15 11 26t27 11
q15 0 26 -11t11 -26v-497q0 -71 -37 -110t-105 -39q-2 0 -24 2z" />
    <glyph glyph-name="f_j" unicode="fj" horiz-adv-x="509" 
d="M306 641q0 -13 -8 -21.5t-22 -8.5q-3 0 -13.5 2t-15.5 2q-37 0 -56.5 -24.5t-19.5 -70.5v-37h69q14 0 23.5 -9.5t9.5 -23.5q0 -13 -9.5 -23t-23.5 -10h-69v-384q0 -15 -11 -26t-26 -11q-16 0 -27 11t-11 26v384h-51q-14 0 -24 10t-10 23t10 23t24 10h51v37q0 74 38 115.5
t102 41.5q24 0 47 -6q23 -7 23 -30zM345 631q0 21 15 36t35 15q21 0 36 -15t15 -36t-15 -35.5t-36 -14.5q-20 0 -35 14.5t-15 35.5zM267 -194q-12 1 -21 10t-9 22t8.5 23t20.5 10q1 0 6.5 -1t10.5 -1q75 0 75 84v497q0 15 11 26t27 11q15 0 26 -11t11 -26v-497
q0 -71 -37 -110t-105 -39q-2 0 -24 2z" />
    <glyph glyph-name="f_f" unicode="ff" horiz-adv-x="566" 
d="M306 641q0 -13 -8 -21.5t-22 -8.5q-3 0 -13.5 2t-15.5 2q-37 0 -56.5 -24.5t-19.5 -70.5v-37h69q14 0 23.5 -9.5t9.5 -23.5q0 -13 -9.5 -23t-23.5 -10h-69v-384q0 -15 -11 -26t-26 -11q-16 0 -27 11t-11 26v384h-51q-14 0 -24 10t-10 23t10 23t24 10h51v37q0 74 38 115.5
t102 41.5q24 0 47 -6q23 -7 23 -30zM589 641q0 -13 -8 -21.5t-22 -8.5q-3 0 -13.5 2t-15.5 2q-37 0 -56.5 -24.5t-19.5 -70.5v-37h69q14 0 23.5 -9.5t9.5 -23.5q0 -13 -9.5 -23t-23.5 -10h-69v-384q0 -15 -11 -26t-26 -11q-16 0 -27 11t-11 26v384h-51q-14 0 -24 10t-10 23
t10 23t24 10h51v37q0 74 38 115.5t102 41.5q25 0 47 -6q23 -7 23 -30z" />
    <glyph glyph-name="fi" unicode="fi" horiz-adv-x="509" 
d="M306 641q0 -13 -8 -21.5t-22 -8.5q-3 0 -13.5 2t-15.5 2q-37 0 -56.5 -24.5t-19.5 -70.5v-37h69q14 0 23.5 -9.5t9.5 -23.5q0 -13 -9.5 -23t-23.5 -10h-69v-384q0 -15 -11 -26t-26 -11q-16 0 -27 11t-11 26v384h-51q-14 0 -24 10t-10 23t10 23t24 10h51v37q0 74 38 115.5
t102 41.5q24 0 47 -6q23 -7 23 -30zM345 631q0 21 15 36t35 15q21 0 36 -15t15 -36t-15 -35.5t-36 -14.5q-20 0 -35 14.5t-15 35.5zM358 33v417q0 15 11 26t27 11q15 0 26 -11t11 -26v-417q0 -15 -11 -26t-27 -11q-15 0 -26 11t-11 26z" />
    <glyph glyph-name="fl" unicode="fl" horiz-adv-x="509" 
d="M306 641q0 -13 -8 -21.5t-22 -8.5q-3 0 -13.5 2t-15.5 2q-37 0 -56.5 -24.5t-19.5 -70.5v-37h69q14 0 23.5 -9.5t9.5 -23.5q0 -13 -9.5 -23t-23.5 -10h-69v-384q0 -15 -11 -26t-26 -11q-16 0 -27 11t-11 26v384h-51q-14 0 -24 10t-10 23t10 23t24 10h51v37q0 74 38 115.5
t102 41.5q24 0 47 -6q23 -7 23 -30zM358 33v601q0 15 11 26t27 11q15 0 26 -11t11 -26v-601q0 -15 -11 -26t-26 -11q-16 0 -27 11t-11 26z" />
    <glyph glyph-name="f_f_i" unicode="ffi" horiz-adv-x="792" 
d="M306 641q0 -13 -8 -21.5t-22 -8.5q-3 0 -13.5 2t-15.5 2q-37 0 -56.5 -24.5t-19.5 -70.5v-37h69q14 0 23.5 -9.5t9.5 -23.5q0 -13 -9.5 -23t-23.5 -10h-69v-384q0 -15 -11 -26t-26 -11q-16 0 -27 11t-11 26v384h-51q-14 0 -24 10t-10 23t10 23t24 10h51v37q0 74 38 115.5
t102 41.5q24 0 47 -6q23 -7 23 -30zM589 641q0 -13 -8 -21.5t-22 -8.5q-3 0 -13.5 2t-15.5 2q-37 0 -56.5 -24.5t-19.5 -70.5v-37h69q14 0 23.5 -9.5t9.5 -23.5q0 -13 -9.5 -23t-23.5 -10h-69v-384q0 -15 -11 -26t-26 -11q-16 0 -27 11t-11 26v384h-51q-14 0 -24 10t-10 23
t10 23t24 10h51v37q0 74 38 115.5t102 41.5q25 0 47 -6q23 -7 23 -30zM628 631q0 21 15 36t35 15q21 0 36 -15t15 -36t-15 -35.5t-36 -14.5q-20 0 -35 14.5t-15 35.5zM641 33v417q0 15 11 26t27 11q15 0 26 -11t11 -26v-417q0 -15 -11 -26t-27 -11q-15 0 -26 11t-11 26z" />
    <glyph glyph-name="f_f_l" unicode="ffl" horiz-adv-x="792" 
d="M306 641q0 -13 -8 -21.5t-22 -8.5q-3 0 -13.5 2t-15.5 2q-37 0 -56.5 -24.5t-19.5 -70.5v-37h69q14 0 23.5 -9.5t9.5 -23.5q0 -13 -9.5 -23t-23.5 -10h-69v-384q0 -15 -11 -26t-26 -11q-16 0 -27 11t-11 26v384h-51q-14 0 -24 10t-10 23t10 23t24 10h51v37q0 74 38 115.5
t102 41.5q24 0 47 -6q23 -7 23 -30zM589 641q0 -13 -8 -21.5t-22 -8.5q-3 0 -13.5 2t-15.5 2q-37 0 -56.5 -24.5t-19.5 -70.5v-37h69q14 0 23.5 -9.5t9.5 -23.5q0 -13 -9.5 -23t-23.5 -10h-69v-384q0 -15 -11 -26t-26 -11q-16 0 -27 11t-11 26v384h-51q-14 0 -24 10t-10 23
t10 23t24 10h51v37q0 74 38 115.5t102 41.5q25 0 47 -6q23 -7 23 -30zM641 33v601q0 15 11 26t27 11q15 0 26 -11t11 -26v-601q0 -15 -11 -26t-26 -11q-16 0 -27 11t-11 26z" />
    <glyph glyph-name="f_b" unicode="fb" horiz-adv-x="858" 
d="M306 641q0 -13 -8 -21.5t-22 -8.5q-3 0 -13.5 2t-15.5 2q-37 0 -56.5 -24.5t-19.5 -70.5v-37h69q14 0 23.5 -9.5t9.5 -23.5q0 -13 -9.5 -23t-23.5 -10h-69v-384q0 -15 -11 -26t-26 -11q-16 0 -27 11t-11 26v384h-51q-14 0 -24 10t-10 23t10 23t24 10h51v37q0 74 38 115.5
t102 41.5q24 0 47 -6q23 -7 23 -30zM811 241q0 -116 -59.5 -184.5t-155.5 -68.5q-99 0 -163 84v-39q0 -15 -11 -26t-26 -11q-16 0 -27 11t-11 26v601q0 15 11 26t27 11q15 0 26 -11t11 -26v-225q61 86 163 86q95 0 155 -70t60 -184zM733 241q0 83 -42.5 135t-113.5 52
q-42 0 -83 -22.5t-61 -55.5v-219q20 -33 61 -54.5t83 -21.5q71 0 113.5 51.5t42.5 134.5z" />
    <glyph glyph-name="f_h" unicode="fh" horiz-adv-x="835" 
d="M306 641q0 -13 -8 -21.5t-22 -8.5q-3 0 -13.5 2t-15.5 2q-37 0 -56.5 -24.5t-19.5 -70.5v-37h69q14 0 23.5 -9.5t9.5 -23.5q0 -13 -9.5 -23t-23.5 -10h-69v-384q0 -15 -11 -26t-26 -11q-16 0 -27 11t-11 26v384h-51q-14 0 -24 10t-10 23t10 23t24 10h51v37q0 74 38 115.5
t102 41.5q24 0 47 -6q23 -7 23 -30zM685 33v285q0 58 -27 84t-82 26q-40 0 -79.5 -21.5t-63.5 -53.5v-320q0 -15 -11 -26t-26 -11q-16 0 -27 11t-11 26v601q0 15 11 26t27 11q15 0 26 -11t11 -26v-221q29 35 76.5 58.5t96.5 23.5q154 0 154 -154v-308q0 -15 -11 -26t-27 -11
q-15 0 -26 11t-11 26z" />
    <glyph glyph-name="f_k" unicode="fk" horiz-adv-x="797" 
d="M306 641q0 -13 -8 -21.5t-22 -8.5q-3 0 -13.5 2t-15.5 2q-37 0 -56.5 -24.5t-19.5 -70.5v-37h69q14 0 23.5 -9.5t9.5 -23.5q0 -13 -9.5 -23t-23.5 -10h-69v-384q0 -15 -11 -26t-26 -11q-16 0 -27 11t-11 26v384h-51q-14 0 -24 10t-10 23t10 23t24 10h51v37q0 74 38 115.5
t102 41.5q24 0 47 -6q23 -7 23 -30zM758 34q0 -16 -10.5 -27t-26.5 -11q-19 0 -29 12l-177 208l-82 -76v-107q0 -15 -11 -26t-27 -11q-15 0 -26 11t-11 26v601q0 15 11 26t27 11q15 0 26 -11t11 -26v-409l261 253q9 9 24 9q14 0 24 -10.5t10 -24.5t-10 -24l-173 -166
l180 -203q9 -11 9 -25z" />
    <glyph glyph-name=".notdef" horiz-adv-x="507" 
d="M78 -48v758q0 19 11.5 30.5t30.5 11.5h267q19 0 30.5 -11.5t11.5 -30.5v-758q0 -19 -11.5 -30.5t-30.5 -11.5h-267q-19 0 -30.5 11.5t-11.5 30.5zM397 722h-288v-782h288v782z" />
    <glyph glyph-name=".null" horiz-adv-x="0" 
 />
    <glyph glyph-name="nonmarkingreturn" horiz-adv-x="333" 
 />
    <glyph glyph-name="CR" unicode="&#xd;" horiz-adv-x="0" 
 />
    <glyph glyph-name="space" unicode=" " horiz-adv-x="258" 
 />
    <glyph glyph-name="exclam" unicode="!" horiz-adv-x="230" 
d="M83 213l-14 412q0 18 13.5 32t32.5 14t32.5 -13.5t12.5 -32.5l-12 -412q-1 -13 -10.5 -22t-22.5 -9t-22.5 9t-9.5 22zM115 100q23 0 39 -16t16 -39q0 -22 -16.5 -38.5t-38.5 -16.5t-38.5 16.5t-16.5 38.5q0 23 16.5 39t38.5 16z" />
    <glyph glyph-name="quotedbl" unicode="&#x22;" horiz-adv-x="343" 
d="M78 426l-8 62q-16 135 -16 143q0 19 13 32.5t32 13.5t32.5 -13.5t13.5 -32.5q0 -7 -9 -81l-16 -124q-2 -19 -21 -19t-21 19zM224 426q-13 92 -16 116q-8 66 -9 89q0 19 13.5 32.5t32.5 13.5t32 -13.5t13 -32.5q0 -6 -10 -89l-15 -116q-2 -19 -20 -19q-19 0 -21 19z" />
    <glyph glyph-name="numbersign" unicode="#" horiz-adv-x="590" 
d="M565 459q0 -11 -8 -18.5t-19 -7.5h-93l-67 -199h80q11 0 18.5 -8t7.5 -19t-7.5 -18.5t-18.5 -7.5h-97l-56 -165q-5 -20 -27 -20q-12 0 -20.5 8.5t-8.5 19.5q0 2 2 12l49 145h-111l-55 -165q-7 -20 -28 -20q-12 0 -20.5 8.5t-8.5 19.5q0 3 2 11l49 146h-74q-11 0 -19 7.5
t-8 18.5t8 19t19 8h92l66 199h-77q-11 0 -18.5 7.5t-7.5 18.5t7.5 18.5t18.5 7.5h95l55 166q6 20 28 20q12 0 20.5 -8.5t8.5 -19.5q0 -3 -2 -11l-49 -147h111l54 166q7 20 28 20q12 0 20.5 -8.5t8.5 -19.5q0 -3 -2 -11l-49 -147h76q11 0 19 -7.5t8 -18.5zM316 234l68 199
h-111l-66 -199h109z" />
    <glyph glyph-name="dollar" unicode="$" horiz-adv-x="593" 
d="M332 -10v-64q0 -12 -9 -21t-22 -9t-21.5 9t-8.5 21v63q-117 6 -203 80q-15 14 -15 32q0 17 12 28.5t28 11.5t25 -9q63 -57 153 -68v243q-62 16 -107 36q-101 44 -101 149q0 76 58.5 127.5t149.5 57.5v65q0 12 8.5 21t21.5 9t22 -9t9 -21v-67q99 -8 169 -67q16 -12 16 -32
q0 -16 -11.5 -28t-27.5 -12q-14 0 -24 9q-53 45 -122 54v-217q53 -15 86 -28.5t63.5 -36t45.5 -55t17 -78.5q0 -76 -52 -131q-53 -56 -160 -63zM271 398v204q-54 -3 -88 -32t-34 -73q0 -37 29 -58.5t93 -40.5zM459 177q0 44 -30.5 69t-96.5 45v-226q63 5 95 36.5t32 75.5z
" />
    <glyph glyph-name="percent" unicode="%" horiz-adv-x="731" 
d="M31 511q0 71 45 118.5t115 47.5q71 0 116.5 -47.5t45.5 -118.5q0 -70 -45.5 -116.5t-116.5 -46.5t-115.5 46.5t-44.5 116.5zM144 18q0 6 4 13l402 630q7 10 20 10q9 0 15.5 -6.5t6.5 -16.5q0 -7 -3 -13l-403 -629q-7 -10 -19 -10q-9 0 -16 6.5t-7 15.5zM293 511
q0 51 -28.5 84.5t-73.5 33.5q-44 0 -72 -33.5t-28 -84.5q0 -49 28 -82.5t72 -33.5q45 0 73.5 33.5t28.5 82.5zM379 151q0 71 45 118.5t115 47.5t115.5 -47.5t45.5 -118.5q0 -70 -45.5 -116.5t-115.5 -46.5q-71 0 -115.5 46.5t-44.5 116.5zM641 151q0 51 -28.5 84.5
t-73.5 33.5t-73 -33.5t-28 -84.5t28 -83.5t73 -32.5t73.5 33t28.5 83z" />
    <glyph glyph-name="ampersand" unicode="&#x26;" horiz-adv-x="641" 
d="M579 33q0 -15 -10.5 -26t-25.5 -11q-13 0 -23 7q-22 18 -80 71q-86 -86 -196 -86q-92 0 -150 48q-58 49 -58 138q0 67 36.5 112.5t111.5 86.5q-52 85 -52 149q0 66 49 110.5t119 44.5q68 0 109.5 -35t41.5 -96q0 -46 -23 -81q-22 -31 -54 -53.5t-93 -52.5q33 -46 77 -96
q32 -37 80 -87q37 57 61 121q9 21 31 21q14 0 24.5 -10t10.5 -23q0 -9 -4 -16q-42 -91 -75 -139q42 -39 79 -68q14 -11 14 -29zM250 406q71 36 101.5 65t30.5 72q0 35 -21.5 55t-57.5 20q-39 0 -66 -27.5t-27 -69.5q0 -45 40 -115zM393 119q-57 54 -94 98q-52 61 -83 106
q-50 -31 -74.5 -64.5t-24.5 -79.5q0 -58 38.5 -93.5t95.5 -35.5q76 0 142 69z" />
    <glyph glyph-name="quotesingle" unicode="'" horiz-adv-x="199" 
d="M78 426l-8 62q-16 135 -16 143q0 19 13 32.5t32 13.5t32.5 -13.5t13.5 -32.5q0 -7 -9 -81l-16 -124q-2 -19 -21 -19t-21 19z" />
    <glyph glyph-name="parenleft" unicode="(" horiz-adv-x="248" 
d="M169 -176q-125 190 -125 419t125 420q7 13 25 13q13 0 21.5 -9t8.5 -21q0 -10 -3 -15q-48 -98 -72 -187q-23 -92 -23 -201t23 -201q23 -86 71 -186q4 -7 4 -15q0 -13 -8.5 -22t-21.5 -9q-17 0 -25 14z" />
    <glyph glyph-name="parenright" unicode=")" horiz-adv-x="248" 
d="M23 -159q0 8 4 15q49 99 71 187q24 89 24 200t-24 201q-22 87 -71 187q-4 7 -4 15q0 12 9 21t22 9q15 0 25 -13q125 -191 125 -420t-125 -419q-9 -14 -25 -14q-13 0 -22 9t-9 22z" />
    <glyph glyph-name="asterisk" unicode="*" horiz-adv-x="340" 
d="M148 408l4 96l-80 -53q-6 -3 -12 -3q-9 0 -15.5 6.5t-6.5 14.5q0 13 12 20l86 44l-86 44q-12 7 -12 19q0 9 6.5 15t15.5 6q6 0 12 -3l80 -52l-4 97q-1 8 6 15t16 7t15.5 -6.5t6.5 -15.5l-5 -97l80 52q6 3 12 3q9 0 15.5 -6t6.5 -15q0 -12 -12 -19l-85 -44l85 -44
q12 -7 12 -20q0 -8 -6.5 -14.5t-15.5 -6.5q-6 0 -12 3l-80 53l5 -96q0 -10 -6.5 -16.5t-15.5 -6.5t-16 6.5t-6 16.5z" />
    <glyph glyph-name="plus" unicode="+" horiz-adv-x="499" 
d="M278 311v-189q0 -11 -8.5 -20t-20.5 -9q-11 0 -19.5 9t-8.5 20v189h-170q-11 0 -18.5 7.5t-7.5 18.5t7.5 18.5t18.5 7.5h170v183q0 11 8.5 19.5t19.5 8.5q12 0 20.5 -8.5t8.5 -19.5v-183h170q11 0 18.5 -7.5t7.5 -18.5t-7.5 -18.5t-18.5 -7.5h-170z" />
    <glyph glyph-name="comma" unicode="," horiz-adv-x="230" 
d="M92 -123q-10 0 -16.5 6.5t-6.5 16.5q0 11 7 17q41 41 46 80q-8 -2 -14 -2q-21 0 -34.5 14.5t-13.5 36.5t15.5 38t37.5 16q27 0 45 -21t18 -55q0 -83 -69 -141q-6 -6 -15 -6z" />
    <glyph glyph-name="hyphen" unicode="-" horiz-adv-x="300" 
d="M26 242q0 14 10 23.5t23 9.5h182q14 0 23.5 -9.5t9.5 -23.5q0 -13 -9.5 -23t-23.5 -10h-182q-13 0 -23 10t-10 23z" />
    <glyph glyph-name="period" unicode="." horiz-adv-x="230" 
d="M115 100q23 0 39 -16t16 -39q0 -22 -16 -38.5t-39 -16.5q-22 0 -38.5 16.5t-16.5 38.5q0 23 16.5 39t38.5 16z" />
    <glyph glyph-name="slash" unicode="/" horiz-adv-x="296" 
d="M9 4q0 2 2 10l221 658q7 19 27 19q11 0 19.5 -8.5t8.5 -19.5q0 -2 -2 -10l-221 -658q-7 -19 -27 -19q-11 0 -19.5 8.5t-8.5 19.5z" />
    <glyph glyph-name="zero" unicode="0" horiz-adv-x="612" 
d="M306 677q62 1 112.5 -28.5t81 -79t46 -110.5t15.5 -126q1 -89 -26 -166t-87 -128.5t-142 -50.5q-63 -1 -113 28.5t-80.5 79.5t-46 111t-15.5 126q0 66 15.5 126.5t45.5 110t80.5 79t113.5 28.5zM306 603q-89 0 -129 -79q-41 -79 -41 -191q0 -113 41 -193q41 -78 129 -78
t129 78q41 80 41 193q0 112 -41 191q-40 79 -129 79z" />
    <glyph glyph-name="one" unicode="1" horiz-adv-x="339" 
d="M178 37v520l-85 -90q-11 -11 -25 -11q-15 0 -25.5 10.5t-10.5 25.5t10 25l136 140q14 14 34 14t34.5 -14t14.5 -34v-586q0 -17 -12 -29t-29 -12q-18 0 -30 12t-12 29z" />
    <glyph glyph-name="two" unicode="2" horiz-adv-x="582" 
d="M43 44q0 21 18 36q125 98 204 167q153 134 153 234q0 58 -39.5 90t-99.5 32q-94 0 -159 -62q-14 -9 -25 -9q-16 0 -26.5 11t-10.5 27q0 18 13 28q82 79 208 79q92 0 158 -52.5t66 -143.5q0 -66 -40 -130q-38 -61 -104 -124t-180 -153h294q15 0 26 -11t11 -26t-11 -26
t-26 -11h-386q-17 0 -30.5 13t-13.5 31z" />
    <glyph glyph-name="three" unicode="3" horiz-adv-x="557" 
d="M50 72q-12 12 -12 28t11 26.5t27 10.5q14 0 24 -9q69 -66 164 -66q73 0 114.5 33.5t41.5 91.5q0 59 -43.5 88.5t-122.5 29.5h-36q-15 0 -26 10.5t-11 26.5q0 15 11 26t26 11h36q70 0 112.5 28.5t42.5 81.5q0 52 -42 83t-107 31q-87 0 -154 -61q-11 -8 -23 -8
q-15 0 -25.5 10.5t-10.5 25.5q0 14 13 27q86 80 206 80q99 0 162 -48q64 -46 64 -130q0 -65 -44 -106q-43 -38 -100 -49q57 -5 105.5 -49.5t48.5 -114.5q0 -85 -64.5 -138.5t-171.5 -53.5q-135 0 -216 84z" />
    <glyph glyph-name="four" unicode="4" horiz-adv-x="558" 
d="M530 206q0 -16 -11 -26.5t-26 -10.5h-61v-132q0 -16 -12 -28.5t-29 -12.5q-18 0 -30 12t-12 29v132h-272q-20 0 -34.5 14t-14.5 34q0 16 8 27l264 394q21 33 60 33q29 0 50.5 -21t21.5 -51v-357h61q15 0 26 -10.5t11 -25.5zM115 242h234v348z" />
    <glyph glyph-name="five" unicode="5" horiz-adv-x="590" 
d="M76 98q0 16 11.5 27t27.5 11q15 0 25 -9q62 -65 161 -65q67 0 111 41q43 40 43 102q0 65 -42 104.5t-111 39.5q-76 0 -137 -49q-14 -11 -30 -11q-20 0 -34 14t-14 34v286q0 44 44 44h331q15 0 26 -11t11 -26t-11 -26t-26 -11h-292v-232q60 60 156 60q89 0 150.5 -58
t61.5 -155q0 -98 -67 -159t-170 -61q-133 0 -212 81q-13 13 -13 29z" />
    <glyph glyph-name="six" unicode="6" horiz-adv-x="591" 
d="M322 677q94 0 162 -59q15 -12 15 -30q0 -15 -11 -26t-26 -11t-22 7q-50 45 -118 45q-89 0 -138.5 -76.5t-49.5 -185.5q0 -20 1 -26q26 41 77 72q53 32 112 32q95 0 156.5 -56t61.5 -157q0 -91 -65 -154.5t-169 -63.5q-131 0 -194 97t-63 247q0 149 70 247t201 98z
M304 347q-48 0 -93.5 -27.5t-73.5 -72.5q8 -75 48 -130t120 -55q70 0 111.5 43t41.5 98q0 68 -42 106t-112 38z" />
    <glyph glyph-name="seven" unicode="7" horiz-adv-x="515" 
d="M142 37q0 7 4 18l244 538h-327q-15 0 -26 11t-11 26t11 26t26 11h388q16 0 27.5 -12t11.5 -28q0 -9 -4 -16l-264 -590q-4 -11 -15 -18t-23 -7q-18 0 -30 12t-12 29z" />
    <glyph glyph-name="eight" unicode="8" horiz-adv-x="581" 
d="M211 344q-67 19 -107.5 60.5t-40.5 99.5q0 82 67 127.5t161 45.5t161.5 -45.5t67.5 -127.5q0 -59 -40.5 -100t-108.5 -60q68 -20 113 -66q46 -46 46 -109q0 -81 -68.5 -131t-170.5 -50q-103 0 -171 49.5t-68 131.5q0 63 45 109q47 46 114 66zM291 603q-64 0 -104.5 -30
t-40.5 -80q0 -53 47 -80q48 -26 98 -35q50 9 98 35q47 27 47 80q0 50 -41 80t-104 30zM291 307q-51 -6 -104.5 -41t-51.5 -88q0 -52 45 -84q47 -32 111 -32q63 0 109 32q46 31 46 84q1 53 -52 88t-103 41z" />
    <glyph glyph-name="nine" unicode="9" horiz-adv-x="591" 
d="M92 78q0 15 11 26t26 11q12 0 22 -7q48 -45 118 -45q92 0 140 76t48 185q0 21 -1 27q-26 -41 -77 -72q-53 -32 -111 -32q-96 0 -157.5 56t-61.5 157q0 90 65 154t168 64q132 0 195 -98t63 -247q0 -96 -29 -172.5t-91.5 -124t-150.5 -47.5q-94 0 -162 59q-15 8 -15 30z
M286 604q-69 0 -111 -43.5t-42 -97.5q0 -68 42 -106t112 -38q49 0 94.5 27t71.5 72q-6 74 -47 130t-120 56z" />
    <glyph glyph-name="colon" unicode=":" horiz-adv-x="230" 
d="M115 490q23 0 39 -16t16 -39q0 -22 -16 -38.5t-39 -16.5q-22 0 -38.5 16.5t-16.5 38.5q0 23 16.5 39t38.5 16zM115 100q23 0 39 -16t16 -39q0 -22 -16 -38.5t-39 -16.5q-22 0 -38.5 16.5t-16.5 38.5q0 23 16.5 39t38.5 16z" />
    <glyph glyph-name="semicolon" unicode=";" horiz-adv-x="230" 
d="M60 435q0 23 16.5 39t38.5 16q23 0 39 -16t16 -39q0 -22 -16.5 -38.5t-38.5 -16.5t-38.5 16.5t-16.5 38.5zM92 -123q-10 0 -16.5 6.5t-6.5 16.5q0 11 7 17q41 41 46 80q-8 -2 -14 -2q-21 0 -34.5 14.5t-13.5 36.5t15.5 38t37.5 16q27 0 45 -21t18 -55q0 -83 -69 -141
q-6 -6 -15 -6z" />
    <glyph glyph-name="less" unicode="&#x3c;" horiz-adv-x="499" 
d="M25 335q0 21 22 35l386 192q6 3 13 3q12 0 20 -8.5t8 -19.5q0 -17 -17 -26l-364 -177l365 -176q16 -7 16 -25q0 -12 -8 -20t-20 -8q-3 0 -13 2l-386 192q-22 14 -22 36z" />
    <glyph glyph-name="equal" unicode="=" horiz-adv-x="499" 
d="M25 431q0 11 8 18.5t18 7.5h397q11 0 18.5 -7.5t7.5 -18.5t-7.5 -19t-18.5 -8h-397q-11 0 -18.5 8t-7.5 19zM25 237q0 11 8 18.5t18 7.5h397q11 0 18.5 -7.5t7.5 -18.5q0 -10 -7.5 -18t-18.5 -8h-397q-10 0 -18 8t-8 18z" />
    <glyph glyph-name="greater" unicode="&#x3e;" horiz-adv-x="499" 
d="M53 105q-12 0 -20 8t-8 20q0 18 16 25l364 176l-364 177q-16 9 -16 26q0 11 8 19.5t20 8.5q7 0 12 -3l386 -192q23 -12 23 -35q0 -22 -23 -36l-386 -192q-8 -2 -12 -2z" />
    <glyph glyph-name="question" unicode="?" horiz-adv-x="462" 
d="M260 401q47 32 66 54.5t19 54.5q0 41 -31.5 67t-86.5 26q-82 0 -138 -59q-11 -9 -24 -9q-15 0 -26 10.5t-11 26.5q0 15 12 27q78 78 195 78q88 0 142 -44t54 -111q-3 -57 -28 -89t-84 -73q-47 -33 -64.5 -53t-17.5 -47q0 -12 11 -26q2 -4 2 -10q0 -15 -10 -25.5
t-25 -10.5q-18 0 -29 17q-22 28 -22 61q0 32 13 55t30.5 39t52.5 41zM224 100q23 0 39 -16t16 -39q0 -22 -16 -38.5t-39 -16.5q-22 0 -38.5 16.5t-16.5 38.5q0 23 16.5 39t38.5 16z" />
    <glyph glyph-name="at" unicode="@" horiz-adv-x="783" 
d="M747 321q0 -108 -51.5 -172t-121.5 -64q-39 0 -64 23t-27 58l-1 6q-28 -39 -70.5 -63t-87.5 -24q-69 0 -111 45t-42 118q-2 98 72 175.5t163 75.5q44 0 78.5 -21.5t49.5 -56.5l8 40q5 26 32 26q16 0 26.5 -12.5t6.5 -28.5l-49 -234q-2 -16 -2 -21q0 -24 13 -38t34 -14
q40 0 74 46.5t34 135.5q0 123 -79 203t-204 80q-91 2 -175.5 -49t-135 -135.5t-48.5 -173.5q0 -121 82 -202t205 -81q91 0 174 49q4 3 9 3q16 0 16 -16q0 -10 -7 -14q-89 -55 -196 -55q-132 -2 -225.5 91t-91.5 223q-2 102 54 194.5t149.5 147t193.5 52.5q136 2 226.5 -92
t88.5 -225zM493 231l29 138q-10 31 -37.5 52.5t-65.5 21.5q-71 1 -125 -59t-52 -132q0 -49 27.5 -80t74.5 -31q87 0 149 90z" />
    <glyph glyph-name="A" unicode="A" horiz-adv-x="658" 
d="M630 39q0 -18 -12.5 -30.5t-29.5 -12.5q-28 0 -40 27l-48 125h-343l-48 -125q-8 -27 -39 -27q-18 0 -30.5 12.5t-12.5 29.5q0 6 4 17l230 570q18 46 68 46q49 0 67 -46l231 -570q3 -15 3 -16zM186 222h286l-143 371z" />
    <glyph glyph-name="B" unicode="B" horiz-adv-x="629" 
d="M78 44v579q0 44 44 44h253q86 0 136.5 -47t50.5 -123q0 -59 -33.5 -101t-83.5 -52q53 -7 91.5 -56t38.5 -108q0 -82 -52 -131t-141 -49h-260q-44 0 -44 44zM161 378h200q54 0 84.5 29.5t30.5 77.5t-31 78t-84 30h-200v-215zM161 74h204q58 0 91 31t33 84q0 50 -33 82.5
t-91 32.5h-204v-230z" />
    <glyph glyph-name="C" unicode="C" horiz-adv-x="670" 
d="M51 333q-3 148 97.5 247.5t242.5 97.5q139 0 229 -97q10 -10 10 -27q0 -16 -11.5 -27.5t-27.5 -11.5q-20 0 -30 13q-68 76 -170 76q-108 0 -181 -76.5t-73 -194.5q0 -116 73 -193.5t181 -77.5q105 0 170 76q10 13 30 13q16 0 27.5 -11.5t11.5 -27.5q0 -17 -10 -27
q-92 -97 -229 -97q-142 -3 -242.5 97t-97.5 248z" />
    <glyph glyph-name="D" unicode="D" horiz-adv-x="700" 
d="M78 44v579q0 44 44 44h184q150 2 247 -95t95 -239q2 -142 -95 -238t-247 -95h-184q-44 0 -44 44zM161 74h145q116 0 186 74t70 185q0 113 -69 186.5t-187 73.5h-145v-519z" />
    <glyph glyph-name="E" unicode="E" horiz-adv-x="569" 
d="M78 44v579q0 44 44 44h360q15 0 26.5 -11t11.5 -26t-11.5 -26t-26.5 -11h-321v-215h314q15 0 26.5 -11t11.5 -26t-11.5 -26t-26.5 -11h-314v-230h321q15 0 26.5 -11t11.5 -26t-11.5 -26t-26.5 -11h-360q-44 0 -44 44z" />
    <glyph glyph-name="F" unicode="F" horiz-adv-x="550" 
d="M78 37v586q0 44 44 44h360q15 0 26.5 -11t11.5 -26t-11.5 -26t-26.5 -11h-321v-215h314q15 0 26.5 -11t11.5 -26t-11.5 -26t-26.5 -11h-314v-267q0 -16 -12 -28.5t-29 -12.5q-18 0 -30 12t-12 29z" />
    <glyph glyph-name="G" unicode="G" horiz-adv-x="713" 
d="M656 298v-163q0 -34 -22 -55q-101 -93 -240 -93q-144 -2 -244.5 97t-98.5 249q-2 149 98.5 248t244.5 97q138 0 230 -92q11 -9 11 -27q0 -16 -11 -27t-27 -11q-17 0 -28 11q-72 72 -175 72q-108 2 -183.5 -76.5t-73.5 -194.5q-2 -115 73.5 -194.5t183.5 -77.5
q52 0 100 20.5t79 51.5v136h-196q-15 0 -26 11t-11 26t11 26t26 11h235q44 0 44 -45z" />
    <glyph glyph-name="H" unicode="H" horiz-adv-x="712" 
d="M551 37v269h-390v-269q0 -16 -12 -28.5t-29 -12.5q-18 0 -30 12t-12 29v593q0 17 12 29t29 12t29.5 -12t12.5 -29v-250h390v250q0 17 12 29t30 12q17 0 29 -12t12 -29v-593q0 -17 -12 -29t-30 -12q-17 0 -29 12t-12 29z" />
    <glyph glyph-name="I" unicode="I" horiz-adv-x="239" 
d="M78 37v593q0 17 12 29t30 12q17 0 29 -12t12 -29v-593q0 -16 -12 -28.5t-29 -12.5q-18 0 -30 12t-12 29z" />
    <glyph glyph-name="J" unicode="J" horiz-adv-x="475" 
d="M19 73q0 16 11.5 27t27.5 11q12 0 22 -7q43 -42 100 -42q61 0 97.5 38.5t36.5 101.5v428q0 17 12 29t29 12t29.5 -12t12.5 -29v-429q0 -102 -58 -157.5t-154 -55.5q-92 0 -150 55q-16 10 -16 30z" />
    <glyph glyph-name="K" unicode="K" horiz-adv-x="601" 
d="M560 36q0 -17 -11 -28.5t-27 -11.5q-18 0 -30 12l-264 289l-67 -71v-189q0 -17 -12.5 -29t-29.5 -12t-29 12t-12 29v593q0 17 12 29t29 12t29.5 -12t12.5 -29v-309l306 337q10 13 29 13q16 0 28 -11t12 -27q0 -13 -11 -27l-242 -258l266 -286q11 -11 11 -26z" />
    <glyph glyph-name="L" unicode="L" horiz-adv-x="510" 
d="M78 44v586q0 17 12 29t30 12q17 0 29 -12t12 -29v-556h277q15 0 26.5 -11t11.5 -26t-11.5 -26t-26.5 -11h-316q-44 0 -44 44z" />
    <glyph glyph-name="M" unicode="M" horiz-adv-x="809" 
d="M648 37v518l-221 -542q-6 -17 -23 -17t-23 17l-220 542v-518q0 -16 -12 -28.5t-29 -12.5q-18 0 -30 12t-12 29v564q0 29 20.5 49.5t49.5 20.5q47 0 65 -44l191 -471l192 471q18 44 65 44q29 0 49.5 -20.5t20.5 -49.5v-564q0 -17 -12 -29t-30 -12q-16 0 -28.5 12.5
t-12.5 28.5z" />
    <glyph glyph-name="N" unicode="N" horiz-adv-x="708" 
d="M537 17l-376 521v-501q0 -16 -12 -28.5t-29 -12.5q-18 0 -30 12t-12 29v580q0 22 16 38t38 16q28 0 44 -22l371 -509v490q0 17 12.5 29t28.5 12q18 0 30 -12t12 -29v-583q0 -21 -15 -36t-36 -15q-27 0 -42 21z" />
    <glyph glyph-name="O" unicode="O" horiz-adv-x="765" 
d="M382 678q143 2 238 -98t93 -247q2 -147 -92.5 -247t-238.5 -98q-144 -2 -238.5 98t-92.5 247q-2 147 92.5 247t238.5 98zM382 604q-110 0 -177.5 -76t-67.5 -195q0 -118 67.5 -194.5t177.5 -76.5q109 0 177 76.5t68 194.5t-68 194.5t-177 76.5z" />
    <glyph glyph-name="P" unicode="P" horiz-adv-x="587" 
d="M78 37v586q0 44 44 44h224q96 0 152.5 -57.5t56.5 -143.5t-57.5 -143.5t-151.5 -57.5h-185v-228q0 -16 -12 -28.5t-29 -12.5q-18 0 -30 12t-12 29zM336 593h-175v-254h175q59 0 96 35.5t37 91.5t-37 91.5t-96 35.5z" />
    <glyph glyph-name="Q" unicode="Q" horiz-adv-x="765" 
d="M621 87l40 -43q10 -10 10 -25q0 -16 -11 -27t-27 -11q-17 0 -28 12l-42 45q-80 -50 -181 -50q-144 -2 -238.5 98t-92.5 247q-2 147 92.5 247t238.5 98q143 2 238 -98t93 -247q0 -151 -92 -246zM509 96l-71 77q-10 11 -10 25q0 16 11 27t27 11q19 0 28 -12l72 -78
q61 75 61 187q0 118 -68 194.5t-177 76.5q-110 0 -177.5 -76t-67.5 -195q0 -118 67.5 -194.5t177.5 -76.5q72 0 127 34z" />
    <glyph glyph-name="R" unicode="R" horiz-adv-x="608" 
d="M557 34q0 -15 -11.5 -26.5t-28.5 -11.5q-23 0 -35 17l-174 252h-147v-228q0 -16 -12 -28.5t-29 -12.5q-18 0 -30 12t-12 29v586q0 44 44 44h224q93 0 151 -55t58 -146q0 -79 -44.5 -130.5t-114.5 -61.5l153 -214q8 -13 8 -26zM161 593v-255h175q59 0 96 36t37 92
t-37 91.5t-96 35.5h-175z" />
    <glyph glyph-name="S" unicode="S" horiz-adv-x="586" 
d="M49 100q0 17 11.5 29t28.5 12q16 0 25 -9q80 -70 183 -70q77 0 117 33t40 82q0 37 -23 60q-20 22 -51 35t-95 31q-79 21 -119 37q-107 44 -107 152q0 81 66 133t169 52q118 0 206 -69q17 -11 17 -32q0 -16 -11.5 -28t-27.5 -12q-14 0 -24 9q-70 58 -166 58
q-64 0 -103.5 -29.5t-39.5 -76.5q0 -31 21 -52q20 -19 49 -30t92 -28q67 -18 120 -40q113 -45 113 -163q0 -84 -62 -140t-184 -56q-139 0 -230 81q-15 14 -15 31z" />
    <glyph glyph-name="T" unicode="T" horiz-adv-x="570" 
d="M243 37v556h-178q-15 0 -26 11t-11 26t11 26t26 11h440q15 0 26 -11t11 -26t-11 -26t-26 -11h-179v-556q0 -17 -12 -29t-29 -12t-29.5 12t-12.5 29z" />
    <glyph glyph-name="U" unicode="U" horiz-adv-x="700" 
d="M78 259v371q0 17 12 29t30 12q17 0 29 -12t12 -29v-369q0 -94 49.5 -146.5t139.5 -52.5t139.5 52.5t49.5 146.5v369q0 17 12 29t30 12q17 0 29 -12t12 -29v-370q0 -128 -70.5 -200t-201.5 -72t-201.5 71.5t-70.5 199.5z" />
    <glyph glyph-name="V" unicode="V" horiz-adv-x="658" 
d="M261 42l-229 569q-4 7 -4 16q0 18 12.5 31t31.5 13q33 0 41 -28l216 -552l216 552q12 28 41 28q18 0 31 -13t13 -31q0 -7 -4 -16l-229 -569q-18 -46 -68 -46q-49 0 -68 46z" />
    <glyph glyph-name="W" unicode="W" horiz-adv-x="883" 
d="M578 39l-137 499l-136 -499q-11 -43 -56 -43q-20 0 -35.5 11.5t-20.5 30.5l-164 576q-2 10 -2 13q0 18 13 31t31 13q33 0 42 -33l141 -527l145 528q4 14 15.5 23t27.5 9q15 0 26.5 -9t15.5 -23l145 -528l140 527q9 33 42 33q19 0 31.5 -13t12.5 -31q0 -3 -2 -13
l-164 -576q-4 -19 -19.5 -30.5t-35.5 -11.5t-36 12t-20 31z" />
    <glyph glyph-name="X" unicode="X" horiz-adv-x="652" 
d="M622 37q0 -17 -11.5 -29t-29.5 -12q-21 0 -31 13l-224 272l-224 -272q-10 -13 -31 -13q-18 0 -29.5 12t-11.5 29q0 12 10 25l236 281l-221 261q-9 14 -9 26q0 16 11 28.5t28 12.5q21 0 32 -14l209 -254l209 254q11 14 31 14q17 0 28.5 -12.5t11.5 -28.5q0 -14 -9 -25
l-221 -262l236 -281q10 -13 10 -25z" />
    <glyph glyph-name="Y" unicode="Y" horiz-adv-x="626" 
d="M578 609l-223 -327v-245q0 -17 -12.5 -29t-29.5 -12t-29 12t-12 29v245l-224 326q-7 7 -7 23q0 17 12 28.5t28 11.5q23 0 34 -18l198 -297l197 297q14 18 34 18q17 0 29 -12t12 -28q0 -12 -7 -22z" />
    <glyph glyph-name="Z" unicode="Z" horiz-adv-x="585" 
d="M43 48q0 15 10 28l370 517h-343q-15 0 -26 11t-11 26t11 26t26 11h406q20 0 34 -14t14 -34q0 -15 -10 -28l-370 -517h350q15 0 26 -11t11 -26t-11 -26t-26 -11h-413q-20 0 -34 14t-14 34z" />
    <glyph glyph-name="bracketleft" unicode="[" horiz-adv-x="243" 
d="M40 -157v801q0 15 10 24.5t24 9.5h130q11 0 19.5 -8t8.5 -20q0 -11 -8.5 -19t-19.5 -8h-106v-758h106q11 0 19.5 -8t8.5 -19q0 -12 -8 -20t-19 -8h-131q-14 0 -24 9.5t-10 23.5z" />
    <glyph glyph-name="backslash" unicode="\" horiz-adv-x="296" 
d="M232 -5l-221 658q-2 8 -2 10q0 11 8.5 19.5t19.5 8.5q20 0 27 -19l221 -658q2 -8 2 -10q0 -11 -8.5 -19.5t-19.5 -8.5q-20 0 -27 19z" />
    <glyph glyph-name="bracketright" unicode="]" horiz-adv-x="243" 
d="M11 -162q0 11 8.5 19t19.5 8h106v758h-106q-11 0 -19.5 8t-8.5 19q0 12 8.5 20t19.5 8h131q14 0 23.5 -9.5t9.5 -24.5v-801q0 -14 -9.5 -23.5t-23.5 -9.5h-132q-11 0 -19 8t-8 20z" />
    <glyph glyph-name="asciicircum" unicode="^" horiz-adv-x="432" 
d="M346 344l-130 268l-130 -268q-7 -15 -25 -15q-11 0 -19.5 8t-8.5 19q0 6 4 13l141 278q8 24 38 24q28 0 39 -24l140 -278q3 -6 3 -13q0 -11 -8 -19t-19 -8q-17 0 -25 15z" />
    <glyph glyph-name="underscore" unicode="_" horiz-adv-x="564" 
d="M-7 -68q0 12 8 20t19 8h524q11 0 19 -8t8 -20q0 -11 -8 -19t-19 -8h-524q-11 0 -19 8t-8 19z" />
    <glyph glyph-name="grave" unicode="`" horiz-adv-x="226" 
d="M168 557l-121 103q-9 8 -9 19q0 25 25 25q11 0 18 -7l114 -111q7 -4 7 -14q0 -8 -6 -14t-14 -6q-9 0 -14 5z" />
    <glyph glyph-name="a" unicode="a" horiz-adv-x="527" 
d="M452 332v-299q0 -15 -11 -26t-27 -11q-15 0 -26 11t-11 26v22q-56 -67 -160 -67q-68 0 -118.5 43.5t-50.5 116.5t50.5 116t118.5 43q103 0 160 -66v87q0 47 -33.5 74.5t-88.5 27.5q-72 0 -126 -48q-10 -6 -20 -6q-13 0 -22 9t-9 22q0 16 13 25q72 63 174 63
q86 0 136.5 -41t50.5 -122zM377 102v91q-43 60 -133 60q-52 0 -85.5 -29.5t-33.5 -76.5q0 -46 33.5 -75.5t85.5 -29.5q90 0 133 60z" />
    <glyph glyph-name="b" unicode="b" horiz-adv-x="575" 
d="M528 241q0 -116 -59.5 -184.5t-155.5 -68.5q-99 0 -163 84v-39q0 -15 -11 -26t-26 -11q-16 0 -27 11t-11 26v601q0 15 11 26t27 11q15 0 26 -11t11 -26v-225q61 86 163 86q95 0 155 -70t60 -184zM450 241q0 83 -42.5 135t-113.5 52q-42 0 -83 -22.5t-61 -55.5v-219
q20 -33 61 -54.5t83 -21.5q71 0 113.5 51.5t42.5 134.5z" />
    <glyph glyph-name="c" unicode="c" horiz-adv-x="495" 
d="M288 495q93 0 155 -60q11 -11 11 -25t-10 -24t-24 -10q-13 0 -22 9q-43 43 -106 43q-75 0 -121 -52t-46 -134t46 -134.5t121 -52.5q63 0 105 43q9 9 23 9t24 -10t10 -24q0 -17 -11 -25q-62 -60 -155 -60q-106 0 -173.5 72t-67.5 182q0 108 68 180.5t173 72.5z" />
    <glyph glyph-name="d" unicode="d" horiz-adv-x="575" 
d="M500 634v-601q0 -15 -11 -26t-27 -11q-15 0 -26 11t-11 26v39q-28 -39 -71.5 -61.5t-91.5 -22.5q-96 0 -155.5 68.5t-59.5 184.5q0 114 59.5 184t155.5 70q100 0 163 -86v225q0 15 11 26t26 11q16 0 27 -11t11 -26zM425 131v219q-21 33 -62 55.5t-83 22.5q-71 0 -113 -53
t-42 -134t42 -134q42 -52 113 -52q43 0 83.5 21.5t61.5 54.5z" />
    <glyph glyph-name="e" unicode="e" horiz-adv-x="563" 
d="M285 495q103 0 167.5 -70.5t64.5 -169.5q0 -38 -44 -38h-347q4 -70 52 -119q46 -48 122 -48q72 0 130 46q7 4 17 4q13 0 22 -8.5t9 -21.5q0 -15 -13 -25q-73 -57 -172 -57q-108 0 -177 71t-69 183q0 105 68.5 179t169.5 74zM126 272h317q-2 64 -43.5 112.5t-115.5 48.5
q-70 0 -112.5 -48.5t-45.5 -112.5z" />
    <glyph glyph-name="f" unicode="f" horiz-adv-x="283" 
d="M306 641q0 -13 -8 -21.5t-22 -8.5q-3 0 -13.5 2t-15.5 2q-37 0 -56.5 -24.5t-19.5 -70.5v-37h69q14 0 23.5 -9.5t9.5 -23.5q0 -13 -9.5 -23t-23.5 -10h-69v-384q0 -15 -11 -26t-26 -11q-16 0 -27 11t-11 26v384h-51q-14 0 -24 10t-10 23t10 23t24 10h51v37q0 74 38 115.5
t102 41.5q24 0 47 -6q23 -7 23 -30z" />
    <glyph glyph-name="g" unicode="g" horiz-adv-x="574" 
d="M499 450v-436q0 -110 -65 -160t-165 -50q-107 0 -175 55q-13 10 -13 26q0 13 10 23t23 10q11 0 19 -7q52 -45 136 -45q70 0 112.5 37t42.5 108v68q-28 -39 -71 -62t-91 -23q-96 0 -155.5 67.5t-59.5 182.5q0 114 59.5 182.5t155.5 68.5q99 0 162 -86v41q0 15 11 26t27 11
q15 0 26 -11t11 -26zM424 139v211q-21 34 -61 56t-83 22q-71 0 -113 -50.5t-42 -133.5q0 -82 42 -133t113 -51q42 0 82.5 22.5t61.5 56.5z" />
    <glyph glyph-name="h" unicode="h" horiz-adv-x="552" 
d="M402 33v285q0 58 -27 84t-82 26q-40 0 -79.5 -21.5t-63.5 -53.5v-320q0 -15 -11 -26t-26 -11q-16 0 -27 11t-11 26v601q0 15 11 26t27 11q15 0 26 -11t11 -26v-221q29 35 76.5 58.5t96.5 23.5q154 0 154 -154v-308q0 -15 -11 -26t-27 -11q-15 0 -26 11t-11 26z" />
    <glyph glyph-name="i" unicode="i" horiz-adv-x="225" 
d="M62 631q0 21 15 36t35 15q21 0 36 -15t15 -36t-15 -35.5t-36 -14.5q-20 0 -35 14.5t-15 35.5zM75 33v417q0 15 11 26t27 11q15 0 26 -11t11 -26v-417q0 -15 -11 -26t-27 -11q-15 0 -26 11t-11 26z" />
    <glyph glyph-name="j" unicode="j" horiz-adv-x="225" 
d="M62 631q0 21 15 36t35 15q21 0 36 -15t15 -36t-15 -35.5t-36 -14.5q-20 0 -35 14.5t-15 35.5zM-16 -194q-12 1 -21 10t-9 22t8.5 23t20.5 10q1 0 6.5 -1t10.5 -1q75 0 75 84v497q0 15 11 26t27 11q15 0 26 -11t11 -26v-497q0 -71 -37 -110t-105 -39q-2 0 -24 2z" />
    <glyph glyph-name="k" unicode="k" horiz-adv-x="514" 
d="M475 34q0 -16 -10.5 -27t-26.5 -11q-18 0 -29 12l-177 208l-82 -76v-107q0 -15 -11 -26t-27 -11q-15 0 -26 11t-11 26v601q0 15 11 26t27 11q15 0 26 -11t11 -26v-409l261 253q9 9 24 9q14 0 24 -10.5t10 -24.5t-10 -24l-173 -166l180 -203q9 -11 9 -25z" />
    <glyph glyph-name="l" unicode="l" horiz-adv-x="225" 
d="M75 33v601q0 15 11 26t27 11q15 0 26 -11t11 -26v-601q0 -15 -11 -26t-26 -11q-16 0 -27 11t-11 26z" />
    <glyph glyph-name="m" unicode="m" horiz-adv-x="808" 
d="M733 349v-316q0 -15 -11.5 -26t-26.5 -11t-26 11t-11 26v295q0 100 -89 100q-35 0 -71 -21.5t-57 -52.5v-321q0 -15 -11 -26t-26 -11t-26.5 11t-11.5 26v295q0 100 -89 100q-34 0 -69.5 -21.5t-57.5 -53.5v-320q0 -15 -11 -26t-26 -11q-16 0 -27 11t-11 26v417
q0 15 11 26t26 11q16 0 27 -11t11 -26v-37q16 27 62 55q45 27 94 27q52 0 85 -24.5t45 -65.5q23 36 67 63q45 27 95 27q135 0 135 -146z" />
    <glyph glyph-name="n" unicode="n" 
d="M476 339v-306q0 -15 -11 -26t-27 -11q-15 0 -26 11t-11 26v283q0 59 -27 85.5t-81 26.5q-41 0 -81 -21.5t-62 -53.5v-320q0 -15 -11 -26t-26 -11q-16 0 -27 11t-11 26v417q0 15 11 26t26 11q16 0 27 -11t11 -26v-38q29 36 75.5 59.5t96.5 23.5q154 0 154 -156z" />
    <glyph glyph-name="o" unicode="o" horiz-adv-x="572" 
d="M47 242q0 108 66.5 180.5t172.5 72.5t172.5 -72.5t66.5 -180.5t-66.5 -181t-172.5 -73t-172.5 73t-66.5 181zM446 242q0 78 -43.5 132t-116.5 54t-117 -54t-44 -132q0 -79 44 -133t117 -54t116.5 54t43.5 133z" />
    <glyph glyph-name="p" unicode="p" horiz-adv-x="574" 
d="M528 242q0 -115 -59.5 -184.5t-155.5 -69.5q-100 0 -163 86v-225q0 -15 -11 -26t-26 -11q-16 0 -27 11t-11 26v601q0 15 11 26t27 11q15 0 26 -11t11 -26v-39q27 39 70 61.5t93 22.5q96 0 155.5 -68.5t59.5 -184.5zM449 242q0 82 -42 134t-113 52q-42 0 -82.5 -22
t-61.5 -55v-218q20 -33 61 -55.5t83 -22.5q71 0 113 52q42 53 42 135z" />
    <glyph glyph-name="q" unicode="q" horiz-adv-x="574" 
d="M499 450v-601q0 -15 -11 -26t-27 -11q-15 0 -26 11t-11 26v225q-61 -86 -162 -86q-96 0 -155.5 69.5t-59.5 184.5q0 116 59.5 184.5t155.5 68.5q48 0 91 -22t71 -61v38q0 15 11 26t26 11q16 0 27 -11t11 -26zM424 133v218q-21 34 -60.5 55.5t-83.5 21.5q-71 0 -113 -52
t-42 -134t42 -135q42 -52 113 -52q43 0 83 22t61 56z" />
    <glyph glyph-name="r" unicode="r" horiz-adv-x="330" 
d="M316 455q0 -14 -11 -24.5t-30 -12.5q-33 -1 -72 -25q-36 -22 -53 -51v-309q0 -15 -11 -26t-26 -11q-16 0 -27 11t-11 26v417q0 15 11 26t26 11q16 0 27 -11t11 -26v-45q49 67 108 81q18 5 24 5q15 0 24.5 -10.5t9.5 -25.5z" />
    <glyph glyph-name="s" unicode="s" horiz-adv-x="465" 
d="M41 72q0 14 10 23.5t23 9.5q11 0 20 -6q60 -50 137 -50q53 0 83.5 22t30.5 58q0 34 -28.5 52t-95.5 34q-65 16 -91 26q-84 32 -84 115q0 59 49 99t131 40q92 0 160 -53q13 -10 13 -25q0 -13 -9.5 -22.5t-22.5 -9.5q-10 0 -18 7q-48 42 -123 42q-49 0 -78 -20t-29 -53
q0 -30 26.5 -45.5t91.5 -31.5q57 -14 92 -27q89 -35 89 -123q0 -65 -51 -105.5t-139 -40.5q-102 0 -173 57q-14 9 -14 27z" />
    <glyph glyph-name="t" unicode="t" horiz-adv-x="294" 
d="M284 32q0 -21 -19 -28q-26 -16 -68 -16q-107 0 -107 113v316h-51q-13 0 -23 10t-10 23q0 14 10 23.5t23 9.5h51v99q0 15 11 26t27 11q15 0 26 -11t11 -26v-99h69q14 0 24 -10t10 -23t-10 -23t-24 -10h-69v-300q0 -28 12.5 -45t36.5 -17q9 0 23 4.5t15 4.5q14 0 23 -9
t9 -23z" />
    <glyph glyph-name="u" unicode="u" 
d="M476 450v-417q0 -15 -11 -26t-26 -11q-16 0 -27 11t-11 26v34q-72 -79 -172 -79q-154 0 -154 154v308q0 15 11 26t27 11q15 0 26 -11t11 -26v-285q0 -59 26.5 -84.5t81.5 -25.5q41 0 81 21t62 52v322q0 15 11 26t26 11q16 0 27 -11t11 -26z" />
    <glyph glyph-name="v" unicode="v" horiz-adv-x="490" 
d="M470 449q0 -3 -3 -15l-168 -402q-7 -16 -21.5 -26t-31.5 -10q-41 0 -55 36l-168 402q-3 12 -3 15q0 16 10.5 27t26.5 11q26 0 35 -23l153 -378l152 378q9 23 35 23q16 0 27 -11t11 -27z" />
    <glyph glyph-name="w" unicode="w" horiz-adv-x="734" 
d="M483 31l-116 357l-116 -357q-4 -16 -17 -25.5t-30 -9.5t-30.5 9.5t-17.5 25.5l-130 407q-2 10 -2 12q0 16 11 26.5t26 10.5q29 0 36 -26l111 -363l118 360q9 29 41 29t41 -29l118 -360l111 363q7 26 36 26q15 0 26 -11t11 -26q0 -5 -2 -13l-130 -406q-4 -16 -17.5 -25.5
t-30.5 -9.5t-30 9.5t-17 25.5z" />
    <glyph glyph-name="x" unicode="x" horiz-adv-x="486" 
d="M456 31q0 -13 -10 -24t-25 -11q-17 0 -27 12l-151 191l-150 -189q-11 -14 -28 -14q-15 0 -25 11t-10 24t8 21l162 198l-151 179q-9 10 -9 22q0 14 10.5 25t25.5 11q16 0 25 -12l142 -174l142 174q9 12 26 12q15 0 25 -10.5t10 -25.5q0 -11 -8 -22l-151 -179l161 -198
q8 -8 8 -21z" />
    <glyph glyph-name="y" unicode="y" horiz-adv-x="490" 
d="M85 -128l16 -1q27 0 43.5 11.5t28.5 39.5l32 73l-182 440q-3 7 -3 14q0 16 10.5 27t26.5 11q26 0 35 -23l153 -377l152 377q9 23 35 23q16 0 27 -11t11 -27q0 -7 -3 -15l-222 -532q-40 -96 -142 -98q-12 0 -22 2q-14 1 -23 10.5t-9 22.5q0 14 10.5 23.5t25.5 9.5z" />
    <glyph glyph-name="z" unicode="z" horiz-adv-x="472" 
d="M47 39q0 13 8 24l263 354h-238q-13 0 -23 10t-10 23t10 23t23 10h301q16 0 27.5 -11.5t11.5 -27.5q0 -10 -8 -23l-264 -356h243q14 0 23.5 -9.5t9.5 -22.5q0 -14 -9.5 -23.5t-23.5 -9.5h-304q-16 0 -28 11.5t-12 27.5z" />
    <glyph glyph-name="braceleft" unicode="{" horiz-adv-x="260" 
d="M57 -56v206q0 52 -37 66q-20 8 -20 28t20 28q37 14 37 66v205q0 58 37.5 96.5t87.5 38.5h41q11 0 19 -8t8 -20q0 -11 -8 -19t-19 -8h-41q-27 0 -46.5 -22.5t-19.5 -57.5v-211q0 -69 -46 -88q46 -19 46 -88v-211q0 -34 19.5 -57t46.5 -23h41q11 0 19 -8t8 -19
q0 -12 -8 -20t-19 -8h-41q-50 0 -87.5 38t-37.5 96z" />
    <glyph glyph-name="bar" unicode="|" horiz-adv-x="211" 
d="M78 3v661q0 11 8 19t19 8q12 0 20 -8t8 -19v-661q0 -11 -8 -19t-20 -8q-11 0 -19 8t-8 19z" />
    <glyph glyph-name="braceright" unicode="}" horiz-adv-x="260" 
d="M78 -190h-40q-11 0 -19 8t-8 20q0 11 8 19t19 8h40q27 0 46.5 23t19.5 57v211q0 69 46 88q-46 19 -46 88v211q0 35 -19.5 57.5t-46.5 22.5h-40q-11 0 -19 8t-8 19q0 12 8 20t19 8h40q50 0 87.5 -38.5t37.5 -96.5v-205q0 -54 38 -66q19 -9 19 -28t-19 -28q-38 -12 -38 -66
v-206q0 -59 -37 -96.5t-88 -37.5z" />
    <glyph glyph-name="asciitilde" unicode="~" horiz-adv-x="503" 
d="M473 637q-12 -105 -44 -159.5t-92 -54.5q-46 3 -67 28.5t-43 84.5q-17 44 -28.5 60.5t-33.5 16.5q-60 0 -80 -167q-2 -25 -28 -25q-12 0 -20.5 9.5t-7.5 22.5q13 104 45 158.5t91 54.5q25 -1 42.5 -8.5t30 -25t20 -33t18.5 -46.5q14 -43 26.5 -60.5t34.5 -17.5
q62 0 80 168q5 25 28 25q13 0 21.5 -10t6.5 -21z" />
    <glyph glyph-name="uni00A0" unicode="&#xa0;" horiz-adv-x="258" 
 />
    <glyph glyph-name="exclamdown" unicode="&#xa1;" horiz-adv-x="230" 
d="M170 438q0 -22 -16 -38.5t-39 -16.5q-22 0 -38.5 16.5t-16.5 38.5t16.5 38.5t38.5 16.5t38.5 -16.5t16.5 -38.5zM115 300q14 0 23 -9t10 -22l13 -411q1 -18 -13 -32t-33 -14t-32.5 13.5t-12.5 32.5l13 411q0 13 9 22t23 9z" />
    <glyph glyph-name="cent" unicode="&#xa2;" horiz-adv-x="495" 
d="M454 73q0 -17 -11 -25q-55 -54 -132 -59v-64q0 -12 -8.5 -20.5t-20.5 -8.5q-13 0 -21.5 8.5t-8.5 20.5v65q-92 12 -148.5 82.5t-56.5 169.5q0 98 56.5 168.5t148.5 82.5v47q0 12 8.5 20.5t21.5 8.5q12 0 20.5 -8.5t8.5 -20.5v-46q77 -5 132 -59q11 -11 11 -25t-10 -24
t-24 -10q-13 0 -22 9q-38 37 -87 42v-371q50 5 86 42q9 9 23 9t24 -10t10 -24zM252 59v365q-59 -13 -93 -62.5t-34 -119.5t34 -120t93 -63z" />
    <glyph glyph-name="sterling" unicode="&#xa3;" horiz-adv-x="518" 
d="M501 47q0 -20 -20 -32q-41 -28 -108 -28q-49 0 -98 24q-47 22 -81 22q-39 0 -98 -35q-5 -4 -14 -4q-14 0 -24.5 10.5t-10.5 24.5q0 21 18 31q114 67 114 148q0 30 -15 60h-122q-11 0 -19 8t-8 19t8 19t19 8h83l-7 8q-39 45 -54.5 76.5t-15.5 73.5q0 81 66.5 139t157.5 58
q115 0 179 -79q9 -10 9 -25q0 -16 -11 -27t-26 -11q-19 0 -30 14q-41 58 -113 58q-58 0 -101 -35q-42 -34 -42 -93q0 -36 13.5 -63t45.5 -66l22 -28h127q11 0 19 -8t8 -19t-8 -19t-19 -8h-98q6 -20 6 -43q0 -78 -76 -132q25 9 52 9q34 0 79 -22q43 -19 69 -19q36 0 70 20
q4 4 17 4q15 0 26 -11t11 -27z" />
    <glyph glyph-name="currency" unicode="&#xa4;" horiz-adv-x="598" 
d="M492 185l59 -58q10 -11 10 -23q0 -13 -9.5 -22.5t-23.5 -9.5t-23 9l-58 58q-61 -46 -148 -46t-148 46l-58 -58q-9 -9 -23 -9t-23.5 9.5t-9.5 22.5q0 12 9 23l60 59q-46 62 -46 147q0 86 46 148l-60 60q-9 9 -9 22q0 14 9.5 23.5t23.5 9.5q15 0 22 -10l60 -60
q61 46 147 46q84 0 147 -45l59 59q11 9 23 9q13 0 23 -9.5t10 -22.5t-10 -23l-59 -59q46 -62 46 -148t-46 -148zM461 333q0 71 -44 120.5t-118 49.5t-118 -49.5t-44 -120.5q0 -73 44 -122.5t118 -49.5q75 0 118.5 49.5t43.5 122.5z" />
    <glyph glyph-name="yen" unicode="&#xa5;" horiz-adv-x="626" 
d="M585 631q0 -12 -7 -22l-189 -275h194q11 0 18.5 -7.5t7.5 -18.5q0 -10 -7.5 -18t-18.5 -8h-228v-107h228q11 0 18.5 -8t7.5 -19q0 -10 -7.5 -18t-18.5 -8h-228v-85q0 -17 -12.5 -29t-29.5 -12t-29 12t-12 29v85h-228q-11 0 -18.5 8t-7.5 19t8 18.5t18 7.5h228v107h-228
q-10 0 -18 8t-8 18q0 11 8 18.5t18 7.5h193l-188 274q-8 11 -8 23q0 17 12 28.5t28 11.5q23 0 34 -18l198 -296l197 296q12 18 34 18q17 0 29 -12t12 -28z" />
    <glyph glyph-name="brokenbar" unicode="&#xa6;" horiz-adv-x="211" 
d="M78 394v270q0 11 8 19t19 8q12 0 20 -8t8 -19v-270q0 -11 -8 -19t-20 -8q-11 0 -19 8t-8 19zM78 3v270q0 11 8 19t19 8q12 0 20 -8t8 -19v-270q0 -11 -8 -19t-20 -8q-11 0 -19 8t-8 19z" />
    <glyph glyph-name="section" unicode="&#xa7;" horiz-adv-x="468" 
d="M418 66q0 -68 -51.5 -107.5t-138.5 -39.5q-105 0 -175 61q-11 11 -11 23q0 13 9 22t21 9t19 -7q61 -53 137 -53q54 0 85.5 23t31.5 64q-3 38 -30.5 54.5t-97.5 34.5q-60 16 -90 28q-81 31 -81 112q0 49 31.5 82t83.5 46q-58 19 -86.5 48t-28.5 75q0 57 49.5 96.5
t130.5 39.5q96 0 161 -54q11 -9 11 -23q0 -11 -8.5 -19.5t-20.5 -8.5q-9 0 -17 5q-50 44 -124 44q-48 0 -78.5 -22t-30.5 -58q3 -34 28 -48t93 -30q58 -14 91 -27q87 -31 87 -121q0 -87 -92 -128q92 -36 92 -121zM119 298q0 -28 19 -44q18 -16 41 -24.5t82 -22.5
q83 36 83 98q0 37 -28.5 57.5t-84.5 34.5q-61 -15 -86.5 -39t-25.5 -60z" />
    <glyph glyph-name="dieresis" unicode="&#xa8;" horiz-adv-x="413" 
d="M57 613q0 19 13.5 32.5t32.5 13.5t32.5 -13.5t13.5 -32.5q0 -20 -13.5 -33.5t-32.5 -13.5t-32.5 14t-13.5 33zM263 613q0 19 14 32.5t33 13.5t32.5 -13.5t13.5 -32.5t-13.5 -33t-32.5 -14q-20 0 -33.5 14t-13.5 33z" />
    <glyph glyph-name="copyright" unicode="&#xa9;" horiz-adv-x="778" 
d="M389 679q139 2 243 -101.5t102 -243.5q2 -140 -102 -244t-243 -101q-139 -3 -243.5 101.5t-101.5 243.5q-3 139 101 243t244 102zM389 648q-126 2 -221 -93t-93 -221q-2 -127 93 -222.5t221 -92.5q126 -3 221 92.5t93 222.5q2 126 -93 221t-221 93zM391 547q85 0 139 -57
q4 -4 4 -11q0 -8 -5 -13.5t-12 -5.5q-9 0 -13 7q-45 47 -113 47q-70 0 -120.5 -51t-50.5 -128t50.5 -129.5t120.5 -52.5q67 0 113 48q4 7 13 7q7 0 12 -5.5t5 -13.5q0 -7 -4 -11q-55 -58 -139 -58q-86 0 -147 62.5t-61 152.5t61 151t147 61z" />
    <glyph glyph-name="ordfeminine" unicode="&#xaa;" horiz-adv-x="378" 
d="M317 537v-186q0 -12 -8 -20.5t-20 -8.5t-20.5 9t-8.5 21v10q-39 -44 -107 -44q-46 0 -79 29t-33 75q0 47 32.5 75t79.5 28q67 0 107 -42v55q0 29 -22.5 47t-56.5 18q-45 0 -85 -32q-5 -5 -13 -5q-10 0 -16.5 6.5t-6.5 15.5q0 10 9 18q53 42 119 42q59 0 94 -28t35 -83z
M260 394v56q-27 38 -85 38q-33 0 -54.5 -18.5t-21.5 -47.5q0 -30 21.5 -48t54.5 -18q58 0 85 38z" />
    <glyph glyph-name="guillemotleft" unicode="&#xab;" horiz-adv-x="439" 
d="M185 68l-127 143q-14 17 -14 32t14 32l127 140q7 9 21 9q12 0 20 -8.5t8 -19.5q0 -10 -7 -18l-122 -135l123 -137q7 -8 7 -19t-8.5 -19.5t-20.5 -8.5t-21 9zM329 68l-127 143q-14 17 -14 32t14 32l127 140q7 9 21 9q12 0 20 -8.5t8 -19.5q0 -10 -7 -18l-122 -135
l123 -137q7 -8 7 -19t-8.5 -19.5t-20.5 -8.5t-21 9z" />
    <glyph glyph-name="logicalnot" unicode="&#xac;" horiz-adv-x="504" 
d="M442 207q-11 0 -19 8t-8 19v170h-364q-11 0 -18.5 8t-7.5 19t8 18.5t18 7.5h374q45 0 45 -44v-179q0 -11 -8.5 -19t-19.5 -8z" />
    <glyph glyph-name="uni00AD" unicode="&#xad;" horiz-adv-x="300" 
d="M26 242q0 14 10 23.5t23 9.5h182q14 0 23.5 -9.5t9.5 -23.5q0 -13 -9.5 -23t-23.5 -10h-182q-13 0 -23 10t-10 23z" />
    <glyph glyph-name="registered" unicode="&#xae;" horiz-adv-x="494" 
d="M247 677q88 0 150 -62t62 -150t-62 -150t-150 -62t-150 62t-62 150t62 150t150 62zM247 648q-76 0 -130 -53.5t-54 -129.5q0 -75 54 -129.5t130 -54.5q75 0 129 54.5t54 129.5q0 76 -53.5 129.5t-129.5 53.5zM310 346l-61 93h-51v-85q0 -6 -4.5 -10.5t-10.5 -4.5
q-7 0 -12 4.5t-5 10.5v212q0 8 6 14t14 6h79q33 0 55 -20.5t22 -53.5q0 -30 -17.5 -49t-38.5 -22l52 -77q2 -4 2 -8q0 -7 -5 -12.5t-12 -5.5q-8 0 -13 8zM265 558h-67v-90h67q16 0 30 13t14 31q0 19 -13.5 32.5t-30.5 13.5z" />
    <glyph glyph-name="overscore" unicode="&#xaf;" horiz-adv-x="363" 
d="M24 596q0 10 7 17t17 7h267q10 0 17 -7t7 -17t-7 -17t-17 -7h-267q-10 0 -17 7t-7 17z" />
    <glyph glyph-name="degree" unicode="&#xb0;" horiz-adv-x="290" 
d="M23 555q0 49 35 86q36 36 86 36q51 0 87 -36t36 -86q0 -51 -36 -87q-37 -35 -87 -35q-49 0 -86 35q-35 37 -35 87zM72 555q0 -31 21 -52.5t51 -21.5q31 0 53 21.5t22 52.5q0 30 -22 52t-53 22q-30 0 -51 -22t-21 -52z" />
    <glyph glyph-name="plusminus" unicode="&#xb1;" horiz-adv-x="499" 
d="M278 324v-190q0 -11 -8.5 -19.5t-20.5 -8.5q-11 0 -19.5 8.5t-8.5 19.5v190h-170q-10 0 -18 8t-8 18q0 11 8 18.5t18 7.5h170v183q0 11 8.5 19.5t19.5 8.5q12 0 20.5 -8.5t8.5 -19.5v-183h170q11 0 18.5 -7.5t7.5 -18.5q0 -10 -7.5 -18t-18.5 -8h-170zM25 26q0 11 8 18.5
t18 7.5h397q11 0 18.5 -7.5t7.5 -18.5q0 -10 -7.5 -18t-18.5 -8h-397q-10 0 -18 8t-8 18z" />
    <glyph glyph-name="uni00B2" unicode="&#xb2;" horiz-adv-x="344" 
d="M16 451q0 14 13 24q119 83 169 133q51 52 51 97q0 35 -24 54t-61 19q-57 0 -98 -37q-7 -7 -16 -7q-10 0 -17.5 7.5t-7.5 18.5t8 19q53 48 133 48q62 0 102.5 -31.5t40.5 -86.5q0 -54 -47.5 -109t-153.5 -130h183q10 0 17.5 -7t7.5 -17t-7.5 -17.5t-17.5 -7.5h-245
q-12 0 -21 8.5t-9 21.5z" />
    <glyph glyph-name="uni00B3" unicode="&#xb3;" horiz-adv-x="368" 
d="M35 463q-8 8 -8 20q0 10 7.5 17.5t18.5 7.5q10 0 16 -6q45 -39 101 -39q43 0 68 19t25 51q0 69 -104 69h-20q-10 0 -17.5 7t-7.5 17t7.5 17t17.5 7h19q98 0 98 64q0 29 -25 46.5t-64 17.5q-55 0 -95 -36q-8 -5 -16 -5q-10 0 -17 7t-7 17t9 19q56 47 131 47
q64 0 104 -29.5t40 -77.5q0 -38 -25.5 -62.5t-63.5 -30.5q34 -3 65 -28t31 -69q0 -52 -41 -84t-110 -32q-86 0 -137 49z" />
    <glyph glyph-name="acute" unicode="&#xb4;" horiz-adv-x="226" 
d="M44 552q-8 0 -14 6t-6 14q0 10 7 14l114 111q7 7 18 7q10 0 17.5 -7t7.5 -18t-9 -19l-121 -103q-5 -5 -14 -5z" />
    <glyph glyph-name="uni00B5" unicode="&#xb5;" horiz-adv-x="565" 
d="M549 21q0 -13 -9 -22.5t-22 -10.5h-10q-88 0 -105 87q-28 -39 -68.5 -63t-83.5 -24q-75 0 -101 48v-187q0 -15 -11 -26t-27 -11q-15 0 -26 11t-11 26v601q0 15 11 26t27 11q15 0 26 -11t11 -26v-285q0 -112 110 -112q40 0 79 21.5t62 53.5v322q0 15 11 26t26 11
q16 0 27 -11t11 -26v-337q0 -56 39 -58l7 -1q12 -1 19.5 -10.5t7.5 -22.5z" />
    <glyph glyph-name="paragraph" unicode="&#xb6;" horiz-adv-x="449" 
d="M333 -82v704h-89v-704q0 -9 -6.5 -15.5t-16.5 -6.5q-9 0 -15.5 6.5t-6.5 15.5v405q-71 0 -121.5 50.5t-50.5 121.5t50.5 121.5t121.5 50.5h135q44 0 44 -44v-705q0 -9 -6.5 -15.5t-15.5 -6.5q-10 0 -16.5 6.5t-6.5 15.5z" />
    <glyph glyph-name="middot" unicode="&#xb7;" horiz-adv-x="230" 
d="M60 244q0 23 16.5 39t38.5 16q23 0 39 -16t16 -39q0 -22 -16.5 -38t-38.5 -16t-38.5 16t-16.5 38z" />
    <glyph glyph-name="cedilla" unicode="&#xb8;" horiz-adv-x="205" 
d="M11 -169q-11 8 -11 19q0 8 6 14.5t15 6.5q7 0 11 -4q31 -19 67 -19q25 0 43 12t18 30q0 35 -37 35q-18 0 -32 -11q-5 -5 -13 -5q-10 0 -16.5 6.5t-6.5 16.5q0 1 2 9l26 70h45l-26 -66q17 11 37 11q29 0 47.5 -18.5t18.5 -48.5q0 -36 -29.5 -58t-74.5 -22q-51 0 -90 22z
" />
    <glyph glyph-name="uni00B9" unicode="&#xb9;" horiz-adv-x="229" 
d="M109 447v296l-50 -53q-8 -8 -19 -8q-10 0 -17.5 7.5t-7.5 18.5q0 10 8 18l88 89q10 10 24 10t24 -10t10 -24v-344q0 -12 -8.5 -21t-21.5 -9t-21.5 9t-8.5 21z" />
    <glyph glyph-name="ordmasculine" unicode="&#xba;" horiz-adv-x="405" 
d="M202 648q73 0 118 -47.5t45 -117.5t-45 -117.5t-118 -47.5q-72 0 -117 47.5t-45 117.5t45 117.5t117 47.5zM202 598q-47 0 -74.5 -32t-27.5 -83q0 -52 27.5 -84.5t74.5 -32.5t75.5 32.5t28.5 84.5q0 51 -28.5 83t-75.5 32z" />
    <glyph glyph-name="guillemotright" unicode="&#xbb;" horiz-adv-x="439" 
d="M60 87q0 11 7 19l123 137l-122 135q-7 8 -7 18q0 11 8 19.5t20 8.5q13 0 21 -9l127 -140q14 -17 14 -32t-14 -32l-127 -143q-9 -9 -21 -9t-20.5 8.5t-8.5 19.5zM204 87q0 11 7 19l123 137l-122 135q-7 8 -7 18q0 11 8 19.5t20 8.5q13 0 21 -9l127 -140q14 -17 14 -32
t-14 -32l-127 -143q-9 -9 -21 -9t-20.5 8.5t-8.5 19.5z" />
    <glyph glyph-name="onequarter" unicode="&#xbc;" horiz-adv-x="706" 
d="M109 293v296l-50 -53q-8 -8 -19 -8q-10 0 -17.5 7.5t-7.5 18.5q0 10 8 18l88 89q10 10 24 10t24 -10t10 -24v-344q0 -12 -8.5 -21t-21.5 -9t-21.5 9t-8.5 21zM132 -4q-10 0 -16.5 6.5t-6.5 15.5q0 8 3 14l402 629q6 10 20 10q10 0 16.5 -6.5t6.5 -16.5q0 -7 -3 -13
l-403 -629q-7 -10 -19 -10zM695 125q0 -10 -7 -17.5t-17 -7.5h-38v-74q0 -13 -8.5 -21.5t-20.5 -8.5q-13 0 -21.5 8.5t-8.5 21.5v74h-172q-12 0 -20.5 8.5t-8.5 20.5q0 4 5 16l160 236q14 23 43 23q22 0 37 -15.5t15 -36.5v-203h38q10 0 17 -7t7 -17zM438 149h136v198z" />
    <glyph glyph-name="onehalf" unicode="&#xbd;" horiz-adv-x="746" 
d="M109 293v296l-50 -53q-8 -8 -19 -8q-10 0 -17.5 7.5t-7.5 18.5q0 10 8 18l88 89q10 10 24 10t24 -10t10 -24v-344q0 -12 -8.5 -21t-21.5 -9t-21.5 9t-8.5 21zM132 -4q-10 0 -16.5 6.5t-6.5 15.5q0 8 3 14l402 629q6 10 20 10q10 0 16.5 -6.5t6.5 -16.5q0 -7 -3 -13
l-403 -629q-7 -10 -19 -10zM419 30q0 14 13 24q118 83 169 133q51 53 51 97q0 35 -24 54t-61 19q-57 0 -98 -37q-7 -7 -16 -7q-10 0 -17.5 7.5t-7.5 18.5t8 19q52 48 133 48q62 0 102.5 -31.5t40.5 -86.5q0 -54 -47.5 -109t-153.5 -130h183q10 0 17.5 -7t7.5 -17t-7.5 -17.5
t-17.5 -7.5h-245q-12 0 -21 8.5t-9 21.5z" />
    <glyph glyph-name="threequarters" unicode="&#xbe;" horiz-adv-x="810" 
d="M35 309q-8 8 -8 20q0 10 7.5 17.5t18.5 7.5q10 0 16 -6q45 -39 101 -39q43 0 68 19t25 51q0 69 -104 69h-20q-10 0 -17.5 7t-7.5 17t7.5 17t17.5 7h19q98 0 98 64q0 29 -25 46.5t-64 17.5q-55 0 -95 -36q-8 -5 -16 -5q-10 0 -17 7t-7 17t9 19q56 47 131 47
q64 0 104 -29.5t40 -77.5q0 -38 -25.5 -62.5t-63.5 -30.5q34 -3 65 -28t31 -69q0 -52 -41 -84t-110 -32q-86 0 -137 49zM236 -4q-10 0 -16.5 6.5t-6.5 15.5q0 8 3 14l402 629q6 10 20 10q10 0 16.5 -6.5t6.5 -16.5q0 -7 -3 -13l-403 -629q-7 -10 -19 -10zM798 125
q0 -10 -7 -17.5t-17 -7.5h-38v-74q0 -13 -8.5 -21.5t-20.5 -8.5q-13 0 -21.5 8.5t-8.5 21.5v74h-172q-12 0 -20.5 8.5t-8.5 20.5q0 4 5 16l160 236q14 23 43 23q22 0 37 -15.5t15 -36.5v-203h38q10 0 17 -7t7 -17zM541 149h136v198z" />
    <glyph glyph-name="questiondown" unicode="&#xbf;" horiz-adv-x="394" 
d="M238 383q-22 0 -38.5 16t-16.5 38q0 23 16.5 39.5t38.5 16.5t38.5 -16.5t16.5 -39.5q0 -22 -16.5 -38t-38.5 -16zM201 82q-47 -33 -65.5 -55t-18.5 -55q0 -41 31 -66.5t86 -25.5q84 0 138 58q9 9 24 9q16 0 26.5 -10.5t10.5 -25.5q0 -18 -12 -27q-76 -79 -194 -79
q-88 0 -142 44.5t-54 111.5q3 57 27.5 88t84.5 73q46 33 63.5 52.5t17.5 47.5q0 12 -10 26q-3 6 -3 10q0 15 10.5 25.5t25.5 10.5q18 0 29 -17q21 -27 21 -61q-3 -46 -24 -72t-72 -62z" />
    <glyph glyph-name="Agrave" unicode="&#xc0;" horiz-adv-x="658" 
d="M630 39q0 -18 -12.5 -30.5t-29.5 -12.5q-28 0 -40 27l-48 125h-343l-48 -125q-8 -27 -39 -27q-18 0 -30.5 12.5t-12.5 29.5q0 6 4 17l230 570q18 46 68 46q49 0 67 -46l231 -570q3 -15 3 -16zM186 222h286l-143 371zM311 724l-121 103q-9 8 -9 19q0 25 25 25q11 0 18 -7
l114 -111q7 -4 7 -14q0 -8 -6 -14t-14 -6q-9 0 -14 5z" />
    <glyph glyph-name="Aacute" unicode="&#xc1;" horiz-adv-x="658" 
d="M630 39q0 -18 -12.5 -30.5t-29.5 -12.5q-28 0 -40 27l-48 125h-343l-48 -125q-8 -27 -39 -27q-18 0 -30.5 12.5t-12.5 29.5q0 6 4 17l230 570q18 46 68 46q49 0 67 -46l231 -570q3 -15 3 -16zM186 222h286l-143 371zM336 719q-8 0 -14 6t-6 14q0 10 7 14l114 111
q7 7 18 7q10 0 17.5 -7t7.5 -18q0 -12 -9 -19l-121 -103q-5 -5 -14 -5z" />
    <glyph glyph-name="Acircumflex" unicode="&#xc2;" horiz-adv-x="658" 
d="M630 39q0 -18 -12.5 -30.5t-29.5 -12.5q-28 0 -40 27l-48 125h-343l-48 -125q-8 -27 -39 -27q-18 0 -30.5 12.5t-12.5 29.5q0 6 4 17l230 570q18 46 68 46q49 0 67 -46l231 -570q3 -15 3 -16zM186 222h286l-143 371zM410 724l-80 105l-80 -105q-4 -7 -16 -7q-9 0 -15.5 6
t-6.5 16q0 5 3 11l70 104q14 19 36 19h18q22 0 36 -19l70 -104q3 -6 3 -11q0 -10 -6.5 -16t-15.5 -6q-12 0 -16 7z" />
    <glyph glyph-name="Atilde" unicode="&#xc3;" horiz-adv-x="658" 
d="M630 39q0 -18 -12.5 -30.5t-29.5 -12.5q-28 0 -40 27l-48 125h-343l-48 -125q-8 -27 -39 -27q-18 0 -30.5 12.5t-12.5 29.5q0 6 4 17l230 570q18 46 68 46q49 0 67 -46l231 -570q3 -15 3 -16zM186 222h286l-143 371zM313 774q-14 22 -23.5 30.5t-23.5 8.5q-42 0 -48 -70
q-2 -20 -22 -20q-10 0 -16.5 7.5t-5.5 16.5q5 53 30 83.5t66 30.5q24 0 39.5 -12t35.5 -41q17 -24 25.5 -31.5t22.5 -7.5q41 0 47 70q2 20 22 20q10 0 17 -7t6 -17q-5 -54 -30 -84t-66 -30q-25 0 -40.5 12t-35.5 41z" />
    <glyph glyph-name="Adieresis" unicode="&#xc4;" horiz-adv-x="658" 
d="M630 39q0 -18 -12.5 -30.5t-29.5 -12.5q-28 0 -40 27l-48 125h-343l-48 -125q-8 -27 -39 -27q-18 0 -30.5 12.5t-12.5 29.5q0 6 4 17l230 570q18 46 68 46q49 0 67 -46l231 -570q3 -15 3 -16zM186 222h286l-143 371zM180 780q0 19 13.5 32.5t32.5 13.5t32.5 -13.5
t13.5 -32.5q0 -20 -13.5 -33.5t-32.5 -13.5t-32.5 14t-13.5 33zM386 780q0 19 14 32.5t33 13.5t32.5 -13.5t13.5 -32.5t-13.5 -33t-32.5 -14q-20 0 -33.5 14t-13.5 33z" />
    <glyph glyph-name="Aring" unicode="&#xc5;" horiz-adv-x="658" 
d="M630 39q0 -18 -12.5 -30.5t-29.5 -12.5q-28 0 -40 27l-48 125h-343l-48 -125q-8 -27 -39 -27q-18 0 -30.5 12.5t-12.5 29.5q0 6 4 17l230 570q18 46 68 46q49 0 67 -46l231 -570q3 -15 3 -16zM186 222h286l-143 371zM329 907q40 0 69 -29t29 -70q0 -40 -29 -69t-69 -29
q-41 0 -69.5 29t-28.5 69q0 41 29 70t69 29zM329 867q-24 0 -41 -17t-17 -42q0 -24 17 -41.5t41 -17.5t41 17.5t17 41.5q0 25 -16.5 42t-41.5 17z" />
    <glyph glyph-name="AE" unicode="&#xc6;" horiz-adv-x="947" 
d="M898 37q0 -15 -11.5 -26t-26.5 -11h-360q-44 0 -44 44v104h-267l-81 -134q-11 -18 -34 -18q-16 0 -27.5 11.5t-11.5 27.5q0 8 6 20l363 582q20 30 54 30h402q15 0 26.5 -11t11.5 -26t-11.5 -26t-26.5 -11h-321v-215h314q15 0 26.5 -11t11.5 -26t-11.5 -26t-26.5 -11h-314
v-230h321q15 0 26.5 -11t11.5 -26zM233 222h223v371z" />
    <glyph glyph-name="Ccedilla" unicode="&#xc7;" horiz-adv-x="670" 
d="M630 112q0 -17 -10 -27q-87 -91 -214 -97l-17 -43q17 11 37 11q29 0 47.5 -18.5t18.5 -48.5q0 -36 -29.5 -58t-74.5 -22q-51 0 -90 22q-11 8 -11 19q0 8 6 14.5t15 6.5q7 0 11 -4q31 -19 67 -19q25 0 43 12t18 30q0 35 -37 35q-18 0 -32 -11q-5 -5 -13 -5
q-10 0 -16.5 6.5t-6.5 16.5q0 1 2 9l18 48q-133 11 -222 107t-89 237q-3 148 97.5 247.5t242.5 97.5q139 0 229 -97q10 -10 10 -27q0 -16 -11.5 -27.5t-27.5 -11.5q-20 0 -30 13q-68 76 -170 76q-108 0 -181 -76.5t-73 -194.5q0 -116 73 -193.5t181 -77.5q105 0 170 76
q10 13 30 13q16 0 27.5 -11.5t11.5 -27.5z" />
    <glyph glyph-name="Egrave" unicode="&#xc8;" horiz-adv-x="569" 
d="M78 44v579q0 44 44 44h360q15 0 26.5 -11t11.5 -26t-11.5 -26t-26.5 -11h-321v-215h314q15 0 26.5 -11t11.5 -26t-11.5 -26t-26.5 -11h-314v-230h321q15 0 26.5 -11t11.5 -26t-11.5 -26t-26.5 -11h-360q-44 0 -44 44zM284 724l-121 103q-9 8 -9 19q0 25 25 25q11 0 18 -7
l114 -111q7 -4 7 -14q0 -8 -6 -14t-14 -6q-9 0 -14 5z" />
    <glyph glyph-name="Eacute" unicode="&#xc9;" horiz-adv-x="569" 
d="M78 44v579q0 44 44 44h360q15 0 26.5 -11t11.5 -26t-11.5 -26t-26.5 -11h-321v-215h314q15 0 26.5 -11t11.5 -26t-11.5 -26t-26.5 -11h-314v-230h321q15 0 26.5 -11t11.5 -26t-11.5 -26t-26.5 -11h-360q-44 0 -44 44zM309 719q-8 0 -14 6t-6 14q0 10 7 14l114 111
q7 7 18 7q10 0 17.5 -7t7.5 -18q0 -12 -9 -19l-121 -103q-5 -5 -14 -5z" />
    <glyph glyph-name="Ecircumflex" unicode="&#xca;" horiz-adv-x="569" 
d="M78 44v579q0 44 44 44h360q15 0 26.5 -11t11.5 -26t-11.5 -26t-26.5 -11h-321v-215h314q15 0 26.5 -11t11.5 -26t-11.5 -26t-26.5 -11h-314v-230h321q15 0 26.5 -11t11.5 -26t-11.5 -26t-26.5 -11h-360q-44 0 -44 44zM383 724l-80 105l-80 -105q-4 -7 -16 -7
q-9 0 -15.5 6t-6.5 16q0 5 3 11l70 104q14 19 36 19h18q22 0 36 -19l70 -104q3 -6 3 -11q0 -10 -6.5 -16t-15.5 -6q-12 0 -16 7z" />
    <glyph glyph-name="Edieresis" unicode="&#xcb;" horiz-adv-x="569" 
d="M78 44v579q0 44 44 44h360q15 0 26.5 -11t11.5 -26t-11.5 -26t-26.5 -11h-321v-215h314q15 0 26.5 -11t11.5 -26t-11.5 -26t-26.5 -11h-314v-230h321q15 0 26.5 -11t11.5 -26t-11.5 -26t-26.5 -11h-360q-44 0 -44 44zM153 780q0 19 13.5 32.5t32.5 13.5t32.5 -13.5
t13.5 -32.5q0 -20 -13.5 -33.5t-32.5 -13.5t-32.5 14t-13.5 33zM359 780q0 19 14 32.5t33 13.5t32.5 -13.5t13.5 -32.5t-13.5 -33t-32.5 -14q-20 0 -33.5 14t-13.5 33z" />
    <glyph glyph-name="Igrave" unicode="&#xcc;" horiz-adv-x="239" 
d="M78 37v593q0 17 12 29t30 12q17 0 29 -12t12 -29v-593q0 -16 -12 -28.5t-29 -12.5q-18 0 -30 12t-12 29zM102 724l-121 103q-9 7 -9 19q0 25 25 25q11 0 18 -7l114 -111q7 -4 7 -14q0 -8 -6 -14t-14 -6q-9 0 -14 5z" />
    <glyph glyph-name="Iacute" unicode="&#xcd;" horiz-adv-x="239" 
d="M78 37v593q0 17 12 29t30 12q17 0 29 -12t12 -29v-593q0 -16 -12 -28.5t-29 -12.5q-18 0 -30 12t-12 29zM127 719q-8 0 -14 6t-6 14q0 10 7 14l114 111q7 7 18 7q10 0 17.5 -7t7.5 -18q0 -12 -9 -19l-121 -103q-5 -5 -14 -5z" />
    <glyph glyph-name="Icircumflex" unicode="&#xce;" horiz-adv-x="239" 
d="M78 37v593q0 17 12 29t30 12q17 0 29 -12t12 -29v-593q0 -16 -12 -28.5t-29 -12.5q-18 0 -30 12t-12 29zM201 724l-80 105l-80 -105q-4 -7 -16 -7q-9 0 -15.5 6t-6.5 16q0 5 3 11l70 104q14 19 36 19h18q22 0 36 -19l70 -104q3 -6 3 -11q0 -10 -6.5 -16t-15.5 -6
q-12 0 -16 7z" />
    <glyph glyph-name="Idieresis" unicode="&#xcf;" horiz-adv-x="239" 
d="M78 37v593q0 17 12 29t30 12q17 0 29 -12t12 -29v-593q0 -16 -12 -28.5t-29 -12.5q-18 0 -30 12t-12 29zM-30 780q0 19 13.5 32.5t32.5 13.5t32.5 -13.5t13.5 -32.5q0 -20 -13.5 -33.5t-32.5 -13.5t-32.5 14t-13.5 33zM176 780q0 19 14 32.5t33 13.5t32.5 -13.5
t13.5 -32.5t-13.5 -33t-32.5 -14q-20 0 -33.5 14t-13.5 33z" />
    <glyph glyph-name="Eth" unicode="&#xd0;" horiz-adv-x="728" 
d="M676 333q2 -142 -95 -238t-247 -95h-184q-44 0 -44 44v254h-68q-13 0 -22.5 9.5t-9.5 22.5t9.5 22t22.5 9h68v262q0 44 44 44h184q150 2 247 -95t95 -239zM590 333q0 113 -69 186.5t-187 73.5h-145v-232h142q13 0 22.5 -9t9.5 -22t-9.5 -22.5t-22.5 -9.5h-142v-224h145
q116 0 186 74t70 185z" />
    <glyph glyph-name="Ntilde" unicode="&#xd1;" horiz-adv-x="708" 
d="M537 17l-376 521v-501q0 -16 -12 -28.5t-29 -12.5q-18 0 -30 12t-12 29v580q0 22 16 38t38 16q28 0 44 -22l371 -509v490q0 17 12.5 29t28.5 12q18 0 30 -12t12 -29v-583q0 -21 -15 -36t-36 -15q-27 0 -42 21zM338 774q-14 22 -23.5 30.5t-23.5 8.5q-42 0 -48 -70
q-2 -20 -22 -20q-10 0 -16.5 7.5t-5.5 16.5q5 53 30 83.5t66 30.5q24 0 39.5 -12t35.5 -41q17 -24 25.5 -31.5t22.5 -7.5q41 0 47 70q2 20 22 20q10 0 17 -7t6 -17q-5 -54 -30 -84t-66 -30q-25 0 -40.5 12t-35.5 41z" />
    <glyph glyph-name="Ograve" unicode="&#xd2;" horiz-adv-x="765" 
d="M382 678q143 2 238 -98t93 -247q2 -147 -92.5 -247t-238.5 -98q-144 -2 -238.5 98t-92.5 247q-2 147 92.5 247t238.5 98zM382 604q-110 0 -177.5 -76t-67.5 -195q0 -118 67.5 -194.5t177.5 -76.5q109 0 177 76.5t68 194.5t-68 194.5t-177 76.5zM364 724l-121 103
q-9 8 -9 19q0 25 25 25q11 0 18 -7l114 -111q7 -4 7 -14q0 -8 -6 -14t-14 -6q-9 0 -14 5z" />
    <glyph glyph-name="Oacute" unicode="&#xd3;" horiz-adv-x="765" 
d="M382 678q143 2 238 -98t93 -247q2 -147 -92.5 -247t-238.5 -98q-144 -2 -238.5 98t-92.5 247q-2 147 92.5 247t238.5 98zM382 604q-110 0 -177.5 -76t-67.5 -195q0 -118 67.5 -194.5t177.5 -76.5q109 0 177 76.5t68 194.5t-68 194.5t-177 76.5zM388 719q-8 0 -14 6t-6 14
q0 10 7 14l114 111q7 7 18 7q10 0 17.5 -7t7.5 -18q0 -12 -9 -19l-121 -103q-5 -5 -14 -5z" />
    <glyph glyph-name="Ocircumflex" unicode="&#xd4;" horiz-adv-x="765" 
d="M382 678q143 2 238 -98t93 -247q2 -147 -92.5 -247t-238.5 -98q-144 -2 -238.5 98t-92.5 247q-2 147 92.5 247t238.5 98zM382 604q-110 0 -177.5 -76t-67.5 -195q0 -118 67.5 -194.5t177.5 -76.5q109 0 177 76.5t68 194.5t-68 194.5t-177 76.5zM462 724l-80 105l-80 -105
q-4 -7 -16 -7q-9 0 -15.5 6t-6.5 16q0 5 3 11l70 104q14 19 36 19h18q22 0 36 -19l70 -104q3 -6 3 -11q0 -10 -6.5 -16t-15.5 -6q-12 0 -16 7z" />
    <glyph glyph-name="Otilde" unicode="&#xd5;" horiz-adv-x="765" 
d="M382 678q143 2 238 -98t93 -247q2 -147 -92.5 -247t-238.5 -98q-144 -2 -238.5 98t-92.5 247q-2 147 92.5 247t238.5 98zM382 604q-110 0 -177.5 -76t-67.5 -195q0 -118 67.5 -194.5t177.5 -76.5q109 0 177 76.5t68 194.5t-68 194.5t-177 76.5zM365 774
q-14 22 -23.5 30.5t-23.5 8.5q-42 0 -48 -70q-2 -20 -22 -20q-10 0 -16.5 7.5t-5.5 16.5q5 53 30 83.5t66 30.5q24 0 39.5 -12t35.5 -41q17 -24 25.5 -31.5t22.5 -7.5q41 0 47 70q2 20 22 20q10 0 17 -7t6 -17q-5 -54 -30 -84t-66 -30q-25 0 -40.5 12t-35.5 41z" />
    <glyph glyph-name="Odieresis" unicode="&#xd6;" horiz-adv-x="765" 
d="M382 678q143 2 238 -98t93 -247q2 -147 -92.5 -247t-238.5 -98q-144 -2 -238.5 98t-92.5 247q-2 147 92.5 247t238.5 98zM382 604q-110 0 -177.5 -76t-67.5 -195q0 -118 67.5 -194.5t177.5 -76.5q109 0 177 76.5t68 194.5t-68 194.5t-177 76.5zM232 780q0 19 13.5 32.5
t32.5 13.5t32.5 -13.5t13.5 -32.5q0 -20 -13.5 -33.5t-32.5 -13.5t-32.5 14t-13.5 33zM438 780q0 19 14 32.5t33 13.5t32.5 -13.5t13.5 -32.5t-13.5 -33t-32.5 -14q-20 0 -33.5 14t-13.5 33z" />
    <glyph glyph-name="multiply" unicode="&#xd7;" horiz-adv-x="499" 
d="M249 297l-133 -134q-7 -7 -18 -7q-10 0 -18 8t-8 18q0 11 7 19l133 133l-133 133q-7 7 -7 18t7.5 19t18.5 8q8 0 19 -8l132 -133l133 133q11 8 19 8q11 0 18.5 -8t7.5 -19q0 -12 -8 -18l-132 -133l132 -133q8 -8 8 -19q0 -10 -7.5 -18t-18.5 -8t-18 7z" />
    <glyph glyph-name="Oslash" unicode="&#xd8;" horiz-adv-x="765" 
d="M713 333q2 -147 -92.5 -247t-238.5 -98q-104 0 -187 54l-57 -79q-8 -11 -19 -11q-9 0 -16 6.5t-7 15.5q0 8 6 16l58 80q-109 100 -109 263q-2 147 92.5 247t238.5 98q104 0 181 -51l56 77q8 11 19 11q9 0 16 -6.5t7 -15.5t-6 -16l-55 -77q113 -99 113 -267zM207 135
l311 429q-58 40 -136 40q-110 0 -177.5 -76t-67.5 -195q0 -122 70 -198zM627 333q0 128 -74 202l-312 -430q61 -43 141 -43q109 0 177 76.5t68 194.5z" />
    <glyph glyph-name="Ugrave" unicode="&#xd9;" horiz-adv-x="700" 
d="M78 259v371q0 17 12 29t30 12q17 0 29 -12t12 -29v-369q0 -94 49.5 -146.5t139.5 -52.5t139.5 52.5t49.5 146.5v369q0 17 12 29t30 12q17 0 29 -12t12 -29v-370q0 -128 -70.5 -200t-201.5 -72t-201.5 71.5t-70.5 199.5zM333 724l-121 103q-9 8 -9 19q0 25 25 25
q11 0 18 -7l114 -111q7 -4 7 -14q0 -8 -6 -14t-14 -6q-9 0 -14 5z" />
    <glyph glyph-name="Uacute" unicode="&#xda;" horiz-adv-x="700" 
d="M78 259v371q0 17 12 29t30 12q17 0 29 -12t12 -29v-369q0 -94 49.5 -146.5t139.5 -52.5t139.5 52.5t49.5 146.5v369q0 17 12 29t30 12q17 0 29 -12t12 -29v-370q0 -128 -70.5 -200t-201.5 -72t-201.5 71.5t-70.5 199.5zM357 719q-8 0 -14 6t-6 14q0 10 7 14l114 111
q7 7 18 7q10 0 17.5 -7t7.5 -18q0 -12 -9 -19l-121 -103q-5 -5 -14 -5z" />
    <glyph glyph-name="Ucircumflex" unicode="&#xdb;" horiz-adv-x="700" 
d="M78 259v371q0 17 12 29t30 12q17 0 29 -12t12 -29v-369q0 -94 49.5 -146.5t139.5 -52.5t139.5 52.5t49.5 146.5v369q0 17 12 29t30 12q17 0 29 -12t12 -29v-370q0 -128 -70.5 -200t-201.5 -72t-201.5 71.5t-70.5 199.5zM431 724l-80 105l-80 -105q-4 -7 -16 -7
q-9 0 -15.5 6t-6.5 16q0 5 3 11l70 104q14 19 36 19h18q22 0 36 -19l70 -104q3 -6 3 -11q0 -10 -6.5 -16t-15.5 -6q-12 0 -16 7z" />
    <glyph glyph-name="Udieresis" unicode="&#xdc;" horiz-adv-x="700" 
d="M78 259v371q0 17 12 29t30 12q17 0 29 -12t12 -29v-369q0 -94 49.5 -146.5t139.5 -52.5t139.5 52.5t49.5 146.5v369q0 17 12 29t30 12q17 0 29 -12t12 -29v-370q0 -128 -70.5 -200t-201.5 -72t-201.5 71.5t-70.5 199.5zM201 780q0 19 13.5 32.5t32.5 13.5t32.5 -13.5
t13.5 -32.5q0 -20 -13.5 -33.5t-32.5 -13.5t-32.5 14t-13.5 33zM407 780q0 19 14 32.5t33 13.5t32.5 -13.5t13.5 -32.5t-13.5 -33t-32.5 -14q-20 0 -33.5 14t-13.5 33z" />
    <glyph glyph-name="Yacute" unicode="&#xdd;" horiz-adv-x="626" 
d="M578 609l-223 -327v-245q0 -17 -12.5 -29t-29.5 -12t-29 12t-12 29v245l-224 326q-7 7 -7 23q0 17 12 28.5t28 11.5q23 0 34 -18l198 -297l197 297q14 18 34 18q17 0 29 -12t12 -28q0 -12 -7 -22zM320 719q-8 0 -14 6t-6 14q0 10 7 14l114 111q7 7 18 7q10 0 17.5 -7
t7.5 -18q0 -12 -9 -19l-121 -103q-5 -5 -14 -5z" />
    <glyph glyph-name="Thorn" unicode="&#xde;" horiz-adv-x="587" 
d="M78 37v593q0 17 12 29t29 12t29.5 -12t12.5 -29v-82h185q96 0 152.5 -58t56.5 -144q0 -85 -57.5 -142.5t-151.5 -57.5h-185v-109q0 -16 -12 -28.5t-29 -12.5q-18 0 -30 12t-12 29zM336 474h-175v-254h175q59 0 96 35t37 91t-37 92t-96 36z" />
    <glyph glyph-name="germandbls" unicode="&#xdf;" horiz-adv-x="557" 
d="M511 180q0 -88 -55.5 -140t-141.5 -52q-57 0 -102 24q-19 9 -19 29q0 14 9.5 23t22.5 9q3 0 7.5 -1t9 -3t5.5 -2q34 -14 66 -14q53 0 86.5 35t33.5 94q0 65 -48.5 104.5t-138.5 41.5q-12 1 -21 10t-9 21q0 26 28 31q64 6 98.5 38t34.5 79t-32.5 75t-76.5 28
q-60 0 -93.5 -37.5t-33.5 -110.5v-429q0 -15 -11.5 -26t-26.5 -11t-26 11t-11 26v429q0 98 57 156.5t144 58.5q79 0 134 -46t55 -117q0 -53 -31.5 -92.5t-86.5 -56.5q75 -12 124 -64q49 -50 49 -121z" />
    <glyph glyph-name="agrave" unicode="&#xe0;" horiz-adv-x="527" 
d="M452 332v-299q0 -15 -11 -26t-27 -11q-15 0 -26 11t-11 26v22q-56 -67 -160 -67q-68 0 -118.5 43.5t-50.5 116.5t50.5 116t118.5 43q103 0 160 -66v87q0 47 -33.5 74.5t-88.5 27.5q-72 0 -126 -48q-10 -6 -20 -6q-13 0 -22 9t-9 22q0 16 13 25q72 63 174 63
q86 0 136.5 -41t50.5 -122zM377 102v91q-43 60 -133 60q-52 0 -85.5 -29.5t-33.5 -76.5q0 -46 33.5 -75.5t85.5 -29.5q90 0 133 60zM248 577l-121 103q-9 8 -9 19q0 25 25 25q11 0 18 -7l114 -111q7 -4 7 -14q0 -8 -6 -14t-14 -6q-9 0 -14 5z" />
    <glyph glyph-name="aacute" unicode="&#xe1;" horiz-adv-x="527" 
d="M452 332v-299q0 -15 -11 -26t-27 -11q-15 0 -26 11t-11 26v22q-56 -67 -160 -67q-68 0 -118.5 43.5t-50.5 116.5t50.5 116t118.5 43q103 0 160 -66v87q0 47 -33.5 74.5t-88.5 27.5q-72 0 -126 -48q-10 -6 -20 -6q-13 0 -22 9t-9 22q0 16 13 25q72 63 174 63
q86 0 136.5 -41t50.5 -122zM377 102v91q-43 60 -133 60q-52 0 -85.5 -29.5t-33.5 -76.5q0 -46 33.5 -75.5t85.5 -29.5q90 0 133 60zM273 572q-8 0 -14 6t-6 14q0 10 7 14l114 111q7 7 18 7q10 0 17.5 -7t7.5 -18t-9 -19l-121 -103q-5 -5 -14 -5z" />
    <glyph glyph-name="acircumflex" unicode="&#xe2;" horiz-adv-x="527" 
d="M452 332v-299q0 -15 -11 -26t-27 -11q-15 0 -26 11t-11 26v22q-56 -67 -160 -67q-68 0 -118.5 43.5t-50.5 116.5t50.5 116t118.5 43q103 0 160 -66v87q0 47 -33.5 74.5t-88.5 27.5q-72 0 -126 -48q-10 -6 -20 -6q-13 0 -22 9t-9 22q0 16 13 25q72 63 174 63
q86 0 136.5 -41t50.5 -122zM377 102v91q-43 60 -133 60q-52 0 -85.5 -29.5t-33.5 -76.5q0 -46 33.5 -75.5t85.5 -29.5q90 0 133 60zM347 577l-80 105l-80 -105q-4 -7 -16 -7q-9 0 -15.5 6t-6.5 16q0 5 3 11l70 104q14 19 36 19h18q22 0 36 -19l70 -104q3 -6 3 -11
q0 -10 -6.5 -16t-15.5 -6q-12 0 -16 7z" />
    <glyph glyph-name="atilde" unicode="&#xe3;" horiz-adv-x="527" 
d="M452 332v-299q0 -15 -11 -26t-27 -11q-15 0 -26 11t-11 26v22q-56 -67 -160 -67q-68 0 -118.5 43.5t-50.5 116.5t50.5 116t118.5 43q103 0 160 -66v87q0 47 -33.5 74.5t-88.5 27.5q-72 0 -126 -48q-10 -6 -20 -6q-13 0 -22 9t-9 22q0 16 13 25q72 63 174 63
q86 0 136.5 -41t50.5 -122zM377 102v91q-43 60 -133 60q-52 0 -85.5 -29.5t-33.5 -76.5q0 -46 33.5 -75.5t85.5 -29.5q90 0 133 60zM250 627q-14 22 -23.5 30.5t-23.5 8.5q-42 0 -48 -70q-2 -20 -22 -20q-10 0 -16.5 7.5t-5.5 16.5q5 53 30 83.5t66 30.5q24 0 39.5 -12
t35.5 -41q17 -24 25.5 -31.5t22.5 -7.5q41 0 47 70q2 20 22 20q10 0 17 -7t6 -17q-5 -54 -30 -84t-66 -30q-25 0 -40.5 12t-35.5 41z" />
    <glyph glyph-name="adieresis" unicode="&#xe4;" horiz-adv-x="527" 
d="M452 332v-299q0 -15 -11 -26t-27 -11q-15 0 -26 11t-11 26v22q-56 -67 -160 -67q-68 0 -118.5 43.5t-50.5 116.5t50.5 116t118.5 43q103 0 160 -66v87q0 47 -33.5 74.5t-88.5 27.5q-72 0 -126 -48q-10 -6 -20 -6q-13 0 -22 9t-9 22q0 16 13 25q72 63 174 63
q86 0 136.5 -41t50.5 -122zM377 102v91q-43 60 -133 60q-52 0 -85.5 -29.5t-33.5 -76.5q0 -46 33.5 -75.5t85.5 -29.5q90 0 133 60zM117 633q0 19 13.5 32.5t32.5 13.5t32.5 -13.5t13.5 -32.5q0 -20 -13.5 -33.5t-32.5 -13.5t-32.5 14t-13.5 33zM323 633q0 19 14 32.5
t33 13.5t32.5 -13.5t13.5 -32.5t-13.5 -33t-32.5 -14q-20 0 -33.5 14t-13.5 33z" />
    <glyph glyph-name="aring" unicode="&#xe5;" horiz-adv-x="527" 
d="M452 332v-299q0 -15 -11 -26t-27 -11q-15 0 -26 11t-11 26v22q-56 -67 -160 -67q-68 0 -118.5 43.5t-50.5 116.5t50.5 116t118.5 43q103 0 160 -66v87q0 47 -33.5 74.5t-88.5 27.5q-72 0 -126 -48q-10 -6 -20 -6q-13 0 -22 9t-9 22q0 16 13 25q72 63 174 63
q86 0 136.5 -41t50.5 -122zM377 102v91q-43 60 -133 60q-52 0 -85.5 -29.5t-33.5 -76.5q0 -46 33.5 -75.5t85.5 -29.5q90 0 133 60zM266 760q40 0 69 -29t29 -70q0 -40 -29 -69t-69 -29q-41 0 -69.5 29t-28.5 69q0 41 29 70t69 29zM266 720q-24 0 -41 -17t-17 -42
q0 -24 17 -41.5t41 -17.5t41 17.5t17 41.5q0 25 -16.5 42t-41.5 17z" />
    <glyph glyph-name="ae" unicode="&#xe6;" horiz-adv-x="889" 
d="M637 52q67 0 119 43q10 6 18 6q13 0 21.5 -9t8.5 -22q0 -15 -13 -25q-69 -57 -157 -57q-136 0 -193 116q-27 -52 -80.5 -84t-118.5 -32q-82 0 -138 42q-56 44 -56 118q0 73 51.5 116t126.5 43q112 0 175 -64v86q0 47 -36 74t-97 27q-81 0 -139 -49q-9 -6 -19 -6
q-13 0 -22 9.5t-9 22.5q0 18 13 26q76 62 185 62q66 0 112.5 -26.5t58.5 -78.5q60 105 179 105q98 0 157 -70t59 -170q0 -38 -44 -38h-323q5 -72 48 -118q44 -47 113 -47zM622 433q-65 0 -104 -48.5t-42 -112.5h293q-2 65 -39.5 113t-107.5 48zM256 253q-59 0 -95 -27.5
t-36 -73.5q0 -45 36 -72.5t95 -27.5q60 0 102.5 39.5t42.5 88.5v12q-50 61 -145 61z" />
    <glyph glyph-name="ccedilla" unicode="&#xe7;" horiz-adv-x="495" 
d="M454 73q0 -17 -11 -25q-54 -54 -136 -59l-17 -44q17 11 37 11q29 0 47.5 -18.5t18.5 -48.5q0 -36 -29.5 -58t-74.5 -22q-51 0 -89 22q-12 7 -12 19q0 8 6.5 14.5t14.5 6.5t12 -4q31 -19 66 -19q27 0 44.5 11.5t17.5 30.5q0 16 -10 25.5t-28 9.5q-17 0 -31 -11
q-8 -5 -14 -5q-10 0 -16.5 6.5t-6.5 16.5q0 1 2 9l18 48q-96 9 -156 80t-60 173q0 108 68 180.5t173 72.5q93 0 155 -60q11 -11 11 -25t-10 -24t-24 -10q-13 0 -22 9q-43 43 -106 43q-75 0 -121 -52t-46 -134t46 -134.5t121 -52.5q63 0 105 43q9 9 23 9t24 -10t10 -24z" />
    <glyph glyph-name="egrave" unicode="&#xe8;" horiz-adv-x="563" 
d="M285 495q103 0 167.5 -70.5t64.5 -169.5q0 -38 -44 -38h-347q4 -70 52 -119q46 -48 122 -48q72 0 130 46q7 4 17 4q13 0 22 -8.5t9 -21.5q0 -15 -13 -25q-73 -57 -172 -57q-108 0 -177 71t-69 183q0 105 68.5 179t169.5 74zM126 272h317q-2 64 -43.5 112.5t-115.5 48.5
q-70 0 -112.5 -48.5t-45.5 -112.5zM266 577l-121 103q-9 8 -9 19q0 25 25 25q11 0 18 -7l114 -111q7 -4 7 -14q0 -8 -6 -14t-14 -6q-9 0 -14 5z" />
    <glyph glyph-name="eacute" unicode="&#xe9;" horiz-adv-x="563" 
d="M285 495q103 0 167.5 -70.5t64.5 -169.5q0 -38 -44 -38h-347q4 -70 52 -119q46 -48 122 -48q72 0 130 46q7 4 17 4q13 0 22 -8.5t9 -21.5q0 -15 -13 -25q-73 -57 -172 -57q-108 0 -177 71t-69 183q0 105 68.5 179t169.5 74zM126 272h317q-2 64 -43.5 112.5t-115.5 48.5
q-70 0 -112.5 -48.5t-45.5 -112.5zM291 572q-8 0 -14 6t-6 14q0 10 7 14l114 111q7 7 18 7q10 0 17.5 -7t7.5 -18t-9 -19l-121 -103q-5 -5 -14 -5z" />
    <glyph glyph-name="ecircumflex" unicode="&#xea;" horiz-adv-x="563" 
d="M285 495q103 0 167.5 -70.5t64.5 -169.5q0 -38 -44 -38h-347q4 -70 52 -119q46 -48 122 -48q72 0 130 46q7 4 17 4q13 0 22 -8.5t9 -21.5q0 -15 -13 -25q-73 -57 -172 -57q-108 0 -177 71t-69 183q0 105 68.5 179t169.5 74zM126 272h317q-2 64 -43.5 112.5t-115.5 48.5
q-70 0 -112.5 -48.5t-45.5 -112.5zM365 577l-80 105l-80 -105q-4 -7 -16 -7q-9 0 -15.5 6t-6.5 16q0 5 3 11l70 104q14 19 36 19h18q22 0 36 -19l70 -104q3 -6 3 -11q0 -10 -6.5 -16t-15.5 -6q-12 0 -16 7z" />
    <glyph glyph-name="edieresis" unicode="&#xeb;" horiz-adv-x="563" 
d="M285 495q103 0 167.5 -70.5t64.5 -169.5q0 -38 -44 -38h-347q4 -70 52 -119q46 -48 122 -48q72 0 130 46q7 4 17 4q13 0 22 -8.5t9 -21.5q0 -15 -13 -25q-73 -57 -172 -57q-108 0 -177 71t-69 183q0 105 68.5 179t169.5 74zM126 272h317q-2 64 -43.5 112.5t-115.5 48.5
q-70 0 -112.5 -48.5t-45.5 -112.5zM135 633q0 19 13.5 32.5t32.5 13.5t32.5 -13.5t13.5 -32.5q0 -20 -13.5 -33.5t-32.5 -13.5t-32.5 14t-13.5 33zM341 633q0 19 14 32.5t33 13.5t32.5 -13.5t13.5 -32.5t-13.5 -33t-32.5 -14q-20 0 -33.5 14t-13.5 33z" />
    <glyph glyph-name="igrave" unicode="&#xec;" horiz-adv-x="225" 
d="M75 33v417q0 15 11 26t27 11q15 0 26 -11t11 -26v-417q0 -15 -11 -26t-27 -11q-15 0 -26 11t-11 26zM95 577l-121 103q-9 8 -9 19q0 25 25 25q11 0 18 -7l114 -111q7 -4 7 -14q0 -8 -6 -14t-14 -6q-9 0 -14 5z" />
    <glyph glyph-name="iacute" unicode="&#xed;" horiz-adv-x="225" 
d="M75 33v417q0 15 11 26t27 11q15 0 26 -11t11 -26v-417q0 -15 -11 -26t-27 -11q-15 0 -26 11t-11 26zM119 572q-8 0 -14 6t-6 14q0 10 7 14l114 111q7 7 18 7q10 0 17.5 -7t7.5 -18t-9 -19l-121 -103q-5 -5 -14 -5z" />
    <glyph glyph-name="icircumflex" unicode="&#xee;" horiz-adv-x="225" 
d="M75 33v417q0 15 11 26t27 11q15 0 26 -11t11 -26v-417q0 -15 -11 -26t-27 -11q-15 0 -26 11t-11 26zM193 577l-80 105l-80 -105q-4 -7 -16 -7q-9 0 -15.5 6t-6.5 16q0 5 3 11l70 104q14 19 36 19h18q22 0 36 -19l70 -104q3 -6 3 -11q0 -10 -6.5 -16t-15.5 -6q-12 0 -16 7
z" />
    <glyph glyph-name="idieresis" unicode="&#xef;" horiz-adv-x="225" 
d="M75 33v417q0 15 11 26t27 11q15 0 26 -11t11 -26v-417q0 -15 -11 -26t-27 -11q-15 0 -26 11t-11 26zM-37 633q0 19 13.5 32.5t32.5 13.5t32.5 -13.5t13.5 -32.5q0 -20 -13.5 -33.5t-32.5 -13.5t-32.5 14t-13.5 33zM169 633q0 19 14 32.5t33 13.5t32.5 -13.5t13.5 -32.5
t-13.5 -33t-32.5 -14q-20 0 -33.5 14t-13.5 33z" />
    <glyph glyph-name="eth" unicode="&#xf0;" horiz-adv-x="572" 
d="M525 247q0 -113 -66 -186t-173 -73q-106 0 -172.5 69.5t-66.5 176.5q0 105 62.5 175t157.5 70t158 -89q-49 87 -160 171l-126 -56q-2 -2 -9 -2q-9 0 -16 6.5t-7 16.5q0 15 14 20l101 45l-46 30q-18 13 -18 32q0 15 11 26t27 11q11 0 20 -6q52 -33 85 -59l90 40q2 2 9 2
q9 0 15.5 -6t6.5 -16q0 -14 -13 -21l-69 -30q185 -159 185 -347zM446 234q0 75 -43.5 126.5t-116.5 51.5t-117 -51.5t-44 -126.5t44 -127t117 -52t116.5 52t43.5 127z" />
    <glyph glyph-name="ntilde" unicode="&#xf1;" 
d="M476 339v-306q0 -15 -11 -26t-27 -11q-15 0 -26 11t-11 26v283q0 59 -27 85.5t-81 26.5q-41 0 -81 -21.5t-62 -53.5v-320q0 -15 -11 -26t-26 -11q-16 0 -27 11t-11 26v417q0 15 11 26t26 11q16 0 27 -11t11 -26v-38q29 36 75.5 59.5t96.5 23.5q154 0 154 -156zM260 627
q-14 22 -23.5 30.5t-23.5 8.5q-42 0 -48 -70q-2 -20 -22 -20q-10 0 -16.5 7.5t-5.5 16.5q5 53 30 83.5t66 30.5q24 0 39.5 -12t35.5 -41q17 -24 25.5 -31.5t22.5 -7.5q41 0 47 70q2 20 22 20q10 0 17 -7t6 -17q-5 -54 -30 -84t-66 -30q-25 0 -40.5 12t-35.5 41z" />
    <glyph glyph-name="ograve" unicode="&#xf2;" horiz-adv-x="572" 
d="M47 242q0 108 66.5 180.5t172.5 72.5t172.5 -72.5t66.5 -180.5t-66.5 -181t-172.5 -73t-172.5 73t-66.5 181zM446 242q0 78 -43.5 132t-116.5 54t-117 -54t-44 -132q0 -79 44 -133t117 -54t116.5 54t43.5 133zM268 577l-121 103q-9 8 -9 19q0 25 25 25q11 0 18 -7
l114 -111q7 -4 7 -14q0 -8 -6 -14t-14 -6q-9 0 -14 5z" />
    <glyph glyph-name="oacute" unicode="&#xf3;" horiz-adv-x="572" 
d="M47 242q0 108 66.5 180.5t172.5 72.5t172.5 -72.5t66.5 -180.5t-66.5 -181t-172.5 -73t-172.5 73t-66.5 181zM446 242q0 78 -43.5 132t-116.5 54t-117 -54t-44 -132q0 -79 44 -133t117 -54t116.5 54t43.5 133zM293 572q-8 0 -14 6t-6 14q0 10 7 14l114 111q7 7 18 7
q10 0 17.5 -7t7.5 -18t-9 -19l-121 -103q-5 -5 -14 -5z" />
    <glyph glyph-name="ocircumflex" unicode="&#xf4;" horiz-adv-x="572" 
d="M47 242q0 108 66.5 180.5t172.5 72.5t172.5 -72.5t66.5 -180.5t-66.5 -181t-172.5 -73t-172.5 73t-66.5 181zM446 242q0 78 -43.5 132t-116.5 54t-117 -54t-44 -132q0 -79 44 -133t117 -54t116.5 54t43.5 133zM367 577l-80 105l-80 -105q-4 -7 -16 -7q-9 0 -15.5 6
t-6.5 16q0 5 3 11l70 104q14 19 36 19h18q22 0 36 -19l70 -104q3 -6 3 -11q0 -10 -6.5 -16t-15.5 -6q-12 0 -16 7z" />
    <glyph glyph-name="otilde" unicode="&#xf5;" horiz-adv-x="572" 
d="M47 242q0 108 66.5 180.5t172.5 72.5t172.5 -72.5t66.5 -180.5t-66.5 -181t-172.5 -73t-172.5 73t-66.5 181zM446 242q0 78 -43.5 132t-116.5 54t-117 -54t-44 -132q0 -79 44 -133t117 -54t116.5 54t43.5 133zM270 627q-14 22 -23.5 30.5t-23.5 8.5q-42 0 -48 -70
q-2 -20 -22 -20q-10 0 -16.5 7.5t-5.5 16.5q5 53 30 83.5t66 30.5q24 0 39.5 -12t35.5 -41q17 -24 25.5 -31.5t22.5 -7.5q41 0 47 70q2 20 22 20q10 0 17 -7t6 -17q-5 -54 -30 -84t-66 -30q-25 0 -40.5 12t-35.5 41z" />
    <glyph glyph-name="odieresis" unicode="&#xf6;" horiz-adv-x="572" 
d="M47 242q0 108 66.5 180.5t172.5 72.5t172.5 -72.5t66.5 -180.5t-66.5 -181t-172.5 -73t-172.5 73t-66.5 181zM446 242q0 78 -43.5 132t-116.5 54t-117 -54t-44 -132q0 -79 44 -133t117 -54t116.5 54t43.5 133zM136 633q0 19 13.5 32.5t32.5 13.5t32.5 -13.5t13.5 -32.5
q0 -20 -13.5 -33.5t-32.5 -13.5t-32.5 14t-13.5 33zM342 633q0 19 14 32.5t33 13.5t32.5 -13.5t13.5 -32.5t-13.5 -33t-32.5 -14q-20 0 -33.5 14t-13.5 33z" />
    <glyph glyph-name="divide" unicode="&#xf7;" horiz-adv-x="511" 
d="M210 526q0 19 13 32.5t32 13.5q20 0 33.5 -13.5t13.5 -32.5t-14 -32.5t-33 -13.5t-32 13.5t-13 32.5zM25 337q0 11 7.5 18.5t18.5 7.5h409q11 0 18.5 -7.5t7.5 -18.5t-7.5 -18.5t-18.5 -7.5h-409q-11 0 -18.5 7.5t-7.5 18.5zM210 144q0 19 13 32.5t32 13.5t33 -13.5
t14 -32.5t-14 -32.5t-33 -13.5t-32 13.5t-13 32.5z" />
    <glyph glyph-name="oslash" unicode="&#xf8;" horiz-adv-x="572" 
d="M525 242q0 -108 -66.5 -181t-172.5 -73q-75 0 -130 37l-45 -63q-7 -10 -18 -10q-8 0 -14 5.5t-6 13.5q0 6 5 14l46 64q-77 74 -77 193q0 108 66.5 180.5t172.5 72.5q75 0 133 -38l46 63q8 11 19 11q8 0 13.5 -5.5t5.5 -12.5q0 -6 -6 -14l-48 -66q76 -73 76 -191zM168 110
l209 289q-40 29 -91 29q-73 0 -117 -54t-44 -132q0 -81 43 -132zM446 242q0 79 -41 129l-208 -289q37 -27 89 -27q73 0 116.5 54t43.5 133z" />
    <glyph glyph-name="ugrave" unicode="&#xf9;" 
d="M476 450v-417q0 -15 -11 -26t-26 -11q-16 0 -27 11t-11 26v34q-72 -79 -172 -79q-154 0 -154 154v308q0 15 11 26t27 11q15 0 26 -11t11 -26v-285q0 -59 26.5 -84.5t81.5 -25.5q41 0 81 21t62 52v322q0 15 11 26t26 11q16 0 27 -11t11 -26zM258 577l-121 103q-9 8 -9 19
q0 25 25 25q11 0 18 -7l114 -111q7 -4 7 -14q0 -8 -6 -14t-14 -6q-9 0 -14 5z" />
    <glyph glyph-name="uacute" unicode="&#xfa;" 
d="M476 450v-417q0 -15 -11 -26t-26 -11q-16 0 -27 11t-11 26v34q-72 -79 -172 -79q-154 0 -154 154v308q0 15 11 26t27 11q15 0 26 -11t11 -26v-285q0 -59 26.5 -84.5t81.5 -25.5q41 0 81 21t62 52v322q0 15 11 26t26 11q16 0 27 -11t11 -26zM282 572q-8 0 -14 6t-6 14
q0 10 7 14l114 111q7 7 18 7q10 0 17.5 -7t7.5 -18t-9 -19l-121 -103q-5 -5 -14 -5z" />
    <glyph glyph-name="ucircumflex" unicode="&#xfb;" 
d="M476 450v-417q0 -15 -11 -26t-26 -11q-16 0 -27 11t-11 26v34q-72 -79 -172 -79q-154 0 -154 154v308q0 15 11 26t27 11q15 0 26 -11t11 -26v-285q0 -59 26.5 -84.5t81.5 -25.5q41 0 81 21t62 52v322q0 15 11 26t26 11q16 0 27 -11t11 -26zM356 577l-80 105l-80 -105
q-4 -7 -16 -7q-9 0 -15.5 6t-6.5 16q0 5 3 11l70 104q14 19 36 19h18q22 0 36 -19l70 -104q3 -6 3 -11q0 -10 -6.5 -16t-15.5 -6q-12 0 -16 7z" />
    <glyph glyph-name="udieresis" unicode="&#xfc;" 
d="M476 450v-417q0 -15 -11 -26t-26 -11q-16 0 -27 11t-11 26v34q-72 -79 -172 -79q-154 0 -154 154v308q0 15 11 26t27 11q15 0 26 -11t11 -26v-285q0 -59 26.5 -84.5t81.5 -25.5q41 0 81 21t62 52v322q0 15 11 26t26 11q16 0 27 -11t11 -26zM126 633q0 19 13.5 32.5
t32.5 13.5t32.5 -13.5t13.5 -32.5q0 -20 -13.5 -33.5t-32.5 -13.5t-32.5 14t-13.5 33zM332 633q0 19 14 32.5t33 13.5t32.5 -13.5t13.5 -32.5t-13.5 -33t-32.5 -14q-20 0 -33.5 14t-13.5 33z" />
    <glyph glyph-name="yacute" unicode="&#xfd;" horiz-adv-x="490" 
d="M85 -128l16 -1q27 0 43.5 11.5t28.5 39.5l32 73l-182 440q-3 7 -3 14q0 16 10.5 27t26.5 11q26 0 35 -23l153 -377l152 377q9 23 35 23q16 0 27 -11t11 -27q0 -7 -3 -15l-222 -532q-40 -96 -142 -98q-12 0 -22 2q-14 1 -23 10.5t-9 22.5q0 14 10.5 23.5t25.5 9.5z
M252 572q-8 0 -14 6t-6 14q0 10 7 14l114 111q7 7 18 7q10 0 17.5 -7t7.5 -18t-9 -19l-121 -103q-5 -5 -14 -5z" />
    <glyph glyph-name="thorn" unicode="&#xfe;" horiz-adv-x="574" 
d="M150 73v-224q0 -15 -11 -26t-26 -11q-16 0 -27 11t-11 26v785q0 15 11 26t26 11q16 0 27 -11t11 -26v-223q27 39 70 61.5t93 22.5q96 0 155.5 -68.5t59.5 -184.5q0 -115 -59.5 -184.5t-155.5 -69.5q-103 0 -163 85zM294 428q-42 0 -82.5 -22t-61.5 -55v-218
q20 -33 61 -55.5t83 -22.5q71 0 113 52q42 53 42 135t-42 134t-113 52z" />
    <glyph glyph-name="ydieresis" unicode="&#xff;" horiz-adv-x="490" 
d="M85 -128l16 -1q27 0 43.5 11.5t28.5 39.5l32 73l-182 440q-3 7 -3 14q0 16 10.5 27t26.5 11q26 0 35 -23l153 -377l152 377q9 23 35 23q16 0 27 -11t11 -27q0 -7 -3 -15l-222 -532q-40 -96 -142 -98q-12 0 -22 2q-14 1 -23 10.5t-9 22.5q0 14 10.5 23.5t25.5 9.5zM96 633
q0 19 13.5 32.5t32.5 13.5t32.5 -13.5t13.5 -32.5q0 -20 -13.5 -33.5t-32.5 -13.5t-32.5 14t-13.5 33zM302 633q0 19 14 32.5t33 13.5t32.5 -13.5t13.5 -32.5t-13.5 -33t-32.5 -14q-20 0 -33.5 14t-13.5 33z" />
    <glyph glyph-name="Amacron" unicode="&#x100;" horiz-adv-x="658" 
d="M630 39q0 -18 -12.5 -30.5t-29.5 -12.5q-28 0 -40 27l-48 125h-343l-48 -125q-8 -27 -39 -27q-18 0 -30.5 12.5t-12.5 29.5q0 6 4 17l230 570q18 46 68 46q49 0 67 -46l231 -570q3 -15 3 -16zM186 222h286l-143 371zM171 763q0 10 7 17t17 7h267q10 0 17 -7t7 -17t-7 -17
t-17 -7h-267q-10 0 -17 7t-7 17z" />
    <glyph glyph-name="amacron" unicode="&#x101;" horiz-adv-x="527" 
d="M452 332v-299q0 -15 -11 -26t-27 -11q-15 0 -26 11t-11 26v22q-56 -67 -160 -67q-68 0 -118.5 43.5t-50.5 116.5t50.5 116t118.5 43q103 0 160 -66v87q0 47 -33.5 74.5t-88.5 27.5q-72 0 -126 -48q-10 -6 -20 -6q-13 0 -22 9t-9 22q0 16 13 25q72 63 174 63
q86 0 136.5 -41t50.5 -122zM377 102v91q-43 60 -133 60q-52 0 -85.5 -29.5t-33.5 -76.5q0 -46 33.5 -75.5t85.5 -29.5q90 0 133 60zM108 616q0 10 7 17t17 7h267q10 0 17 -7t7 -17t-7 -17t-17 -7h-267q-10 0 -17 7t-7 17z" />
    <glyph glyph-name="Abreve" unicode="&#x102;" horiz-adv-x="658" 
d="M630 39q0 -18 -12.5 -30.5t-29.5 -12.5q-28 0 -40 27l-48 125h-343l-48 -125q-8 -27 -39 -27q-18 0 -30.5 12.5t-12.5 29.5q0 6 4 17l230 570q18 46 68 46q49 0 67 -46l231 -570q3 -15 3 -16zM186 222h286l-143 371zM167 789q-7 7 -7 17t7 17t17 7q13 0 18 -8
q52 -57 127 -57t126 57q6 8 18 8q10 0 17 -7t7 -17q0 -9 -7 -17q-63 -72 -161 -72q-96 0 -162 72z" />
    <glyph glyph-name="abreve" unicode="&#x103;" horiz-adv-x="527" 
d="M452 332v-299q0 -15 -11 -26t-27 -11q-15 0 -26 11t-11 26v22q-56 -67 -160 -67q-68 0 -118.5 43.5t-50.5 116.5t50.5 116t118.5 43q103 0 160 -66v87q0 47 -33.5 74.5t-88.5 27.5q-72 0 -126 -48q-10 -6 -20 -6q-13 0 -22 9t-9 22q0 16 13 25q72 63 174 63
q86 0 136.5 -41t50.5 -122zM377 102v91q-43 60 -133 60q-52 0 -85.5 -29.5t-33.5 -76.5q0 -46 33.5 -75.5t85.5 -29.5q90 0 133 60zM104 642q-7 7 -7 17t7 17t17 7q13 0 18 -8q53 -57 127 -57q75 0 126 57q6 8 18 8q10 0 17 -7t7 -17q0 -9 -7 -17q-63 -72 -161 -72
q-96 0 -162 72z" />
    <glyph glyph-name="Aogonek" unicode="&#x104;" horiz-adv-x="658" 
d="M625 -153q0 -17 -16 -24q-25 -9 -52 -9q-42 0 -70 20t-28 55q0 33 30 63t79 49q-14 8 -20 22l-48 125h-343l-48 -125q-8 -27 -39 -27q-18 0 -30.5 12.5t-12.5 29.5q0 6 4 17l230 570q18 46 68 46q49 0 67 -46l231 -570q3 -15 3 -16q0 -26 -22 -38q-41 -29 -59 -50.5
t-18 -44.5q0 -18 12 -28.5t30 -10.5q7 0 16.5 2.5t10.5 2.5q10 0 17.5 -7t7.5 -18zM186 222h286l-143 371z" />
    <glyph glyph-name="aogonek" unicode="&#x105;" horiz-adv-x="527" 
d="M357 -94q0 -18 12 -28.5t30 -10.5q7 0 16.5 2.5t10.5 2.5q10 0 17.5 -7t7.5 -18q0 -17 -16 -24q-26 -9 -52 -9q-42 0 -70 20t-28 55q0 33 30 62.5t80 50.5q-18 11 -18 31v22q-56 -67 -160 -67q-68 0 -118.5 43.5t-50.5 116.5t50.5 116t118.5 43q103 0 160 -66v87
q0 47 -33.5 74.5t-88.5 27.5q-72 0 -126 -48q-10 -6 -20 -6q-13 0 -22 9t-9 22q0 16 13 25q72 63 174 63q86 0 136.5 -41t50.5 -122v-299q0 -16 -11 -25q0 -2 -3 -4q-44 -30 -62.5 -52t-18.5 -46zM377 102v91q-43 60 -133 60q-52 0 -85.5 -29.5t-33.5 -76.5
q0 -46 33.5 -75.5t85.5 -29.5q90 0 133 60z" />
    <glyph glyph-name="Cacute" unicode="&#x106;" horiz-adv-x="670" 
d="M51 333q-3 148 97.5 247.5t242.5 97.5q139 0 229 -97q10 -10 10 -27q0 -16 -11.5 -27.5t-27.5 -11.5q-20 0 -30 13q-68 76 -170 76q-108 0 -181 -76.5t-73 -194.5q0 -116 73 -193.5t181 -77.5q105 0 170 76q10 13 30 13q16 0 27.5 -11.5t11.5 -27.5q0 -17 -10 -27
q-92 -97 -229 -97q-142 -3 -242.5 97t-97.5 248zM398 719q-8 0 -14 6t-6 14q0 10 7 14l114 111q7 7 18 7q10 0 17.5 -7t7.5 -18q0 -12 -9 -19l-121 -103q-5 -5 -14 -5z" />
    <glyph glyph-name="cacute" unicode="&#x107;" horiz-adv-x="495" 
d="M288 495q93 0 155 -60q11 -11 11 -25t-10 -24t-24 -10q-13 0 -22 9q-43 43 -106 43q-75 0 -121 -52t-46 -134t46 -134.5t121 -52.5q63 0 105 43q9 9 23 9t24 -10t10 -24q0 -17 -11 -25q-62 -60 -155 -60q-106 0 -173.5 72t-67.5 182q0 108 68 180.5t173 72.5zM293 572
q-8 0 -14 6t-6 14q0 10 7 14l114 111q7 7 18 7q10 0 17.5 -7t7.5 -18t-9 -19l-121 -103q-5 -5 -14 -5z" />
    <glyph glyph-name="Ccircumflex" unicode="&#x108;" horiz-adv-x="670" 
d="M51 333q-3 148 97.5 247.5t242.5 97.5q139 0 229 -97q10 -10 10 -27q0 -16 -11.5 -27.5t-27.5 -11.5q-20 0 -30 13q-68 76 -170 76q-108 0 -181 -76.5t-73 -194.5q0 -116 73 -193.5t181 -77.5q105 0 170 76q10 13 30 13q16 0 27.5 -11.5t11.5 -27.5q0 -17 -10 -27
q-92 -97 -229 -97q-142 -3 -242.5 97t-97.5 248zM472 724l-80 105l-80 -105q-4 -7 -16 -7q-9 0 -15.5 6t-6.5 16q0 5 3 11l70 104q14 19 36 19h18q22 0 36 -19l70 -104q3 -6 3 -11q0 -10 -6.5 -16t-15.5 -6q-12 0 -16 7z" />
    <glyph glyph-name="ccircumflex" unicode="&#x109;" horiz-adv-x="495" 
d="M288 495q93 0 155 -60q11 -11 11 -25t-10 -24t-24 -10q-13 0 -22 9q-43 43 -106 43q-75 0 -121 -52t-46 -134t46 -134.5t121 -52.5q63 0 105 43q9 9 23 9t24 -10t10 -24q0 -17 -11 -25q-62 -60 -155 -60q-106 0 -173.5 72t-67.5 182q0 108 68 180.5t173 72.5zM367 577
l-80 105l-80 -105q-4 -7 -16 -7q-9 0 -15.5 6t-6.5 16q0 5 3 11l70 104q14 19 36 19h18q22 0 36 -19l70 -104q3 -6 3 -11q0 -10 -6.5 -16t-15.5 -6q-12 0 -16 7z" />
    <glyph glyph-name="Cdotaccent" unicode="&#x10a;" horiz-adv-x="670" 
d="M51 333q-3 148 97.5 247.5t242.5 97.5q139 0 229 -97q10 -10 10 -27q0 -16 -11.5 -27.5t-27.5 -11.5q-20 0 -30 13q-68 76 -170 76q-108 0 -181 -76.5t-73 -194.5q0 -116 73 -193.5t181 -77.5q105 0 170 76q10 13 30 13q16 0 27.5 -11.5t11.5 -27.5q0 -17 -10 -27
q-92 -97 -229 -97q-142 -3 -242.5 97t-97.5 248zM391 825q19 0 32.5 -13.5t13.5 -33.5t-13.5 -33.5t-32.5 -13.5t-33 14t-14 33t14 33t33 14z" />
    <glyph glyph-name="cdotaccent" unicode="&#x10b;" horiz-adv-x="495" 
d="M288 495q93 0 155 -60q11 -11 11 -25t-10 -24t-24 -10q-13 0 -22 9q-43 43 -106 43q-75 0 -121 -52t-46 -134t46 -134.5t121 -52.5q63 0 105 43q9 9 23 9t24 -10t10 -24q0 -17 -11 -25q-62 -60 -155 -60q-106 0 -173.5 72t-67.5 182q0 108 68 180.5t173 72.5zM286 678
q19 0 32.5 -13.5t13.5 -33.5t-13.5 -33.5t-32.5 -13.5t-33 14t-14 33t14 33t33 14z" />
    <glyph glyph-name="Ccaron" unicode="&#x10c;" horiz-adv-x="670" 
d="M51 333q-3 148 97.5 247.5t242.5 97.5q139 0 229 -97q10 -10 10 -27q0 -16 -11.5 -27.5t-27.5 -11.5q-20 0 -30 13q-68 76 -170 76q-108 0 -181 -76.5t-73 -194.5q0 -116 73 -193.5t181 -77.5q105 0 170 76q10 13 30 13q16 0 27.5 -11.5t11.5 -27.5q0 -17 -10 -27
q-92 -97 -229 -97q-142 -3 -242.5 97t-97.5 248zM507 851q0 -7 -3 -11l-70 -104q-13 -19 -36 -19h-18q-23 0 -36 19l-70 104q-3 4 -3 11q0 10 6.5 16t15.5 6q11 0 16 -8l80 -104l80 104q5 8 16 8q9 0 15.5 -6t6.5 -16z" />
    <glyph glyph-name="ccaron" unicode="&#x10d;" horiz-adv-x="495" 
d="M288 495q93 0 155 -60q11 -11 11 -25t-10 -24t-24 -10q-13 0 -22 9q-43 43 -106 43q-75 0 -121 -52t-46 -134t46 -134.5t121 -52.5q63 0 105 43q9 9 23 9t24 -10t10 -24q0 -17 -11 -25q-62 -60 -155 -60q-106 0 -173.5 72t-67.5 182q0 108 68 180.5t173 72.5zM402 704
q0 -6 -3 -11l-70 -104q-13 -19 -36 -19h-18q-23 0 -36 19l-70 104q-3 5 -3 11q0 10 6.5 16t15.5 6q11 0 16 -8l80 -104l80 104q5 8 16 8q9 0 15.5 -6t6.5 -16z" />
    <glyph glyph-name="Dcaron" unicode="&#x10e;" horiz-adv-x="700" 
d="M78 44v579q0 44 44 44h184q150 2 247 -95t95 -239q2 -142 -95 -238t-247 -95h-184q-44 0 -44 44zM161 74h145q116 0 186 74t70 185q0 113 -69 186.5t-187 73.5h-145v-519zM468 851q0 -7 -3 -11l-70 -104q-13 -19 -36 -19h-18q-23 0 -36 19l-70 104q-3 4 -3 11
q0 10 6.5 16t15.5 6q11 0 16 -8l80 -104l80 104q5 8 16 8q9 0 15.5 -6t6.5 -16z" />
    <glyph glyph-name="dcaron" unicode="&#x10f;" horiz-adv-x="644" 
d="M500 634v-601q0 -15 -11 -26t-27 -11q-15 0 -26 11t-11 26v39q-28 -39 -71.5 -61.5t-91.5 -22.5q-96 0 -155.5 68.5t-59.5 184.5q0 114 59.5 184t155.5 70q100 0 163 -86v225q0 15 11 26t26 11q16 0 27 -11t11 -26zM425 131v219q-21 33 -62 55.5t-83 22.5q-71 0 -113 -53
t-42 -134t42 -134q42 -52 113 -52q43 0 83.5 21.5t61.5 54.5zM551 501q0 7 11 18q35 33 40 72q-6 -2 -11 -2q-18 0 -30 12.5t-12 31.5q0 20 13.5 33.5t32.5 13.5q22 0 37.5 -18.5t15.5 -48.5q0 -73 -62 -127q-8 -6 -14 -6q-8 0 -14.5 6t-6.5 15z" />
    <glyph glyph-name="Dcroat" unicode="&#x110;" horiz-adv-x="728" 
d="M676 333q2 -142 -95 -238t-247 -95h-184q-44 0 -44 44v254h-68q-13 0 -22.5 9.5t-9.5 22.5t9.5 22t22.5 9h68v262q0 44 44 44h184q150 2 247 -95t95 -239zM590 333q0 113 -69 186.5t-187 73.5h-145v-232h142q13 0 22.5 -9t9.5 -22t-9.5 -22.5t-22.5 -9.5h-142v-224h145
q116 0 186 74t70 185z" />
    <glyph glyph-name="dslash" unicode="&#x111;" horiz-adv-x="577" 
d="M573 559q0 -10 -7 -17t-17 -7h-49v-502q0 -15 -11 -26t-27 -11q-15 0 -26 11t-11 26v39q-28 -39 -71.5 -61.5t-91.5 -22.5q-96 0 -155.5 68.5t-59.5 184.5q0 114 59.5 184t155.5 70q100 0 163 -86v126h-137q-10 0 -17 7t-7 17t7 17t17 7h137v51q0 15 11 26t26 11
q16 0 27 -11t11 -26v-51h49q10 0 17 -7t7 -17zM425 131v219q-21 33 -62 55.5t-83 22.5q-71 0 -113 -53t-42 -134t42 -134q42 -52 113 -52q43 0 83.5 21.5t61.5 54.5z" />
    <glyph glyph-name="Emacron" unicode="&#x112;" horiz-adv-x="569" 
d="M78 44v579q0 44 44 44h360q15 0 26.5 -11t11.5 -26t-11.5 -26t-26.5 -11h-321v-215h314q15 0 26.5 -11t11.5 -26t-11.5 -26t-26.5 -11h-314v-230h321q15 0 26.5 -11t11.5 -26t-11.5 -26t-26.5 -11h-360q-44 0 -44 44zM144 763q0 10 7 17t17 7h267q10 0 17 -7t7 -17
t-7 -17t-17 -7h-267q-10 0 -17 7t-7 17z" />
    <glyph glyph-name="emacron" unicode="&#x113;" horiz-adv-x="563" 
d="M285 495q103 0 167.5 -70.5t64.5 -169.5q0 -38 -44 -38h-347q4 -70 52 -119q46 -48 122 -48q72 0 130 46q7 4 17 4q13 0 22 -8.5t9 -21.5q0 -15 -13 -25q-73 -57 -172 -57q-108 0 -177 71t-69 183q0 105 68.5 179t169.5 74zM126 272h317q-2 64 -43.5 112.5t-115.5 48.5
q-70 0 -112.5 -48.5t-45.5 -112.5zM126 616q0 10 7 17t17 7h267q10 0 17 -7t7 -17t-7 -17t-17 -7h-267q-10 0 -17 7t-7 17z" />
    <glyph glyph-name="Ebreve" unicode="&#x114;" horiz-adv-x="569" 
d="M78 44v579q0 44 44 44h360q15 0 26.5 -11t11.5 -26t-11.5 -26t-26.5 -11h-321v-215h314q15 0 26.5 -11t11.5 -26t-11.5 -26t-26.5 -11h-314v-230h321q15 0 26.5 -11t11.5 -26t-11.5 -26t-26.5 -11h-360q-44 0 -44 44zM140 789q-7 7 -7 17t7 17t17 7q13 0 18 -8
q53 -57 127 -57q75 0 126 57q6 8 18 8q10 0 17 -7t7 -17q0 -9 -7 -17q-63 -72 -161 -72q-96 0 -162 72z" />
    <glyph glyph-name="ebreve" unicode="&#x115;" horiz-adv-x="563" 
d="M285 495q103 0 167.5 -70.5t64.5 -169.5q0 -38 -44 -38h-347q4 -70 52 -119q46 -48 122 -48q72 0 130 46q7 4 17 4q13 0 22 -8.5t9 -21.5q0 -15 -13 -25q-73 -57 -172 -57q-108 0 -177 71t-69 183q0 105 68.5 179t169.5 74zM126 272h317q-2 64 -43.5 112.5t-115.5 48.5
q-70 0 -112.5 -48.5t-45.5 -112.5zM122 642q-7 7 -7 17t7 17t17 7q13 0 18 -8q52 -57 127 -57t126 57q6 8 18 8q10 0 17 -7t7 -17q0 -9 -7 -17q-63 -72 -161 -72q-96 0 -162 72z" />
    <glyph glyph-name="Edotaccent" unicode="&#x116;" horiz-adv-x="569" 
d="M78 44v579q0 44 44 44h360q15 0 26.5 -11t11.5 -26t-11.5 -26t-26.5 -11h-321v-215h314q15 0 26.5 -11t11.5 -26t-11.5 -26t-26.5 -11h-314v-230h321q15 0 26.5 -11t11.5 -26t-11.5 -26t-26.5 -11h-360q-44 0 -44 44zM302 825q19 0 32.5 -13.5t13.5 -33.5t-13.5 -33.5
t-32.5 -13.5t-33 14t-14 33t14 33t33 14z" />
    <glyph glyph-name="edotaccent" unicode="&#x117;" horiz-adv-x="563" 
d="M285 495q103 0 167.5 -70.5t64.5 -169.5q0 -38 -44 -38h-347q4 -70 52 -119q46 -48 122 -48q72 0 130 46q7 4 17 4q13 0 22 -8.5t9 -21.5q0 -15 -13 -25q-73 -57 -172 -57q-108 0 -177 71t-69 183q0 105 68.5 179t169.5 74zM126 272h317q-2 64 -43.5 112.5t-115.5 48.5
q-70 0 -112.5 -48.5t-45.5 -112.5zM285 678q19 0 32.5 -13.5t13.5 -33.5t-13.5 -33.5t-32.5 -13.5t-33 14t-14 33t14 33t33 14z" />
    <glyph glyph-name="Eogonek" unicode="&#x118;" horiz-adv-x="569" 
d="M505 8q1 -1 -3 -4q-44 -30 -62.5 -52t-18.5 -46q0 -18 12 -28.5t30 -10.5q7 0 16.5 2.5t10.5 2.5q10 0 17.5 -7t7.5 -18q0 -17 -16 -24q-25 -9 -52 -9q-42 0 -70 20t-28 55q0 33 29 62.5t77 48.5h-333q-44 0 -44 44v579q0 44 44 44h360q15 0 26.5 -11t11.5 -26t-11.5 -26
t-26.5 -11h-321v-215h314q15 0 26.5 -11t11.5 -26t-11.5 -26t-26.5 -11h-314v-230h321q15 0 26.5 -11t11.5 -26q0 -17 -15 -29z" />
    <glyph glyph-name="eogonek" unicode="&#x119;" horiz-adv-x="563" 
d="M47 242q0 105 68.5 179t169.5 74q103 0 167.5 -70.5t64.5 -169.5q0 -38 -46 -38h-345q4 -70 52 -119q46 -48 122 -48q72 0 130 46q8 5 17 5q13 0 22 -9t9 -22q0 -14 -11 -23q-93 -84 -93 -136q0 -21 12 -32.5t31 -11.5q9 0 18 3q11 2 21 -5.5t10 -19.5q0 -19 -18 -24
q-22 -7 -46 -7q-42 0 -70 20t-28 55q0 56 75 111q-39 -12 -86 -12q-108 0 -177 71t-69 183zM126 272h317q-2 64 -43.5 112.5t-115.5 48.5q-70 0 -112.5 -48.5t-45.5 -112.5z" />
    <glyph glyph-name="Ecaron" unicode="&#x11a;" horiz-adv-x="569" 
d="M78 44v579q0 44 44 44h360q15 0 26.5 -11t11.5 -26t-11.5 -26t-26.5 -11h-321v-215h314q15 0 26.5 -11t11.5 -26t-11.5 -26t-26.5 -11h-314v-230h321q15 0 26.5 -11t11.5 -26t-11.5 -26t-26.5 -11h-360q-44 0 -44 44zM418 851q0 -7 -3 -11l-70 -104q-13 -19 -36 -19h-18
q-23 0 -36 19l-70 104q-3 4 -3 11q0 10 6.5 16t15.5 6q11 0 16 -8l80 -104l80 104q5 8 16 8q9 0 15.5 -6t6.5 -16z" />
    <glyph glyph-name="ecaron" unicode="&#x11b;" horiz-adv-x="563" 
d="M285 495q103 0 167.5 -70.5t64.5 -169.5q0 -38 -44 -38h-347q4 -70 52 -119q46 -48 122 -48q72 0 130 46q7 4 17 4q13 0 22 -8.5t9 -21.5q0 -15 -13 -25q-73 -57 -172 -57q-108 0 -177 71t-69 183q0 105 68.5 179t169.5 74zM126 272h317q-2 64 -43.5 112.5t-115.5 48.5
q-70 0 -112.5 -48.5t-45.5 -112.5zM400 704q0 -6 -3 -11l-70 -104q-13 -19 -36 -19h-18q-23 0 -36 19l-70 104q-3 5 -3 11q0 10 6.5 16t15.5 6q11 0 16 -8l80 -104l80 104q5 8 16 8q9 0 15.5 -6t6.5 -16z" />
    <glyph glyph-name="Gcircumflex" unicode="&#x11c;" horiz-adv-x="713" 
d="M656 298v-163q0 -34 -22 -55q-101 -93 -240 -93q-144 -2 -244.5 97t-98.5 249q-2 149 98.5 248t244.5 97q138 0 230 -92q11 -9 11 -27q0 -16 -11 -27t-27 -11q-17 0 -28 11q-72 72 -175 72q-108 2 -183.5 -76.5t-73.5 -194.5q-2 -115 73.5 -194.5t183.5 -77.5
q52 0 100 20.5t79 51.5v136h-196q-15 0 -26 11t-11 26t11 26t26 11h235q44 0 44 -45zM474 724l-80 105l-80 -105q-4 -7 -16 -7q-9 0 -15.5 6t-6.5 16q0 5 3 11l70 104q14 19 36 19h18q22 0 36 -19l70 -104q3 -6 3 -11q0 -10 -6.5 -16t-15.5 -6q-12 0 -16 7z" />
    <glyph glyph-name="gcircumflex" unicode="&#x11d;" horiz-adv-x="574" 
d="M499 450v-436q0 -110 -65 -160t-165 -50q-107 0 -175 55q-13 10 -13 26q0 13 10 23t23 10q11 0 19 -7q52 -45 136 -45q70 0 112.5 37t42.5 108v68q-28 -39 -71 -62t-91 -23q-96 0 -155.5 67.5t-59.5 182.5q0 114 59.5 182.5t155.5 68.5q99 0 162 -86v41q0 15 11 26t27 11
q15 0 26 -11t11 -26zM424 139v211q-21 34 -61 56t-83 22q-71 0 -113 -50.5t-42 -133.5q0 -82 42 -133t113 -51q42 0 82.5 22.5t61.5 56.5zM371 577l-80 105l-80 -105q-4 -7 -16 -7q-9 0 -15.5 6t-6.5 16q0 5 3 11l70 104q14 19 36 19h18q22 0 36 -19l70 -104q3 -6 3 -11
q0 -10 -6.5 -16t-15.5 -6q-12 0 -16 7z" />
    <glyph glyph-name="Gbreve" unicode="&#x11e;" horiz-adv-x="713" 
d="M656 298v-163q0 -34 -22 -55q-101 -93 -240 -93q-144 -2 -244.5 97t-98.5 249q-2 149 98.5 248t244.5 97q138 0 230 -92q11 -9 11 -27q0 -16 -11 -27t-27 -11q-17 0 -28 11q-72 72 -175 72q-108 2 -183.5 -76.5t-73.5 -194.5q-2 -115 73.5 -194.5t183.5 -77.5
q52 0 100 20.5t79 51.5v136h-196q-15 0 -26 11t-11 26t11 26t26 11h235q44 0 44 -45zM231 789q-7 7 -7 17t7 17t17 7q13 0 18 -8q52 -57 127 -57t126 57q6 8 18 8q10 0 17 -7t7 -17q0 -9 -7 -17q-63 -72 -161 -72q-96 0 -162 72z" />
    <glyph glyph-name="gbreve" unicode="&#x11f;" horiz-adv-x="574" 
d="M499 450v-436q0 -110 -65 -160t-165 -50q-107 0 -175 55q-13 10 -13 26q0 13 10 23t23 10q11 0 19 -7q52 -45 136 -45q70 0 112.5 37t42.5 108v68q-28 -39 -71 -62t-91 -23q-96 0 -155.5 67.5t-59.5 182.5q0 114 59.5 182.5t155.5 68.5q99 0 162 -86v41q0 15 11 26t27 11
q15 0 26 -11t11 -26zM424 139v211q-21 34 -61 56t-83 22q-71 0 -113 -50.5t-42 -133.5q0 -82 42 -133t113 -51q42 0 82.5 22.5t61.5 56.5zM128 642q-7 7 -7 17t7 17t17 7q13 0 18 -8q52 -57 127 -57t126 57q6 8 18 8q10 0 17 -7t7 -17q0 -9 -7 -17q-63 -72 -161 -72
q-96 0 -162 72z" />
    <glyph glyph-name="Gdotaccent" unicode="&#x120;" horiz-adv-x="713" 
d="M656 298v-163q0 -34 -22 -55q-101 -93 -240 -93q-144 -2 -244.5 97t-98.5 249q-2 149 98.5 248t244.5 97q138 0 230 -92q11 -9 11 -27q0 -16 -11 -27t-27 -11q-17 0 -28 11q-72 72 -175 72q-108 2 -183.5 -76.5t-73.5 -194.5q-2 -115 73.5 -194.5t183.5 -77.5
q52 0 100 20.5t79 51.5v136h-196q-15 0 -26 11t-11 26t11 26t26 11h235q44 0 44 -45zM394 825q19 0 32.5 -13.5t13.5 -33.5t-13.5 -33.5t-32.5 -13.5t-33 14t-14 33t14 33t33 14z" />
    <glyph glyph-name="gdotaccent" unicode="&#x121;" horiz-adv-x="574" 
d="M499 450v-436q0 -110 -65 -160t-165 -50q-107 0 -175 55q-13 10 -13 26q0 13 10 23t23 10q11 0 19 -7q52 -45 136 -45q70 0 112.5 37t42.5 108v68q-28 -39 -71 -62t-91 -23q-96 0 -155.5 67.5t-59.5 182.5q0 114 59.5 182.5t155.5 68.5q99 0 162 -86v41q0 15 11 26t27 11
q15 0 26 -11t11 -26zM424 139v211q-21 34 -61 56t-83 22q-71 0 -113 -50.5t-42 -133.5q0 -82 42 -133t113 -51q42 0 82.5 22.5t61.5 56.5zM290 678q19 0 32.5 -13.5t13.5 -33.5t-13.5 -33.5t-32.5 -13.5t-33 14t-14 33t14 33t33 14z" />
    <glyph glyph-name="uni0122" unicode="&#x122;" horiz-adv-x="713" 
d="M656 298v-163q0 -34 -22 -55q-101 -93 -240 -93q-144 -2 -244.5 97t-98.5 249q-2 149 98.5 248t244.5 97q138 0 230 -92q11 -9 11 -27q0 -16 -11 -27t-27 -11q-17 0 -28 11q-72 72 -175 72q-108 2 -183.5 -76.5t-73.5 -194.5q-2 -115 73.5 -194.5t183.5 -77.5
q52 0 100 20.5t79 51.5v136h-196q-15 0 -26 11t-11 26t11 26t26 11h235q44 0 44 -45zM350 -250q0 7 11 18q35 33 40 72q-6 -2 -11 -2q-18 0 -30 12.5t-12 31.5q0 20 13.5 33.5t32.5 13.5q22 0 37.5 -18.5t15.5 -48.5q0 -73 -62 -127q-7 -6 -14 -6q-8 0 -14.5 6t-6.5 15z" />
    <glyph glyph-name="uni0123" unicode="&#x123;" horiz-adv-x="574" 
d="M234 626q0 73 62 127q8 6 15 6q8 0 14 -6t6 -14t-10 -18q-36 -36 -41 -73q6 2 12 2q18 0 30 -12.5t12 -31.5t-13.5 -32.5t-32.5 -13.5q-22 0 -38 18.5t-16 47.5zM499 450v-436q0 -110 -65 -160t-165 -50q-107 0 -175 55q-13 10 -13 26q0 13 10 23t23 10q11 0 19 -7
q52 -45 136 -45q70 0 112.5 37t42.5 108v68q-28 -39 -71 -62t-91 -23q-96 0 -155.5 67.5t-59.5 182.5q0 114 59.5 182.5t155.5 68.5q99 0 162 -86v41q0 15 11 26t27 11q15 0 26 -11t11 -26zM424 139v211q-21 34 -61 56t-83 22q-71 0 -113 -50.5t-42 -133.5q0 -82 42 -133
t113 -51q42 0 82.5 22.5t61.5 56.5z" />
    <glyph glyph-name="Hcircumflex" unicode="&#x124;" horiz-adv-x="712" 
d="M551 37v269h-390v-269q0 -16 -12 -28.5t-29 -12.5q-18 0 -30 12t-12 29v593q0 17 12 29t29 12t29.5 -12t12.5 -29v-250h390v250q0 17 12 29t30 12q17 0 29 -12t12 -29v-593q0 -17 -12 -29t-30 -12q-17 0 -29 12t-12 29zM437 724l-80 105l-80 -105q-4 -7 -16 -7
q-9 0 -15.5 6t-6.5 16q0 5 3 11l70 104q14 19 36 19h18q22 0 36 -19l70 -104q3 -6 3 -11q0 -10 -6.5 -16t-15.5 -6q-12 0 -16 7z" />
    <glyph glyph-name="hcircumflex" unicode="&#x125;" horiz-adv-x="552" 
d="M402 33v285q0 58 -27 84t-82 26q-40 0 -79.5 -21.5t-63.5 -53.5v-320q0 -15 -11 -26t-26 -11q-16 0 -27 11t-11 26v601q0 15 11 26t27 11q15 0 26 -11t11 -26v-221q29 35 76.5 58.5t96.5 23.5q154 0 154 -154v-308q0 -15 -11 -26t-27 -11q-15 0 -26 11t-11 26zM357 724
l-80 105l-80 -105q-4 -7 -16 -7q-9 0 -15.5 6t-6.5 16q0 5 3 11l70 104q14 19 36 19h18q22 0 36 -19l70 -104q3 -6 3 -11q0 -10 -6.5 -16t-15.5 -6q-12 0 -16 7z" />
    <glyph glyph-name="Hbar" unicode="&#x126;" horiz-adv-x="731" 
d="M727 522q0 -10 -7 -17t-17 -7h-59v-461q0 -17 -12 -29t-30 -12q-16 0 -28.5 12.5t-12.5 28.5v269h-390v-269q0 -17 -12 -29t-29 -12q-18 0 -30 12t-12 29v461h-58q-10 0 -17 7t-7 17t7 17t17 7h58v84q0 17 12 29t29 12q18 0 30 -12t12 -29v-84h390v84q0 17 12.5 29
t29.5 12t29 -12t12 -29v-84h59q10 0 17 -7t7 -17zM561 380v118h-390v-118h390z" />
    <glyph glyph-name="hbar" unicode="&#x127;" horiz-adv-x="554" 
d="M479 341v-308q0 -15 -11.5 -26t-26.5 -11t-26 11t-11 26v285q0 58 -27 84t-82 26q-40 0 -79.5 -21.5t-63.5 -53.5v-320q0 -15 -11 -26t-26 -11q-16 0 -27 11t-11 26v502h-48q-10 0 -17 7t-7 17t7 17t17 7h48v51q0 15 11 26t27 11q15 0 26 -11t11 -26v-51h137q10 0 17 -7
t7 -17t-7 -17t-17 -7h-137v-122q29 35 76.5 58.5t96.5 23.5q154 0 154 -154z" />
    <glyph glyph-name="Itilde" unicode="&#x128;" horiz-adv-x="239" 
d="M78 37v593q0 17 12 29t30 12q17 0 29 -12t12 -29v-593q0 -16 -12 -28.5t-29 -12.5q-18 0 -30 12t-12 29zM104 774q-14 22 -23.5 30.5t-23.5 8.5q-42 0 -48 -70q-2 -20 -22 -20q-10 0 -16.5 7.5t-5.5 16.5q5 53 30 83.5t66 30.5q24 0 39.5 -12t35.5 -41q17 -24 25.5 -31.5
t22.5 -7.5q41 0 47 70q2 20 22 20q10 0 17 -7t6 -17q-5 -54 -30 -84t-66 -30q-25 0 -40.5 12t-35.5 41z" />
    <glyph glyph-name="itilde" unicode="&#x129;" horiz-adv-x="225" 
d="M75 33v417q0 15 11 26t27 11q15 0 26 -11t11 -26v-417q0 -15 -11 -26t-27 -11q-15 0 -26 11t-11 26zM96 627q-14 22 -23.5 30.5t-23.5 8.5q-42 0 -48 -70q-2 -20 -22 -20q-10 0 -16.5 7.5t-5.5 16.5q5 53 30 83.5t66 30.5q24 0 39.5 -12t35.5 -41q17 -24 25.5 -31.5
t22.5 -7.5q41 0 47 70q2 20 22 20q10 0 17 -7t6 -17q-5 -54 -30 -84t-66 -30q-25 0 -40.5 12t-35.5 41z" />
    <glyph glyph-name="Imacron" unicode="&#x12a;" horiz-adv-x="239" 
d="M78 37v593q0 17 12 29t30 12q17 0 29 -12t12 -29v-593q0 -16 -12 -28.5t-29 -12.5q-18 0 -30 12t-12 29zM-38 763q0 10 7 17t17 7h267q10 0 17 -7t7 -17t-7 -17t-17 -7h-267q-10 0 -17 7t-7 17z" />
    <glyph glyph-name="imacron" unicode="&#x12b;" horiz-adv-x="225" 
d="M75 33v417q0 15 11 26t27 11q15 0 26 -11t11 -26v-417q0 -15 -11 -26t-27 -11q-15 0 -26 11t-11 26zM-46 616q0 10 7 17t17 7h267q10 0 17 -7t7 -17t-7 -17t-17 -7h-267q-10 0 -17 7t-7 17z" />
    <glyph glyph-name="Ibreve" unicode="&#x12c;" horiz-adv-x="239" 
d="M78 37v593q0 17 12 29t30 12q17 0 29 -12t12 -29v-593q0 -16 -12 -28.5t-29 -12.5q-18 0 -30 12t-12 29zM-42 789q-7 7 -7 17t7 17t17 7q13 0 18 -8q52 -57 127 -57t126 57q6 8 18 8q10 0 17 -7t7 -17q0 -9 -7 -17q-63 -72 -161 -72q-96 0 -162 72z" />
    <glyph glyph-name="ibreve" unicode="&#x12d;" horiz-adv-x="225" 
d="M75 33v417q0 15 11 26t27 11q15 0 26 -11t11 -26v-417q0 -15 -11 -26t-27 -11q-15 0 -26 11t-11 26zM-50 642q-7 7 -7 17t7 17t17 7q13 0 18 -8q52 -57 127 -57t126 57q6 8 18 8q10 0 17 -7t7 -17q0 -9 -7 -17q-63 -72 -161 -72q-96 0 -162 72z" />
    <glyph glyph-name="Iogonek" unicode="&#x12e;" horiz-adv-x="239" 
d="M161 630v-593q0 -14 -11 -28q2 -1 -2 -5q-44 -30 -62.5 -52t-18.5 -46q0 -18 11.5 -28.5t29.5 -10.5q7 0 17 2.5t11 2.5q10 0 17.5 -7t7.5 -18q0 -17 -16 -24q-27 -9 -52 -9q-42 0 -70 20t-28 55q0 33 29 62.5t77 48.5q-23 11 -23 37v593q0 17 12 29t30 12q17 0 29 -12
t12 -29z" />
    <glyph glyph-name="iogonek" unicode="&#x12f;" horiz-adv-x="225" 
d="M62 631q0 21 15 36t35 15q21 0 36 -15t15 -36t-15 -35.5t-36 -14.5q-20 0 -35 14.5t-15 35.5zM150 450v-417q0 -14 -10 -25q1 -1 -3 -4q-44 -30 -62.5 -52t-18.5 -46q0 -18 12 -28.5t30 -10.5q7 0 16.5 2.5t10.5 2.5q10 0 17.5 -7t7.5 -18q0 -17 -16 -24q-25 -9 -52 -9
q-42 0 -70 20t-28 55q0 33 30 63t79 49q-18 10 -18 32v417q0 15 11 26t27 11q15 0 26 -11t11 -26z" />
    <glyph glyph-name="Idot" unicode="&#x130;" horiz-adv-x="239" 
d="M78 37v593q0 17 12 29t30 12q17 0 29 -12t12 -29v-593q0 -16 -12 -28.5t-29 -12.5q-18 0 -30 12t-12 29zM120 825q19 0 32.5 -13.5t13.5 -33.5t-13.5 -33.5t-32.5 -13.5t-33 14t-14 33t14 33t33 14z" />
    <glyph glyph-name="dotlessi" unicode="&#x131;" horiz-adv-x="225" 
d="M75 33v417q0 15 11 26t27 11q15 0 26 -11t11 -26v-417q0 -15 -11 -26t-27 -11q-15 0 -26 11t-11 26z" />
    <glyph glyph-name="IJ" unicode="&#x132;" horiz-adv-x="713" 
d="M78 37v593q0 17 12 29t30 12q17 0 29 -12t12 -29v-593q0 -16 -12 -28.5t-29 -12.5q-18 0 -30 12t-12 29zM258 73q0 16 11.5 27t27.5 11q12 0 22 -7q43 -42 100 -42q61 0 97.5 38.5t36.5 101.5v428q0 17 12 29t29 12t29.5 -12t12.5 -29v-429q0 -102 -58 -157.5t-154 -55.5
q-92 0 -150 55q-16 10 -16 30z" />
    <glyph glyph-name="ij" unicode="&#x133;" horiz-adv-x="451" 
d="M62 631q0 21 15 36t35 15q21 0 36 -15t15 -36t-15 -35.5t-36 -14.5q-20 0 -35 14.5t-15 35.5zM75 33v417q0 15 11 26t27 11q15 0 26 -11t11 -26v-417q0 -15 -11 -26t-27 -11q-15 0 -26 11t-11 26zM287 631q0 21 15 36t35 15q21 0 36 -15t15 -36t-15 -35.5t-36 -14.5
q-20 0 -35 14.5t-15 35.5zM209 -194q-12 1 -21 10t-9 22t8.5 23t20.5 10q1 0 6.5 -1t10.5 -1q75 0 75 84v497q0 15 11 26t27 11q15 0 26 -11t11 -26v-497q0 -71 -37 -110t-105 -39q-2 0 -24 2z" />
    <glyph glyph-name="Jcircumflex" unicode="&#x134;" horiz-adv-x="475" 
d="M19 73q0 16 11.5 27t27.5 11q12 0 22 -7q43 -42 100 -42q61 0 97.5 38.5t36.5 101.5v428q0 17 12 29t29 12t29.5 -12t12.5 -29v-429q0 -102 -58 -157.5t-154 -55.5q-92 0 -150 55q-16 10 -16 30zM438 741l-80 105l-80 -105q-4 -7 -16 -7q-9 0 -15.5 6t-6.5 16q0 5 3 11
l70 104q14 19 36 19h18q22 0 36 -19l70 -104q3 -6 3 -11q0 -10 -6.5 -16t-15.5 -6q-12 0 -16 7z" />
    <glyph glyph-name="jcircumflex" unicode="&#x135;" horiz-adv-x="225" 
d="M-16 -194q-12 1 -21 10t-9 22t8.5 23t20.5 10q1 0 6.5 -1t10.5 -1q75 0 75 84v497q0 15 11 26t27 11q15 0 26 -11t11 -26v-497q0 -71 -37 -110t-105 -39q-2 0 -24 2zM193 577l-80 105l-80 -105q-4 -7 -16 -7q-9 0 -15.5 6t-6.5 16q0 5 3 11l70 104q14 19 36 19h18
q22 0 36 -19l70 -104q3 -6 3 -11q0 -10 -6.5 -16t-15.5 -6q-12 0 -16 7z" />
    <glyph glyph-name="uni0136" unicode="&#x136;" horiz-adv-x="601" 
d="M560 36q0 -17 -11 -28.5t-27 -11.5q-18 0 -30 12l-264 289l-67 -71v-189q0 -17 -12.5 -29t-29.5 -12t-29 12t-12 29v593q0 17 12 29t29 12t29.5 -12t12.5 -29v-309l306 337q10 13 29 13q16 0 28 -11t12 -27q0 -13 -11 -27l-242 -258l266 -286q11 -11 11 -26zM266 -250
q0 7 11 18q35 33 40 72q-6 -2 -11 -2q-18 0 -30 12.5t-12 31.5q0 20 13.5 33.5t32.5 13.5q22 0 37.5 -18.5t15.5 -48.5q0 -73 -62 -127q-7 -6 -14 -6q-8 0 -14.5 6t-6.5 15z" />
    <glyph glyph-name="uni0137" unicode="&#x137;" horiz-adv-x="514" 
d="M475 34q0 -16 -10.5 -27t-26.5 -11q-18 0 -29 12l-177 208l-82 -76v-107q0 -15 -11 -26t-27 -11q-15 0 -26 11t-11 26v601q0 15 11 26t27 11q15 0 26 -11t11 -26v-409l261 253q9 9 24 9q14 0 24 -10.5t10 -24.5t-10 -24l-173 -166l180 -203q9 -11 9 -25zM216 -250
q0 7 11 18q35 33 40 72q-6 -2 -11 -2q-18 0 -30 12.5t-12 31.5q0 20 13.5 33.5t32.5 13.5q22 0 37.5 -18.5t15.5 -48.5q0 -73 -62 -127q-7 -6 -14 -6q-8 0 -14.5 6t-6.5 15z" />
    <glyph glyph-name="kgreenlandic" unicode="&#x138;" horiz-adv-x="514" 
d="M475 34q0 -16 -10.5 -27t-26.5 -11q-18 0 -29 12l-177 208l-82 -76v-107q0 -15 -11 -26t-27 -11q-15 0 -26 11t-11 26v417q0 15 11 26t27 11q15 0 26 -11t11 -26v-225l261 253q9 9 24 9q14 0 24 -10.5t10 -24.5t-10 -24l-173 -166l180 -203q9 -11 9 -25z" />
    <glyph glyph-name="Lacute" unicode="&#x139;" horiz-adv-x="510" 
d="M78 44v586q0 17 12 29t30 12q17 0 29 -12t12 -29v-556h277q15 0 26.5 -11t11.5 -26t-11.5 -26t-26.5 -11h-316q-44 0 -44 44zM127 719q-8 0 -14 6t-6 14q0 10 7 14l114 111q7 7 18 7q10 0 17.5 -7t7.5 -18q0 -12 -9 -19l-121 -103q-5 -5 -14 -5z" />
    <glyph glyph-name="lacute" unicode="&#x13a;" horiz-adv-x="225" 
d="M75 33v601q0 15 11 26t27 11q15 0 26 -11t11 -26v-601q0 -15 -11 -26t-26 -11q-16 0 -27 11t-11 26zM119 719q-8 0 -14 6t-6 14q0 10 7 14l114 111q7 7 18 7q10 0 17.5 -7t7.5 -18q0 -12 -9 -19l-121 -103q-5 -5 -14 -5z" />
    <glyph glyph-name="uni013B" unicode="&#x13b;" horiz-adv-x="510" 
d="M78 44v586q0 17 12 29t30 12q17 0 29 -12t12 -29v-556h277q15 0 26.5 -11t11.5 -26t-11.5 -26t-26.5 -11h-316q-44 0 -44 44zM231 -250q0 7 11 18q35 33 40 72q-6 -2 -11 -2q-18 0 -30 12.5t-12 31.5q0 20 13.5 33.5t32.5 13.5q22 0 37.5 -18.5t15.5 -48.5
q0 -73 -62 -127q-8 -6 -14 -6q-8 0 -14.5 6t-6.5 15z" />
    <glyph glyph-name="uni013C" unicode="&#x13c;" horiz-adv-x="225" 
d="M75 33v601q0 15 11 26t27 11q15 0 26 -11t11 -26v-601q0 -15 -11 -26t-26 -11q-16 0 -27 11t-11 26zM68 -250q0 7 11 18q35 33 40 72q-6 -2 -11 -2q-18 0 -30 12.5t-12 31.5q0 20 13.5 33.5t32.5 13.5q22 0 37.5 -18.5t15.5 -48.5q0 -73 -62 -127q-8 -6 -14 -6
q-8 0 -14.5 6t-6.5 15z" />
    <glyph glyph-name="Lcaron" unicode="&#x13d;" horiz-adv-x="510" 
d="M78 44v586q0 17 12 29t30 12q17 0 29 -12t12 -29v-556h277q15 0 26.5 -11t11.5 -26t-11.5 -26t-26.5 -11h-316q-44 0 -44 44zM257 501q0 7 11 18q35 33 40 72q-6 -2 -11 -2q-18 0 -30 12.5t-12 31.5q0 20 13.5 33.5t32.5 13.5q22 0 37.5 -18.5t15.5 -48.5q0 -73 -62 -127
q-8 -6 -14 -6q-8 0 -14.5 6t-6.5 15z" />
    <glyph glyph-name="lcaron" unicode="&#x13e;" horiz-adv-x="291" 
d="M75 33v601q0 15 11 26t27 11q15 0 26 -11t11 -26v-601q0 -15 -11 -26t-26 -11q-16 0 -27 11t-11 26zM201 501q0 7 11 18q35 33 40 72q-6 -2 -11 -2q-18 0 -30 12.5t-12 31.5q0 20 13.5 33.5t32.5 13.5q22 0 37.5 -18.5t15.5 -48.5q0 -73 -62 -127q-8 -6 -14 -6
q-8 0 -14.5 6t-6.5 15z" />
    <glyph glyph-name="Ldot" unicode="&#x13f;" horiz-adv-x="510" 
d="M78 44v586q0 17 12 29t30 12q17 0 29 -12t12 -29v-556h277q15 0 26.5 -11t11.5 -26t-11.5 -26t-26.5 -11h-316q-44 0 -44 44zM314 341q0 23 16.5 39t38.5 16q23 0 39 -16t16 -39q0 -22 -16.5 -38t-38.5 -16t-38.5 16t-16.5 38z" />
    <glyph glyph-name="ldot" unicode="&#x140;" horiz-adv-x="307" 
d="M75 33v601q0 15 11 26t27 11q15 0 26 -11t11 -26v-601q0 -15 -11 -26t-26 -11q-16 0 -27 11t-11 26zM211 244q0 23 16.5 39t38.5 16q23 0 39 -16t16 -39q0 -22 -16.5 -38t-38.5 -16t-38.5 16t-16.5 38z" />
    <glyph glyph-name="Lslash" unicode="&#x141;" horiz-adv-x="529" 
d="M495 37q0 -15 -11 -26t-26 -11h-317q-44 0 -44 44v227l-45 -26q-7 -4 -15 -4q-13 0 -22 9t-9 22q0 18 16 27l75 44v287q0 17 12 29t30 12q17 0 29 -12t12 -29v-239l54 31q8 5 16 5q13 0 22 -9t9 -22q0 -18 -16 -27l-85 -49v-246h278q15 0 26 -11t11 -26z" />
    <glyph glyph-name="lslash" unicode="&#x142;" horiz-adv-x="287" 
d="M280 398q0 -16 -13 -23l-86 -49v-293q0 -15 -11 -26t-26 -11q-16 0 -27 11t-11 26v250l-61 -35q-4 -4 -13 -4q-10 0 -18 8t-8 18q0 16 13 23l87 50v291q0 15 11 26t27 11q15 0 26 -11t11 -26v-248l60 34q4 4 13 4q11 0 18.5 -7.5t7.5 -18.5z" />
    <glyph glyph-name="Nacute" unicode="&#x143;" horiz-adv-x="708" 
d="M537 17l-376 521v-501q0 -16 -12 -28.5t-29 -12.5q-18 0 -30 12t-12 29v580q0 22 16 38t38 16q28 0 44 -22l371 -509v490q0 17 12.5 29t28.5 12q18 0 30 -12t12 -29v-583q0 -21 -15 -36t-36 -15q-27 0 -42 21zM361 719q-8 0 -14 6t-6 14q0 10 7 14l114 111q7 7 18 7
q10 0 17.5 -7t7.5 -18q0 -12 -9 -19l-121 -103q-5 -5 -14 -5z" />
    <glyph glyph-name="nacute" unicode="&#x144;" 
d="M476 339v-306q0 -15 -11 -26t-27 -11q-15 0 -26 11t-11 26v283q0 59 -27 85.5t-81 26.5q-41 0 -81 -21.5t-62 -53.5v-320q0 -15 -11 -26t-26 -11q-16 0 -27 11t-11 26v417q0 15 11 26t26 11q16 0 27 -11t11 -26v-38q29 36 75.5 59.5t96.5 23.5q154 0 154 -156zM283 572
q-8 0 -14 6t-6 14q0 10 7 14l114 111q7 7 18 7q10 0 17.5 -7t7.5 -18t-9 -19l-121 -103q-5 -5 -14 -5z" />
    <glyph glyph-name="uni0145" unicode="&#x145;" horiz-adv-x="708" 
d="M537 17l-376 521v-501q0 -16 -12 -28.5t-29 -12.5q-18 0 -30 12t-12 29v580q0 22 16 38t38 16q28 0 44 -22l371 -509v490q0 17 12.5 29t28.5 12q18 0 30 -12t12 -29v-583q0 -21 -15 -36t-36 -15q-27 0 -42 21zM305 -250q0 7 11 18q35 33 40 72q-6 -2 -11 -2
q-18 0 -30 12.5t-12 31.5q0 20 13.5 33.5t32.5 13.5q22 0 37.5 -18.5t15.5 -48.5q0 -73 -62 -127q-8 -6 -14 -6q-8 0 -14.5 6t-6.5 15z" />
    <glyph glyph-name="uni0146" unicode="&#x146;" 
d="M476 339v-306q0 -15 -11 -26t-27 -11q-15 0 -26 11t-11 26v283q0 59 -27 85.5t-81 26.5q-41 0 -81 -21.5t-62 -53.5v-320q0 -15 -11 -26t-26 -11q-16 0 -27 11t-11 26v417q0 15 11 26t26 11q16 0 27 -11t11 -26v-38q29 36 75.5 59.5t96.5 23.5q154 0 154 -156zM232 -250
q0 7 11 18q35 33 40 72q-6 -2 -11 -2q-18 0 -30 12.5t-12 31.5q0 20 13.5 33.5t32.5 13.5q22 0 37.5 -18.5t15.5 -48.5q0 -73 -62 -127q-7 -6 -14 -6q-8 0 -14.5 6t-6.5 15z" />
    <glyph glyph-name="Ncaron" unicode="&#x147;" horiz-adv-x="708" 
d="M537 17l-376 521v-501q0 -16 -12 -28.5t-29 -12.5q-18 0 -30 12t-12 29v580q0 22 16 38t38 16q28 0 44 -22l371 -509v490q0 17 12.5 29t28.5 12q18 0 30 -12t12 -29v-583q0 -21 -15 -36t-36 -15q-27 0 -42 21zM470 851q0 -7 -3 -11l-70 -104q-13 -19 -36 -19h-18
q-23 0 -36 19l-70 104q-3 4 -3 11q0 10 6.5 16t15.5 6q11 0 16 -8l80 -104l80 104q5 8 16 8q9 0 15.5 -6t6.5 -16z" />
    <glyph glyph-name="ncaron" unicode="&#x148;" 
d="M476 339v-306q0 -15 -11 -26t-27 -11q-15 0 -26 11t-11 26v283q0 59 -27 85.5t-81 26.5q-41 0 -81 -21.5t-62 -53.5v-320q0 -15 -11 -26t-26 -11q-16 0 -27 11t-11 26v417q0 15 11 26t26 11q16 0 27 -11t11 -26v-38q29 36 75.5 59.5t96.5 23.5q154 0 154 -156zM392 704
q0 -6 -3 -11l-70 -104q-13 -19 -36 -19h-18q-23 0 -36 19l-70 104q-3 5 -3 11q0 10 6.5 16t15.5 6q11 0 16 -8l80 -104l80 104q5 8 16 8q9 0 15.5 -6t6.5 -16z" />
    <glyph glyph-name="napostrophe" unicode="&#x149;" 
d="M476 339v-306q0 -15 -11 -26t-27 -11q-15 0 -26 11t-11 26v283q0 59 -27 85.5t-81 26.5q-41 0 -81 -21.5t-62 -53.5v-320q0 -15 -11 -26t-26 -11q-16 0 -27 11t-11 26v417q0 15 11 26t26 11q16 0 27 -11t11 -26v-38q29 36 75.5 59.5t96.5 23.5q154 0 154 -156zM63 564
q0 7 11 18q35 33 40 72q-6 -2 -11 -2q-18 0 -30 12.5t-12 31.5q0 20 13.5 33.5t32.5 13.5q22 0 37.5 -18.5t15.5 -48.5q0 -73 -62 -127q-8 -6 -14 -6q-8 0 -14.5 6t-6.5 15z" />
    <glyph glyph-name="Eng" unicode="&#x14a;" horiz-adv-x="708" 
d="M630 630v-615q0 -102 -58 -156.5t-154 -54.5q-90 0 -151 55q-15 12 -15 30q0 16 11.5 27t26.5 11q13 0 23 -7q43 -42 100 -42q59 0 94 36t36 96l-382 528v-501q0 -16 -12 -28.5t-29 -12.5q-18 0 -30 12t-12 29v580q0 22 16 38t38 16q28 0 44 -22l371 -509v490
q0 17 12.5 29t28.5 12q18 0 30 -12t12 -29z" />
    <glyph glyph-name="eng" unicode="&#x14b;" 
d="M476 339v-386q0 -71 -37 -110t-105 -39q-2 0 -24 2q-12 1 -21 10t-9 22t8.5 23t20.5 10q1 0 6.5 -1t10.5 -1q75 0 75 84v363q0 59 -27 85.5t-81 26.5q-41 0 -81 -21.5t-62 -53.5v-320q0 -15 -11 -26t-26 -11q-16 0 -27 11t-11 26v417q0 15 11 26t26 11q16 0 27 -11
t11 -26v-38q29 36 75.5 59.5t96.5 23.5q154 0 154 -156z" />
    <glyph glyph-name="Omacron" unicode="&#x14c;" horiz-adv-x="765" 
d="M382 678q143 2 238 -98t93 -247q2 -147 -92.5 -247t-238.5 -98q-144 -2 -238.5 98t-92.5 247q-2 147 92.5 247t238.5 98zM382 604q-110 0 -177.5 -76t-67.5 -195q0 -118 67.5 -194.5t177.5 -76.5q109 0 177 76.5t68 194.5t-68 194.5t-177 76.5zM223 763q0 10 7 17t17 7
h267q10 0 17 -7t7 -17t-7 -17t-17 -7h-267q-10 0 -17 7t-7 17z" />
    <glyph glyph-name="omacron" unicode="&#x14d;" horiz-adv-x="572" 
d="M47 242q0 108 66.5 180.5t172.5 72.5t172.5 -72.5t66.5 -180.5t-66.5 -181t-172.5 -73t-172.5 73t-66.5 181zM446 242q0 78 -43.5 132t-116.5 54t-117 -54t-44 -132q0 -79 44 -133t117 -54t116.5 54t43.5 133zM128 616q0 10 7 17t17 7h267q10 0 17 -7t7 -17t-7 -17
t-17 -7h-267q-10 0 -17 7t-7 17z" />
    <glyph glyph-name="Obreve" unicode="&#x14e;" horiz-adv-x="765" 
d="M382 678q143 2 238 -98t93 -247q2 -147 -92.5 -247t-238.5 -98q-144 -2 -238.5 98t-92.5 247q-2 147 92.5 247t238.5 98zM382 604q-110 0 -177.5 -76t-67.5 -195q0 -118 67.5 -194.5t177.5 -76.5q109 0 177 76.5t68 194.5t-68 194.5t-177 76.5zM219 789q-7 7 -7 17t7 17
t17 7q13 0 18 -8q52 -57 127 -57t126 57q6 8 18 8q10 0 17 -7t7 -17q0 -9 -7 -17q-63 -72 -161 -72q-96 0 -162 72z" />
    <glyph glyph-name="obreve" unicode="&#x14f;" horiz-adv-x="572" 
d="M47 242q0 108 66.5 180.5t172.5 72.5t172.5 -72.5t66.5 -180.5t-66.5 -181t-172.5 -73t-172.5 73t-66.5 181zM446 242q0 78 -43.5 132t-116.5 54t-117 -54t-44 -132q0 -79 44 -133t117 -54t116.5 54t43.5 133zM124 642q-7 7 -7 17t7 17t17 7q13 0 18 -8q52 -57 127 -57
t126 57q6 8 18 8q10 0 17 -7t7 -17q0 -9 -7 -17q-63 -72 -161 -72q-96 0 -162 72z" />
    <glyph glyph-name="Ohungarumlaut" unicode="&#x150;" horiz-adv-x="765" 
d="M382 678q143 2 238 -98t93 -247q2 -147 -92.5 -247t-238.5 -98q-144 -2 -238.5 98t-92.5 247q-2 147 92.5 247t238.5 98zM382 604q-110 0 -177.5 -76t-67.5 -195q0 -118 67.5 -194.5t177.5 -76.5q109 0 177 76.5t68 194.5t-68 194.5t-177 76.5zM295 737q0 8 4 12l75 113
q9 12 22 12q11 0 18.5 -8t7.5 -19q0 -9 -5 -16l-84 -106q-7 -9 -17 -9q-8 0 -14.5 6t-6.5 15zM437 737q0 8 4 12l75 113q9 12 22 12q11 0 18.5 -8t7.5 -19q0 -9 -5 -16l-84 -106q-7 -9 -17 -9q-8 0 -14.5 6t-6.5 15z" />
    <glyph glyph-name="ohungarumlaut" unicode="&#x151;" horiz-adv-x="572" 
d="M47 242q0 108 66.5 180.5t172.5 72.5t172.5 -72.5t66.5 -180.5t-66.5 -181t-172.5 -73t-172.5 73t-66.5 181zM446 242q0 78 -43.5 132t-116.5 54t-117 -54t-44 -132q0 -79 44 -133t117 -54t116.5 54t43.5 133zM199 590q0 8 4 12l75 113q9 12 22 12q11 0 18.5 -8t7.5 -19
q0 -9 -5 -16l-84 -106q-7 -9 -17 -9q-8 0 -14.5 6t-6.5 15zM341 590q0 8 4 12l75 113q9 12 22 12q11 0 18.5 -8t7.5 -19q0 -9 -5 -16l-84 -106q-7 -9 -17 -9q-8 0 -14.5 6t-6.5 15z" />
    <glyph glyph-name="OE" unicode="&#x152;" horiz-adv-x="1105" 
d="M1055 37q0 -15 -11 -26t-26 -11h-360q-45 0 -45 44v76q-35 -62 -99.5 -97t-138.5 -35q-141 -2 -233.5 98t-90.5 247q-2 147 90.5 246.5t233.5 97.5q74 0 138.5 -34.5t99.5 -95.5v76q0 44 45 44h360q15 0 26 -11t11 -26t-11 -26t-26 -11h-322v-215h315q15 0 26 -11t11 -26
t-11 -26t-26 -11h-315v-230h322q15 0 26 -11t11 -26zM613 223v220q-29 77 -89 118.5t-140 41.5q-112 0 -179.5 -75.5t-67.5 -194.5t67.5 -195t179.5 -76q79 0 139.5 42t89.5 119z" />
    <glyph glyph-name="oe" unicode="&#x153;" horiz-adv-x="962" 
d="M699 50q72 0 131 46q4 4 16 4q14 0 22.5 -8.5t8.5 -21.5q0 -15 -13 -25q-74 -57 -171 -57q-83 0 -133 41q-50 42 -75 97q-25 -55 -72 -97q-47 -41 -127 -41q-106 0 -172.5 73t-66.5 181t66.5 180.5t172.5 72.5q81 0 128 -43q49 -42 72 -95q22 52 71 95t127 43
q105 0 168.5 -73t63.5 -186q0 -19 -44 -19h-346q5 -71 51 -119q47 -48 122 -48zM683 433q-70 0 -112.5 -48.5t-45.5 -112.5h318q-2 64 -44 112.5t-116 48.5zM125 242q0 -80 44.5 -134t116.5 -54t116 54t44 134q0 79 -44 132.5t-116 53.5t-116.5 -53.5t-44.5 -132.5z" />
    <glyph glyph-name="Racute" unicode="&#x154;" horiz-adv-x="608" 
d="M557 34q0 -15 -11.5 -26.5t-28.5 -11.5q-23 0 -35 17l-174 252h-147v-228q0 -16 -12 -28.5t-29 -12.5q-18 0 -30 12t-12 29v586q0 44 44 44h224q93 0 151 -55t58 -146q0 -79 -44.5 -130.5t-114.5 -61.5l153 -214q8 -13 8 -26zM161 593v-255h175q59 0 96 36t37 92
t-37 91.5t-96 35.5h-175zM313 719q-8 0 -14 6t-6 14q0 10 7 14l114 111q7 7 18 7q10 0 17.5 -7t7.5 -18q0 -12 -9 -19l-121 -103q-5 -5 -14 -5z" />
    <glyph glyph-name="racute" unicode="&#x155;" horiz-adv-x="330" 
d="M316 455q0 -14 -11 -24.5t-30 -12.5q-33 -1 -72 -25q-36 -22 -53 -51v-309q0 -15 -11 -26t-26 -11q-16 0 -27 11t-11 26v417q0 15 11 26t26 11q16 0 27 -11t11 -26v-45q49 67 108 81q18 5 24 5q15 0 24.5 -10.5t9.5 -25.5zM198 572q-8 0 -14 6t-6 14q0 10 7 14l114 111
q7 7 18 7q10 0 17.5 -7t7.5 -18t-9 -19l-121 -103q-5 -5 -14 -5z" />
    <glyph glyph-name="uni0156" unicode="&#x156;" horiz-adv-x="608" 
d="M557 34q0 -15 -11.5 -26.5t-28.5 -11.5q-23 0 -35 17l-174 252h-147v-228q0 -16 -12 -28.5t-29 -12.5q-18 0 -30 12t-12 29v586q0 44 44 44h224q93 0 151 -55t58 -146q0 -79 -44.5 -130.5t-114.5 -61.5l153 -214q8 -13 8 -26zM161 593v-255h175q59 0 96 36t37 92
t-37 91.5t-96 35.5h-175zM262 -250q0 7 11 18q35 33 40 72q-6 -2 -11 -2q-18 0 -30 12.5t-12 31.5q0 20 13.5 33.5t32.5 13.5q22 0 37.5 -18.5t15.5 -48.5q0 -73 -62 -127q-7 -6 -14 -6q-8 0 -14.5 6t-6.5 15z" />
    <glyph glyph-name="uni0157" unicode="&#x157;" horiz-adv-x="330" 
d="M316 455q0 -14 -11 -24.5t-30 -12.5q-33 -1 -72 -25q-36 -22 -53 -51v-309q0 -15 -11 -26t-26 -11q-16 0 -27 11t-11 26v417q0 15 11 26t26 11q16 0 27 -11t11 -26v-45q49 67 108 81q18 5 24 5q15 0 24.5 -10.5t9.5 -25.5zM70 -250q0 7 11 18q35 33 40 72q-6 -2 -11 -2
q-18 0 -30 12.5t-12 31.5q0 20 13.5 33.5t32.5 13.5q22 0 37.5 -18.5t15.5 -48.5q0 -73 -62 -127q-7 -6 -14 -6q-8 0 -14.5 6t-6.5 15z" />
    <glyph glyph-name="Rcaron" unicode="&#x158;" horiz-adv-x="608" 
d="M557 34q0 -15 -11.5 -26.5t-28.5 -11.5q-23 0 -35 17l-174 252h-147v-228q0 -16 -12 -28.5t-29 -12.5q-18 0 -30 12t-12 29v586q0 44 44 44h224q93 0 151 -55t58 -146q0 -79 -44.5 -130.5t-114.5 -61.5l153 -214q8 -13 8 -26zM161 593v-255h175q59 0 96 36t37 92
t-37 91.5t-96 35.5h-175zM422 851q0 -7 -3 -11l-70 -104q-13 -19 -36 -19h-18q-23 0 -36 19l-70 104q-3 4 -3 11q0 10 6.5 16t15.5 6q11 0 16 -8l80 -104l80 104q5 8 16 8q9 0 15.5 -6t6.5 -16z" />
    <glyph glyph-name="rcaron" unicode="&#x159;" horiz-adv-x="330" 
d="M316 455q0 -14 -11 -24.5t-30 -12.5q-33 -1 -72 -25q-36 -22 -53 -51v-309q0 -15 -11 -26t-26 -11q-16 0 -27 11t-11 26v417q0 15 11 26t26 11q16 0 27 -11t11 -26v-45q49 67 108 81q18 5 24 5q15 0 24.5 -10.5t9.5 -25.5zM307 704q0 -6 -3 -11l-70 -104q-13 -19 -36 -19
h-18q-23 0 -36 19l-70 104q-3 5 -3 11q0 10 6.5 16t15.5 6q11 0 16 -8l80 -104l80 104q5 8 16 8q9 0 15.5 -6t6.5 -16z" />
    <glyph glyph-name="Sacute" unicode="&#x15a;" horiz-adv-x="586" 
d="M49 100q0 17 11.5 29t28.5 12q16 0 25 -9q80 -70 183 -70q77 0 117 33t40 82q0 37 -23 60q-20 22 -51 35t-95 31q-79 21 -119 37q-107 44 -107 152q0 81 66 133t169 52q118 0 206 -69q17 -11 17 -32q0 -16 -11.5 -28t-27.5 -12q-14 0 -24 9q-70 58 -166 58
q-64 0 -103.5 -29.5t-39.5 -76.5q0 -31 21 -52q20 -19 49 -30t92 -28q67 -18 120 -40q113 -45 113 -163q0 -84 -62 -140t-184 -56q-139 0 -230 81q-15 14 -15 31zM295 719q-8 0 -14 6t-6 14q0 10 7 14l114 111q7 7 18 7q10 0 17.5 -7t7.5 -18q0 -12 -9 -19l-121 -103
q-5 -5 -14 -5z" />
    <glyph glyph-name="sacute" unicode="&#x15b;" horiz-adv-x="465" 
d="M41 72q0 14 10 23.5t23 9.5q11 0 20 -6q60 -50 137 -50q53 0 83.5 22t30.5 58q0 34 -28.5 52t-95.5 34q-65 16 -91 26q-84 32 -84 115q0 59 49 99t131 40q92 0 160 -53q13 -10 13 -25q0 -13 -9.5 -22.5t-22.5 -9.5q-10 0 -18 7q-48 42 -123 42q-49 0 -78 -20t-29 -53
q0 -30 26.5 -45.5t91.5 -31.5q57 -14 92 -27q89 -35 89 -123q0 -65 -51 -105.5t-139 -40.5q-102 0 -173 57q-14 9 -14 27zM233 572q-8 0 -14 6t-6 14q0 10 7 14l114 111q7 7 18 7q10 0 17.5 -7t7.5 -18t-9 -19l-121 -103q-5 -5 -14 -5z" />
    <glyph glyph-name="Scircumflex" unicode="&#x15c;" horiz-adv-x="586" 
d="M49 100q0 17 11.5 29t28.5 12q16 0 25 -9q80 -70 183 -70q77 0 117 33t40 82q0 37 -23 60q-20 22 -51 35t-95 31q-79 21 -119 37q-107 44 -107 152q0 81 66 133t169 52q118 0 206 -69q17 -11 17 -32q0 -16 -11.5 -28t-27.5 -12q-14 0 -24 9q-70 58 -166 58
q-64 0 -103.5 -29.5t-39.5 -76.5q0 -31 21 -52q20 -19 49 -30t92 -28q67 -18 120 -40q113 -45 113 -163q0 -84 -62 -140t-184 -56q-139 0 -230 81q-15 14 -15 31zM369 724l-80 105l-80 -105q-4 -7 -16 -7q-9 0 -15.5 6t-6.5 16q0 5 3 11l70 104q14 19 36 19h18q22 0 36 -19
l70 -104q3 -6 3 -11q0 -10 -6.5 -16t-15.5 -6q-12 0 -16 7z" />
    <glyph glyph-name="scircumflex" unicode="&#x15d;" horiz-adv-x="465" 
d="M41 72q0 14 10 23.5t23 9.5q11 0 20 -6q60 -50 137 -50q53 0 83.5 22t30.5 58q0 34 -28.5 52t-95.5 34q-65 16 -91 26q-84 32 -84 115q0 59 49 99t131 40q92 0 160 -53q13 -10 13 -25q0 -13 -9.5 -22.5t-22.5 -9.5q-10 0 -18 7q-48 42 -123 42q-49 0 -78 -20t-29 -53
q0 -30 26.5 -45.5t91.5 -31.5q57 -14 92 -27q89 -35 89 -123q0 -65 -51 -105.5t-139 -40.5q-102 0 -173 57q-14 9 -14 27zM307 577l-80 105l-80 -105q-4 -7 -16 -7q-9 0 -15.5 6t-6.5 16q0 5 3 11l70 104q14 19 36 19h18q22 0 36 -19l70 -104q3 -6 3 -11q0 -10 -6.5 -16
t-15.5 -6q-12 0 -16 7z" />
    <glyph glyph-name="uni015E" unicode="&#x15e;" horiz-adv-x="586" 
d="M310 -12l-17 -43q17 11 36 11q30 0 48.5 -18.5t18.5 -48.5q0 -36 -29.5 -58t-74.5 -22q-51 0 -90 22q-11 8 -11 19q0 8 6 14.5t14 6.5t12 -4q31 -19 67 -19q25 0 43 12t18 30q0 35 -37 35q-18 0 -32 -11q-5 -5 -13 -5q-10 0 -16.5 6.5t-6.5 16.5q0 1 2 9l18 48
q-121 8 -202 80q-15 14 -15 31t11.5 29t28.5 12q16 0 25 -9q80 -70 183 -70q77 0 117 33t40 82q0 37 -23 60q-20 22 -51 35t-95 31q-79 21 -119 37q-107 44 -107 152q0 81 66 133t169 52q118 0 206 -69q17 -11 17 -32q0 -16 -11.5 -28t-27.5 -12q-14 0 -24 9q-70 58 -166 58
q-64 0 -103.5 -29.5t-39.5 -76.5q0 -31 21 -52q20 -19 49 -30t92 -28q67 -18 120 -40q113 -45 113 -163q0 -81 -57.5 -136.5t-172.5 -59.5z" />
    <glyph glyph-name="uni015F" unicode="&#x15f;" horiz-adv-x="465" 
d="M247 -11l-17 -44q17 11 37 11q29 0 47.5 -18.5t18.5 -48.5q0 -36 -29.5 -58t-74.5 -22q-50 0 -90 22q-11 8 -11 19q0 8 6 14.5t15 6.5q5 0 12 -4q31 -19 66 -19q25 0 43 12t18 30q0 35 -37 35q-17 0 -31 -11q-8 -5 -14 -5q-10 0 -16.5 6.5t-6.5 16.5q0 1 2 9l18 48
q-86 6 -148 56q-14 9 -14 27q0 14 10 23.5t23 9.5q11 0 20 -6q60 -50 137 -50q53 0 83.5 22t30.5 58q0 34 -28.5 52t-95.5 34q-65 16 -91 26q-84 32 -84 115q0 59 49 99t131 40q92 0 160 -53q13 -10 13 -25q0 -13 -9.5 -22.5t-22.5 -9.5q-10 0 -18 7q-48 42 -123 42
q-49 0 -78 -20t-29 -53q0 -30 26.5 -45.5t91.5 -31.5q57 -14 92 -27q89 -35 89 -123q0 -61 -45.5 -101t-125.5 -44z" />
    <glyph glyph-name="Scaron" unicode="&#x160;" horiz-adv-x="586" 
d="M49 100q0 17 11.5 29t28.5 12q16 0 25 -9q80 -70 183 -70q77 0 117 33t40 82q0 37 -23 60q-20 22 -51 35t-95 31q-79 21 -119 37q-107 44 -107 152q0 81 66 133t169 52q118 0 206 -69q17 -11 17 -32q0 -16 -11.5 -28t-27.5 -12q-14 0 -24 9q-70 58 -166 58
q-64 0 -103.5 -29.5t-39.5 -76.5q0 -31 21 -52q20 -19 49 -30t92 -28q67 -18 120 -40q113 -45 113 -163q0 -84 -62 -140t-184 -56q-139 0 -230 81q-15 14 -15 31zM404 851q0 -7 -3 -11l-70 -104q-13 -19 -36 -19h-18q-23 0 -36 19l-70 104q-3 4 -3 11q0 10 6.5 16t15.5 6
q11 0 16 -8l80 -104l80 104q5 8 16 8q9 0 15.5 -6t6.5 -16z" />
    <glyph glyph-name="scaron" unicode="&#x161;" horiz-adv-x="465" 
d="M41 72q0 14 10 23.5t23 9.5q11 0 20 -6q60 -50 137 -50q53 0 83.5 22t30.5 58q0 34 -28.5 52t-95.5 34q-65 16 -91 26q-84 32 -84 115q0 59 49 99t131 40q92 0 160 -53q13 -10 13 -25q0 -13 -9.5 -22.5t-22.5 -9.5q-10 0 -18 7q-48 42 -123 42q-49 0 -78 -20t-29 -53
q0 -30 26.5 -45.5t91.5 -31.5q57 -14 92 -27q89 -35 89 -123q0 -65 -51 -105.5t-139 -40.5q-102 0 -173 57q-14 9 -14 27zM342 704q0 -6 -3 -11l-70 -104q-13 -19 -36 -19h-18q-23 0 -36 19l-70 104q-3 5 -3 11q0 10 6.5 16t15.5 6q11 0 16 -8l80 -104l80 104q5 8 16 8
q9 0 15.5 -6t6.5 -16z" />
    <glyph glyph-name="uni0162" unicode="&#x162;" horiz-adv-x="570" 
d="M243 37v556h-178q-15 0 -26 11t-11 26t11 26t26 11h440q15 0 26 -11t11 -26t-11 -26t-26 -11h-179v-556q0 -17 -12 -29t-29 -12t-29.5 12t-12.5 29zM241 -250q0 7 11 18q35 33 40 72q-6 -2 -11 -2q-18 0 -30 12.5t-12 31.5q0 20 13.5 33.5t32.5 13.5q22 0 37.5 -18.5
t15.5 -48.5q0 -73 -62 -127q-8 -6 -14 -6q-8 0 -14.5 6t-6.5 15z" />
    <glyph glyph-name="uni0163" unicode="&#x163;" horiz-adv-x="294" 
d="M284 32q0 -21 -19 -28q-26 -16 -68 -16q-107 0 -107 113v316h-51q-13 0 -23 10t-10 23q0 14 10 23.5t23 9.5h51v99q0 15 11 26t27 11q15 0 26 -11t11 -26v-99h69q14 0 24 -10t10 -23t-10 -23t-24 -10h-69v-300q0 -28 12.5 -45t36.5 -17q9 0 23 4.5t15 4.5q14 0 23 -9
t9 -23zM106 -250q0 7 11 18q35 33 40 72q-6 -2 -11 -2q-18 0 -30 12.5t-12 31.5q0 20 13.5 33.5t32.5 13.5q22 0 37.5 -18.5t15.5 -48.5q0 -73 -62 -127q-7 -6 -14 -6q-8 0 -14.5 6t-6.5 15z" />
    <glyph glyph-name="Tcaron" unicode="&#x164;" horiz-adv-x="570" 
d="M243 37v556h-178q-15 0 -26 11t-11 26t11 26t26 11h440q15 0 26 -11t11 -26t-11 -26t-26 -11h-179v-556q0 -17 -12 -29t-29 -12t-29.5 12t-12.5 29zM401 851q0 -7 -3 -11l-70 -104q-13 -19 -36 -19h-18q-23 0 -36 19l-70 104q-3 4 -3 11q0 10 6.5 16t15.5 6q11 0 16 -8
l80 -104l80 104q5 8 16 8q9 0 15.5 -6t6.5 -16z" />
    <glyph glyph-name="tcaron" unicode="&#x165;" horiz-adv-x="313" 
d="M284 32q0 -21 -19 -28q-26 -16 -68 -16q-107 0 -107 113v316h-51q-13 0 -23 10t-10 23q0 14 10 23.5t23 9.5h51v99q0 15 11 26t27 11q15 0 26 -11t11 -26v-99h69q14 0 24 -10t10 -23t-10 -23t-24 -10h-69v-300q0 -28 12.5 -45t36.5 -17q9 0 23 4.5t15 4.5q14 0 23 -9
t9 -23zM228 564q0 7 11 18q35 33 40 72q-6 -2 -11 -2q-18 0 -30 12.5t-12 31.5q0 20 13.5 33.5t32.5 13.5q22 0 37.5 -18.5t15.5 -48.5q0 -73 -62 -127q-8 -6 -14 -6q-8 0 -14.5 6t-6.5 15z" />
    <glyph glyph-name="Tbar" unicode="&#x166;" horiz-adv-x="570" 
d="M542 630q0 -15 -11 -26t-26 -11h-179v-251h131q10 0 17.5 -7t7.5 -17t-7.5 -17t-17.5 -7h-131v-257q0 -17 -12 -29t-29 -12t-29.5 12t-12.5 29v257h-131q-10 0 -17 7t-7 17t7 17t17 7h131v251h-178q-15 0 -26 11t-11 26t11 26t26 11h440q15 0 26 -11t11 -26z" />
    <glyph glyph-name="tbar" unicode="&#x167;" horiz-adv-x="294" 
d="M284 32q0 -21 -19 -28q-26 -16 -68 -16q-107 0 -107 113v125h-60q-10 0 -17 7.5t-7 17.5t7 16.5t17 6.5h60v143h-51q-13 0 -23 10t-10 23q0 14 10 23.5t23 9.5h51v99q0 15 11 26t27 11q15 0 26 -11t11 -26v-99h69q14 0 24 -10t10 -23t-10 -23t-24 -10h-69v-143h51
q10 0 17 -6.5t7 -16.5t-7 -17.5t-17 -7.5h-51v-109q0 -28 12.5 -45t36.5 -17q9 0 23 4.5t15 4.5q14 0 23 -9t9 -23z" />
    <glyph glyph-name="Utilde" unicode="&#x168;" horiz-adv-x="700" 
d="M78 259v371q0 17 12 29t30 12q17 0 29 -12t12 -29v-369q0 -94 49.5 -146.5t139.5 -52.5t139.5 52.5t49.5 146.5v369q0 17 12 29t30 12q17 0 29 -12t12 -29v-370q0 -128 -70.5 -200t-201.5 -72t-201.5 71.5t-70.5 199.5zM334 774q-14 22 -23.5 30.5t-23.5 8.5
q-42 0 -48 -70q-2 -20 -22 -20q-10 0 -16.5 7.5t-5.5 16.5q5 53 30 83.5t66 30.5q24 0 39.5 -12t35.5 -41q17 -24 25.5 -31.5t22.5 -7.5q41 0 47 70q2 20 22 20q10 0 17 -7t6 -17q-5 -54 -30 -84t-66 -30q-25 0 -40.5 12t-35.5 41z" />
    <glyph glyph-name="utilde" unicode="&#x169;" 
d="M476 450v-417q0 -15 -11 -26t-26 -11q-16 0 -27 11t-11 26v34q-72 -79 -172 -79q-154 0 -154 154v308q0 15 11 26t27 11q15 0 26 -11t11 -26v-285q0 -59 26.5 -84.5t81.5 -25.5q41 0 81 21t62 52v322q0 15 11 26t26 11q16 0 27 -11t11 -26zM259 627q-14 22 -23.5 30.5
t-23.5 8.5q-42 0 -48 -70q-2 -20 -22 -20q-10 0 -16.5 7.5t-5.5 16.5q5 53 30 83.5t66 30.5q24 0 39.5 -12t35.5 -41q17 -24 25.5 -31.5t22.5 -7.5q41 0 47 70q2 20 22 20q10 0 17 -7t6 -17q-5 -54 -30 -84t-66 -30q-25 0 -40.5 12t-35.5 41z" />
    <glyph glyph-name="Umacron" unicode="&#x16a;" horiz-adv-x="700" 
d="M78 259v371q0 17 12 29t30 12q17 0 29 -12t12 -29v-369q0 -94 49.5 -146.5t139.5 -52.5t139.5 52.5t49.5 146.5v369q0 17 12 29t30 12q17 0 29 -12t12 -29v-370q0 -128 -70.5 -200t-201.5 -72t-201.5 71.5t-70.5 199.5zM192 763q0 10 7 17t17 7h267q10 0 17 -7t7 -17
t-7 -17t-17 -7h-267q-10 0 -17 7t-7 17z" />
    <glyph glyph-name="umacron" unicode="&#x16b;" 
d="M476 450v-417q0 -15 -11 -26t-26 -11q-16 0 -27 11t-11 26v34q-72 -79 -172 -79q-154 0 -154 154v308q0 15 11 26t27 11q15 0 26 -11t11 -26v-285q0 -59 26.5 -84.5t81.5 -25.5q41 0 81 21t62 52v322q0 15 11 26t26 11q16 0 27 -11t11 -26zM117 616q0 10 7 17t17 7h267
q10 0 17 -7t7 -17t-7 -17t-17 -7h-267q-10 0 -17 7t-7 17z" />
    <glyph glyph-name="Ubreve" unicode="&#x16c;" horiz-adv-x="700" 
d="M78 259v371q0 17 12 29t30 12q17 0 29 -12t12 -29v-369q0 -94 49.5 -146.5t139.5 -52.5t139.5 52.5t49.5 146.5v369q0 17 12 29t30 12q17 0 29 -12t12 -29v-370q0 -128 -70.5 -200t-201.5 -72t-201.5 71.5t-70.5 199.5zM188 789q-7 7 -7 17t7 17t17 7q13 0 18 -8
q52 -57 127 -57t126 57q6 8 18 8q10 0 17 -7t7 -17q0 -9 -7 -17q-63 -72 -161 -72q-96 0 -162 72z" />
    <glyph glyph-name="ubreve" unicode="&#x16d;" 
d="M476 450v-417q0 -15 -11 -26t-26 -11q-16 0 -27 11t-11 26v34q-72 -79 -172 -79q-154 0 -154 154v308q0 15 11 26t27 11q15 0 26 -11t11 -26v-285q0 -59 26.5 -84.5t81.5 -25.5q41 0 81 21t62 52v322q0 15 11 26t26 11q16 0 27 -11t11 -26zM113 642q-7 7 -7 17t7 17t17 7
q13 0 18 -8q53 -57 127 -57q75 0 126 57q6 8 18 8q10 0 17 -7t7 -17q0 -9 -7 -17q-63 -72 -161 -72q-96 0 -162 72z" />
    <glyph glyph-name="Uring" unicode="&#x16e;" horiz-adv-x="700" 
d="M78 259v371q0 17 12 29t30 12q17 0 29 -12t12 -29v-369q0 -94 49.5 -146.5t139.5 -52.5t139.5 52.5t49.5 146.5v369q0 17 12 29t30 12q17 0 29 -12t12 -29v-370q0 -128 -70.5 -200t-201.5 -72t-201.5 71.5t-70.5 199.5zM350 907q40 0 69 -29t29 -70q0 -40 -29 -69
t-69 -29q-41 0 -69.5 29t-28.5 69q0 41 29 70t69 29zM350 867q-24 0 -41 -17t-17 -42q0 -24 17 -41.5t41 -17.5t41 17.5t17 41.5q0 25 -16.5 42t-41.5 17z" />
    <glyph glyph-name="uring" unicode="&#x16f;" 
d="M476 450v-417q0 -15 -11 -26t-26 -11q-16 0 -27 11t-11 26v34q-72 -79 -172 -79q-154 0 -154 154v308q0 15 11 26t27 11q15 0 26 -11t11 -26v-285q0 -59 26.5 -84.5t81.5 -25.5q41 0 81 21t62 52v322q0 15 11 26t26 11q16 0 27 -11t11 -26zM275 760q40 0 69 -29t29 -70
q0 -40 -29 -69t-69 -29q-41 0 -69.5 29t-28.5 69q0 41 29 70t69 29zM275 720q-24 0 -41 -17t-17 -42q0 -24 17 -41.5t41 -17.5t41 17.5t17 41.5q0 25 -16.5 42t-41.5 17z" />
    <glyph glyph-name="Uhungarumlaut" unicode="&#x170;" horiz-adv-x="700" 
d="M78 259v371q0 17 12 29t30 12q17 0 29 -12t12 -29v-369q0 -94 49.5 -146.5t139.5 -52.5t139.5 52.5t49.5 146.5v369q0 17 12 29t30 12q17 0 29 -12t12 -29v-370q0 -128 -70.5 -200t-201.5 -72t-201.5 71.5t-70.5 199.5zM264 737q0 8 4 12l75 113q9 12 22 12q11 0 18.5 -8
t7.5 -19q0 -9 -5 -16l-84 -106q-8 -9 -17 -9q-8 0 -14.5 6t-6.5 15zM406 737q0 8 4 12l75 113q9 12 22 12q11 0 18.5 -8t7.5 -19q0 -9 -5 -16l-84 -106q-8 -9 -17 -9q-8 0 -14.5 6t-6.5 15z" />
    <glyph glyph-name="uhungarumlaut" unicode="&#x171;" 
d="M476 450v-417q0 -15 -11 -26t-26 -11q-16 0 -27 11t-11 26v34q-72 -79 -172 -79q-154 0 -154 154v308q0 15 11 26t27 11q15 0 26 -11t11 -26v-285q0 -59 26.5 -84.5t81.5 -25.5q41 0 81 21t62 52v322q0 15 11 26t26 11q16 0 27 -11t11 -26zM189 590q0 8 4 12l75 113
q9 12 22 12q11 0 18.5 -8t7.5 -19q0 -9 -5 -16l-84 -106q-7 -9 -17 -9q-8 0 -14.5 6t-6.5 15zM331 590q0 8 4 12l75 113q9 12 22 12q11 0 18.5 -8t7.5 -19q0 -9 -5 -16l-84 -106q-7 -9 -17 -9q-8 0 -14.5 6t-6.5 15z" />
    <glyph glyph-name="Uogonek" unicode="&#x172;" horiz-adv-x="700" 
d="M78 259v371q0 17 12 29t30 12q17 0 29 -12t12 -29v-369q0 -94 49.5 -146.5t139.5 -52.5t139.5 52.5t49.5 146.5v369q0 17 12 29t30 12q17 0 29 -12t12 -29v-370q0 -199 -158 -255q-53 -18 -82.5 -44t-29.5 -55q0 -18 12 -28.5t30 -10.5q10 0 17 3q12 2 22 -5.5t10 -19.5
q0 -19 -19 -24q-24 -7 -46 -7q-42 0 -70 20t-28 55q0 58 83 99h-13q-131 0 -201.5 71.5t-70.5 199.5z" />
    <glyph glyph-name="uogonek" unicode="&#x173;" 
d="M476 450v-417q0 -14 -10 -25q1 -1 -3 -4q-44 -30 -62.5 -52t-18.5 -46q0 -18 12 -28.5t30 -10.5q7 0 16.5 2.5t10.5 2.5q10 0 17.5 -7t7.5 -18q0 -17 -16 -24q-25 -9 -52 -9q-42 0 -70 20t-28 55q0 33 30 63t79 49q-18 11 -18 32v34q-72 -79 -172 -79q-154 0 -154 154
v308q0 15 11 26t27 11q15 0 26 -11t11 -26v-285q0 -59 26.5 -84.5t81.5 -25.5q41 0 81 21t62 52v322q0 15 11 26t26 11q16 0 27 -11t11 -26z" />
    <glyph glyph-name="Wcircumflex" unicode="&#x174;" horiz-adv-x="883" 
d="M578 39l-137 499l-136 -499q-11 -43 -56 -43q-20 0 -35.5 11.5t-20.5 30.5l-164 576q-2 10 -2 13q0 18 13 31t31 13q33 0 42 -33l141 -527l145 528q4 14 15.5 23t27.5 9q15 0 26.5 -9t15.5 -23l145 -528l140 527q9 33 42 33q19 0 31.5 -13t12.5 -31q0 -3 -2 -13
l-164 -576q-4 -19 -19.5 -30.5t-35.5 -11.5t-36 12t-20 31zM522 724l-80 105l-80 -105q-4 -7 -16 -7q-9 0 -15.5 6t-6.5 16q0 5 3 11l70 104q14 19 36 19h18q22 0 36 -19l70 -104q3 -6 3 -11q0 -10 -6.5 -16t-15.5 -6q-12 0 -16 7z" />
    <glyph glyph-name="wcircumflex" unicode="&#x175;" horiz-adv-x="734" 
d="M483 31l-116 357l-116 -357q-4 -16 -17 -25.5t-30 -9.5t-30.5 9.5t-17.5 25.5l-130 407q-2 10 -2 12q0 16 11 26.5t26 10.5q29 0 36 -26l111 -363l118 360q9 29 41 29t41 -29l118 -360l111 363q7 26 36 26q15 0 26 -11t11 -26q0 -5 -2 -13l-130 -406q-4 -16 -17.5 -25.5
t-30.5 -9.5t-30 9.5t-17 25.5zM448 565l-80 105l-80 -105q-4 -7 -16 -7q-9 0 -15.5 6t-6.5 16q0 5 3 11l70 104q14 19 36 19h18q22 0 36 -19l70 -104q3 -6 3 -11q0 -10 -6.5 -16t-15.5 -6q-12 0 -16 7z" />
    <glyph glyph-name="Ycircumflex" unicode="&#x176;" horiz-adv-x="626" 
d="M578 609l-223 -327v-245q0 -17 -12.5 -29t-29.5 -12t-29 12t-12 29v245l-224 326q-7 7 -7 23q0 17 12 28.5t28 11.5q23 0 34 -18l198 -297l197 297q14 18 34 18q17 0 29 -12t12 -28q0 -12 -7 -22zM394 724l-80 105l-80 -105q-4 -7 -16 -7q-9 0 -15.5 6t-6.5 16q0 5 3 11
l70 104q14 19 36 19h18q22 0 36 -19l70 -104q3 -6 3 -11q0 -10 -6.5 -16t-15.5 -6q-12 0 -16 7z" />
    <glyph glyph-name="ycircumflex" unicode="&#x177;" horiz-adv-x="490" 
d="M85 -128l16 -1q27 0 43.5 11.5t28.5 39.5l32 73l-182 440q-3 7 -3 14q0 16 10.5 27t26.5 11q26 0 35 -23l153 -377l152 377q9 23 35 23q16 0 27 -11t11 -27q0 -7 -3 -15l-222 -532q-40 -96 -142 -98q-12 0 -22 2q-14 1 -23 10.5t-9 22.5q0 14 10.5 23.5t25.5 9.5z
M326 577l-80 105l-80 -105q-4 -7 -16 -7q-9 0 -15.5 6t-6.5 16q0 5 3 11l70 104q14 19 36 19h18q22 0 36 -19l70 -104q3 -6 3 -11q0 -10 -6.5 -16t-15.5 -6q-12 0 -16 7z" />
    <glyph glyph-name="Ydieresis" unicode="&#x178;" horiz-adv-x="626" 
d="M578 609l-223 -327v-245q0 -17 -12.5 -29t-29.5 -12t-29 12t-12 29v245l-224 326q-7 7 -7 23q0 17 12 28.5t28 11.5q23 0 34 -18l198 -297l197 297q14 18 34 18q17 0 29 -12t12 -28q0 -12 -7 -22zM164 780q0 19 13.5 32.5t32.5 13.5t32.5 -13.5t13.5 -32.5
q0 -20 -13.5 -33.5t-32.5 -13.5t-32.5 14t-13.5 33zM370 780q0 19 14 32.5t33 13.5t32.5 -13.5t13.5 -32.5t-13.5 -33t-32.5 -14q-20 0 -33.5 14t-13.5 33z" />
    <glyph glyph-name="Zacute" unicode="&#x179;" horiz-adv-x="585" 
d="M43 48q0 15 10 28l370 517h-343q-15 0 -26 11t-11 26t11 26t26 11h406q20 0 34 -14t14 -34q0 -15 -10 -28l-370 -517h350q15 0 26 -11t11 -26t-11 -26t-26 -11h-413q-20 0 -34 14t-14 34zM300 719q-8 0 -14 6t-6 14q0 10 7 14l114 111q7 7 18 7q10 0 17.5 -7t7.5 -18
q0 -12 -9 -19l-121 -103q-5 -5 -14 -5z" />
    <glyph glyph-name="zacute" unicode="&#x17a;" horiz-adv-x="472" 
d="M47 39q0 13 8 24l263 354h-238q-13 0 -23 10t-10 23t10 23t23 10h301q16 0 27.5 -11.5t11.5 -27.5q0 -10 -8 -23l-264 -356h243q14 0 23.5 -9.5t9.5 -22.5q0 -14 -9.5 -23.5t-23.5 -9.5h-304q-16 0 -28 11.5t-12 27.5zM243 572q-8 0 -14 6t-6 14q0 10 7 14l114 111
q7 7 18 7q10 0 17.5 -7t7.5 -18t-9 -19l-121 -103q-5 -5 -14 -5z" />
    <glyph glyph-name="Zdotaccent" unicode="&#x17b;" horiz-adv-x="585" 
d="M43 48q0 15 10 28l370 517h-343q-15 0 -26 11t-11 26t11 26t26 11h406q20 0 34 -14t14 -34q0 -15 -10 -28l-370 -517h350q15 0 26 -11t11 -26t-11 -26t-26 -11h-413q-20 0 -34 14t-14 34zM293 825q19 0 32.5 -13.5t13.5 -33.5t-13.5 -33.5t-32.5 -13.5t-33 14t-14 33
t14 33t33 14z" />
    <glyph glyph-name="zdotaccent" unicode="&#x17c;" horiz-adv-x="472" 
d="M47 39q0 13 8 24l263 354h-238q-13 0 -23 10t-10 23t10 23t23 10h301q16 0 27.5 -11.5t11.5 -27.5q0 -10 -8 -23l-264 -356h243q14 0 23.5 -9.5t9.5 -22.5q0 -14 -9.5 -23.5t-23.5 -9.5h-304q-16 0 -28 11.5t-12 27.5zM236 678q19 0 32.5 -13.5t13.5 -33.5t-13.5 -33.5
t-32.5 -13.5t-33 14t-14 33t14 33t33 14z" />
    <glyph glyph-name="Zcaron" unicode="&#x17d;" horiz-adv-x="585" 
d="M43 48q0 15 10 28l370 517h-343q-15 0 -26 11t-11 26t11 26t26 11h406q20 0 34 -14t14 -34q0 -15 -10 -28l-370 -517h350q15 0 26 -11t11 -26t-11 -26t-26 -11h-413q-20 0 -34 14t-14 34zM409 851q0 -7 -3 -11l-70 -104q-13 -19 -36 -19h-18q-23 0 -36 19l-70 104
q-3 4 -3 11q0 10 6.5 16t15.5 6q11 0 16 -8l80 -104l80 104q5 8 16 8q9 0 15.5 -6t6.5 -16z" />
    <glyph glyph-name="zcaron" unicode="&#x17e;" horiz-adv-x="472" 
d="M47 39q0 13 8 24l263 354h-238q-13 0 -23 10t-10 23t10 23t23 10h301q16 0 27.5 -11.5t11.5 -27.5q0 -10 -8 -23l-264 -356h243q14 0 23.5 -9.5t9.5 -22.5q0 -14 -9.5 -23.5t-23.5 -9.5h-304q-16 0 -28 11.5t-12 27.5zM352 704q0 -6 -3 -11l-70 -104q-13 -19 -36 -19h-18
q-23 0 -36 19l-70 104q-3 5 -3 11q0 10 6.5 16t15.5 6q11 0 16 -8l80 -104l80 104q5 8 16 8q9 0 15.5 -6t6.5 -16z" />
    <glyph glyph-name="longs" unicode="&#x17f;" horiz-adv-x="283" 
d="M306 641q0 -13 -8 -21.5t-22 -8.5q-3 0 -13.5 2t-15.5 2q-37 0 -56.5 -24.5t-19.5 -70.5v-487q0 -15 -11 -26t-26 -11q-16 0 -27 11t-11 26v384h-51q-14 0 -24 10t-10 23t10 23t24 10h51v37q0 74 38 115.5t102 41.5q24 0 47 -6q23 -7 23 -30z" />
    <glyph glyph-name="uni018F" unicode="&#x18f;" horiz-adv-x="747" 
d="M696 333q2 -150 -94.5 -249t-235.5 -97q-141 -2 -233.5 93t-90.5 237q0 40 42 40h525q-7 109 -79.5 178t-176.5 69t-176 -72q-11 -11 -27 -11q-17 0 -28 11t-11 27q0 18 12 27q92 92 230 92q144 2 244.5 -97t98.5 -248zM605 283h-476q9 -97 71 -159.5t160 -62.5
q95 0 163.5 61.5t81.5 160.5z" />
    <glyph glyph-name="uni0192" unicode="&#x192;" horiz-adv-x="431" 
d="M438 629q0 -15 -10.5 -26t-26.5 -11q-4 0 -13 4q-13 7 -30 7q-36 0 -63 -24.5t-37 -67.5l-42 -189h110q14 0 24 -10.5t10 -24.5q0 -13 -10 -23t-24 -10h-125l-86 -387q-7 -32 -40 -32q-17 0 -29 12t-12 29l2 12l81 366h-38q-14 0 -24 10t-10 24t10.5 24t23.5 10h53
l45 204q15 70 62 110.5t112 40.5q39 0 66 -15q21 -12 21 -33z" />
    <glyph glyph-name="uni019D" unicode="&#x19d;" horiz-adv-x="708" 
d="M588 671q18 0 30 -12t12 -29v-583q0 -21 -15 -36t-36 -15q-27 0 -42 21l-376 521v-521q0 -102 -58 -157.5t-154 -55.5q-11 0 -19 2q-15 0 -26 10.5t-11 25.5t10.5 27t24.5 11q16 -2 17 -2q61 1 97 39.5t36 100.5v599q0 22 16 38t38 16q28 0 44 -22l371 -509v490
q0 17 12.5 29t28.5 12z" />
    <glyph glyph-name="Ohorn" unicode="&#x1a0;" horiz-adv-x="765" 
d="M654 538q59 -88 59 -205q2 -147 -92.5 -247t-238.5 -98q-144 -2 -238.5 98t-92.5 247q-2 147 92.5 247t238.5 98q158 0 249 -110q41 34 46 76q-8 -2 -11 -2q-17 0 -28 12t-11 29q0 18 12 31t30 13q22 0 36 -17t14 -46q0 -36 -17.5 -70t-47.5 -56zM627 333
q0 118 -68 194.5t-177 76.5q-110 0 -177.5 -76t-67.5 -195q0 -118 67.5 -194.5t177.5 -76.5q109 0 177 76.5t68 194.5z" />
    <glyph glyph-name="ohorn" unicode="&#x1a1;" horiz-adv-x="572" 
d="M469 411q56 -70 56 -169q0 -108 -66.5 -181t-172.5 -73t-172.5 73t-66.5 181t66.5 180.5t172.5 72.5q94 0 157 -57q40 35 42 72q-2 -1 -11 -1q-17 0 -28.5 11.5t-11.5 29.5q0 17 12.5 30t30.5 13q22 0 36 -17t14 -46q0 -34 -16 -66t-42 -53zM446 242q0 78 -43.5 132
t-116.5 54t-117 -54t-44 -132q0 -79 44 -133t117 -54t116.5 54t43.5 133z" />
    <glyph glyph-name="Uhorn" unicode="&#x1af;" horiz-adv-x="700" 
d="M622 575v-315q0 -128 -70.5 -200t-201.5 -72t-201.5 71.5t-70.5 199.5v371q0 17 12 29t30 12q17 0 29 -12t12 -29v-369q0 -94 49.5 -146.5t139.5 -52.5t139.5 52.5t49.5 146.5v369q0 17 12 29t30 12q17 0 29 -12t12 -29v-16q30 15 50.5 41t22.5 53q-1 -1 -11 -1
q-17 0 -28 11.5t-11 29.5t12.5 30.5t30.5 12.5q22 0 36 -17t14 -46q0 -49 -31.5 -90.5t-84.5 -62.5z" />
    <glyph glyph-name="uhorn" unicode="&#x1b0;" 
d="M476 393v-360q0 -15 -11 -26t-26 -11q-16 0 -27 11t-11 26v34q-72 -79 -172 -79q-154 0 -154 154v308q0 15 11 26t27 11q15 0 26 -11t11 -26v-285q0 -59 26.5 -84.5t81.5 -25.5q41 0 81 21t62 52v322q0 15 11 26t26 11q16 0 27 -11t11 -26v-14q49 35 51 80q-1 -1 -11 -1
q-17 0 -28.5 11.5t-11.5 29.5q0 17 12.5 30t30.5 13q22 0 36.5 -17.5t14.5 -45.5q0 -43 -25.5 -81.5t-68.5 -61.5z" />
    <glyph glyph-name="Gcaron" unicode="&#x1e6;" horiz-adv-x="713" 
d="M656 298v-163q0 -34 -22 -55q-101 -93 -240 -93q-144 -2 -244.5 97t-98.5 249q-2 149 98.5 248t244.5 97q138 0 230 -92q11 -9 11 -27q0 -16 -11 -27t-27 -11q-17 0 -28 11q-72 72 -175 72q-108 2 -183.5 -76.5t-73.5 -194.5q-2 -115 73.5 -194.5t183.5 -77.5
q52 0 100 20.5t79 51.5v136h-196q-15 0 -26 11t-11 26t11 26t26 11h235q44 0 44 -45zM509 851q0 -7 -3 -11l-70 -104q-13 -19 -36 -19h-18q-23 0 -36 19l-70 104q-3 4 -3 11q0 10 6.5 16t15.5 6q11 0 16 -8l80 -104l80 104q5 8 16 8q9 0 15.5 -6t6.5 -16z" />
    <glyph glyph-name="gcaron" unicode="&#x1e7;" horiz-adv-x="574" 
d="M499 450v-436q0 -110 -65 -160t-165 -50q-107 0 -175 55q-13 10 -13 26q0 13 10 23t23 10q11 0 19 -7q52 -45 136 -45q70 0 112.5 37t42.5 108v68q-28 -39 -71 -62t-91 -23q-96 0 -155.5 67.5t-59.5 182.5q0 114 59.5 182.5t155.5 68.5q99 0 162 -86v41q0 15 11 26t27 11
q15 0 26 -11t11 -26zM424 139v211q-21 34 -61 56t-83 22q-71 0 -113 -50.5t-42 -133.5q0 -82 42 -133t113 -51q42 0 82.5 22.5t61.5 56.5zM406 704q0 -6 -3 -11l-70 -104q-13 -19 -36 -19h-18q-23 0 -36 19l-70 104q-3 5 -3 11q0 10 6.5 16t15.5 6q11 0 16 -8l80 -104
l80 104q5 8 16 8q9 0 15.5 -6t6.5 -16z" />
    <glyph glyph-name="uni01EA" unicode="&#x1ea;" horiz-adv-x="765" 
d="M374 -94q0 -18 11.5 -28.5t29.5 -10.5q7 0 17 2.5t11 2.5q10 0 17.5 -7t7.5 -18q0 -17 -16 -24q-27 -9 -52 -9q-42 0 -70 20t-28 55q0 57 80 99q-144 -2 -238.5 98t-92.5 247q-2 147 92.5 247t238.5 98q143 2 238 -98t93 -247q0 -133 -75.5 -227.5t-198.5 -113.5
q-65 -46 -65 -86zM382 62q109 0 177 76.5t68 194.5t-68 194.5t-177 76.5q-110 0 -177.5 -76t-67.5 -195q0 -118 67.5 -194.5t177.5 -76.5z" />
    <glyph glyph-name="uni01EB" unicode="&#x1eb;" horiz-adv-x="572" 
d="M266 -94q0 -18 12 -28.5t30 -10.5q7 0 17 2.5t11 2.5q10 0 17.5 -7t7.5 -18q0 -18 -17 -24q-26 -9 -51 -9q-43 0 -70.5 20t-27.5 55q0 57 80 99q-102 4 -165 76.5t-63 177.5q0 108 66.5 180.5t172.5 72.5t172.5 -72.5t66.5 -180.5q0 -96 -53 -165.5t-142 -84.5
q-64 -49 -64 -86zM286 55q73 0 116.5 54t43.5 133q0 78 -43.5 132t-116.5 54t-117 -54t-44 -132q0 -79 44 -133t117 -54z" />
    <glyph glyph-name="Aringacute" unicode="&#x1fa;" horiz-adv-x="658" 
d="M630 39q0 -18 -12.5 -30.5t-29.5 -12.5q-28 0 -40 27l-48 125h-343l-48 -125q-8 -27 -39 -27q-18 0 -30.5 12.5t-12.5 29.5q0 6 4 17l230 570q18 46 68 46q49 0 67 -46l231 -570q3 -15 3 -16zM186 222h286l-143 371zM329 907q40 0 69 -29t29 -70q0 -40 -29 -69t-69 -29
q-41 0 -69.5 29t-28.5 69q0 41 29 70t69 29zM329 867q-24 0 -41 -17t-17 -42q0 -24 17 -41.5t41 -17.5t41 17.5t17 41.5q0 25 -16.5 42t-41.5 17zM335 931q-8 0 -14 6t-6 14q0 10 7 14l114 111q7 7 18 7q10 0 17.5 -7t7.5 -18q0 -12 -9 -19l-121 -103q-5 -5 -14 -5z" />
    <glyph glyph-name="aringacute" unicode="&#x1fb;" horiz-adv-x="527" 
d="M452 332v-299q0 -15 -11 -26t-27 -11q-15 0 -26 11t-11 26v22q-56 -67 -160 -67q-68 0 -118.5 43.5t-50.5 116.5t50.5 116t118.5 43q103 0 160 -66v87q0 47 -33.5 74.5t-88.5 27.5q-72 0 -126 -48q-10 -6 -20 -6q-13 0 -22 9t-9 22q0 16 13 25q72 63 174 63
q86 0 136.5 -41t50.5 -122zM377 102v91q-43 60 -133 60q-52 0 -85.5 -29.5t-33.5 -76.5q0 -46 33.5 -75.5t85.5 -29.5q90 0 133 60zM266 760q40 0 69 -29t29 -70q0 -40 -29 -69t-69 -29q-41 0 -69.5 29t-28.5 69q0 41 29 70t69 29zM266 720q-24 0 -41 -17t-17 -42
q0 -24 17 -41.5t41 -17.5t41 17.5t17 41.5q0 25 -16.5 42t-41.5 17zM273 784q-8 0 -14 6t-6 14q0 10 7 14l114 111q7 7 18 7q10 0 17.5 -7t7.5 -18q0 -12 -9 -19l-121 -103q-5 -5 -14 -5z" />
    <glyph glyph-name="AEacute" unicode="&#x1fc;" horiz-adv-x="947" 
d="M898 37q0 -15 -11.5 -26t-26.5 -11h-360q-44 0 -44 44v104h-267l-81 -134q-11 -18 -34 -18q-16 0 -27.5 11.5t-11.5 27.5q0 8 6 20l363 582q20 30 54 30h402q15 0 26.5 -11t11.5 -26t-11.5 -26t-26.5 -11h-321v-215h314q15 0 26.5 -11t11.5 -26t-11.5 -26t-26.5 -11h-314
v-230h321q15 0 26.5 -11t11.5 -26zM233 222h223v371zM503 719q-8 0 -14 6t-6 14q0 10 7 14l114 111q7 7 18 7q10 0 17.5 -7t7.5 -18q0 -12 -9 -19l-121 -103q-5 -5 -14 -5z" />
    <glyph glyph-name="aeacute" unicode="&#x1fd;" horiz-adv-x="889" 
d="M637 52q67 0 119 43q10 6 18 6q13 0 21.5 -9t8.5 -22q0 -15 -13 -25q-69 -57 -157 -57q-136 0 -193 116q-27 -52 -80.5 -84t-118.5 -32q-82 0 -138 42q-56 44 -56 118q0 73 51.5 116t126.5 43q112 0 175 -64v86q0 47 -36 74t-97 27q-81 0 -139 -49q-9 -6 -19 -6
q-13 0 -22 9.5t-9 22.5q0 18 13 26q76 62 185 62q66 0 112.5 -26.5t58.5 -78.5q60 105 179 105q98 0 157 -70t59 -170q0 -38 -44 -38h-323q5 -72 48 -118q44 -47 113 -47zM622 433q-65 0 -104 -48.5t-42 -112.5h293q-2 65 -39.5 113t-107.5 48zM256 253q-59 0 -95 -27.5
t-36 -73.5q0 -45 36 -72.5t95 -27.5q60 0 102.5 39.5t42.5 88.5v12q-50 61 -145 61zM448 572q-8 0 -14 6t-6 14q0 10 7 14l114 111q7 7 18 7q10 0 17.5 -7t7.5 -18t-9 -19l-121 -103q-5 -5 -14 -5z" />
    <glyph glyph-name="Oslashacute" unicode="&#x1fe;" horiz-adv-x="765" 
d="M713 333q2 -147 -92.5 -247t-238.5 -98q-104 0 -187 54l-57 -79q-8 -11 -19 -11q-9 0 -16 6.5t-7 15.5q0 8 6 16l58 80q-109 100 -109 263q-2 147 92.5 247t238.5 98q104 0 181 -51l56 77q8 11 19 11q9 0 16 -6.5t7 -15.5t-6 -16l-55 -77q113 -99 113 -267zM207 135
l311 429q-58 40 -136 40q-110 0 -177.5 -76t-67.5 -195q0 -122 70 -198zM627 333q0 128 -74 202l-312 -430q61 -43 141 -43q109 0 177 76.5t68 194.5zM388 719q-8 0 -14 6t-6 14q0 10 7 14l114 111q7 7 18 7q10 0 17.5 -7t7.5 -18q0 -12 -9 -19l-121 -103q-5 -5 -14 -5z" />
    <glyph glyph-name="oslashacute" unicode="&#x1ff;" horiz-adv-x="572" 
d="M525 242q0 -108 -66.5 -181t-172.5 -73q-75 0 -130 37l-45 -63q-7 -10 -18 -10q-8 0 -14 5.5t-6 13.5q0 6 5 14l46 64q-77 74 -77 193q0 108 66.5 180.5t172.5 72.5q75 0 133 -38l46 63q8 11 19 11q8 0 13.5 -5.5t5.5 -12.5q0 -6 -6 -14l-48 -66q76 -73 76 -191zM168 110
l209 289q-40 29 -91 29q-73 0 -117 -54t-44 -132q0 -81 43 -132zM446 242q0 79 -41 129l-208 -289q37 -27 89 -27q73 0 116.5 54t43.5 133zM293 572q-8 0 -14 6t-6 14q0 10 7 14l114 111q7 7 18 7q10 0 17.5 -7t7.5 -18t-9 -19l-121 -103q-5 -5 -14 -5z" />
    <glyph glyph-name="uni0218" unicode="&#x218;" horiz-adv-x="586" 
d="M49 100q0 17 11.5 29t28.5 12q16 0 25 -9q80 -70 183 -70q77 0 117 33t40 82q0 37 -23 60q-20 22 -51 35t-95 31q-79 21 -119 37q-107 44 -107 152q0 81 66 133t169 52q118 0 206 -69q17 -11 17 -32q0 -16 -11.5 -28t-27.5 -12q-14 0 -24 9q-70 58 -166 58
q-64 0 -103.5 -29.5t-39.5 -76.5q0 -31 21 -52q20 -19 49 -30t92 -28q67 -18 120 -40q113 -45 113 -163q0 -84 -62 -140t-184 -56q-139 0 -230 81q-15 14 -15 31zM244 -250q0 7 11 18q35 33 40 72q-6 -2 -11 -2q-18 0 -30 12.5t-12 31.5q0 20 13.5 33.5t32.5 13.5
q22 0 37.5 -18.5t15.5 -48.5q0 -73 -62 -127q-7 -6 -14 -6q-8 0 -14.5 6t-6.5 15z" />
    <glyph glyph-name="uni0219" unicode="&#x219;" horiz-adv-x="465" 
d="M41 72q0 14 10 23.5t23 9.5q11 0 20 -6q60 -50 137 -50q53 0 83.5 22t30.5 58q0 34 -28.5 52t-95.5 34q-65 16 -91 26q-84 32 -84 115q0 59 49 99t131 40q92 0 160 -53q13 -10 13 -25q0 -13 -9.5 -22.5t-22.5 -9.5q-10 0 -18 7q-48 42 -123 42q-49 0 -78 -20t-29 -53
q0 -30 26.5 -45.5t91.5 -31.5q57 -14 92 -27q89 -35 89 -123q0 -65 -51 -105.5t-139 -40.5q-102 0 -173 57q-14 9 -14 27zM182 -250q0 7 11 18q35 33 40 72q-6 -2 -11 -2q-18 0 -30 12.5t-12 31.5q0 20 13.5 33.5t32.5 13.5q22 0 37.5 -18.5t15.5 -48.5q0 -73 -62 -127
q-7 -6 -14 -6q-8 0 -14.5 6t-6.5 15z" />
    <glyph glyph-name="uni021A" unicode="&#x21a;" horiz-adv-x="570" 
d="M243 37v556h-178q-15 0 -26 11t-11 26t11 26t26 11h440q15 0 26 -11t11 -26t-11 -26t-26 -11h-179v-556q0 -17 -12 -29t-29 -12t-29.5 12t-12.5 29zM241 -250q0 7 11 18q35 33 40 72q-6 -2 -11 -2q-18 0 -30 12.5t-12 31.5q0 20 13.5 33.5t32.5 13.5q22 0 37.5 -18.5
t15.5 -48.5q0 -73 -62 -127q-8 -6 -14 -6q-8 0 -14.5 6t-6.5 15z" />
    <glyph glyph-name="uni021B" unicode="&#x21b;" horiz-adv-x="294" 
d="M284 32q0 -21 -19 -28q-26 -16 -68 -16q-107 0 -107 113v316h-51q-13 0 -23 10t-10 23q0 14 10 23.5t23 9.5h51v99q0 15 11 26t27 11q15 0 26 -11t11 -26v-99h69q14 0 24 -10t10 -23t-10 -23t-24 -10h-69v-300q0 -28 12.5 -45t36.5 -17q9 0 23 4.5t15 4.5q14 0 23 -9
t9 -23zM106 -250q0 7 11 18q35 33 40 72q-6 -2 -11 -2q-18 0 -30 12.5t-12 31.5q0 20 13.5 33.5t32.5 13.5q22 0 37.5 -18.5t15.5 -48.5q0 -73 -62 -127q-7 -6 -14 -6q-8 0 -14.5 6t-6.5 15z" />
    <glyph glyph-name="uni0232" unicode="&#x232;" horiz-adv-x="626" 
d="M578 609l-223 -327v-245q0 -17 -12.5 -29t-29.5 -12t-29 12t-12 29v245l-224 326q-7 7 -7 23q0 17 12 28.5t28 11.5q23 0 34 -18l198 -297l197 297q14 18 34 18q17 0 29 -12t12 -28q0 -12 -7 -22zM155 763q0 10 7 17t17 7h267q10 0 17 -7t7 -17t-7 -17t-17 -7h-267
q-10 0 -17 7t-7 17z" />
    <glyph glyph-name="uni0233" unicode="&#x233;" horiz-adv-x="490" 
d="M85 -128l16 -1q27 0 43.5 11.5t28.5 39.5l32 73l-182 440q-3 7 -3 14q0 16 10.5 27t26.5 11q26 0 35 -23l153 -377l152 377q9 23 35 23q16 0 27 -11t11 -27q0 -7 -3 -15l-222 -532q-40 -96 -142 -98q-12 0 -22 2q-14 1 -23 10.5t-9 22.5q0 14 10.5 23.5t25.5 9.5zM87 616
q0 10 7 17t17 7h267q10 0 17 -7t7 -17t-7 -17t-17 -7h-267q-10 0 -17 7t-7 17z" />
    <glyph glyph-name="uni0237" unicode="&#x237;" horiz-adv-x="225" 
d="M-16 -194q-12 1 -21 10t-9 22t8.5 23t20.5 10q1 0 6.5 -1t10.5 -1q75 0 75 84v497q0 15 11 26t27 11q15 0 26 -11t11 -26v-497q0 -71 -37 -110t-105 -39q-2 0 -24 2z" />
    <glyph glyph-name="uni0259" unicode="&#x259;" horiz-adv-x="563" 
d="M278 -12q-102 0 -165.5 69.5t-63.5 166.5q0 24 9.5 33t31.5 9h346q-4 70 -52 119q-46 48 -121 48q-72 0 -130 -46q-7 -4 -18 -4q-12 0 -21 8.5t-9 21.5q0 15 13 25q74 57 171 57q107 0 177 -71t70 -183q0 -105 -68.5 -179t-169.5 -74zM437 211h-317q2 -64 43.5 -112.5
t114.5 -48.5q71 0 113.5 48.5t45.5 112.5z" />
    <glyph glyph-name="uni0272" unicode="&#x272;" 
d="M476 339v-306q0 -15 -11 -26t-27 -11q-15 0 -26 11t-11 26v283q0 59 -27 85.5t-81 26.5q-41 0 -81 -21.5t-62 -53.5v-400q0 -71 -37 -110t-105 -39q-2 0 -24 2q-12 2 -21 11t-9 21q0 14 10 24t23 9q6 -2 15 -2q34 0 53.5 21t19.5 63v497q0 15 11 26t27 11q15 0 26 -11
t11 -26v-38q29 36 75.5 59.5t96.5 23.5q154 0 154 -156z" />
    <glyph glyph-name="uni02B0" unicode="&#x2b0;" horiz-adv-x="398" 
d="M280 351v177q0 38 -17.5 55t-53.5 17q-53 0 -92 -46v-203q0 -12 -8 -20.5t-21 -8.5q-11 0 -19.5 8.5t-8.5 20.5v384q0 12 8.5 20.5t20.5 8.5t20 -8.5t8 -20.5v-140q46 53 116 53q105 0 105 -107v-190q0 -12 -8.5 -20.5t-20.5 -8.5q-13 0 -21 8.5t-8 20.5z" />
    <glyph glyph-name="uni02BC" unicode="&#x2bc;" horiz-adv-x="230" 
d="M92 454q-10 0 -16.5 6.5t-6.5 16.5q0 11 7 18q41 41 46 79q-8 -2 -14 -2q-21 0 -34.5 14.5t-13.5 36.5t15.5 38t37.5 16q27 0 45 -21t18 -55q0 -83 -69 -141q-6 -6 -15 -6z" />
    <glyph glyph-name="circumflex" unicode="&#x2c6;" horiz-adv-x="265" 
d="M212 557l-80 105l-80 -105q-4 -7 -16 -7q-9 0 -15.5 6t-6.5 16q0 5 3 11l70 104q14 19 36 19h18q22 0 36 -19l70 -104q3 -6 3 -11q0 -10 -6.5 -16t-15.5 -6q-12 0 -16 7z" />
    <glyph glyph-name="caron" unicode="&#x2c7;" horiz-adv-x="265" 
d="M250 684q0 -6 -3 -11l-70 -104q-13 -19 -36 -19h-18q-23 0 -36 19l-70 104q-3 5 -3 11q0 10 6.5 16t15.5 6q11 0 16 -8l80 -104l80 104q5 8 16 8q9 0 15.5 -6t6.5 -16z" />
    <glyph glyph-name="uni02C9" unicode="&#x2c9;" horiz-adv-x="363" 
d="M24 615q0 10 7 17t17 7h267q10 0 17 -7t7 -17t-7 -17t-17 -7h-267q-10 0 -17 7t-7 17z" />
    <glyph glyph-name="uni02CB" unicode="&#x2cb;" horiz-adv-x="226" 
d="M168 557l-121 103q-9 8 -9 19q0 25 25 25q11 0 18 -7l114 -111q7 -4 7 -14q0 -8 -6 -14t-14 -6q-9 0 -14 5z" />
    <glyph glyph-name="breve" unicode="&#x2d8;" horiz-adv-x="351" 
d="M14 622q-7 7 -7 17t7 17t17 7q13 0 18 -8q53 -57 127 -57q75 0 126 57q6 8 18 8q10 0 17 -7t7 -17q0 -9 -7 -17q-63 -72 -161 -72q-96 0 -162 72z" />
    <glyph glyph-name="dotaccent" unicode="&#x2d9;" horiz-adv-x="127" 
d="M64 658q19 0 32.5 -13.5t13.5 -33.5t-13.5 -33.5t-32.5 -13.5t-33 14t-14 33t14 33t33 14z" />
    <glyph glyph-name="ring" unicode="&#x2da;" horiz-adv-x="236" 
d="M118 740q40 0 69 -29t29 -70q0 -40 -29 -69t-69 -29q-41 0 -69.5 29t-28.5 69q0 41 29 70t69 29zM118 700q-24 0 -41 -17t-17 -42q0 -24 17 -41.5t41 -17.5t41 17.5t17 41.5q0 25 -16.5 42t-41.5 17z" />
    <glyph glyph-name="ogonek" unicode="&#x2db;" horiz-adv-x="194" 
d="M14 -111q0 34 30.5 63.5t80.5 49.5q36 13 45 7q2 -2 -3 -5q-44 -30 -62.5 -52t-18.5 -46q0 -18 12 -28.5t30 -10.5q7 0 16.5 2.5t10.5 2.5q10 0 17.5 -7t7.5 -18q0 -17 -16 -24q-26 -9 -52 -9q-42 0 -70 20t-28 55z" />
    <glyph glyph-name="tilde" unicode="&#x2dc;" horiz-adv-x="313" 
d="M140 607q-14 22 -23.5 30.5t-23.5 8.5q-42 0 -48 -70q-2 -20 -22 -20q-10 0 -16.5 7.5t-5.5 16.5q5 53 30 83.5t66 30.5q24 0 39.5 -12t35.5 -41q17 -24 25.5 -31.5t22.5 -7.5q41 0 47 70q2 20 22 20q10 0 17 -7t6 -17q-5 -54 -30 -84t-66 -30q-25 0 -40.5 12t-35.5 41z
" />
    <glyph glyph-name="hungarumlaut" unicode="&#x2dd;" horiz-adv-x="305" 
d="M12 570q0 8 4 12l75 113q9 12 22 12q11 0 18.5 -8t7.5 -19q0 -9 -5 -16l-84 -106q-8 -9 -17 -9q-8 0 -14.5 6t-6.5 15zM154 570q0 8 4 12l75 113q9 12 22 12q11 0 18.5 -8t7.5 -19q0 -9 -5 -16l-84 -106q-8 -9 -17 -9q-8 0 -14.5 6t-6.5 15z" />
    <glyph glyph-name="gravecomb" unicode="&#x300;" horiz-adv-x="0" 
d="M-58 557l-121 103q-9 8 -9 19q0 25 25 25q11 0 18 -7l114 -111q7 -4 7 -14q0 -8 -6 -14t-14 -6q-9 0 -14 5z" />
    <glyph glyph-name="acutecomb" unicode="&#x301;" horiz-adv-x="0" 
d="M-182 552q-8 0 -14 6t-6 14q0 10 7 14l114 111q7 7 18 7q10 0 17.5 -7t7.5 -18t-9 -19l-121 -103q-5 -5 -14 -5z" />
    <glyph glyph-name="uni0302" unicode="&#x302;" horiz-adv-x="0" 
d="M-53 557l-80 105l-80 -105q-4 -7 -16 -7q-9 0 -15.5 6t-6.5 16q0 5 3 11l70 104q14 19 36 19h18q22 0 36 -19l70 -104q3 -6 3 -11q0 -10 -6.5 -16t-15.5 -6q-12 0 -16 7z" />
    <glyph glyph-name="tildecomb" unicode="&#x303;" horiz-adv-x="0" 
d="M-173 607q-14 22 -23.5 30.5t-23.5 8.5q-42 0 -48 -70q-2 -20 -22 -20q-10 0 -16.5 7.5t-5.5 16.5q5 53 30 83.5t66 30.5q24 0 39.5 -12t35.5 -41q17 -24 25.5 -31.5t22.5 -7.5q41 0 47 70q2 20 22 20q10 0 17 -7t6 -17q-5 -54 -30 -84t-66 -30q-25 0 -40.5 12t-35.5 41z
" />
    <glyph glyph-name="uni0304" unicode="&#x304;" horiz-adv-x="0" 
d="M-339 596q0 10 7 17t17 7h267q10 0 17 -7t7 -17t-7 -17t-17 -7h-267q-10 0 -17 7t-7 17z" />
    <glyph glyph-name="uni0306" unicode="&#x306;" horiz-adv-x="0" 
d="M-337 622q-7 7 -7 17t7 17t17 7q13 0 18 -8q53 -57 127 -57q75 0 126 57q6 8 18 8q10 0 17 -7t7 -17q0 -9 -7 -17q-63 -72 -161 -72q-96 0 -162 72z" />
    <glyph glyph-name="uni0307" unicode="&#x307;" horiz-adv-x="0" 
d="M-63 658q19 0 32.5 -13.5t13.5 -33.5t-13.5 -33.5t-32.5 -13.5t-33 14t-14 33t14 33t33 14z" />
    <glyph glyph-name="uni0308" unicode="&#x308;" horiz-adv-x="0" 
d="M-356 613q0 19 13.5 32.5t32.5 13.5t32.5 -13.5t13.5 -32.5q0 -20 -13.5 -33.5t-32.5 -13.5t-32.5 14t-13.5 33zM-150 613q0 19 14 32.5t33 13.5t32.5 -13.5t13.5 -32.5t-13.5 -33t-32.5 -14q-20 0 -33.5 14t-13.5 33z" />
    <glyph glyph-name="uni0309" unicode="&#x309;" horiz-adv-x="0" 
d="M-59 572q0 6 3 14q10 16 10 39q0 50 -46 50q-34 0 -47 -30q-7 -12 -19 -12q-9 0 -15.5 6.5t-6.5 15.5q0 6 3 12q29 49 85 49q41 0 66.5 -23.5t25.5 -66.5q0 -31 -20 -62q-6 -11 -19 -11q-8 0 -14 5.5t-6 13.5z" />
    <glyph glyph-name="uni030A" unicode="&#x30a;" horiz-adv-x="0" 
d="M-118 740q40 0 69 -29t29 -70q0 -40 -29 -69t-69 -29q-41 0 -69.5 29t-28.5 69q0 41 29 70t69 29zM-118 700q-24 0 -41 -17t-17 -42q0 -24 17 -41.5t41 -17.5t41 17.5t17 41.5q0 25 -16.5 42t-41.5 17z" />
    <glyph glyph-name="uni030B" unicode="&#x30b;" horiz-adv-x="0" 
d="M-293 570q0 8 4 12l75 113q9 12 22 12q11 0 18.5 -8t7.5 -19q0 -9 -5 -16l-84 -106q-7 -9 -17 -9q-8 0 -14.5 6t-6.5 15zM-151 570q0 8 4 12l75 113q9 12 22 12q11 0 18.5 -8t7.5 -19q0 -9 -5 -16l-84 -106q-8 -9 -17 -9q-8 0 -14.5 6t-6.5 15z" />
    <glyph glyph-name="uni030C" unicode="&#x30c;" horiz-adv-x="0" 
d="M-15 684q0 -6 -3 -11l-70 -104q-13 -19 -36 -19h-18q-23 0 -36 19l-70 104q-3 5 -3 11q0 10 6.5 16t15.5 6q11 0 16 -8l80 -104l80 104q5 8 16 8q9 0 15.5 -6t6.5 -16z" />
    <glyph glyph-name="dotbelowcomb" unicode="&#x323;" horiz-adv-x="0" 
d="M-63 -71q19 0 32.5 -14t13.5 -33q0 -20 -13 -33.5t-33 -13.5q-19 0 -33 13.5t-14 33.5q0 19 14 33t33 14z" />
    <glyph glyph-name="uni0326" unicode="&#x326;" horiz-adv-x="0" 
d="M-160 -250q0 7 11 18q35 33 40 72q-6 -2 -11 -2q-18 0 -30 12.5t-12 31.5q0 20 13.5 33.5t32.5 13.5q22 0 37.5 -18.5t15.5 -48.5q0 -73 -62 -127q-7 -6 -14 -6q-8 0 -14.5 6t-6.5 15z" />
    <glyph glyph-name="uni0327" unicode="&#x327;" horiz-adv-x="0" 
d="M-194 -169q-11 8 -11 19q0 8 6 14.5t15 6.5q7 0 11 -4q31 -19 67 -19q25 0 43 12t18 30q0 35 -37 35q-18 0 -32 -11q-5 -5 -13 -5q-10 0 -16.5 6.5t-6.5 16.5q0 1 2 9l26 70h45l-26 -66q17 11 37 11q29 0 47.5 -18.5t18.5 -48.5q0 -36 -29.5 -58t-74.5 -22q-51 0 -90 22z
" />
    <glyph glyph-name="uni0328" unicode="&#x328;" horiz-adv-x="0" 
d="M-180 -111q0 34 30.5 63.5t80.5 49.5q36 13 45 7q2 -2 -3 -5q-44 -30 -62.5 -52t-18.5 -46q0 -18 12 -28.5t30 -10.5q7 0 16.5 2.5t10.5 2.5q10 0 17.5 -7t7.5 -18q0 -17 -16 -24q-26 -9 -52 -9q-42 0 -70 20t-28 55z" />
    <glyph glyph-name="uni037E" unicode="&#x37e;" horiz-adv-x="230" 
d="M60 435q0 23 16.5 39t38.5 16q23 0 39 -16t16 -39q0 -22 -16.5 -38.5t-38.5 -16.5t-38.5 16.5t-16.5 38.5zM92 -123q-10 0 -16.5 6.5t-6.5 16.5q0 11 7 17q41 41 46 80q-8 -2 -14 -2q-21 0 -34.5 14.5t-13.5 36.5t15.5 38t37.5 16q27 0 45 -21t18 -55q0 -83 -69 -141
q-6 -6 -15 -6z" />
    <glyph glyph-name="tonos" unicode="&#x384;" horiz-adv-x="123" 
d="M16 588l14 156q1 13 11 22t23 9q15 0 25 -10t10 -24q0 -2 -2 -12l-42 -148q-2 -15 -20 -15q-8 0 -14 7t-5 15z" />
    <glyph glyph-name="dieresistonos" unicode="&#x385;" horiz-adv-x="390" 
d="M164 589l15 155q1 13 10.5 22t23.5 9t24.5 -10t10.5 -24q0 -2 -2 -12l-42 -148q-6 -15 -20 -15q-8 0 -14.5 7.5t-5.5 15.5zM14 613q0 19 14 32.5t33 13.5t32.5 -13.5t13.5 -32.5t-13.5 -33t-32.5 -14t-33 14t-14 33zM283 613q0 19 13.5 32.5t32.5 13.5t33 -13.5t14 -32.5
t-13.5 -33t-33.5 -14q-19 0 -32.5 14t-13.5 33z" />
    <glyph glyph-name="Alphatonos" unicode="&#x386;" horiz-adv-x="658" 
d="M630 39q0 -18 -12.5 -30.5t-29.5 -12.5q-28 0 -40 27l-48 125h-343l-48 -125q-8 -27 -39 -27q-18 0 -30.5 12.5t-12.5 29.5q0 6 4 17l230 570q18 46 68 46q49 0 67 -46l231 -570q3 -15 3 -16zM186 222h286l-143 371zM94 487l14 156q1 13 11 22t23 9q15 0 25 -10t10 -24
q0 -2 -2 -12l-42 -148q-2 -15 -20 -15q-8 0 -14 7t-5 15z" />
    <glyph glyph-name="Epsilontonos" unicode="&#x388;" horiz-adv-x="613" 
d="M121 44v579q0 44 44 44h360q15 0 26.5 -11t11.5 -26t-11.5 -26t-26.5 -11h-321v-215h314q15 0 26.5 -11t11.5 -26t-11.5 -26t-26.5 -11h-314v-230h321q15 0 26.5 -11t11.5 -26t-11.5 -26t-26.5 -11h-360q-44 0 -44 44zM-12 487l14 156q1 13 11 22t23 9q15 0 25 -10
t10 -24q0 -2 -2 -12l-42 -148q-2 -15 -20 -15q-8 0 -14 7t-5 15z" />
    <glyph glyph-name="Etatonos" unicode="&#x389;" horiz-adv-x="755" 
d="M594 37v269h-390v-269q0 -16 -12 -28.5t-29 -12.5q-18 0 -30 12t-12 29v593q0 17 12 29t29 12t29.5 -12t12.5 -29v-250h390v250q0 17 12 29t30 12q17 0 29 -12t12 -29v-593q0 -17 -12 -29t-30 -12q-17 0 -29 12t-12 29zM-12 487l14 156q1 13 11 22t23 9q15 0 25 -10
t10 -24q0 -2 -2 -12l-42 -148q-2 -15 -20 -15q-8 0 -14 7t-5 15z" />
    <glyph glyph-name="Iotatonos" unicode="&#x38a;" horiz-adv-x="282" 
d="M121 37v593q0 17 12 29t30 12q17 0 29 -12t12 -29v-593q0 -16 -12 -28.5t-29 -12.5q-18 0 -30 12t-12 29zM-12 487l14 156q1 13 11 22t23 9q15 0 25 -10t10 -24q0 -2 -2 -12l-42 -148q-2 -15 -20 -15q-8 0 -14 7t-5 15z" />
    <glyph glyph-name="Omicrontonos" unicode="&#x38c;" horiz-adv-x="780" 
d="M397 678q143 2 238 -98t93 -247q2 -147 -92.5 -247t-238.5 -98q-144 -2 -238.5 98t-92.5 247q-2 147 92.5 247t238.5 98zM397 604q-110 0 -177.5 -76t-67.5 -195q0 -118 67.5 -194.5t177.5 -76.5q109 0 177 76.5t68 194.5t-68 194.5t-177 76.5zM-8 487l14 156q1 13 11 22
t23 9q15 0 25 -10t10 -24q0 -2 -2 -12l-42 -148q-2 -15 -20 -15q-8 0 -14 7t-5 15z" />
    <glyph glyph-name="Upsilontonos" unicode="&#x38e;" horiz-adv-x="689" 
d="M640 609l-223 -327v-245q0 -17 -12.5 -29t-29.5 -12t-29 12t-12 29v245l-224 326q-7 7 -7 23q0 17 12 28.5t28 11.5q23 0 34 -18l198 -297l197 297q14 18 34 18q17 0 29 -12t12 -28q0 -12 -7 -22zM-8 487l14 156q1 13 11 22t23 9q15 0 25 -10t10 -24q0 -2 -2 -12
l-42 -148q-2 -15 -20 -15q-8 0 -14 7t-5 15z" />
    <glyph glyph-name="Omegatonos" unicode="&#x38f;" horiz-adv-x="786" 
d="M73 348q-2 142 92 236.5t239 93.5q145 1 239 -93.5t92 -236.5q0 -182 -151 -274h101q15 0 26 -11t11 -26t-11 -26t-26 -11h-169q-17 0 -30 12.5t-13 30.5q0 27 26 39q68 27 109 93.5t41 158.5q0 116 -65.5 192.5t-179.5 76.5t-179.5 -76.5t-65.5 -192.5
q0 -92 41.5 -158.5t109.5 -93.5q26 -12 26 -39q0 -18 -13 -30.5t-30 -12.5h-169q-15 0 -26 11t-11 26t11 26t26 11h102q-153 92 -153 274zM-8 487l14 156q1 13 11 22t23 9q15 0 25 -10t10 -24q0 -2 -2 -12l-42 -148q-2 -15 -20 -15q-8 0 -14 7t-5 15z" />
    <glyph glyph-name="iotadieresistonos" unicode="&#x390;" horiz-adv-x="239" 
d="M75 101v349q0 15 11 26t27 11q15 0 26 -11t11 -26v-337q0 -25 10.5 -41t28.5 -17l7 -1q12 -1 19.5 -10.5t7.5 -22.5t-9 -22.5t-22 -10.5h-10q-107 0 -107 113zM95 609l15 155q1 13 10.5 22t23.5 9t24.5 -10t10.5 -24q0 -2 -2 -12l-42 -148q-6 -15 -20 -15q-8 0 -14.5 7.5
t-5.5 15.5zM-55 633q0 19 14 32.5t33 13.5t32.5 -13.5t13.5 -32.5t-13.5 -33t-32.5 -14t-33 14t-14 33zM214 633q0 19 13.5 32.5t32.5 13.5t33 -13.5t14 -32.5t-13.5 -33t-33.5 -14q-19 0 -32.5 14t-13.5 33z" />
    <glyph glyph-name="Alpha" unicode="&#x391;" horiz-adv-x="658" 
d="M630 39q0 -18 -12.5 -30.5t-29.5 -12.5q-28 0 -40 27l-48 125h-343l-48 -125q-8 -27 -39 -27q-18 0 -30.5 12.5t-12.5 29.5q0 6 4 17l230 570q18 46 68 46q49 0 67 -46l231 -570q3 -15 3 -16zM186 222h286l-143 371z" />
    <glyph glyph-name="Beta" unicode="&#x392;" horiz-adv-x="629" 
d="M78 44v579q0 44 44 44h253q86 0 136.5 -47t50.5 -123q0 -59 -33.5 -101t-83.5 -52q53 -7 91.5 -56t38.5 -108q0 -82 -52 -131t-141 -49h-260q-44 0 -44 44zM161 378h200q54 0 84.5 29.5t30.5 77.5t-31 78t-84 30h-200v-215zM161 74h204q58 0 91 31t33 84q0 50 -33 82.5
t-91 32.5h-204v-230z" />
    <glyph glyph-name="Gamma" unicode="&#x393;" horiz-adv-x="544" 
d="M78 37v586q0 44 44 44h360q15 0 26.5 -11t11.5 -26t-11.5 -26t-26.5 -11h-321v-556q0 -16 -12 -28.5t-29 -12.5q-18 0 -30 12t-12 29z" />
    <glyph glyph-name="uni0394" unicode="&#x394;" horiz-adv-x="658" 
d="M25 32q0 12 4 20l232 573q19 46 68 46q50 0 68 -46l231 -573q4 -9 4 -21q0 -31 -39 -31h-529q-39 0 -39 32zM329 581l-201 -507h402z" />
    <glyph glyph-name="Epsilon" unicode="&#x395;" horiz-adv-x="569" 
d="M78 44v579q0 44 44 44h360q15 0 26.5 -11t11.5 -26t-11.5 -26t-26.5 -11h-321v-215h314q15 0 26.5 -11t11.5 -26t-11.5 -26t-26.5 -11h-314v-230h321q15 0 26.5 -11t11.5 -26t-11.5 -26t-26.5 -11h-360q-44 0 -44 44z" />
    <glyph glyph-name="Zeta" unicode="&#x396;" horiz-adv-x="585" 
d="M43 48q0 15 10 28l370 517h-343q-15 0 -26 11t-11 26t11 26t26 11h406q20 0 34 -14t14 -34q0 -15 -10 -28l-370 -517h350q15 0 26 -11t11 -26t-11 -26t-26 -11h-413q-20 0 -34 14t-14 34z" />
    <glyph glyph-name="Eta" unicode="&#x397;" horiz-adv-x="712" 
d="M551 37v269h-390v-269q0 -16 -12 -28.5t-29 -12.5q-18 0 -30 12t-12 29v593q0 17 12 29t29 12t29.5 -12t12.5 -29v-250h390v250q0 17 12 29t30 12q17 0 29 -12t12 -29v-593q0 -17 -12 -29t-30 -12q-17 0 -29 12t-12 29z" />
    <glyph glyph-name="Theta" unicode="&#x398;" horiz-adv-x="765" 
d="M382 678q143 2 238 -98t93 -247q2 -147 -92.5 -247t-238.5 -98q-144 -2 -238.5 98t-92.5 247q-2 147 92.5 247t238.5 98zM382 604q-110 0 -177.5 -76t-67.5 -195q0 -118 67.5 -194.5t177.5 -76.5q109 0 177 76.5t68 194.5t-68 194.5t-177 76.5zM191 341q0 15 11.5 26
t26.5 11h307q15 0 26 -11t11 -26t-11 -26t-26 -11h-307q-15 0 -26.5 11t-11.5 26z" />
    <glyph glyph-name="Iota" unicode="&#x399;" horiz-adv-x="239" 
d="M78 37v593q0 17 12 29t30 12q17 0 29 -12t12 -29v-593q0 -16 -12 -28.5t-29 -12.5q-18 0 -30 12t-12 29z" />
    <glyph glyph-name="Kappa" unicode="&#x39a;" horiz-adv-x="601" 
d="M560 36q0 -17 -11 -28.5t-27 -11.5q-18 0 -30 12l-264 289l-67 -71v-189q0 -17 -12.5 -29t-29.5 -12t-29 12t-12 29v593q0 17 12 29t29 12t29.5 -12t12.5 -29v-309l306 337q10 13 29 13q16 0 28 -11t12 -27q0 -13 -11 -27l-242 -258l266 -286q11 -11 11 -26z" />
    <glyph glyph-name="Lambda" unicode="&#x39b;" horiz-adv-x="658" 
d="M545 24l-216 557l-216 -557q-12 -28 -41 -28q-19 0 -31.5 13t-12.5 31q0 8 3 16l230 569q18 46 68 46q49 0 67 -46l230 -569q4 -7 4 -16q0 -18 -13 -31t-31 -13q-29 0 -41 28z" />
    <glyph glyph-name="Mu" unicode="&#x39c;" horiz-adv-x="809" 
d="M648 37v518l-221 -542q-6 -17 -23 -17t-23 17l-220 542v-518q0 -16 -12 -28.5t-29 -12.5q-18 0 -30 12t-12 29v564q0 29 20.5 49.5t49.5 20.5q47 0 65 -44l191 -471l192 471q18 44 65 44q29 0 49.5 -20.5t20.5 -49.5v-564q0 -17 -12 -29t-30 -12q-16 0 -28.5 12.5
t-12.5 28.5z" />
    <glyph glyph-name="Nu" unicode="&#x39d;" horiz-adv-x="708" 
d="M537 17l-376 521v-501q0 -16 -12 -28.5t-29 -12.5q-18 0 -30 12t-12 29v580q0 22 16 38t38 16q28 0 44 -22l371 -509v490q0 17 12.5 29t28.5 12q18 0 30 -12t12 -29v-583q0 -21 -15 -36t-36 -15q-27 0 -42 21z" />
    <glyph glyph-name="Xi" unicode="&#x39e;" horiz-adv-x="615" 
d="M50 630q0 15 11 26t26 11h441q15 0 26 -11t11 -26t-11 -26t-26 -11h-441q-15 0 -26 11t-11 26zM57 341q0 15 11 26t26 11h427q15 0 26 -11t11 -26t-11 -26t-26 -11h-427q-15 0 -26 11t-11 26zM50 37q0 15 11 26t26 11h440q15 0 26 -11t11 -26t-11 -26t-26 -11h-440
q-15 0 -26 11t-11 26z" />
    <glyph glyph-name="Omicron" unicode="&#x39f;" horiz-adv-x="765" 
d="M382 678q143 2 238 -98t93 -247q2 -147 -92.5 -247t-238.5 -98q-144 -2 -238.5 98t-92.5 247q-2 147 92.5 247t238.5 98zM382 604q-110 0 -177.5 -76t-67.5 -195q0 -118 67.5 -194.5t177.5 -76.5q109 0 177 76.5t68 194.5t-68 194.5t-177 76.5z" />
    <glyph glyph-name="Pi" unicode="&#x3a0;" horiz-adv-x="712" 
d="M551 37v556h-390v-556q0 -16 -12 -28.5t-29 -12.5q-18 0 -30 12t-12 29v586q0 44 44 44h468q44 0 44 -44v-586q0 -17 -12 -29t-30 -12q-17 0 -29 12t-12 29z" />
    <glyph glyph-name="Rho" unicode="&#x3a1;" horiz-adv-x="587" 
d="M78 37v586q0 44 44 44h224q96 0 152.5 -57.5t56.5 -143.5t-57.5 -143.5t-151.5 -57.5h-185v-228q0 -16 -12 -28.5t-29 -12.5q-18 0 -30 12t-12 29zM336 593h-175v-254h175q59 0 96 35.5t37 91.5t-37 91.5t-96 35.5z" />
    <glyph glyph-name="Sigma" unicode="&#x3a3;" horiz-adv-x="575" 
d="M154 74h334q15 0 26.5 -11t11.5 -26t-11.5 -26t-26.5 -11h-388q-20 0 -35 14.5t-15 35.5q0 19 13 33l222 259l-221 241q-13 14 -13 35q0 20 14.5 34.5t35.5 14.5h387q15 0 26.5 -11t11.5 -26t-11.5 -26t-26.5 -11h-331l200 -219q15 -16 15 -32q0 -13 -14 -30z" />
    <glyph glyph-name="Tau" unicode="&#x3a4;" horiz-adv-x="570" 
d="M243 37v556h-178q-15 0 -26 11t-11 26t11 26t26 11h440q15 0 26 -11t11 -26t-11 -26t-26 -11h-179v-556q0 -17 -12 -29t-29 -12t-29.5 12t-12.5 29z" />
    <glyph glyph-name="Upsilon" unicode="&#x3a5;" horiz-adv-x="626" 
d="M578 609l-223 -327v-245q0 -17 -12.5 -29t-29.5 -12t-29 12t-12 29v245l-224 326q-7 7 -7 23q0 17 12 28.5t28 11.5q23 0 34 -18l198 -297l197 297q14 18 34 18q17 0 29 -12t12 -28q0 -12 -7 -22z" />
    <glyph glyph-name="Phi" unicode="&#x3a6;" horiz-adv-x="806" 
d="M444 66v-29q0 -17 -12 -29t-29 -12t-29.5 12t-12.5 29v29q-143 9 -226.5 81.5t-83.5 185.5q0 112 84 185t226 82v30q0 17 12.5 29t29.5 12t29 -12t12 -29v-30q143 -9 227 -81.5t84 -185.5t-84 -185.5t-227 -81.5zM361 140v386q-105 -8 -164.5 -60t-59.5 -133t59.5 -133
t164.5 -60zM669 333q0 81 -60 133t-165 60v-386q105 8 165 60t60 133z" />
    <glyph glyph-name="Chi" unicode="&#x3a7;" horiz-adv-x="652" 
d="M622 37q0 -17 -11.5 -29t-29.5 -12q-21 0 -31 13l-224 272l-224 -272q-10 -13 -31 -13q-18 0 -29.5 12t-11.5 29q0 12 10 25l236 281l-221 261q-9 14 -9 26q0 16 11 28.5t28 12.5q21 0 32 -14l209 -254l209 254q11 14 31 14q17 0 28.5 -12.5t11.5 -28.5q0 -14 -9 -25
l-221 -262l236 -281q10 -13 10 -25z" />
    <glyph glyph-name="Psi" unicode="&#x3a8;" horiz-adv-x="796" 
d="M676 671q17 0 29.5 -12.5t12.5 -29.5v-233q0 -120 -71.5 -190.5t-206.5 -79.5v-89q0 -17 -12.5 -29t-29.5 -12t-29 12t-12 29v88q-136 10 -207.5 80.5t-71.5 189.5v235q0 17 12 29t30 12q17 0 29 -12t12 -29v-233q0 -86 50.5 -137t145.5 -59v429q0 17 12 29t30 12
q17 0 29 -12t12 -29v-429q95 8 144.5 58.5t49.5 137.5v232q0 17 12.5 29.5t29.5 12.5z" />
    <glyph glyph-name="uni03A9" unicode="&#x3a9;" horiz-adv-x="765" 
d="M51 348q-2 142 92 236.5t239 93.5q145 1 239 -93.5t92 -236.5q0 -182 -151 -274h101q15 0 26 -11t11 -26t-11 -26t-26 -11h-169q-17 0 -30 12.5t-13 30.5q0 27 26 39q68 27 109 93.5t41 158.5q0 116 -65.5 192.5t-179.5 76.5t-179.5 -76.5t-65.5 -192.5
q0 -92 41.5 -158.5t109.5 -93.5q26 -12 26 -39q0 -18 -13 -30.5t-30 -12.5h-169q-15 0 -26 11t-11 26t11 26t26 11h102q-153 92 -153 274z" />
    <glyph glyph-name="Iotadieresis" unicode="&#x3aa;" horiz-adv-x="239" 
d="M78 37v593q0 17 12 29t30 12q17 0 29 -12t12 -29v-593q0 -16 -12 -28.5t-29 -12.5q-18 0 -30 12t-12 29zM-30 780q0 19 13.5 32.5t32.5 13.5t32.5 -13.5t13.5 -32.5q0 -20 -13.5 -33.5t-32.5 -13.5t-32.5 14t-13.5 33zM176 780q0 19 14 32.5t33 13.5t32.5 -13.5
t13.5 -32.5t-13.5 -33t-32.5 -14q-20 0 -33.5 14t-13.5 33z" />
    <glyph glyph-name="Upsilondieresis" unicode="&#x3ab;" horiz-adv-x="626" 
d="M578 609l-223 -327v-245q0 -17 -12.5 -29t-29.5 -12t-29 12t-12 29v245l-224 326q-7 7 -7 23q0 17 12 28.5t28 11.5q23 0 34 -18l198 -297l197 297q14 18 34 18q17 0 29 -12t12 -28q0 -12 -7 -22zM164 780q0 19 13.5 32.5t32.5 13.5t32.5 -13.5t13.5 -32.5
q0 -20 -13.5 -33.5t-32.5 -13.5t-32.5 14t-13.5 33zM370 780q0 19 14 32.5t33 13.5t32.5 -13.5t13.5 -32.5t-13.5 -33t-32.5 -14q-20 0 -33.5 14t-13.5 33z" />
    <glyph glyph-name="alphatonos" unicode="&#x3ac;" horiz-adv-x="589" 
d="M573 21q0 -13 -9 -22.5t-22 -10.5h-10q-93 0 -104 90q-27 -41 -71 -65.5t-95 -24.5q-96 0 -155.5 68.5t-59.5 184.5q0 114 59.5 184t155.5 70q98 0 162 -85v40q0 15 11 26t27 11t27 -11t11 -26v-337q0 -56 39 -58l7 -1q12 -1 19.5 -10.5t7.5 -22.5zM425 131v219
q-21 33 -62 55.5t-83 22.5q-71 0 -113 -53t-42 -134t42 -134q42 -52 113 -52q43 0 83.5 21.5t61.5 54.5zM272 608l14 156q1 13 11 22t23 9q15 0 25 -10t10 -24q0 -2 -2 -12l-42 -148q-2 -15 -20 -15q-8 0 -14 7t-5 15z" />
    <glyph glyph-name="epsilontonos" unicode="&#x3ad;" horiz-adv-x="485" 
d="M46 129q0 54 40 84q40 29 89 34q-46 6 -83 37q-36 32 -36 81q0 60 53.5 94.5t144.5 34.5q104 0 173 -60q10 -10 10 -24q0 -13 -8.5 -22t-21.5 -9q-11 0 -19 7q-53 47 -133 47q-53 0 -87 -21.5t-34 -55.5q0 -38 34 -59.5t92 -21.5h54q15 0 24.5 -8.5t9.5 -22.5t-9 -22
t-24 -8h-55q-135 0 -135 -80q0 -38 34 -61t93 -23q78 0 140 50q8 7 20 7q14 0 24 -10t10 -24q0 -16 -14 -27q-71 -58 -180 -58q-95 0 -150.5 39t-55.5 102zM239 608l14 156q1 13 11 22t23 9q15 0 25 -10t10 -24q0 -2 -2 -12l-42 -148q-2 -15 -20 -15q-8 0 -14 7t-5 15z" />
    <glyph glyph-name="etatonos" unicode="&#x3ae;" 
d="M476 339v-490q0 -15 -11 -26t-26 -11q-16 0 -27 11t-11 26v467q0 59 -27 85.5t-81 26.5q-41 0 -81 -21.5t-62 -53.5v-320q0 -15 -11 -26t-26 -11q-16 0 -27 11t-11 26v417q0 15 11 26t26 11q16 0 27 -11t11 -26v-38q29 36 75.5 59.5t96.5 23.5q154 0 154 -156zM259 608
l14 156q1 13 11 22t23 9q15 0 25 -10t10 -24q0 -2 -2 -12l-42 -148q-2 -15 -20 -15q-8 0 -14 7t-5 15z" />
    <glyph glyph-name="iotatonos" unicode="&#x3af;" horiz-adv-x="239" 
d="M75 101v349q0 15 11 26t27 11q15 0 26 -11t11 -26v-337q0 -25 10.5 -41t28.5 -17l7 -1q12 -1 19.5 -10.5t7.5 -22.5t-9 -22.5t-22 -10.5h-10q-107 0 -107 113zM95 608l14 156q1 13 11 22t23 9q15 0 25 -10t10 -24q0 -2 -2 -12l-42 -148q-2 -15 -20 -15q-8 0 -14 7t-5 15z
" />
    <glyph glyph-name="upsilondieresistonos" unicode="&#x3b0;" horiz-adv-x="562" 
d="M75 212v238q0 15 11 26t27 11q15 0 26 -11t11 -26v-237q0 -74 33 -116t92 -42q75 0 118 55t43 140q0 105 -52 184q-5 8 -5 18q0 16 10.5 26.5t26.5 10.5q22 0 32 -18q67 -96 67 -221q0 -114 -66.5 -188t-173.5 -74q-97 0 -148.5 59t-51.5 165zM258 609l15 155
q1 13 10.5 22t23.5 9t24.5 -10t10.5 -24q0 -2 -2 -12l-42 -148q-6 -15 -20 -15q-8 0 -14.5 7.5t-5.5 15.5zM108 633q0 19 14 32.5t33 13.5t32.5 -13.5t13.5 -32.5t-13.5 -33t-32.5 -14t-33 14t-14 33zM377 633q0 19 13.5 32.5t32.5 13.5t33 -13.5t14 -32.5t-13.5 -33
t-33.5 -14q-19 0 -32.5 14t-13.5 33z" />
    <glyph glyph-name="alpha" unicode="&#x3b1;" horiz-adv-x="589" 
d="M573 21q0 -13 -9 -22.5t-22 -10.5h-10q-93 0 -104 90q-27 -41 -71 -65.5t-95 -24.5q-96 0 -155.5 68.5t-59.5 184.5q0 114 59.5 184t155.5 70q98 0 162 -85v40q0 15 11 26t27 11t27 -11t11 -26v-337q0 -56 39 -58l7 -1q12 -1 19.5 -10.5t7.5 -22.5zM425 131v219
q-21 33 -62 55.5t-83 22.5q-71 0 -113 -53t-42 -134t42 -134q42 -52 113 -52q43 0 83.5 21.5t61.5 54.5z" />
    <glyph glyph-name="beta" unicode="&#x3b2;" horiz-adv-x="575" 
d="M113 -188q-16 0 -27 11t-11 26v606q0 107 66.5 164.5t161.5 57.5q93 0 151 -48q59 -47 59 -130q0 -66 -43 -106q-41 -38 -96 -49q58 -5 106 -50.5t48 -120.5q0 -81 -59 -133t-148 -52q-111 0 -171 84v-223q0 -15 -11 -26t-26 -11zM299 55q71 0 111 34.5t40 94.5
q0 58 -42 89.5t-113 33.5q-19 1 -30 10.5t-11 23.5q0 33 40 35q65 4 102.5 33t37.5 83q0 53 -37 85.5t-94 32.5q-67 0 -110 -41.5t-43 -113.5v-324q22 -34 63 -55t86 -21z" />
    <glyph glyph-name="gamma" unicode="&#x3b3;" horiz-adv-x="490" 
d="M208 -151v102q0 129 -47 258q-46 126 -123 224q-7 10 -7 21q0 13 10.5 23t24.5 10q17 0 26 -12q64 -74 110 -181q47 -106 58 -201q52 72 86 168q36 101 40 192q1 14 12 24t25 10q16 0 27.5 -11.5t10.5 -28.5q-7 -110 -56 -230q-48 -117 -122 -212v-156q0 -15 -11 -26
t-27 -11q-15 0 -26 11t-11 26z" />
    <glyph glyph-name="delta" unicode="&#x3b4;" horiz-adv-x="572" 
d="M525 220q0 -94 -66 -163t-170 -69q-105 0 -173.5 70t-68.5 165q0 73 37.5 127t102.5 82q-81 38 -81 108q0 60 48.5 99.5t130.5 39.5q91 0 159 -53q13 -10 13 -25q0 -13 -9 -22.5t-22 -9.5q-11 0 -18 7q-50 42 -123 42q-48 0 -77.5 -21.5t-29.5 -54.5q0 -28 24.5 -42.5
t90.5 -34.5q71 -23 117 -45q115 -57 115 -200zM452 220q0 57 -25 91q-23 33 -58.5 52t-99.5 39q-69 -21 -106.5 -68t-37.5 -111q0 -66 45.5 -117t116.5 -51q72 0 118.5 50.5t46.5 114.5z" />
    <glyph glyph-name="epsilon" unicode="&#x3b5;" horiz-adv-x="485" 
d="M46 129q0 54 40 84q40 29 89 34q-46 6 -83 37q-36 32 -36 81q0 60 53.5 94.5t144.5 34.5q104 0 173 -60q10 -10 10 -24q0 -13 -8.5 -22t-21.5 -9q-11 0 -19 7q-53 47 -133 47q-53 0 -87 -21.5t-34 -55.5q0 -38 34 -59.5t92 -21.5h54q15 0 24.5 -8.5t9.5 -22.5t-9 -22
t-24 -8h-55q-135 0 -135 -80q0 -38 34 -61t93 -23q78 0 140 50q8 7 20 7q14 0 24 -10t10 -24q0 -16 -14 -27q-71 -58 -180 -58q-95 0 -150.5 39t-55.5 102z" />
    <glyph glyph-name="zeta" unicode="&#x3b6;" horiz-adv-x="489" 
d="M47 211q0 227 300 390h-255q-14 0 -24 10t-10 23t10 23t24 10h321q15 0 25.5 -10.5t10.5 -25.5q0 -20 -18 -31q-306 -178 -306 -384q0 -74 51.5 -111.5t146.5 -37.5q127 0 127 -101q0 -42 -34 -107q-8 -20 -32 -20q-15 0 -25.5 10.5t-10.5 24.5q0 8 4 15q19 39 19 63
q0 48 -57 48q-124 0 -195.5 55.5t-71.5 155.5z" />
    <glyph glyph-name="eta" unicode="&#x3b7;" 
d="M476 339v-490q0 -15 -11 -26t-26 -11q-16 0 -27 11t-11 26v467q0 59 -27 85.5t-81 26.5q-41 0 -81 -21.5t-62 -53.5v-320q0 -15 -11 -26t-26 -11q-16 0 -27 11t-11 26v417q0 15 11 26t26 11q16 0 27 -11t11 -26v-38q29 36 75.5 59.5t96.5 23.5q154 0 154 -156z" />
    <glyph glyph-name="theta" unicode="&#x3b8;" horiz-adv-x="572" 
d="M525 334q0 -153 -62.5 -249.5t-176.5 -96.5t-176.5 96.5t-62.5 249.5q0 152 62.5 248.5t176.5 96.5t176.5 -96.5t62.5 -248.5zM126 368h320q-5 116 -44.5 180t-115.5 64q-75 0 -115 -64.5t-45 -179.5zM446 302h-320q5 -117 44.5 -182t115.5 -65t115.5 65t44.5 182z" />
    <glyph glyph-name="iota" unicode="&#x3b9;" horiz-adv-x="239" 
d="M75 101v349q0 15 11 26t27 11q15 0 26 -11t11 -26v-337q0 -25 10.5 -41t28.5 -17l7 -1q12 -1 19.5 -10.5t7.5 -22.5t-9 -22.5t-22 -10.5h-10q-107 0 -107 113z" />
    <glyph glyph-name="kappa" unicode="&#x3ba;" horiz-adv-x="514" 
d="M475 34q0 -16 -10.5 -27t-26.5 -11q-18 0 -29 12l-177 208l-82 -76v-107q0 -15 -11 -26t-27 -11q-15 0 -26 11t-11 26v417q0 15 11 26t27 11q15 0 26 -11t11 -26v-225l261 253q9 9 24 9q14 0 24 -10.5t10 -24.5t-10 -24l-173 -166l180 -203q9 -11 9 -25z" />
    <glyph glyph-name="lambda" unicode="&#x3bb;" horiz-adv-x="490" 
d="M397 19l-152 377l-153 -377q-9 -23 -35 -23q-16 0 -26.5 11t-10.5 27q0 3 2 13l183 440l-32 73q-21 52 -72 52q-12 0 -16 -1q-15 -1 -25.5 8.5t-10.5 24.5q0 12 9 21.5t21 11.5q10 2 24 2q102 -2 142 -98l222 -532q3 -7 3 -15q0 -16 -11 -27t-27 -11q-26 0 -35 23z" />
    <glyph glyph-name="uni03BC" unicode="&#x3bc;" horiz-adv-x="565" 
d="M549 21q0 -13 -9 -22.5t-22 -10.5h-10q-88 0 -105 87q-28 -39 -68.5 -63t-83.5 -24q-75 0 -101 48v-187q0 -15 -11 -26t-27 -11q-15 0 -26 11t-11 26v601q0 15 11 26t27 11q15 0 26 -11t11 -26v-285q0 -112 110 -112q40 0 79 21.5t62 53.5v322q0 15 11 26t26 11
q16 0 27 -11t11 -26v-337q0 -56 39 -58l7 -1q12 -1 19.5 -10.5t7.5 -22.5z" />
    <glyph glyph-name="nu" unicode="&#x3bd;" horiz-adv-x="490" 
d="M190 34l-167 402q-3 6 -3 13q0 16 10.5 27t26.5 11q26 0 35 -23l156 -388q60 82 96.5 181t41.5 196q1 14 12 24t25 10q16 0 27.5 -11.5t10.5 -28.5q-7 -103 -51 -216q-43 -110 -111 -209q-18 -26 -51 -26q-43 0 -58 38z" />
    <glyph glyph-name="xi" unicode="&#x3be;" horiz-adv-x="489" 
d="M184 333q-47 7 -88 41q-39 33 -39 89q0 44 30.5 82t77.5 56h-71q-13 0 -23 10t-10 23q0 14 10 23.5t23 9.5h314q13 0 23 -10t10 -23t-10 -23t-23 -10h-159q-49 -11 -81 -45.5t-32 -74.5q0 -50 42.5 -78t109.5 -28h114q14 0 23.5 -9.5t9.5 -23.5q0 -13 -9.5 -22.5
t-23.5 -9.5h-114q-75 0 -119 -31.5t-44 -92.5q0 -120 198 -120q127 0 127 -100q0 -38 -34 -107q-8 -20 -32 -20q-15 0 -26 10.5t-11 25.5q0 3 3 15q21 45 21 70q0 40 -57 40q-130 0 -198.5 44t-68.5 128q0 69 42 110q44 41 95 51z" />
    <glyph glyph-name="omicron" unicode="&#x3bf;" horiz-adv-x="572" 
d="M47 242q0 108 66.5 180.5t172.5 72.5t172.5 -72.5t66.5 -180.5t-66.5 -181t-172.5 -73t-172.5 73t-66.5 181zM446 242q0 78 -43.5 132t-116.5 54t-117 -54t-44 -132q0 -79 44 -133t117 -54t116.5 54t43.5 133z" />
    <glyph glyph-name="pi" unicode="&#x3c0;" horiz-adv-x="582" 
d="M576 450q0 -13 -9.5 -23t-23.5 -10h-51v-384q0 -15 -11 -26t-27 -11q-15 0 -26 11t-11 26v384h-252v-384q0 -15 -11 -26t-26 -11q-16 0 -27 11t-11 26v384h-51q-13 0 -23 10t-10 23q0 14 10 23.5t23 9.5h504q14 0 23.5 -9.5t9.5 -23.5z" />
    <glyph glyph-name="rho" unicode="&#x3c1;" horiz-adv-x="572" 
d="M150 73v-224q0 -15 -11 -26t-26 -11q-16 0 -27 11t-11 26v393q0 108 62 180.5t163 72.5q102 0 165 -72.5t63 -180.5q0 -115 -59.5 -184.5t-155.5 -69.5q-103 0 -163 85zM299 428q-68 0 -108.5 -54t-40.5 -132v-109q20 -33 61 -55.5t83 -22.5q71 0 113 52q42 53 42 135
q0 78 -40.5 132t-109.5 54z" />
    <glyph glyph-name="uni03C2" unicode="&#x3c2;" horiz-adv-x="483" 
d="M288 495q93 0 155 -60q11 -11 11 -25t-10 -24t-24 -10q-13 0 -22 9q-43 43 -106 43q-75 0 -121 -52t-46 -134q0 -88 51 -131.5t144 -43.5q67 0 98.5 -21t31.5 -68t-33 -119q-12 -20 -32 -20q-14 0 -24.5 10.5t-10.5 24.5q0 6 3 14q22 45 22 76q0 20 -14 28t-45 8
q-125 0 -197 63.5t-72 178.5q0 108 68 180.5t173 72.5z" />
    <glyph glyph-name="sigma" unicode="&#x3c3;" horiz-adv-x="572" 
d="M517 416h-85q88 -69 88 -191q0 -100 -64.5 -168.5t-169.5 -68.5q-106 0 -172.5 73t-66.5 181q0 104 68.5 172.5t183.5 68.5h218q14 0 24 -10t10 -23q0 -14 -10 -24t-24 -10zM446 236q0 61 -27 108.5t-73 71.5h-47q-80 0 -127 -51t-47 -123q0 -79 44 -133t117 -54
q72 0 116 53t44 128z" />
    <glyph glyph-name="tau" unicode="&#x3c4;" horiz-adv-x="458" 
d="M437 450q0 -13 -10 -23t-24 -10h-142v-300q0 -28 12.5 -45t36.5 -17q15 0 29 8q8 2 11 2q13 0 21.5 -9.5t8.5 -23.5q0 -20 -18 -28q-28 -16 -69 -16q-107 0 -107 113v316h-131q-13 0 -23 10t-10 23q0 14 10 23.5t23 9.5h348q14 0 24 -10t10 -23z" />
    <glyph glyph-name="upsilon" unicode="&#x3c5;" horiz-adv-x="562" 
d="M75 212v238q0 15 11 26t27 11q15 0 26 -11t11 -26v-237q0 -74 33 -116t92 -42q75 0 118 55t43 140q0 105 -52 184q-5 8 -5 18q0 16 10.5 26.5t26.5 10.5q22 0 32 -18q67 -96 67 -221q0 -114 -66.5 -188t-173.5 -74q-97 0 -148.5 59t-51.5 165z" />
    <glyph glyph-name="phi" unicode="&#x3c6;" horiz-adv-x="691" 
d="M383 -11v-140q0 -15 -11 -26t-26 -11q-16 0 -27 11t-11 26v140q-123 5 -192 75t-69 187q0 73 37.5 131.5t104.5 95.5q10 5 18 5q14 0 24 -10t10 -24q0 -17 -15 -28q-101 -62 -101 -170q0 -91 48.5 -143t134.5 -53v383q0 20 15 35t35 14q139 -3 212.5 -69t73.5 -182
q0 -112 -68 -177t-193 -70zM566 236q0 84 -48 131.5t-135 48.5v-361q87 1 135 49t48 132z" />
    <glyph glyph-name="chi" unicode="&#x3c7;" horiz-adv-x="486" 
d="M465 -151q0 -15 -11 -26t-25 -11q-21 0 -32 18l-154 257l-154 -257q-11 -18 -32 -18q-14 0 -25 11t-11 26q0 10 6 19l173 290l-163 274q-5 12 -5 19q0 13 10.5 24.5t25.5 11.5q21 0 32 -17l143 -240l144 240q8 17 31 17q15 0 26 -11.5t11 -24.5q0 -10 -6 -19l-163 -274
l174 -290q5 -12 5 -19z" />
    <glyph glyph-name="psi" unicode="&#x3c8;" horiz-adv-x="708" 
d="M595 487q15 0 26.5 -11t11.5 -26v-228q0 -218 -242 -233v-140q0 -15 -11 -26t-26 -11t-26.5 11t-11.5 26v140q-241 15 -241 233v228q0 15 11 26t27 11q15 0 26 -11t11 -26v-228q0 -153 166 -166v578q0 15 11.5 26t26.5 11t26 -11t11 -26v-578q167 14 167 166v228
q0 15 11 26t26 11z" />
    <glyph glyph-name="omega" unicode="&#x3c9;" horiz-adv-x="771" 
d="M386 135q-44 -147 -158 -147q-81 0 -131 71t-50 173q0 164 80 247q9 12 27 12q15 0 25.5 -10.5t10.5 -25.5q0 -11 -7 -21q-58 -70 -58 -202q0 -72 29 -125q30 -52 83 -52q54 0 83 53q28 53 28 134v89q0 16 11.5 27t26.5 11t26 -11t11 -27v-89q0 -81 28 -134
q29 -53 83 -53t82 52q30 52 30 125q0 128 -57 202q-7 8 -7 21q0 15 10.5 25.5t25.5 10.5q16 0 27 -12q79 -85 79 -247q0 -102 -50 -173t-130 -71q-116 0 -158 147z" />
    <glyph glyph-name="iotadieresis" unicode="&#x3ca;" horiz-adv-x="239" 
d="M75 101v349q0 15 11 26t27 11q15 0 26 -11t11 -26v-337q0 -25 10.5 -41t28.5 -17l7 -1q12 -1 19.5 -10.5t7.5 -22.5t-9 -22.5t-22 -10.5h-10q-107 0 -107 113zM-37 633q0 19 13.5 32.5t32.5 13.5t32.5 -13.5t13.5 -32.5q0 -20 -13.5 -33.5t-32.5 -13.5t-32.5 14t-13.5 33
zM169 633q0 19 14 32.5t33 13.5t32.5 -13.5t13.5 -32.5t-13.5 -33t-32.5 -14q-20 0 -33.5 14t-13.5 33z" />
    <glyph glyph-name="upsilondieresis" unicode="&#x3cb;" horiz-adv-x="562" 
d="M75 212v238q0 15 11 26t27 11q15 0 26 -11t11 -26v-237q0 -74 33 -116t92 -42q75 0 118 55t43 140q0 105 -52 184q-5 8 -5 18q0 16 10.5 26.5t26.5 10.5q22 0 32 -18q67 -96 67 -221q0 -114 -66.5 -188t-173.5 -74q-97 0 -148.5 59t-51.5 165zM126 633q0 19 13.5 32.5
t32.5 13.5t32.5 -13.5t13.5 -32.5q0 -20 -13.5 -33.5t-32.5 -13.5t-32.5 14t-13.5 33zM332 633q0 19 14 32.5t33 13.5t32.5 -13.5t13.5 -32.5t-13.5 -33t-32.5 -14q-20 0 -33.5 14t-13.5 33z" />
    <glyph glyph-name="omicrontonos" unicode="&#x3cc;" horiz-adv-x="572" 
d="M47 242q0 108 66.5 180.5t172.5 72.5t172.5 -72.5t66.5 -180.5t-66.5 -181t-172.5 -73t-172.5 73t-66.5 181zM446 242q0 78 -43.5 132t-116.5 54t-117 -54t-44 -132q0 -79 44 -133t117 -54t116.5 54t43.5 133zM268 608l14 156q1 13 11 22t23 9q15 0 25 -10t10 -24
q0 -2 -2 -12l-42 -148q-2 -15 -20 -15q-8 0 -14 7t-5 15z" />
    <glyph glyph-name="upsilontonos" unicode="&#x3cd;" horiz-adv-x="562" 
d="M75 212v238q0 15 11 26t27 11q15 0 26 -11t11 -26v-237q0 -74 33 -116t92 -42q75 0 118 55t43 140q0 105 -52 184q-5 8 -5 18q0 16 10.5 26.5t26.5 10.5q22 0 32 -18q67 -96 67 -221q0 -114 -66.5 -188t-173.5 -74q-97 0 -148.5 59t-51.5 165zM258 608l14 156q1 13 11 22
t23 9q15 0 25 -10t10 -24q0 -2 -2 -12l-42 -148q-2 -15 -20 -15q-8 0 -14 7t-5 15z" />
    <glyph glyph-name="omegatonos" unicode="&#x3ce;" horiz-adv-x="771" 
d="M386 135q-44 -147 -158 -147q-81 0 -131 71t-50 173q0 164 80 247q9 12 27 12q15 0 25.5 -10.5t10.5 -25.5q0 -11 -7 -21q-58 -70 -58 -202q0 -72 29 -125q30 -52 83 -52q54 0 83 53q28 53 28 134v89q0 16 11.5 27t26.5 11t26 -11t11 -27v-89q0 -81 28 -134
q29 -53 83 -53t82 52q30 52 30 125q0 128 -57 202q-7 8 -7 21q0 15 10.5 25.5t25.5 10.5q16 0 27 -12q79 -85 79 -247q0 -102 -50 -173t-130 -71q-116 0 -158 147zM368 608l14 156q1 13 11 22t23 9q15 0 25 -10t10 -24q0 -2 -2 -12l-42 -148q-2 -15 -20 -15q-8 0 -14 7
t-5 15z" />
    <glyph glyph-name="uni0401" unicode="&#x401;" horiz-adv-x="569" 
d="M78 44v579q0 44 44 44h360q15 0 26.5 -11t11.5 -26t-11.5 -26t-26.5 -11h-321v-215h314q15 0 26.5 -11t11.5 -26t-11.5 -26t-26.5 -11h-314v-230h321q15 0 26.5 -11t11.5 -26t-11.5 -26t-26.5 -11h-360q-44 0 -44 44zM153 780q0 19 13.5 32.5t32.5 13.5t32.5 -13.5
t13.5 -32.5q0 -20 -13.5 -33.5t-32.5 -13.5t-32.5 14t-13.5 33zM359 780q0 19 14 32.5t33 13.5t32.5 -13.5t13.5 -32.5t-13.5 -33t-32.5 -14q-20 0 -33.5 14t-13.5 33z" />
    <glyph glyph-name="uni0402" unicode="&#x402;" horiz-adv-x="769" 
d="M529 65q106 11 106 124v22q0 66 -34.5 97.5t-111.5 31.5q-96 0 -163 -31v-272q0 -17 -12 -29t-30 -12q-16 0 -28.5 12.5t-12.5 28.5v556h-178q-15 0 -26 11t-11 26t11 26t26 11h440q15 0 26 -11t11 -26t-11 -26t-26 -11h-179v-217q90 38 186 38q106 0 156 -50t50 -153
v-22q0 -181 -179 -199q-17 -2 -29.5 9.5t-12.5 28.5q0 14 9 24.5t23 12.5z" />
    <glyph glyph-name="uni0403" unicode="&#x403;" horiz-adv-x="544" 
d="M78 37v586q0 44 44 44h360q15 0 26.5 -11t11.5 -26t-11.5 -26t-26.5 -11h-321v-556q0 -16 -12 -28.5t-29 -12.5q-18 0 -30 12t-12 29zM319 719q-10 0 -17.5 7t-7.5 17t8 18l106 102q8 8 20 8t20.5 -8.5t8.5 -20.5q0 -15 -10 -22l-112 -95q-6 -6 -16 -6z" />
    <glyph glyph-name="uni0404" unicode="&#x404;" horiz-adv-x="676" 
d="M561 138q10 13 30 13q16 0 27.5 -11.5t11.5 -27.5q0 -17 -10 -27q-91 -97 -226 -97q-144 -3 -244.5 96.5t-98.5 248.5q-2 148 98.5 247.5t244.5 97.5q136 0 226 -97q10 -10 10 -27q0 -16 -11.5 -27.5t-27.5 -11.5q-20 0 -30 13q-70 76 -167 76q-98 0 -169 -63t-84 -163
h348q15 0 26 -11t11 -26t-11 -26t-26 -11h-350q9 -106 81 -174t174 -68t167 76z" />
    <glyph glyph-name="uni0405" unicode="&#x405;" horiz-adv-x="586" 
d="M49 100q0 17 11.5 29t28.5 12q16 0 25 -9q80 -70 183 -70q77 0 117 33t40 82q0 37 -23 60q-20 22 -51 35t-95 31q-79 21 -119 37q-107 44 -107 152q0 81 66 133t169 52q118 0 206 -69q17 -11 17 -32q0 -16 -11.5 -28t-27.5 -12q-14 0 -24 9q-70 58 -166 58
q-64 0 -103.5 -29.5t-39.5 -76.5q0 -31 21 -52q20 -19 49 -30t92 -28q67 -18 120 -40q113 -45 113 -163q0 -84 -62 -140t-184 -56q-139 0 -230 81q-15 14 -15 31z" />
    <glyph glyph-name="uni0406" unicode="&#x406;" horiz-adv-x="239" 
d="M78 37v593q0 17 12 29t30 12q17 0 29 -12t12 -29v-593q0 -16 -12 -28.5t-29 -12.5q-18 0 -30 12t-12 29z" />
    <glyph glyph-name="uni0407" unicode="&#x407;" horiz-adv-x="239" 
d="M78 37v593q0 17 12 29t30 12q17 0 29 -12t12 -29v-593q0 -16 -12 -28.5t-29 -12.5q-18 0 -30 12t-12 29zM-30 780q0 19 13.5 32.5t32.5 13.5t32.5 -13.5t13.5 -32.5q0 -20 -13.5 -33.5t-32.5 -13.5t-32.5 14t-13.5 33zM176 780q0 19 14 32.5t33 13.5t32.5 -13.5
t13.5 -32.5t-13.5 -33t-32.5 -14q-20 0 -33.5 14t-13.5 33z" />
    <glyph glyph-name="uni0408" unicode="&#x408;" horiz-adv-x="475" 
d="M19 73q0 16 11.5 27t27.5 11q12 0 22 -7q43 -42 100 -42q61 0 97.5 38.5t36.5 101.5v428q0 17 12 29t29 12t29.5 -12t12.5 -29v-429q0 -102 -58 -157.5t-154 -55.5q-92 0 -150 55q-16 10 -16 30z" />
    <glyph glyph-name="uni0409" unicode="&#x409;" horiz-adv-x="1060" 
d="M819 0h-224q-44 0 -44 44v549h-254l-11 -121q-17 -170 -44.5 -272.5t-62 -146t-85.5 -58.5q-16 -4 -26 -4q-17 0 -29 12t-12 29q0 14 8.5 25.5t21.5 15.5q60 13 96 100t56 302l13 149q3 43 47 43h321q44 0 44 -44v-221h185q94 0 151.5 -57.5t57.5 -143.5t-56.5 -143.5
t-152.5 -57.5zM634 328v-254h175q59 0 96 35.5t37 91.5t-37 91.5t-96 35.5h-175z" />
    <glyph glyph-name="uni040A" unicode="&#x40a;" horiz-adv-x="1060" 
d="M120 671q17 0 29 -12t12 -29v-250h390v250q0 17 12 29t30 12q17 0 29 -12t12 -29v-250h197q90 0 143.5 -54.5t53.5 -135.5t-53.5 -135.5t-143.5 -54.5h-236q-44 0 -44 44v262h-390v-269q0 -17 -12.5 -29t-29.5 -12t-29 12t-12 29v593q0 17 12 29t30 12zM942 190
q0 51 -33.5 83.5t-87.5 32.5h-187v-232h187q54 0 87.5 32t33.5 84z" />
    <glyph glyph-name="uni040B" unicode="&#x40b;" horiz-adv-x="785" 
d="M489 340q-96 0 -163 -31v-272q0 -17 -12 -29t-30 -12q-16 0 -28.5 12.5t-12.5 28.5v556h-178q-15 0 -26 11t-11 26t11 26t26 11h440q15 0 26 -11t11 -26t-11 -26t-26 -11h-179v-217q90 38 186 38q109 0 157.5 -53.5t48.5 -175.5v-148q0 -17 -12 -29t-29 -12t-29.5 12
t-12.5 29v149q0 85 -33 119.5t-113 34.5z" />
    <glyph glyph-name="uni040C" unicode="&#x40c;" horiz-adv-x="601" 
d="M560 36q0 -17 -11 -28.5t-27 -11.5q-18 0 -30 12l-264 289l-67 -71v-189q0 -17 -12.5 -29t-29.5 -12t-29 12t-12 29v593q0 17 12 29t29 12t29.5 -12t12.5 -29v-309l306 337q10 13 29 13q16 0 28 -11t12 -27q0 -13 -11 -27l-242 -258l266 -286q11 -11 11 -26zM328 719
q-10 0 -17.5 7t-7.5 17t8 18l106 102q8 8 20 8t20.5 -8.5t8.5 -20.5q0 -15 -10 -22l-112 -95q-6 -6 -16 -6z" />
    <glyph glyph-name="uni040E" unicode="&#x40e;" horiz-adv-x="631" 
d="M599 629q0 -9 -4 -18l-240 -493q-33 -68 -74.5 -99t-106.5 -31q-16 0 -39 4q-31 7 -31 37q0 16 12 27.5t29 10.5q1 0 7 -2q15 -3 19 -3q38 0 61.5 20t51.5 75l11 20l-249 432q-5 12 -5 21q0 17 12 29t29 12q22 0 37 -22l219 -395l180 392q12 25 39 25q17 0 29.5 -12.5
t12.5 -29.5zM171 779q-7 7 -7 20q0 11 8 19.5t19 8.5q9 0 20 -8q44 -47 106 -47t105 46q9 9 20 9q12 0 20 -8.5t8 -20.5q0 -11 -8 -19q-60 -62 -145 -62q-86 0 -146 62z" />
    <glyph glyph-name="uni040F" unicode="&#x40f;" horiz-adv-x="696" 
d="M618 630v-586q0 -44 -44 -44h-189v-94q0 -15 -11 -26.5t-26 -11.5t-26 11.5t-11 26.5v94h-189q-44 0 -44 44v586q0 17 12 29t30 12q17 0 29 -12t12 -29v-556h374v556q0 17 12 29t29 12q18 0 30 -12t12 -29z" />
    <glyph glyph-name="uni0410" unicode="&#x410;" horiz-adv-x="658" 
d="M630 39q0 -18 -12.5 -30.5t-29.5 -12.5q-28 0 -40 27l-48 125h-343l-48 -125q-8 -27 -39 -27q-18 0 -30.5 12.5t-12.5 29.5q0 6 4 17l230 570q18 46 68 46q49 0 67 -46l231 -570q3 -15 3 -16zM186 222h286l-143 371z" />
    <glyph glyph-name="uni0411" unicode="&#x411;" horiz-adv-x="587" 
d="M516 630q0 -15 -11.5 -26t-26.5 -11h-317v-191h185q94 0 151.5 -57.5t57.5 -143.5t-56.5 -143.5t-152.5 -57.5h-224q-44 0 -44 44v579q0 44 44 44h356q15 0 26.5 -11t11.5 -26zM161 328v-254h175q59 0 96 35.5t37 91.5t-37 91.5t-96 35.5h-175z" />
    <glyph glyph-name="uni0412" unicode="&#x412;" horiz-adv-x="629" 
d="M78 44v579q0 44 44 44h253q86 0 136.5 -47t50.5 -123q0 -59 -33.5 -101t-83.5 -52q53 -7 91.5 -56t38.5 -108q0 -82 -52 -131t-141 -49h-260q-44 0 -44 44zM161 378h200q54 0 84.5 29.5t30.5 77.5t-31 78t-84 30h-200v-215zM161 74h204q58 0 91 31t33 84q0 50 -33 82.5
t-91 32.5h-204v-230z" />
    <glyph glyph-name="uni0413" unicode="&#x413;" horiz-adv-x="544" 
d="M78 37v586q0 44 44 44h360q15 0 26.5 -11t11.5 -26t-11.5 -26t-26.5 -11h-321v-556q0 -16 -12 -28.5t-29 -12.5q-18 0 -30 12t-12 29z" />
    <glyph glyph-name="uni0414" unicode="&#x414;" horiz-adv-x="717" 
d="M689 29v-119q0 -15 -11 -26t-26 -11t-26 11t-11 26v90h-515v-90q0 -15 -11 -26t-26 -11t-26 11t-11 26v119q0 45 38 45h13q84 84 121 425l14 126q4 42 47 42h309q44 0 44 -44v-549h32q45 0 45 -45zM529 74v519h-246l-10 -99q-19 -188 -47 -287q-27 -95 -59 -133h362z" />
    <glyph glyph-name="uni0415" unicode="&#x415;" horiz-adv-x="569" 
d="M78 44v579q0 44 44 44h360q15 0 26.5 -11t11.5 -26t-11.5 -26t-26.5 -11h-321v-215h314q15 0 26.5 -11t11.5 -26t-11.5 -26t-26.5 -11h-314v-230h321q15 0 26.5 -11t11.5 -26t-11.5 -26t-26.5 -11h-360q-44 0 -44 44z" />
    <glyph glyph-name="uni0416" unicode="&#x416;" horiz-adv-x="914" 
d="M873 35q0 -16 -11 -27.5t-28 -11.5q-19 0 -31 15l-263 299h-41v-273q0 -17 -12.5 -29t-29.5 -12t-29 12t-12 29v273h-43l-262 -299q-12 -15 -31 -15q-16 0 -27.5 11.5t-11.5 27.5t9 25l258 286l-235 261q-9 13 -9 25q0 16 11.5 27.5t27.5 11.5q19 0 32 -15l240 -280h41
v254q0 17 12 29t29 12t29.5 -12t12.5 -29v-254h41l240 280q12 15 31 15q16 0 27.5 -11.5t11.5 -27.5q0 -14 -9 -25l-234 -261l257 -286q9 -9 9 -25z" />
    <glyph glyph-name="uni0417" unicode="&#x417;" horiz-adv-x="584" 
d="M39 101q0 15 11 26t26 11t24 -9q74 -67 178 -67q78 0 123 33.5t45 91.5q0 59 -45.5 88.5t-127.5 29.5h-83q-16 0 -27.5 10.5t-11.5 26.5t11.5 26.5t27.5 10.5h83q74 0 118 28.5t44 81.5t-44.5 83.5t-115.5 30.5q-93 0 -167 -62q-10 -7 -22 -7q-15 0 -25.5 10.5
t-10.5 25.5q0 14 13 27q90 80 218 80q102 0 170.5 -49t68.5 -129q0 -65 -45 -106q-43 -38 -99 -49q57 -5 105.5 -49.5t48.5 -114.5q0 -84 -70 -138t-180 -54q-141 0 -228 85q-13 10 -13 28z" />
    <glyph glyph-name="uni0418" unicode="&#x418;" horiz-adv-x="708" 
d="M120 671q17 0 29 -12t12 -29v-502l371 520q18 23 45 23q22 0 37.5 -16t15.5 -38v-580q0 -17 -12 -29t-30 -12q-16 0 -28.5 12.5t-12.5 28.5v512l-376 -531q-15 -22 -43 -22q-20 0 -35 15t-15 36v583q0 17 12 29t30 12z" />
    <glyph glyph-name="uni0419" unicode="&#x419;" horiz-adv-x="708" 
d="M120 671q17 0 29 -12t12 -29v-502l371 520q18 23 45 23q22 0 37.5 -16t15.5 -38v-580q0 -17 -12 -29t-30 -12q-16 0 -28.5 12.5t-12.5 28.5v512l-376 -531q-15 -22 -43 -22q-20 0 -35 15t-15 36v583q0 17 12 29t30 12zM208 779q-7 7 -7 20q0 11 8 19.5t19 8.5q9 0 20 -8
q44 -47 106 -47t105 46q9 9 20 9q12 0 20 -8.5t8 -20.5q0 -11 -8 -19q-60 -62 -145 -62q-86 0 -146 62z" />
    <glyph glyph-name="uni041A" unicode="&#x41a;" horiz-adv-x="601" 
d="M560 36q0 -17 -11 -28.5t-27 -11.5q-18 0 -30 12l-264 289l-67 -71v-189q0 -17 -12.5 -29t-29.5 -12t-29 12t-12 29v593q0 17 12 29t29 12t29.5 -12t12.5 -29v-309l306 337q10 13 29 13q16 0 28 -11t12 -27q0 -13 -11 -27l-242 -258l266 -286q11 -11 11 -26z" />
    <glyph glyph-name="uni041B" unicode="&#x41b;" horiz-adv-x="712" 
d="M551 37v556h-254l-11 -121q-17 -170 -44.5 -272.5t-62 -146t-85.5 -58.5q-16 -4 -26 -4q-17 0 -29 12t-12 29q0 14 8.5 25.5t21.5 15.5q60 13 96 100t56 302l13 149q3 43 47 43h321q44 0 44 -44v-586q0 -17 -12 -29t-30 -12q-17 0 -29 12t-12 29z" />
    <glyph glyph-name="uni041C" unicode="&#x41c;" horiz-adv-x="809" 
d="M648 37v518l-221 -542q-6 -17 -23 -17t-23 17l-220 542v-518q0 -16 -12 -28.5t-29 -12.5q-18 0 -30 12t-12 29v564q0 29 20.5 49.5t49.5 20.5q47 0 65 -44l191 -471l192 471q18 44 65 44q29 0 49.5 -20.5t20.5 -49.5v-564q0 -17 -12 -29t-30 -12q-16 0 -28.5 12.5
t-12.5 28.5z" />
    <glyph glyph-name="uni041D" unicode="&#x41d;" horiz-adv-x="712" 
d="M551 37v269h-390v-269q0 -16 -12 -28.5t-29 -12.5q-18 0 -30 12t-12 29v593q0 17 12 29t29 12t29.5 -12t12.5 -29v-250h390v250q0 17 12 29t30 12q17 0 29 -12t12 -29v-593q0 -17 -12 -29t-30 -12q-17 0 -29 12t-12 29z" />
    <glyph glyph-name="uni041E" unicode="&#x41e;" horiz-adv-x="765" 
d="M382 678q143 2 238 -98t93 -247q2 -147 -92.5 -247t-238.5 -98q-144 -2 -238.5 98t-92.5 247q-2 147 92.5 247t238.5 98zM382 604q-110 0 -177.5 -76t-67.5 -195q0 -118 67.5 -194.5t177.5 -76.5q109 0 177 76.5t68 194.5t-68 194.5t-177 76.5z" />
    <glyph glyph-name="uni041F" unicode="&#x41f;" horiz-adv-x="712" 
d="M551 37v556h-390v-556q0 -16 -12 -28.5t-29 -12.5q-18 0 -30 12t-12 29v586q0 44 44 44h468q44 0 44 -44v-586q0 -17 -12 -29t-30 -12q-17 0 -29 12t-12 29z" />
    <glyph glyph-name="uni0420" unicode="&#x420;" horiz-adv-x="587" 
d="M78 37v586q0 44 44 44h224q96 0 152.5 -57.5t56.5 -143.5t-57.5 -143.5t-151.5 -57.5h-185v-228q0 -16 -12 -28.5t-29 -12.5q-18 0 -30 12t-12 29zM336 593h-175v-254h175q59 0 96 35.5t37 91.5t-37 91.5t-96 35.5z" />
    <glyph glyph-name="uni0421" unicode="&#x421;" horiz-adv-x="670" 
d="M51 333q-3 148 97.5 247.5t242.5 97.5q139 0 229 -97q10 -10 10 -27q0 -16 -11.5 -27.5t-27.5 -11.5q-20 0 -30 13q-68 76 -170 76q-108 0 -181 -76.5t-73 -194.5q0 -116 73 -193.5t181 -77.5q105 0 170 76q10 13 30 13q16 0 27.5 -11.5t11.5 -27.5q0 -17 -10 -27
q-92 -97 -229 -97q-142 -3 -242.5 97t-97.5 248z" />
    <glyph glyph-name="uni0422" unicode="&#x422;" horiz-adv-x="570" 
d="M243 37v556h-178q-15 0 -26 11t-11 26t11 26t26 11h440q15 0 26 -11t11 -26t-11 -26t-26 -11h-179v-556q0 -17 -12 -29t-29 -12t-29.5 12t-12.5 29z" />
    <glyph glyph-name="uni0423" unicode="&#x423;" horiz-adv-x="631" 
d="M599 629q0 -9 -4 -18l-240 -493q-33 -68 -74.5 -99t-106.5 -31q-16 0 -39 4q-31 7 -31 37q0 16 12 27.5t29 10.5q1 0 7 -2q15 -3 19 -3q38 0 61.5 20t51.5 75l11 20l-249 432q-5 12 -5 21q0 17 12 29t29 12q22 0 37 -22l219 -395l180 392q12 25 39 25q17 0 29.5 -12.5
t12.5 -29.5z" />
    <glyph glyph-name="uni0424" unicode="&#x424;" horiz-adv-x="806" 
d="M444 66v-29q0 -17 -12 -29t-29 -12t-29.5 12t-12.5 29v29q-143 9 -226.5 81.5t-83.5 185.5q0 112 84 185t226 82v30q0 17 12.5 29t29.5 12t29 -12t12 -29v-30q143 -9 227 -81.5t84 -185.5t-84 -185.5t-227 -81.5zM361 140v386q-105 -8 -164.5 -60t-59.5 -133t59.5 -133
t164.5 -60zM669 333q0 81 -60 133t-165 60v-386q105 8 165 60t60 133z" />
    <glyph glyph-name="uni0425" unicode="&#x425;" horiz-adv-x="652" 
d="M622 37q0 -17 -11.5 -29t-29.5 -12q-21 0 -31 13l-224 272l-224 -272q-10 -13 -31 -13q-18 0 -29.5 12t-11.5 29q0 12 10 25l236 281l-221 261q-9 14 -9 26q0 16 11 28.5t28 12.5q21 0 32 -14l209 -254l209 254q11 14 31 14q17 0 28.5 -12.5t11.5 -28.5q0 -14 -9 -25
l-221 -262l236 -281q10 -13 10 -25z" />
    <glyph glyph-name="uni0426" unicode="&#x426;" horiz-adv-x="723" 
d="M695 29v-119q0 -15 -11 -26t-26 -11t-26 11t-11 26v90h-499q-44 0 -44 44v586q0 17 12 29t30 12q17 0 29 -12t12 -29v-556h374v556q0 17 12 29t29 12q18 0 30 -12t12 -29v-556h32q45 0 45 -45z" />
    <glyph glyph-name="uni0427" unicode="&#x427;" horiz-adv-x="611" 
d="M287 327q96 0 163 31v272q0 17 12 29t29 12t29.5 -12t12.5 -29v-593q0 -16 -12 -28.5t-29 -12.5q-18 0 -30 12t-12 29v254q-90 -38 -186 -38q-109 0 -157.5 53.5t-48.5 175.5v148q0 17 12 29t29 12t29.5 -12t12.5 -29v-149q0 -85 33 -119.5t113 -34.5z" />
    <glyph glyph-name="uni0428" unicode="&#x428;" horiz-adv-x="958" 
d="M880 630v-586q0 -44 -44 -44h-714q-44 0 -44 44v586q0 17 12 29t30 12q17 0 29 -12t12 -29v-556h277v556q0 17 12 29t29 12t29.5 -12t12.5 -29v-556h276v556q0 17 12.5 29t29.5 12t29 -12t12 -29z" />
    <glyph glyph-name="uni0429" unicode="&#x429;" horiz-adv-x="986" 
d="M957 29v-119q0 -15 -10.5 -26t-25.5 -11q-16 0 -27 11t-11 26v90h-761q-44 0 -44 44v586q0 17 12 29t30 12q17 0 29 -12t12 -29v-556h277v556q0 17 12 29t29 12t29.5 -12t12.5 -29v-556h276v556q0 17 12.5 29t29.5 12t29 -12t12 -29v-556h33q44 0 44 -45z" />
    <glyph glyph-name="uni042A" unicode="&#x42a;" horiz-adv-x="752" 
d="M243 44v549h-178q-15 0 -26 11t-11 26t11 26t26 11h217q44 0 44 -44v-221h185q94 0 151.5 -57.5t57.5 -143.5t-56.5 -143.5t-152.5 -57.5h-223q-45 0 -45 44zM326 328v-254h175q59 0 96 35.5t37 91.5t-37 91.5t-96 35.5h-175z" />
    <glyph glyph-name="uni042B" unicode="&#x42b;" horiz-adv-x="788" 
d="M161 630v-228h185q94 0 151.5 -57.5t57.5 -143.5t-56.5 -143.5t-152.5 -57.5h-224q-44 0 -44 44v586q0 17 12 29t30 12q17 0 29 -12t12 -29zM627 37v593q0 17 12 29t30 12q17 0 29 -12t12 -29v-593q0 -16 -12 -28.5t-29 -12.5q-18 0 -30 12t-12 29zM161 328v-254h175
q59 0 96 35.5t37 91.5t-37 91.5t-96 35.5h-175z" />
    <glyph glyph-name="uni042C" unicode="&#x42c;" horiz-adv-x="587" 
d="M161 630v-228h185q94 0 151.5 -57.5t57.5 -143.5t-56.5 -143.5t-152.5 -57.5h-224q-44 0 -44 44v586q0 17 12 29t30 12q17 0 29 -12t12 -29zM161 328v-254h175q59 0 96 35.5t37 91.5t-37 91.5t-96 35.5h-175z" />
    <glyph glyph-name="uni042D" unicode="&#x42d;" horiz-adv-x="676" 
d="M625 333q2 -149 -98.5 -248.5t-244.5 -96.5q-135 0 -226 97q-10 10 -10 27q0 16 11.5 27.5t27.5 11.5q20 0 30 -13q65 -76 167 -76t174 68t81 174h-350q-15 0 -26 11t-11 26t11 26t26 11h348q-13 100 -84 163t-169 63q-97 0 -167 -76q-10 -13 -30 -13q-16 0 -27.5 11.5
t-11.5 27.5q0 17 10 27q90 97 226 97q144 2 244.5 -97.5t98.5 -247.5z" />
    <glyph glyph-name="uni042E" unicode="&#x42e;" horiz-adv-x="992" 
d="M941 333q2 -147 -93 -247t-239 -98q-137 -2 -230 89.5t-100 228.5h-118v-269q0 -16 -12 -28.5t-29 -12.5q-18 0 -30 12t-12 29v593q0 17 12 29t29 12t29.5 -12t12.5 -29v-250h120q14 130 105 214t223 84q144 2 239 -98t93 -247zM855 333q0 118 -68.5 194.5t-177.5 76.5
q-110 0 -177.5 -76t-67.5 -195q0 -118 67.5 -194.5t177.5 -76.5q109 0 177.5 77t68.5 194z" />
    <glyph glyph-name="uni042F" unicode="&#x42f;" horiz-adv-x="608" 
d="M531 623v-586q0 -17 -12.5 -29t-29.5 -12t-29 12t-12 29v228h-147l-175 -252q-12 -17 -35 -17q-15 0 -27 12t-12 26q0 15 8 26l152 214q-70 10 -114.5 61.5t-44.5 130.5q0 91 58.5 146t151.5 55h223q45 0 45 -44zM448 338v255h-176q-59 0 -96 -35.5t-37 -91.5t37.5 -92
t95.5 -36h176z" />
    <glyph glyph-name="uni0430" unicode="&#x430;" horiz-adv-x="527" 
d="M452 332v-299q0 -15 -11 -26t-27 -11q-15 0 -26 11t-11 26v22q-56 -67 -160 -67q-68 0 -118.5 43.5t-50.5 116.5t50.5 116t118.5 43q103 0 160 -66v87q0 47 -33.5 74.5t-88.5 27.5q-72 0 -126 -48q-10 -6 -20 -6q-13 0 -22 9t-9 22q0 16 13 25q72 63 174 63
q86 0 136.5 -41t50.5 -122zM377 102v91q-43 60 -133 60q-52 0 -85.5 -29.5t-33.5 -76.5q0 -46 33.5 -75.5t85.5 -29.5q90 0 133 60z" />
    <glyph glyph-name="uni0431" unicode="&#x431;" horiz-adv-x="574" 
d="M361 659l80 13q3 1 10 1q15 0 23.5 -9t8.5 -22q0 -31 -39 -37l-90 -15q-114 -20 -172 -73.5t-74 -142.5q30 50 79.5 79.5t110.5 29.5q99 0 162.5 -69.5t63.5 -170.5q0 -108 -66 -181.5t-172 -73.5q-110 0 -174.5 79.5t-64.5 212.5q0 172 71.5 262.5t242.5 116.5zM286 428
q-73 0 -117 -54t-44 -131q0 -79 44 -133.5t117 -54.5t116.5 54.5t43.5 133.5q0 77 -43.5 131t-116.5 54z" />
    <glyph glyph-name="uni0432" unicode="&#x432;" horiz-adv-x="540" 
d="M75 44v395q0 44 45 44h202q73 0 114 -33.5t41 -90.5q0 -40 -22.5 -70t-57.5 -40q38 -9 64 -43t26 -75q0 -61 -42.5 -96t-120.5 -35h-204q-45 0 -45 44zM322 417h-172v-136h172q36 0 57 18.5t21 48.5q0 32 -20.5 50.5t-57.5 18.5zM324 215h-174v-149h174q40 0 62.5 19.5
t22.5 54.5q0 32 -23 53.5t-62 21.5z" />
    <glyph glyph-name="uni0433" unicode="&#x433;" horiz-adv-x="436" 
d="M75 33v406q0 44 45 44h264q14 0 24 -10t10 -23t-10 -23t-24 -10h-234v-384q0 -15 -11 -26t-26 -11q-16 0 -27 11t-11 26z" />
    <glyph glyph-name="uni0434" unicode="&#x434;" horiz-adv-x="561" 
d="M533 22v-116q0 -14 -10 -23.5t-24 -9.5q-13 0 -22.5 10t-9.5 23v94h-383v-94q0 -14 -9.5 -23.5t-23.5 -9.5q-13 0 -23 9.5t-10 23.5v116q0 44 43 44q22 34 42 104q18 65 32 202l6 68q3 43 47 43h244q45 0 45 -44v-373h12q44 0 44 -44zM402 66v351h-195l-6 -64
q-19 -220 -67 -287h268z" />
    <glyph glyph-name="uni0435" unicode="&#x435;" horiz-adv-x="563" 
d="M285 495q103 0 167.5 -70.5t64.5 -169.5q0 -38 -44 -38h-347q4 -70 52 -119q46 -48 122 -48q72 0 130 46q7 4 17 4q13 0 22 -8.5t9 -21.5q0 -15 -13 -25q-73 -57 -172 -57q-108 0 -177 71t-69 183q0 105 68.5 179t169.5 74zM126 272h317q-2 64 -43.5 112.5t-115.5 48.5
q-70 0 -112.5 -48.5t-45.5 -112.5z" />
    <glyph glyph-name="uni0436" unicode="&#x436;" horiz-adv-x="708" 
d="M670 32q0 -15 -11 -25.5t-26 -10.5q-17 0 -29 14l-181 207h-31v-184q0 -15 -11.5 -26t-26.5 -11t-26 11t-11 26v184h-31l-182 -207q-11 -14 -29 -14q-15 0 -25.5 10.5t-10.5 25.5q0 12 8 23l172 192l-171 183q-8 11 -8 22q0 14 10.5 24.5t24.5 10.5q18 0 28 -13l183 -202
h31v178q0 15 11 26t26 11t26.5 -11t11.5 -26v-178h30l183 202q13 13 28 13q14 0 24.5 -10.5t10.5 -24.5t-8 -22l-170 -183l171 -192q9 -11 9 -23z" />
    <glyph glyph-name="uni0437" unicode="&#x437;" horiz-adv-x="485" 
d="M40 73q0 14 10 24t24 10q12 0 20 -6q60 -51 139 -51q59 0 93 23t34 61q0 80 -135 80h-55q-14 0 -23.5 8.5t-9.5 22.5q0 13 9.5 21.5t23.5 8.5h55q58 0 92 21.5t34 59.5q0 34 -34 55.5t-87 21.5q-79 0 -133 -47q-8 -7 -18 -7q-13 0 -22 9t-9 22q0 15 11 24q68 60 172 60
q91 0 144.5 -34.5t53.5 -94.5q0 -50 -37 -81q-35 -31 -81 -37q49 -3 88.5 -34.5t39.5 -83.5q0 -63 -55.5 -102t-150.5 -39q-109 0 -179 58q-14 9 -14 27z" />
    <glyph glyph-name="uni0438" unicode="&#x438;" horiz-adv-x="552" 
d="M75 41v409q0 15 11 26t27 11q15 0 26 -11t11 -26v-336l241 353q15 20 39 20q19 0 33 -13.5t14 -32.5v-408q0 -15 -11 -26t-27 -11q-15 0 -26 11t-11 26v343l-244 -360q-13 -20 -38 -20q-19 0 -32 13t-13 32z" />
    <glyph glyph-name="uni0439" unicode="&#x439;" horiz-adv-x="552" 
d="M75 41v409q0 15 11 26t27 11q15 0 26 -11t11 -26v-336l241 353q15 20 39 20q19 0 33 -13.5t14 -32.5v-408q0 -15 -11 -26t-27 -11q-15 0 -26 11t-11 26v343l-244 -360q-13 -20 -38 -20q-19 0 -32 13t-13 32zM130 632q-7 7 -7 20q0 11 8 19.5t19 8.5q9 0 20 -8
q44 -47 106 -47t105 46q9 9 20 9q12 0 20 -8.5t8 -20.5q0 -11 -8 -19q-60 -62 -145 -62q-86 0 -146 62z" />
    <glyph glyph-name="uni043A" unicode="&#x43a;" horiz-adv-x="514" 
d="M475 34q0 -16 -10.5 -27t-26.5 -11q-18 0 -29 12l-177 208l-82 -76v-107q0 -15 -11 -26t-27 -11q-15 0 -26 11t-11 26v417q0 15 11 26t27 11q15 0 26 -11t11 -26v-225l261 253q9 9 24 9q14 0 24 -10.5t10 -24.5t-10 -24l-173 -166l180 -203q9 -11 9 -25z" />
    <glyph glyph-name="uni043B" unicode="&#x43b;" horiz-adv-x="552" 
d="M402 33v384h-195l-5 -52q-15 -180 -48 -264q-31 -84 -85 -105q-7 -3 -18 -3q-16 0 -27 11t-11 27q0 25 22 33q35 14 59 81q25 71 38 224l7 71q3 43 46 43h247q45 0 45 -44v-406q0 -15 -11 -26t-27 -11q-15 0 -26 11t-11 26z" />
    <glyph glyph-name="uni043C" unicode="&#x43c;" horiz-adv-x="671" 
d="M521 33v352l-153 -358q-14 -30 -32 -30t-32 30l-154 358v-352q0 -15 -11 -26t-26 -11q-16 0 -27 11t-11 26v395q0 24 17 41.5t42 17.5q39 0 54 -34l148 -349l146 348q16 35 55 35q24 0 41.5 -17.5t17.5 -41.5v-395q0 -15 -11 -26t-27 -11q-15 0 -26 11t-11 26z" />
    </font>
</defs>
</svg>
