<?xml version="1.0" standalone="no"?>
<!DOCTYPE svg PUBLIC "-//W3C//DTD SVG 1.1//EN" "http://www.w3.org/Graphics/SVG/1.1/DTD/svg11.dtd" >
<svg xmlns="http://www.w3.org/2000/svg" xmlns:xlink="http://www.w3.org/1999/xlink" version="1.1">
<metadata>
Created by FontForge 20170731 at Tue Dec 25 03:00:00 2018
 By Aleksey,,,
Copyright (c) 2018 by Mark Simonson. All rights reserved.
</metadata>
<defs>
<font id="ProximaSoft-BlackIt" horiz-adv-x="596" >
  <font-face 
    font-family="Proxima Soft Black"
    font-weight="900"
    font-style="italic"
    font-stretch="normal"
    units-per-em="1000"
    panose-1="2 0 5 6 3 0 0 2 0 4"
    ascent="790"
    descent="-210"
    x-height="483"
    cap-height="667"
    bbox="-331 -388 1260.03 1101"
    underline-thickness="120"
    underline-position="-484"
    slope="-12.5"
    unicode-range="U+000D-FB04"
  />
<missing-glyph horiz-adv-x="459" 
d="M74 -28v718q0 62 62 62h227q62 0 62 -62v-718q0 -62 -62 -62h-227q-62 0 -62 62zM393 722h-288v-782h288v782z" />
    <glyph glyph-name="f_f_j" unicode="ffj" horiz-adv-x="1022" 
d="M1072 654q0 -51 -35 -83.5t-79 -32.5q-39 0 -65 25t-26 61q0 51 35 83.5t79 32.5q39 0 65 -25t26 -61zM702 327h-46l-59 -268q-7 -30 -31 -49.5t-55 -19.5q-37 0 -62.5 26t-25.5 63q0 2 2 18l51 230q-26 2 -45 18.5t-24 41.5q-6 -26 -27.5 -43t-48.5 -17h-46l-59 -268
q-7 -30 -31 -49.5t-55 -19.5q-37 0 -62.5 26t-25.5 63q0 2 2 18l51 230q-31 3 -51 24.5t-20 53.5t23 55t55 23h27l6 25q18 76 73 122.5t132 46.5q27 0 54 -5q24 -4 39.5 -21.5t15.5 -41.5q0 -29 -22.5 -49.5t-51.5 -16.5q-2 1 -10 1q-43 0 -50 -36l-6 -25h12q27 0 48.5 -17
t27.5 -43q6 26 27.5 43t48.5 17h27l6 25q18 76 73 122.5t132 46.5q27 0 54 -5q24 -4 39.5 -21.5t15.5 -41.5q0 -29 -22.5 -49.5t-51.5 -16.5q-2 1 -10 1q-43 0 -50 -36l-6 -25h12q32 0 55 -23t23 -55t-23 -55t-55 -23zM1004 404q0 -14 -1 -18l-81 -365q-46 -217 -219 -217
h-6q-33 0 -56 20.5t-23 52.5q0 26 16.5 48t38.5 27l11 2q44 7 58 67l90 403q7 30 31 49.5t55 19.5q38 0 62 -25t24 -64z" />
    <glyph glyph-name="f_j" unicode="fj" horiz-adv-x="651" 
d="M325 508l-6 -25h12q32 0 55 -23t23 -55t-23 -55t-55 -23h-46l-59 -268q-7 -30 -31 -49.5t-55 -19.5q-37 0 -62.5 26t-25.5 63q0 2 2 18l51 230q-31 3 -51 24.5t-20 53.5t23 55t55 23h27l6 25q18 76 73 122.5t132 46.5q27 0 54 -5q24 -4 39.5 -21.5t15.5 -41.5
q0 -29 -22.5 -49.5t-51.5 -16.5q-2 1 -10 1q-43 0 -50 -36zM496 624q0 51 35 83.5t79 32.5q39 0 65 -25t26 -61q0 -51 -35 -83.5t-79 -32.5q-39 0 -65 25t-26 61zM247 -123q0 26 16.5 48t38.5 27l11 2q44 7 58 67l90 403q7 30 31 49.5t55 19.5q38 0 62 -25t24 -64
q0 -14 -1 -18l-81 -365q-46 -217 -219 -217h-6q-33 0 -56 20.5t-23 52.5z" />
    <glyph glyph-name="f_f" unicode="ff" horiz-adv-x="742" 
d="M696 508l-6 -25h12q32 0 55 -23t23 -55t-23 -55t-55 -23h-46l-59 -268q-7 -30 -31 -49.5t-55 -19.5q-37 0 -62.5 26t-25.5 63q0 2 2 18l51 230q-26 2 -45 18.5t-24 41.5q-6 -26 -27.5 -43t-48.5 -17h-46l-59 -268q-7 -30 -31 -49.5t-55 -19.5q-37 0 -62.5 26t-25.5 63
q0 2 2 18l51 230q-31 3 -51 24.5t-20 53.5t23 55t55 23h27l6 25q18 76 73 122.5t132 46.5q27 0 54 -5q24 -4 39.5 -21.5t15.5 -41.5q0 -29 -22.5 -49.5t-51.5 -16.5q-2 1 -10 1q-43 0 -50 -36l-6 -25h12q27 0 48.5 -17t27.5 -43q6 26 27.5 43t48.5 17h27l6 25
q18 76 73 122.5t132 46.5q27 0 54 -5q24 -4 39.5 -21.5t15.5 -41.5q0 -29 -22.5 -49.5t-51.5 -16.5q-2 1 -10 1q-43 0 -50 -36z" />
    <glyph glyph-name="fi" unicode="fi" horiz-adv-x="651" 
d="M325 508l-6 -25h12q32 0 55 -23t23 -55t-23 -55t-55 -23h-46l-59 -268q-7 -30 -31 -49.5t-55 -19.5q-37 0 -62.5 26t-25.5 63q0 2 2 18l51 230q-31 3 -51 24.5t-20 53.5t23 55t55 23h27l6 25q18 76 73 122.5t132 46.5q27 0 54 -5q24 -4 39.5 -21.5t15.5 -41.5
q0 -29 -22.5 -49.5t-51.5 -16.5q-2 1 -10 1q-43 0 -50 -36zM610 740q39 0 65 -25t26 -61q0 -51 -35 -83.5t-79 -32.5q-39 0 -65 25t-26 61q0 51 35 83.5t79 32.5zM386 76q0 11 2 21l73 327q7 30 31 49.5t55 19.5q37 0 62.5 -24.5t25.5 -61.5q0 -11 -2 -21l-73 -327
q-7 -30 -31 -49.5t-55 -19.5q-37 0 -62.5 24.5t-25.5 61.5z" />
    <glyph glyph-name="fl" unicode="fl" horiz-adv-x="651" 
d="M325 508l-6 -25h12q32 0 55 -23t23 -55t-23 -55t-55 -23h-46l-59 -268q-7 -30 -31 -49.5t-55 -19.5q-37 0 -62.5 26t-25.5 63q0 2 2 18l51 230q-31 3 -51 24.5t-20 53.5t23 55t55 23h27l6 25q18 76 73 122.5t132 46.5q27 0 54 -5q24 -4 39.5 -21.5t15.5 -41.5
q0 -29 -22.5 -49.5t-51.5 -16.5q-2 1 -10 1q-43 0 -50 -36zM386 77q0 10 2 20l113 511q7 30 31 49.5t55 19.5q36 0 62 -25.5t26 -61.5q0 -10 -2 -20l-113 -511q-7 -30 -31 -49.5t-55 -19.5q-36 0 -62 25.5t-26 61.5z" />
    <glyph glyph-name="f_f_i" unicode="ffi" horiz-adv-x="1022" 
d="M1072 654q0 -51 -35 -83.5t-79 -32.5q-39 0 -65 25t-26 61q0 51 35 83.5t79 32.5q39 0 65 -25t26 -61zM702 327h-46l-59 -268q-7 -30 -31 -49.5t-55 -19.5q-37 0 -62.5 26t-25.5 63q0 2 2 18l51 230q-26 2 -45 18.5t-24 41.5q-6 -26 -27.5 -43t-48.5 -17h-46l-59 -268
q-7 -30 -31 -49.5t-55 -19.5q-37 0 -62.5 26t-25.5 63q0 2 2 18l51 230q-31 3 -51 24.5t-20 53.5t23 55t55 23h27l6 25q18 76 73 122.5t132 46.5q27 0 54 -5q24 -4 39.5 -21.5t15.5 -41.5q0 -29 -22.5 -49.5t-51.5 -16.5q-2 1 -10 1q-43 0 -50 -36l-6 -25h12q27 0 48.5 -17
t27.5 -43q6 26 27.5 43t48.5 17h27l6 25q18 76 73 122.5t132 46.5q27 0 54 -5q24 -4 39.5 -21.5t15.5 -41.5q0 -29 -22.5 -49.5t-51.5 -16.5q-2 1 -10 1q-43 0 -50 -36l-6 -25h12q32 0 55 -23t23 -55t-23 -55t-55 -23zM1006 407q0 -11 -2 -21l-73 -327q-7 -30 -31 -49.5
t-55 -19.5q-37 0 -62.5 24.5t-25.5 61.5q0 11 2 21l73 327q7 30 31 49.5t55 19.5q37 0 62.5 -24.5t25.5 -61.5z" />
    <glyph glyph-name="f_f_l" unicode="ffl" horiz-adv-x="1022" 
d="M702 327h-46l-59 -268q-7 -30 -31 -49.5t-55 -19.5q-37 0 -62.5 26t-25.5 63q0 2 2 18l51 230q-26 2 -45 18.5t-24 41.5q-6 -26 -27.5 -43t-48.5 -17h-46l-59 -268q-7 -30 -31 -49.5t-55 -19.5q-37 0 -62.5 26t-25.5 63q0 2 2 18l51 230q-31 3 -51 24.5t-20 53.5t23 55
t55 23h27l6 25q18 76 73 122.5t132 46.5q27 0 54 -5q24 -4 39.5 -21.5t15.5 -41.5q0 -29 -22.5 -49.5t-51.5 -16.5q-2 1 -10 1q-43 0 -50 -36l-6 -25h12q27 0 48.5 -17t27.5 -43q6 26 27.5 43t48.5 17h27l6 25q18 76 73 122.5t132 46.5q27 0 54 -5q24 -4 39.5 -21.5
t15.5 -41.5q0 -29 -22.5 -49.5t-51.5 -16.5q-2 1 -10 1q-43 0 -50 -36l-6 -25h12q32 0 55 -23t23 -55t-23 -55t-55 -23zM1046 590q0 -10 -2 -20l-113 -511q-7 -30 -31 -49.5t-55 -19.5q-36 0 -62 25.5t-26 61.5q0 10 2 20l113 511q7 30 31 49.5t55 19.5q36 0 62 -25.5
t26 -61.5z" />
    <glyph glyph-name="f_b" unicode="fb" horiz-adv-x="967" 
d="M325 508l-6 -25h12q32 0 55 -23t23 -55t-23 -55t-55 -23h-46l-59 -268q-7 -30 -31 -49.5t-55 -19.5q-37 0 -62.5 26t-25.5 63q0 2 2 18l51 230q-31 3 -51 24.5t-20 53.5t23 55t55 23h27l6 25q18 76 73 122.5t132 46.5q27 0 54 -5q24 -4 39.5 -21.5t15.5 -41.5
q0 -29 -22.5 -49.5t-51.5 -16.5q-2 1 -10 1q-43 0 -50 -36zM953 294q1 -72 -28 -142t-89.5 -118t-137.5 -46q-97 0 -141 65q-10 -28 -32 -45.5t-51 -17.5q-37 0 -62.5 25.5t-25.5 62.5q0 2 2 18l113 512q7 30 31 49.5t55 19.5q38 0 62.5 -25.5t24.5 -64.5q0 -13 -1 -17
l-31 -138q57 63 131 63q84 0 132 -53t48 -148zM767 256q0 35 -23 57.5t-57 22.5q-40 0 -73 -33l-28 -123q30 -33 80 -33q43 0 72 31.5t29 77.5z" />
    <glyph glyph-name="f_h" unicode="fh" horiz-adv-x="979" 
d="M325 508l-6 -25h12q32 0 55 -23t23 -55t-23 -55t-55 -23h-46l-59 -268q-7 -30 -31 -49.5t-55 -19.5q-37 0 -62.5 26t-25.5 63q0 2 2 18l51 230q-31 3 -51 24.5t-20 53.5t23 55t55 23h27l6 25q18 76 73 122.5t132 46.5q27 0 54 -5q24 -4 39.5 -21.5t15.5 -41.5
q0 -29 -22.5 -49.5t-51.5 -16.5q-2 1 -10 1q-43 0 -50 -36zM714 75q0 11 2 21l35 163q5 25 5 32q0 45 -65 45q-38 0 -78 -37l-52 -240q-6 -29 -30.5 -49t-55.5 -20q-36 0 -62 25.5t-26 61.5q0 10 2 20l113 511q7 30 31 49.5t55 19.5q37 0 62 -24.5t25 -61.5q0 -11 -2 -21
l-32 -142q37 34 71.5 50.5t80.5 16.5q73 0 116 -35t43 -92q0 -14 -5 -39l-59 -270q-7 -30 -31 -49.5t-55 -19.5q-36 0 -62 24.5t-26 60.5z" />
    <glyph glyph-name="f_k" unicode="fk" horiz-adv-x="928" 
d="M325 508l-6 -25h12q32 0 55 -23t23 -55t-23 -55t-55 -23h-46l-59 -268q-7 -30 -31 -49.5t-55 -19.5q-37 0 -62.5 26t-25.5 63q0 2 2 18l51 230q-31 3 -51 24.5t-20 53.5t23 55t55 23h27l6 25q18 76 73 122.5t132 46.5q27 0 54 -5q24 -4 39.5 -21.5t15.5 -41.5
q0 -29 -22.5 -49.5t-51.5 -16.5q-2 1 -10 1q-43 0 -50 -36zM923 414q0 -36 -31 -61l-119 -95l81 -125q15 -23 15 -49q0 -38 -30 -66q-28 -28 -66 -28q-52 0 -91 66l-55 96l-57 -47l-10 -46q-7 -30 -31 -49.5t-55 -19.5q-36 0 -62 25.5t-26 61.5q0 10 2 20l113 511
q7 30 31 49.5t55 19.5q38 0 62.5 -24t24.5 -61q0 -12 -2 -22l-55 -251l167 147q28 27 60 27q33 0 56 -23t23 -56z" />
    <glyph glyph-name=".notdef" horiz-adv-x="459" 
d="M74 -28v718q0 62 62 62h227q62 0 62 -62v-718q0 -62 -62 -62h-227q-62 0 -62 62zM393 722h-288v-782h288v782z" />
    <glyph glyph-name=".null" horiz-adv-x="0" 
 />
    <glyph glyph-name="nonmarkingreturn" horiz-adv-x="333" 
 />
    <glyph glyph-name="CR" unicode="&#xd;" horiz-adv-x="0" 
 />
    <glyph glyph-name="space" unicode=" " horiz-adv-x="255" 
 />
    <glyph glyph-name="exclam" unicode="!" horiz-adv-x="283" 
d="M73 321q0 10 1 13l41 260q5 36 32.5 59.5t64.5 23.5q42 0 70.5 -27.5t28.5 -68.5q0 -18 -4 -30l-71 -252q-8 -27 -30 -44t-50 -17q-35 0 -59 24t-24 59zM118 202q40 0 68.5 -29t28.5 -70q0 -47 -35 -81.5t-82 -34.5q-40 0 -68.5 29t-28.5 70q0 47 35 81.5t82 34.5z" />
    <glyph glyph-name="quotedbl" unicode="&#x22;" horiz-adv-x="469" 
d="M109 395l-2 176q0 45 31 75.5t75 30.5q33 0 57 -24t24 -59q0 -16 -9 -37l-82 -178q-18 -40 -51 -40q-21 0 -32 15.5t-11 40.5zM327 395l-2 176q0 45 31 75.5t75 30.5q33 0 57 -24t24 -59q0 -16 -9 -37l-82 -178q-18 -40 -51 -40q-21 0 -32 15.5t-11 40.5z" />
    <glyph glyph-name="numbersign" unicode="#" horiz-adv-x="646" 
d="M668 453q0 -22 -16 -38t-38 -16h-70l-73 -132h12q23 0 38.5 -16t15.5 -39q0 -22 -15.5 -38t-38.5 -16h-73l-77 -139q-15 -29 -48 -29q-24 0 -40.5 15.5t-16.5 38.5q0 14 8 28l48 86h-79l-77 -139q-15 -29 -48 -29q-24 0 -40.5 15.5t-16.5 38.5q0 14 8 28l48 86h-6
q-23 0 -39 16t-16 39q0 22 16 38t39 16h66l74 132h-9q-22 0 -38 16t-16 38t16 38t38 16h69l78 141q15 29 48 29q24 0 40.5 -15.5t16.5 -38.5q0 -14 -8 -28l-49 -88h79l78 141q15 29 48 29q24 0 40.5 -15.5t16.5 -38.5q0 -14 -8 -28l-49 -88h10q22 0 38 -16t16 -38zM344 267
l74 132h-79l-73 -132h78z" />
    <glyph glyph-name="dollar" unicode="$" horiz-adv-x="635" 
d="M595 215q0 -92 -72.5 -157.5t-189.5 -69.5l-11 -50q-5 -21 -22 -34.5t-39 -13.5q-26 0 -44.5 18.5t-18.5 43.5q0 1 0.5 3t1 5t0.5 6l7 32q-90 20 -154 60q-43 28 -43 77q0 38 26.5 65t64.5 27q29 0 51 -15q80 -54 177 -54q56 0 56 33q0 16 -19.5 28.5t-64.5 27.5
q-59 19 -112 44q-118 57 -118 174q-2 78 77 146t204 66h5l12 52q4 22 21.5 35.5t40.5 13.5q26 0 44 -19t18 -45q0 -9 -1 -12l-10 -44q34 -9 82 -34q47 -27 47 -79q0 -37 -26.5 -63.5t-63.5 -26.5q-26 0 -46 13q-70 42 -145 42q-52 0 -52 -34q0 -14 20 -26t65 -27
q100 -31 166 -78q66 -46 66 -130z" />
    <glyph glyph-name="percent" unicode="%" horiz-adv-x="784" 
d="M268 677q71 0 121 -39t50 -103q0 -84 -56 -139t-136 -55q-71 0 -121 39.5t-50 102.5q0 84 56 139t136 55zM112 27q0 13 8 24l528 613q10 13 28 13q15 0 26 -10.5t11 -26.5q0 -14 -9 -24l-528 -613q-10 -13 -28 -13q-15 0 -25.5 10.5t-10.5 26.5zM264 571q-30 0 -48 -20.5
t-18 -56.5q0 -20 14.5 -33.5t38.5 -13.5q30 0 48 20.5t18 56.5q0 20 -14.5 33.5t-38.5 13.5zM576 324q71 0 121 -39t50 -103q0 -84 -56 -139t-136 -55q-71 0 -121 39.5t-50 102.5q0 84 56 139t136 55zM572 218q-30 0 -48 -20.5t-18 -56.5q0 -20 14.5 -33.5t38.5 -13.5
q30 0 48 20.5t18 56.5q0 20 -14.5 33.5t-38.5 13.5z" />
    <glyph glyph-name="ampersand" unicode="&#x26;" horiz-adv-x="652" 
d="M536 141l1 -1q28 -27 28 -63t-25 -61.5t-63 -25.5q-32 0 -59 21l-25 22q-85 -45 -168 -45q-109 0 -170 46t-61 139q0 84 47.5 135t140.5 83q-13 51 -13 93q0 83 63.5 138t158.5 55q83 0 141.5 -40.5t58.5 -110.5q0 -56 -28 -91q-25 -33 -63.5 -52.5t-109.5 -42.5l8 -16
q8 -15 15 -26q12 -23 35 -54q28 32 39 48q19 28 56 28q29 0 49.5 -21t20.5 -49q0 -26 -17 -46q-28 -33 -60 -63zM352 440q83 25 83 69q0 43 -37 43q-22 0 -36.5 -18t-14.5 -49q0 -17 5 -45zM257 126q21 0 45 9q-16 23 -39 60q-18 29 -39 76q-35 -30 -35 -77q0 -32 18.5 -50
t49.5 -18z" />
    <glyph glyph-name="quotesingle" unicode="'" horiz-adv-x="252" 
d="M109 395l-2 176q0 45 31 75.5t75 30.5q33 0 57 -24t24 -59q0 -16 -9 -37l-82 -178q-18 -40 -51 -40q-21 0 -32 15.5t-11 40.5z" />
    <glyph glyph-name="parenleft" unicode="(" horiz-adv-x="346" 
d="M75 -130q-53 114 -53 253q0 142 64 280q64 139 177 243q19 19 50 19q32 0 53 -22t21 -53q0 -23 -15 -44q-78 -100 -120 -220.5t-42 -244.5q0 -68 23 -151q4 -11 4 -26q0 -35 -25 -59t-60 -24q-24 0 -45.5 14t-31.5 35z" />
    <glyph glyph-name="parenright" unicode=")" horiz-adv-x="347" 
d="M270 616q53 -114 53 -253t-65 -280t-176 -243q-19 -19 -50 -19q-32 0 -53 22t-21 53q0 23 15 44q78 100 120 220.5t42 244.5q0 70 -23 151q-4 11 -4 26q0 35 25 59t60 24q24 0 45.5 -14t31.5 -35z" />
    <glyph glyph-name="asterisk" unicode="*" horiz-adv-x="363" 
d="M170 373q0 7 1 9l19 71l-73 -33q-6 -3 -14 -3q-15 0 -26.5 11t-11.5 27q0 25 23 34l80 29l-53 37q-17 12 -17 33q0 17 11.5 29t28.5 12q16 0 27 -10l52 -44l15 81q2 13 13 22t25 9q16 0 27 -11.5t11 -27.5q0 -8 -1 -10l-19 -71l72 33q8 3 15 3q15 0 26.5 -11t11.5 -27
q0 -26 -23 -35l-78 -28l52 -36q17 -12 17 -34q0 -17 -12 -29t-29 -12q-16 0 -27 10l-52 44l-13 -79q-2 -14 -13 -23.5t-26 -9.5q-16 0 -27.5 11.5t-11.5 28.5z" />
    <glyph glyph-name="plus" unicode="+" horiz-adv-x="510" 
d="M322 285l-35 -159q-4 -19 -20 -31.5t-36 -12.5q-24 0 -40 16.5t-16 39.5q0 10 1 13l30 134h-113q-22 0 -37.5 15.5t-15.5 36.5q0 22 15.5 37.5t37.5 15.5h136l33 151q4 19 20 31.5t36 12.5q24 0 40 -16.5t16 -39.5q0 -10 -1 -13l-28 -126h113q22 0 37.5 -15.5t15.5 -36.5
q0 -22 -15.5 -37.5t-37.5 -15.5h-136z" />
    <glyph glyph-name="comma" unicode="," horiz-adv-x="283" 
d="M42 -138q-17 0 -29 12.5t-12 29.5q0 23 20 35q57 35 73 66q-2 -1 -13 -1q-36 0 -58.5 22.5t-22.5 62.5q0 44 36.5 78.5t81.5 34.5q43 0 72.5 -29t29.5 -76q0 -62 -43 -123q-43 -63 -113 -106q-9 -6 -22 -6z" />
    <glyph glyph-name="hyphen" unicode="-" horiz-adv-x="300" 
d="M21 242q0 31 22 53t53 22h108q31 0 53 -22t22 -53t-22 -53t-53 -22h-108q-31 0 -53 22t-22 53z" />
    <glyph glyph-name="period" unicode="." horiz-adv-x="283" 
d="M118 202q40 0 68.5 -29t28.5 -70q0 -47 -35 -81.5t-82 -34.5q-40 0 -68.5 29t-28.5 70q0 47 35 81.5t82 34.5z" />
    <glyph glyph-name="slash" unicode="/" horiz-adv-x="362" 
d="M-27 26q0 15 7 28l341 614q19 29 50 29q25 0 41.5 -16t16.5 -39q0 -16 -8 -30l-341 -613q-15 -29 -50 -29q-24 0 -40.5 16.5t-16.5 39.5z" />
    <glyph glyph-name="zero" unicode="0" horiz-adv-x="628" 
d="M377 677q118 0 189.5 -72t71.5 -205q1 -112 -45 -207.5t-126.5 -151t-176.5 -53.5q-117 0 -189.5 73t-72.5 205q-3 170 100 292t249 119zM357 499q-56 2 -91.5 -75.5t-35.5 -166.5q0 -43 20 -67t59 -24q38 -2 68 37t44.5 94.5t13.5 111.5q0 90 -78 90z" />
    <glyph glyph-name="one" unicode="1" horiz-adv-x="473" 
d="M186 91q0 15 1 19l66 300l-85 -69q-20 -17 -47 -17q-30 0 -51.5 21.5t-21.5 52.5q0 35 27 57l247 199q29 23 65 23q44 0 72.5 -30t28.5 -75q0 -15 -1 -19l-107 -486q-8 -34 -34.5 -55.5t-62.5 -21.5q-42 0 -69.5 28.5t-27.5 72.5z" />
    <glyph glyph-name="two" unicode="2" horiz-adv-x="593" 
d="M-17 110q0 32 16.5 58t44.5 41q132 67 221 114q73 40 104.5 68.5t31.5 57.5q0 24 -26.5 38t-69.5 14q-54 0 -104 -22q-13 -7 -34 -7q-35 0 -60 25t-25 60q0 25 13.5 46t34.5 31q90 43 191 43q123 0 206.5 -58.5t83.5 -154.5q0 -87 -70.5 -156.5t-226.5 -131.5h138
q36 0 62 -25.5t26 -62.5t-26 -62.5t-62 -25.5h-359q-44 0 -78 32q-32 32 -32 78z" />
    <glyph glyph-name="three" unicode="3" horiz-adv-x="597" 
d="M26 60q-38 26 -38 73q0 37 25 63t64 26q29 0 49 -14q74 -50 158 -50q37 0 57.5 14.5t20.5 36.5q0 21 -20 31.5t-75 10.5h-2q-34 0 -59 25t-25 59q0 35 25 60t60 24h38q54 0 77.5 9t23.5 31t-29.5 35.5t-80.5 13.5q-45 0 -102 -20q-13 -6 -29 -6q-32 0 -55.5 23.5
t-23.5 56.5q0 23 12.5 42.5t33.5 29.5q90 43 185 43q139 0 218.5 -48t79.5 -132q0 -54 -55 -101t-125 -58q127 -31 127 -149q2 -86 -81 -144.5t-194 -56.5q-154 0 -260 72z" />
    <glyph glyph-name="four" unicode="4" horiz-adv-x="626" 
d="M605 195q0 -37 -26 -62.5t-62 -25.5h-16l-9 -39q-7 -34 -36.5 -56t-71.5 -22q-37 0 -64.5 24t-27.5 59l2 16l4 18h-144q-59 0 -101 35.5t-42 85.5q0 45 34 86l247 302q51 61 128 61q69 0 117 -49t48 -118q0 -16 -3 -34l-43 -195q28 -6 47 -30.5t19 -55.5zM337 283l47 210
l-173 -210h126z" />
    <glyph glyph-name="five" unicode="5" horiz-adv-x="605" 
d="M18 121q0 37 25.5 64t63.5 27q27 0 49 -15q62 -39 135 -39q41 0 63.5 18.5t22.5 44.5q0 25 -27.5 42t-71.5 17t-78 -21q-19 -13 -50 -13q-41 0 -67.5 28t-26.5 70q0 13 1 17l46 212q21 94 117 94h320q35 0 59.5 -24.5t24.5 -59.5q0 -34 -24.5 -59t-59.5 -25h-261
l-22 -102q49 37 131 37q90 0 145 -49q56 -50 56 -137q0 -109 -83.5 -184.5t-213.5 -75.5q-134 0 -230 57q-44 24 -44 76z" />
    <glyph glyph-name="six" unicode="6" horiz-adv-x="632" 
d="M425 677q84 0 154 -29q55 -23 55 -81q0 -36 -24.5 -62.5t-63.5 -26.5q-18 0 -37 8q-47 21 -95 21t-89.5 -24t-59.5 -61q-8 -15 -13 -36q55 55 155 55q95 0 158 -51.5t63 -136.5q2 -106 -89 -186.5t-207 -78.5q-136 0 -216 72q-79 72 -79 199q0 184 107 301t281 117z
M310 289q-42 0 -74 -18q-2 -10 -2 -25q0 -38 29.5 -63t70.5 -25q35 0 59 17.5t24 46.5t-31 48t-76 19z" />
    <glyph glyph-name="seven" unicode="7" horiz-adv-x="575" 
d="M132 86q0 28 16 53l227 352h-204q-36 0 -62 25.5t-26 62.5t26 62.5t62 25.5h392q35 0 59 -24.5t24 -58.5q0 -25 -13 -44l-322 -505q-27 -45 -82 -45q-41 0 -69 28.5t-28 67.5z" />
    <glyph glyph-name="eight" unicode="8" horiz-adv-x="640" 
d="M177 363q-39 21 -62.5 55t-23.5 73q0 90 84.5 138t203.5 48q119 1 206 -45.5t86 -132.5q0 -61 -42.5 -108t-114.5 -65q97 -58 97 -145q2 -59 -42 -104.5t-112.5 -67.5t-147.5 -21q-127 0 -213.5 47.5t-86.5 139.5q0 61 43.5 111.5t124.5 76.5zM368 513q-31 0 -52.5 -12.5
t-21.5 -32.5q0 -19 19 -34t49 -21q42 1 67.5 16t25.5 35q0 22 -24.5 35.5t-62.5 13.5zM328 263q-48 -2 -77 -18.5t-29 -43.5q0 -49 94 -49q41 0 65.5 14t24.5 35q0 46 -78 62z" />
    <glyph glyph-name="nine" unicode="9" horiz-adv-x="633" 
d="M245 -11q-84 0 -154 29q-55 23 -55 81q0 36 24.5 62.5t63.5 26.5q18 0 37 -8q46 -21 95 -21q48 0 89.5 24t59.5 61q8 15 13 36q-55 -55 -155 -55q-95 0 -158 51.5t-63 136.5q-2 106 89 186.5t207 78.5q136 0 216 -72q79 -72 79 -199q0 -184 -107 -301t-281 -117zM360 377
q42 0 74 18q2 10 2 25q0 38 -29.5 63t-70.5 25q-35 0 -59 -17.5t-24 -46.5t31 -48t76 -19z" />
    <glyph glyph-name="colon" unicode=":" horiz-adv-x="283" 
d="M181 491q40 0 68.5 -29t28.5 -70q0 -47 -35 -81.5t-82 -34.5q-40 0 -68.5 29t-28.5 70q0 47 35 81.5t82 34.5zM118 202q40 0 68.5 -29t28.5 -70q0 -47 -35 -81.5t-82 -34.5q-40 0 -68.5 29t-28.5 70q0 47 35 81.5t82 34.5z" />
    <glyph glyph-name="semicolon" unicode=";" horiz-adv-x="283" 
d="M181 491q40 0 68.5 -29t28.5 -70q0 -47 -35 -81.5t-82 -34.5q-40 0 -68.5 29t-28.5 70q0 47 35 81.5t82 34.5zM42 -138q-17 0 -29 12.5t-12 29.5q0 23 20 35q57 35 73 66q-2 -1 -13 -1q-36 0 -58.5 22.5t-22.5 62.5q0 44 36.5 78.5t81.5 34.5q43 0 72.5 -29t29.5 -76
q0 -62 -43 -123q-43 -63 -113 -106q-9 -6 -22 -6z" />
    <glyph glyph-name="less" unicode="&#x3c;" horiz-adv-x="510" 
d="M39 328q0 29 16 52t43 33l372 136q9 3 20 3q23 0 39 -16t16 -39q0 -40 -38 -53l-341 -115l269 -104q38 -15 38 -56q0 -25 -17.5 -42t-42.5 -17q-11 0 -24 5l-296 129q-24 11 -39 34t-15 50z" />
    <glyph glyph-name="equal" unicode="=" horiz-adv-x="510" 
d="M59 426q0 21 15.5 36.5t37.5 15.5h365q22 0 37.5 -15.5t15.5 -36.5q0 -22 -15.5 -37.5t-37.5 -15.5h-365q-22 0 -37.5 15.5t-15.5 37.5zM19 242q0 22 15.5 37.5t37.5 15.5h365q22 0 37.5 -15.5t15.5 -36.5q0 -22 -15.5 -37.5t-37.5 -15.5h-365q-22 0 -37.5 15.5
t-15.5 36.5z" />
    <glyph glyph-name="greater" unicode="&#x3e;" horiz-adv-x="510" 
d="M59 118q-23 0 -39 16t-16 39q0 41 38 53l342 113l-270 106q-38 15 -38 56q0 25 17.5 42t42.5 17q11 0 24 -5l296 -129q24 -11 39 -33.5t15 -49.5q0 -29 -16.5 -52.5t-42.5 -33.5l-373 -136q-9 -3 -19 -3z" />
    <glyph glyph-name="question" unicode="?" horiz-adv-x="450" 
d="M159 261q-20 26 -20 56q0 45 28 75t83 57q24 13 31.5 18.5t7.5 13.5q0 20 -42 20q-21 0 -41 -7q-12 -3 -26 -3q-34 0 -58.5 24.5t-24.5 58.5q0 25 14 46.5t37 30.5q64 26 132 26q94 0 158 -40t64 -109q-3 -68 -30.5 -102t-88.5 -67q-58 -32 -73 -66l-6 -15l-7 -13
q-24 -35 -70 -35q-20 0 -39.5 9t-28.5 22zM205 202q40 0 68.5 -29t28.5 -70q0 -47 -35 -81.5t-82 -34.5q-40 0 -68.5 29t-28.5 70q0 47 35 81.5t82 34.5z" />
    <glyph glyph-name="at" unicode="@" horiz-adv-x="783" 
d="M640 397l-28 -134q-2 -18 -2 -22q0 -38 28 -38q32 0 55.5 38.5t23.5 101.5q0 115 -72.5 183t-196.5 68q-89 2 -170.5 -47t-130.5 -130.5t-47 -169.5q0 -117 79 -195.5t198 -78.5q94 0 164 45q4 4 13 4t15 -6t6 -15q0 -11 -10 -17q-93 -54 -193 -54q-132 -2 -225.5 91
t-91.5 223q-3 99 54 192t150.5 148.5t192.5 53.5q137 2 227 -85.5t88 -209.5q1 -60 -20 -111t-54.5 -82t-72.5 -48t-76 -17q-84 0 -103 66l-2 7q-50 -73 -129 -73q-72 0 -114.5 48.5t-42.5 125.5q-2 92 66 166t151 72q86 0 123 -58q21 56 73 56q34 0 55 -20.5t21 -54.5
q0 -13 -2 -23zM452 250l19 95q-19 28 -58 28q-43 0 -70.5 -29.5t-27.5 -70.5q0 -29 17 -46.5t46 -17.5q42 0 74 41z" />
    <glyph glyph-name="A" unicode="A" horiz-adv-x="690" 
d="M649 91q0 -42 -29.5 -71.5t-71.5 -29.5q-40 0 -68.5 26.5t-32.5 65.5l-1 16h-247l-30 -56q-12 -24 -35.5 -38t-50.5 -14q-40 0 -69 28.5t-29 68.5q0 25 14 50l268 455q24 39 63.5 62t84.5 23q65 0 113 -42t57 -105l63 -424q1 -3 1 -15zM287 266h144l-21 233z" />
    <glyph glyph-name="B" unicode="B" horiz-adv-x="697" 
d="M22 85q0 18 4 33l100 455q21 94 117 94h275q92 0 142.5 -49t50.5 -117q0 -62 -45.5 -113.5t-104.5 -56.5q45 -12 70 -49t25 -83q0 -80 -60 -139.5t-177 -59.5h-299q-47 0 -72.5 22t-25.5 63zM457 503h-144l-19 -84h150q26 0 39 13.5t13 34.5q0 36 -39 36zM414 255h-156
l-20 -91h156q27 0 44 14.5t17 35.5q0 18 -11.5 29.5t-29.5 11.5z" />
    <glyph glyph-name="C" unicode="C" horiz-adv-x="667" 
d="M429 678q169 0 260 -109q23 -29 23 -64q0 -41 -29.5 -70t-70.5 -29q-48 0 -80 40q-39 54 -112 54q-77 0 -130 -57.5t-53 -134.5q0 -59 42 -100.5t108 -41.5q54 0 100 38q26 20 58 20q38 0 64.5 -26.5t26.5 -64.5q0 -47 -37 -73q-97 -72 -223 -72q-145 -2 -247.5 85
t-100.5 221q-3 166 115 276t286 108z" />
    <glyph glyph-name="D" unicode="D" horiz-adv-x="736" 
d="M22 85q0 18 4 33l100 455q21 94 117 94h197q116 2 210.5 -82t91.5 -206q0 -57 -15 -110t-49 -103t-84.5 -86.5t-127 -58.5t-169.5 -21h-177q-47 0 -72.5 22t-25.5 63zM533 364q0 55 -36.5 91t-93.5 36h-93l-69 -315h93q90 0 144.5 54t54.5 134z" />
    <glyph glyph-name="E" unicode="E" 
d="M22 85q0 18 4 33l100 455q21 94 117 94h316q35 0 59.5 -24.5t24.5 -59.5q0 -34 -24.5 -59t-59.5 -25h-247l-17 -78h203q35 0 59.5 -24.5t24.5 -59.5q0 -34 -24.5 -59t-59.5 -25h-240l-19 -85h210q35 0 59.5 -24.5t24.5 -59.5q0 -34 -24.5 -59t-59.5 -25h-329
q-47 0 -72.5 22t-25.5 63z" />
    <glyph glyph-name="F" unicode="F" horiz-adv-x="592" 
d="M22 88q0 12 2 22l102 463q21 94 117 94h316q35 0 59.5 -24.5t24.5 -59.5q0 -34 -24.5 -59t-59.5 -25h-247l-17 -78h203q35 0 59.5 -24.5t24.5 -59.5q0 -34 -24.5 -59t-59.5 -25h-240l-41 -186q-8 -34 -34.5 -55.5t-61.5 -21.5q-42 0 -70.5 28.5t-28.5 69.5z" />
    <glyph glyph-name="G" unicode="G" horiz-adv-x="726" 
d="M703 317q0 -12 -4 -32l-18 -82q-23 -95 -62 -128q-101 -87 -243 -87q-143 -2 -246.5 83.5t-101.5 222.5q-3 164 117 275t304 109q119 0 202 -66q37 -31 37 -76q0 -40 -28 -69.5t-70 -29.5q-37 0 -66 26q-43 37 -104 37q-76 0 -129.5 -56.5t-53.5 -135.5q0 -57 41.5 -99.5
t108.5 -42.5q55 0 96 30l6 30h-35q-34 0 -58.5 24.5t-24.5 58.5q0 32 25 57.5t58 25.5h177q35 0 53.5 -20.5t18.5 -54.5z" />
    <glyph glyph-name="H" unicode="H" horiz-adv-x="751" 
d="M464 91q0 15 1 19l32 145h-239l-41 -188q-8 -34 -34.5 -55.5t-62.5 -21.5q-43 0 -70 28.5t-27 72.5q0 14 1 19l108 490q8 34 34.5 55.5t61.5 21.5q43 0 70.5 -28.5t27.5 -72.5q0 -15 -1 -19l-28 -126h239l37 169q8 34 34.5 55.5t62.5 21.5q42 0 69.5 -28.5t27.5 -72.5
q0 -15 -1 -19l-108 -490q-8 -34 -34.5 -55.5t-62.5 -21.5q-42 0 -69.5 28.5t-27.5 72.5z" />
    <glyph glyph-name="I" unicode="I" horiz-adv-x="310" 
d="M22 87q0 13 2 23l108 490q8 34 34.5 55.5t61.5 21.5q41 0 70.5 -28t29.5 -68q0 -12 -3 -24l-108 -490q-8 -34 -34.5 -55.5t-61.5 -21.5q-42 0 -70.5 28t-28.5 69z" />
    <glyph glyph-name="J" unicode="J" horiz-adv-x="498" 
d="M-7 90q0 38 26.5 64t63.5 26q18 0 33 -6q22 -8 40 -8q68 0 85 75l79 359q8 34 34.5 55.5t61.5 21.5q42 0 71 -28t29 -69q0 -11 -3 -23l-71 -319q-29 -131 -93 -190.5t-178 -59.5q-59 0 -115 17q-28 9 -45.5 32t-17.5 53z" />
    <glyph glyph-name="K" unicode="K" horiz-adv-x="651" 
d="M681 588q0 -39 -27 -63l-201 -168l140 -217q11 -17 11 -47q0 -43 -30 -73t-73 -30q-59 0 -94 62l-109 191l-55 -58l-26 -118q-8 -34 -34.5 -55.5t-61.5 -21.5q-42 0 -70.5 28.5t-28.5 69.5q0 12 2 22l108 490q8 34 34.5 55.5t61.5 21.5q41 0 70.5 -28t29.5 -68
q0 -12 -3 -24l-28 -128l230 219q32 29 65 29q37 0 63 -26t26 -63z" />
    <glyph glyph-name="L" unicode="L" horiz-adv-x="526" 
d="M22 84q0 18 4 33l106 483q8 34 34.5 55.5t62.5 21.5q41 0 70 -28t29 -68q0 -12 -3 -24l-84 -381h154q36 0 62 -25.5t26 -62.5t-26 -62.5t-62 -25.5h-275q-47 0 -72.5 22t-25.5 62z" />
    <glyph glyph-name="M" unicode="M" horiz-adv-x="900" 
d="M613 91q0 15 1 19l64 291l-226 -383q-18 -28 -50 -28q-21 0 -37.5 14t-19.5 35l-55 362l-73 -334q-8 -34 -34.5 -55.5t-62.5 -21.5q-42 0 -70.5 27.5t-28.5 68.5q0 12 3 24l97 441q12 55 56 90.5t101 35.5q61 0 105 -40q46 -39 54 -98l28 -192l149 253q21 36 56.5 56.5
t77.5 20.5q65 0 110.5 -45.5t45.5 -108.5q0 -20 -4 -35l-93 -421q-8 -34 -34.5 -55.5t-62.5 -21.5q-42 0 -69.5 28.5t-27.5 72.5z" />
    <glyph glyph-name="N" unicode="N" horiz-adv-x="750" 
d="M419 67l-135 309l-67 -309q-8 -34 -34.5 -55.5t-62.5 -21.5q-42 0 -70.5 27.5t-28.5 68.5q0 12 3 24l101 459q11 47 48.5 77.5t86.5 30.5q42 0 76.5 -23t50.5 -60l122 -281l63 287q8 34 34.5 55.5t61.5 21.5q42 0 70.5 -28t28.5 -69q0 -13 -2 -23l-103 -466
q-10 -43 -45 -72t-80 -29q-39 0 -71 21t-47 56z" />
    <glyph glyph-name="O" unicode="O" horiz-adv-x="766" 
d="M429 678q147 2 248 -85.5t99 -218.5q2 -159 -115 -274t-285 -112q-147 -2 -248.5 86t-99.5 220q-3 159 114.5 272.5t286.5 111.5zM417 500q-77 0 -128.5 -57t-51.5 -135q0 -62 41.5 -102t108.5 -40q77 0 128.5 57t51.5 135q0 62 -41.5 102t-108.5 40z" />
    <glyph glyph-name="P" unicode="P" horiz-adv-x="662" 
d="M21 86q0 12 3 24l102 463q21 94 117 94h239q94 0 153.5 -56.5t59.5 -140.5q0 -34 -9.5 -69.5t-32 -71t-56 -63t-85 -44.5t-113.5 -16h-152l-30 -139q-8 -34 -34.5 -55.5t-62.5 -21.5q-42 0 -70.5 27.5t-28.5 68.5zM486 449q0 50 -61 50h-113l-26 -117h119q38 0 59.5 18.5
t21.5 48.5z" />
    <glyph glyph-name="Q" unicode="Q" horiz-adv-x="766" 
d="M627 70q7 -15 7 -35q0 -49 -46 -75q-21 -12 -47 -12q-44 0 -68 40l-5 9q-45 -9 -92 -9q-147 -2 -248.5 86t-99.5 220q-3 159 114.5 272.5t286.5 111.5q147 2 248 -85.5t99 -218.5q0 -90 -39.5 -170t-109.5 -134zM371 167q-10 20 -10 41q0 49 50 75q20 11 43 11
q48 0 70 -40l7 -12q36 50 36 116q0 62 -41.5 102t-108.5 40q-77 0 -128.5 -57t-51.5 -135q0 -58 37 -97.5t97 -43.5z" />
    <glyph glyph-name="R" unicode="R" horiz-adv-x="678" 
d="M541 229l50 -84q14 -26 14 -51q0 -43 -28.5 -73.5t-74.5 -30.5q-67 0 -94 57l-80 167h-79l-32 -147q-8 -34 -34.5 -55.5t-62.5 -21.5q-42 0 -70.5 27t-28.5 68q0 13 3 25l102 463q21 94 117 94h228q94 0 159 -56.5t65 -145.5q0 -80 -44 -145q-43 -64 -110 -91zM312 499
l-26 -117h118q38 0 60 16.5t22 46.5q0 25 -16 39.5t-43 14.5h-115z" />
    <glyph glyph-name="S" unicode="S" horiz-adv-x="613" 
d="M10 135q0 38 26.5 65t64.5 27q29 0 51 -15q80 -54 177 -54q56 0 56 33q0 16 -19.5 28.5t-64.5 27.5q-59 19 -112 44q-118 57 -118 174q-2 78 77 146t204 66q115 0 212 -53q47 -27 47 -79q0 -37 -26.5 -63.5t-63.5 -26.5q-26 0 -46 13q-70 42 -145 42q-52 0 -52 -34
q0 -14 20 -26t65 -27q100 -31 166 -78q66 -46 66 -130q0 -96 -77.5 -161.5t-201.5 -65.5q-151 0 -263 70q-43 28 -43 77z" />
    <glyph glyph-name="T" unicode="T" horiz-adv-x="595" 
d="M172 86q0 12 3 24l84 381h-88q-36 0 -62 25.5t-26 62.5t26 62.5t62 25.5h400q36 0 62 -25.5t26 -62.5t-26 -62.5t-62 -25.5h-110l-93 -424q-8 -34 -34.5 -55.5t-62.5 -21.5q-42 0 -70.5 27.5t-28.5 68.5z" />
    <glyph glyph-name="U" unicode="U" horiz-adv-x="749" 
d="M60 274l72 325q8 34 35.5 56t62.5 22q43 0 71.5 -27.5t28.5 -69.5q0 -12 -3 -25l-61 -276q-2 -14 -2 -24q1 -38 28.5 -64.5t74.5 -26.5q105 0 130 115l71 320q8 34 35.5 56t62.5 22q43 0 71.5 -27.5t28.5 -69.5q0 -12 -3 -25l-62 -280q-29 -133 -108 -210
q-80 -77 -226 -77q-151 0 -231.5 65t-80.5 179q0 20 5 42z" />
    <glyph glyph-name="V" unicode="V" horiz-adv-x="690" 
d="M144 137l-62 418q-1 3 -1 15q0 45 30.5 76t75.5 31q41 0 71.5 -28t34.5 -68l36 -363l220 406q13 24 37 38.5t52 14.5q44 0 72 -31q30 -30 30 -71q0 -27 -14 -52l-264 -449q-23 -39 -63 -61.5t-85 -22.5q-65 0 -113 42t-57 105z" />
    <glyph glyph-name="W" unicode="W" horiz-adv-x="934" 
d="M498 118l-2 260l-139 -311q-15 -35 -47.5 -56t-71.5 -21q-52 0 -90 35q-37 35 -40 87l-30 451q-3 46 29 80t77 34q44 0 76 -32t31 -76l-3 -310l171 366q11 23 33.5 37.5t49.5 14.5q37 0 63.5 -26t27.5 -63l9 -329l153 356q11 27 37 44.5t56 17.5q44 0 73 -30.5t29 -72.5
q0 -21 -11 -45l-237 -469q-16 -31 -47.5 -50.5t-67.5 -19.5q-53 0 -91 38t-38 90z" />
    <glyph glyph-name="X" unicode="X" horiz-adv-x="644" 
d="M683 583q0 -38 -23 -61l-193 -190l121 -196q14 -23 14 -47q0 -40 -33 -70q-32 -29 -74 -29q-55 0 -94 61l-91 145l-170 -172q-31 -34 -72 -34q-39 0 -66.5 27.5t-27.5 65.5t23 61l211 208l-112 180q-13 19 -13 44q0 39 32 70t74 31q54 0 94 -62l81 -132l151 158
q35 36 74 36t66.5 -27.5t27.5 -66.5z" />
    <glyph glyph-name="Y" unicode="Y" horiz-adv-x="644" 
d="M689 529l-261 -265l-43 -197q-8 -34 -34.5 -55.5t-62.5 -21.5q-41 0 -70 28t-29 68q0 12 3 24l35 157l-135 274q-10 19 -10 40q0 39 30 67.5t72 28.5q62 0 94 -68l81 -174l190 207q32 35 71 35q38 0 64 -26t26 -64q0 -35 -21 -58z" />
    <glyph glyph-name="Z" unicode="Z" horiz-adv-x="600" 
d="M-5 98q0 40 28 68l311 325h-145q-36 0 -62 25.5t-26 62.5t26 62.5t62 25.5h350q40 0 69 -28.5t29 -68.5q0 -39 -27 -68l-313 -326h153q36 0 62 -25.5t26 -62.5t-26 -62.5t-62 -25.5h-357q-40 0 -69 29t-29 69z" />
    <glyph glyph-name="bracketleft" unicode="[" horiz-adv-x="317" 
d="M-27 -124q0 1 2 15l163 733q6 25 24.5 39.5t41.5 14.5h132q23 0 39.5 -17t16.5 -40t-16.5 -40t-39.5 -17h-86l-142 -640h61q23 0 39.5 -17t16.5 -40t-16.5 -40t-39.5 -17h-129q-29 0 -48 19.5t-19 46.5z" />
    <glyph glyph-name="backslash" unicode="\" horiz-adv-x="362" 
d="M166 697q24 0 42 -16t20 -39l68 -603q3 -28 -15.5 -48.5t-45.5 -20.5q-24 0 -42 16t-20 39l-68 603q-3 28 15.5 48.5t45.5 20.5z" />
    <glyph glyph-name="bracketright" unicode="]" horiz-adv-x="317" 
d="M-75 -133q0 23 16.5 40t39.5 17h86l142 640h-61q-23 0 -39.5 17t-16.5 40t16.5 40t39.5 17h129q29 0 48 -19.5t19 -46.5q0 -1 -2 -15l-163 -733q-6 -25 -24.5 -39.5t-41.5 -14.5h-132q-23 0 -39.5 17t-16.5 40z" />
    <glyph glyph-name="asciicircum" unicode="^" horiz-adv-x="450" 
d="M324 372l-26 176l-117 -198q-15 -27 -48 -27q-22 0 -38.5 16.5t-16.5 38.5q0 16 9 30l149 229q26 40 73 40q32 0 56.5 -20.5t30.5 -50.5l42 -214q1 -3 1 -11q0 -24 -16.5 -41t-41.5 -17q-22 0 -38 14t-19 35z" />
    <glyph glyph-name="underscore" unicode="_" horiz-adv-x="564" 
d="M-87 -97q0 23 17 40t40 17h473q23 0 40 -17t17 -40t-17 -40t-40 -17h-473q-23 0 -40 17t-17 40z" />
    <glyph glyph-name="grave" unicode="`" horiz-adv-x="275" 
d="M223 566l-60 69q-12 15 -12 35q0 21 16.5 36.5t36.5 15.5q29 0 44 -24l51 -80q7 -10 7 -21q0 -19 -13.5 -33t-32.5 -14q-24 0 -37 16z" />
    <glyph glyph-name="a" unicode="a" 
d="M579 403q0 -13 -1 -17l-73 -328q-18 -80 -95 -80q-29 0 -54 20.5t-33 51.5q-56 -62 -130 -62q-84 0 -132 53t-48 148q-1 72 28 141.5t89.5 118t137.5 46.5q97 0 140 -64q10 28 32.5 45t51.5 17q38 0 62.5 -25.5t24.5 -64.5zM352 180l28 123q-30 33 -80 33
q-43 0 -72 -31.5t-29 -77.5q0 -35 23 -57.5t57 -22.5q40 0 73 33z" />
    <glyph glyph-name="b" unicode="b" 
d="M582 294q1 -72 -28 -142t-89.5 -118t-137.5 -46q-97 0 -141 65q-10 -28 -32 -45.5t-51 -17.5q-37 0 -62.5 25.5t-25.5 62.5q0 2 2 18l113 512q7 30 31 49.5t55 19.5q38 0 62.5 -25.5t24.5 -64.5q0 -13 -1 -17l-31 -138q57 63 131 63q84 0 132 -53t48 -148zM396 256
q0 35 -23 57.5t-57 22.5q-40 0 -73 -33l-28 -123q30 -33 80 -33q43 0 72 31.5t29 77.5z" />
    <glyph glyph-name="c" unicode="c" horiz-adv-x="482" 
d="M306 495q77 0 130 -28q46 -25 46 -75q0 -34 -24.5 -58.5t-59.5 -24.5q-24 0 -44 13q-23 14 -50 14q-47 0 -77 -31.5t-30 -80.5q0 -33 26 -55t63 -22q22 0 43 10q13 7 33 7q32 0 54.5 -22.5t22.5 -54.5q0 -46 -42 -68q-59 -31 -129 -31q-115 0 -184 63t-69 161
q-2 117 84.5 201t206.5 82z" />
    <glyph glyph-name="d" unicode="d" 
d="M620 587q0 -13 -1 -17l-114 -512q-9 -37 -31.5 -58.5t-57.5 -21.5q-33 0 -58.5 22.5t-30.5 54.5q-60 -67 -134 -67q-84 0 -132 53t-48 148q-1 72 28 141.5t89.5 118t137.5 46.5q95 0 140 -63l39 176q7 30 31 49.5t55 19.5q38 0 62.5 -25.5t24.5 -64.5zM352 180l28 123
q-30 33 -80 33q-43 0 -72 -31.5t-29 -77.5q0 -35 23 -57.5t57 -22.5q40 0 73 33z" />
    <glyph glyph-name="e" unicode="e" horiz-adv-x="543" 
d="M302 495q95 0 159 -56t67 -155v-9q0 -37 -31.5 -63t-79.5 -26h-224v-1q0 -7 11 -20.5t35 -26.5t53 -13q28 0 65 8q14 2 16 2q28 0 47 -19.5t19 -46.5q0 -22 -12.5 -39.5t-32.5 -23.5q-54 -18 -115 -18q-121 0 -192 58q-72 58 -72 162q-2 116 82 202.5t205 84.5zM369 300
v3q0 17 -19.5 36t-54.5 19q-30 0 -54 -18t-31 -40h159z" />
    <glyph glyph-name="f" unicode="f" horiz-adv-x="371" 
d="M325 508l-6 -25h12q32 0 55 -23t23 -55t-23 -55t-55 -23h-46l-59 -268q-7 -30 -31 -49.5t-55 -19.5q-37 0 -62.5 26t-25.5 63q0 2 2 18l51 230q-31 3 -51 24.5t-20 53.5t23 55t55 23h27l6 25q18 76 73 122.5t132 46.5q27 0 54 -5q24 -4 39.5 -21.5t15.5 -41.5
q0 -29 -22.5 -49.5t-51.5 -16.5q-2 1 -10 1q-43 0 -50 -36z" />
    <glyph glyph-name="g" unicode="g" horiz-adv-x="595" 
d="M577 403q0 -13 -1 -17l-74 -333q-31 -139 -112 -194q-79 -55 -178 -55q-104 0 -182 38q-19 9 -30.5 28t-11.5 41q0 32 22.5 54.5t54.5 22.5q19 0 36 -10q51 -27 108 -27q88 0 113 102l6 25q-55 -65 -132 -65q-82 0 -132 48.5t-50 143.5q-2 114 69.5 203.5t180.5 86.5
q42 0 80 -17.5t63 -47.5q12 28 34 45.5t49 17.5q38 0 62.5 -25.5t24.5 -64.5zM356 206l20 91q-27 39 -85 39q-40 0 -65.5 -25t-25.5 -69q0 -30 23.5 -50t60.5 -20q41 0 72 34z" />
    <glyph glyph-name="h" unicode="h" horiz-adv-x="608" 
d="M343 75q0 11 2 21l35 163q5 25 5 32q0 45 -65 45q-38 0 -78 -37l-52 -240q-6 -29 -30.5 -49t-55.5 -20q-36 0 -62 25.5t-26 61.5q0 10 2 20l113 511q7 30 31 49.5t55 19.5q37 0 62 -24.5t25 -61.5q0 -11 -2 -21l-32 -142q37 34 71.5 50.5t80.5 16.5q73 0 116 -35t43 -92
q0 -14 -5 -39l-59 -270q-7 -30 -31 -49.5t-55 -19.5q-36 0 -62 24.5t-26 60.5z" />
    <glyph glyph-name="i" unicode="i" horiz-adv-x="280" 
d="M239 740q39 0 65 -25t26 -61q0 -51 -35 -83.5t-79 -32.5q-39 0 -65 25t-26 61q0 51 35 83.5t79 32.5zM15 76q0 11 2 21l73 327q7 30 31 49.5t55 19.5q37 0 62.5 -24.5t25.5 -61.5q0 -11 -2 -21l-73 -327q-7 -30 -31 -49.5t-55 -19.5q-37 0 -62.5 24.5t-25.5 61.5z" />
    <glyph glyph-name="j" unicode="j" horiz-adv-x="280" 
d="M125 624q0 51 35 83.5t79 32.5q39 0 65 -25t26 -61q0 -51 -35 -83.5t-79 -32.5q-39 0 -65 25t-26 61zM-124 -123q0 26 16.5 48t38.5 27l11 2q44 7 58 67l90 403q7 30 31 49.5t55 19.5q38 0 62 -25t24 -64q0 -14 -1 -18l-81 -365q-46 -217 -219 -217h-6q-33 0 -56 20.5
t-23 52.5z" />
    <glyph glyph-name="k" unicode="k" horiz-adv-x="557" 
d="M552 414q0 -36 -31 -61l-119 -95l81 -125q15 -23 15 -49q0 -38 -30 -66q-28 -28 -66 -28q-52 0 -91 66l-55 96l-57 -47l-10 -46q-7 -30 -31 -49.5t-55 -19.5q-36 0 -62 25.5t-26 61.5q0 10 2 20l113 511q7 30 31 49.5t55 19.5q38 0 62.5 -24t24.5 -61q0 -12 -2 -22
l-55 -251l167 147q29 27 60 27q33 0 56 -23t23 -56z" />
    <glyph glyph-name="l" unicode="l" horiz-adv-x="280" 
d="M15 77q0 10 2 20l113 511q7 30 31 49.5t55 19.5q36 0 62 -25.5t26 -61.5q0 -10 -2 -20l-113 -511q-7 -30 -31 -49.5t-55 -19.5q-36 0 -62 25.5t-26 61.5z" />
    <glyph glyph-name="m" unicode="m" horiz-adv-x="897" 
d="M871 367q0 -13 -5 -38l-60 -270q-7 -30 -31 -49.5t-55 -19.5q-39 0 -62.5 25.5t-23.5 65.5q0 13 3 30l36 164q2 14 2 15q0 21 -15.5 33.5t-40.5 12.5q-36 0 -69 -37l-53 -240q-7 -30 -31 -49.5t-55 -19.5q-41 0 -63.5 24.5t-22.5 64.5q0 20 4 35l36 161q0 2 0.5 5t1 5
t0.5 3.5v2.5q0 45 -57 45q-37 0 -68 -37l-53 -240q-7 -30 -31 -49.5t-55 -19.5q-37 0 -62.5 24.5t-25.5 61.5q0 11 2 21l73 328q9 35 31 56.5t54 21.5q36 0 61.5 -23.5t26.5 -58.5q38 38 70 56t79 18q63 0 104.5 -34t41.5 -58v-1q40 47 77.5 70t85.5 23q66 0 108 -35.5
t42 -92.5z" />
    <glyph glyph-name="n" unicode="n" horiz-adv-x="607" 
d="M580 367q0 -23 -4 -38l-60 -270q-7 -30 -31 -49.5t-55 -19.5q-40 0 -63 25t-23 66q0 12 4 32l35 160q2 16 2 17q0 23 -16 34.5t-42 11.5q-45 0 -85 -37l-53 -240q-7 -30 -31 -49.5t-55 -19.5q-37 0 -62.5 24.5t-25.5 61.5q0 11 2 21l73 328q9 35 31 56.5t54 21.5
q35 0 61.5 -22.5t29.5 -55.5q38 36 73.5 53t82.5 17q72 0 115 -34.5t43 -93.5z" />
    <glyph glyph-name="o" unicode="o" horiz-adv-x="577" 
d="M303 495q122 0 190 -63t68 -162q2 -113 -83 -199t-206 -83q-122 0 -190 63t-68 162q-2 112 83 198t206 84zM296 336q-43 0 -70.5 -33t-27.5 -81q0 -36 21.5 -55.5t59.5 -19.5q43 0 70.5 33t27.5 81q0 36 -21.5 55.5t-59.5 19.5z" />
    <glyph glyph-name="p" unicode="p" horiz-adv-x="595" 
d="M582 294q1 -72 -28 -142t-89.5 -118t-137.5 -46q-95 0 -140 63l-39 -176q-7 -30 -31 -49.5t-55 -19.5q-37 0 -62.5 24.5t-25.5 61.5q0 11 2 21l114 512q9 37 30.5 58.5t54.5 21.5q35 0 62.5 -21.5t33.5 -52.5q56 64 131 64q84 0 132 -53t48 -148zM396 256q0 35 -23 57.5
t-57 22.5q-40 0 -73 -33l-28 -123q30 -33 80 -33q43 0 72 31.5t29 77.5z" />
    <glyph glyph-name="q" unicode="q" horiz-adv-x="595" 
d="M580 407q0 -11 -2 -21l-114 -512q-7 -30 -31 -49t-55 -19q-37 0 -62 24.5t-25 61.5q0 11 2 21l31 138q-57 -63 -131 -63q-84 0 -132 53t-48 148q-1 72 28 141.5t89.5 118t137.5 46.5q97 0 140 -64q10 27 33 44.5t51 17.5q37 0 62.5 -24.5t25.5 -61.5zM352 180l28 123
q-30 33 -80 33q-43 0 -72 -31.5t-29 -77.5q0 -35 23 -57.5t57 -22.5q40 0 73 33z" />
    <glyph glyph-name="r" unicode="r" horiz-adv-x="390" 
d="M421 417q0 -40 -22.5 -65t-60.5 -25h-7q-52 0 -92 -37l-50 -231q-6 -29 -30.5 -49t-55.5 -20q-37 0 -62.5 24.5t-25.5 61.5q0 11 2 21l71 320q8 36 31.5 57t59.5 21q32 0 53 -20t26 -54q26 74 92 74q31 0 51 -21.5t20 -56.5z" />
    <glyph glyph-name="s" unicode="s" horiz-adv-x="490" 
d="M3 98q0 29 21 49.5t50 20.5q20 0 35 -9q76 -43 139 -43q31 0 31 21t-71 42q-75 21 -118 50q-46 31 -46 89q0 73 58.5 125t156.5 52q89 0 168 -41q36 -19 36 -59q0 -28 -19.5 -47.5t-47.5 -19.5q-16 0 -32 9q-53 29 -103 29q-37 0 -37 -21q0 -20 61 -35q73 -19 125 -50
q49 -30 49 -93q0 -78 -62 -128.5t-166 -50.5q-101 0 -190 48q-38 20 -38 62z" />
    <glyph glyph-name="t" unicode="t" horiz-adv-x="382" 
d="M285 327l-28 -127q0 -3 -0.5 -5.5t-1 -4.5t-0.5 -3.5v-2.5q0 -30 25 -36l17 -3q17 -3 30.5 -22.5t13.5 -41.5q0 -36 -22.5 -60t-60.5 -31q-14 -2 -31 -2q-75 0 -120 33t-45 91q0 21 4 36l40 180q-31 3 -51.5 24.5t-20.5 52.5q0 32 23 55t55 23h28l16 73q7 30 31 49.5
t55 19.5q36 0 62 -25.5t26 -61.5q0 -10 -2 -20l-8 -35h11q32 0 55 -23t23 -55t-23 -55t-55 -23h-46z" />
    <glyph glyph-name="u" unicode="u" horiz-adv-x="606" 
d="M590 407q0 -11 -2 -21l-73 -328q-9 -35 -31 -56.5t-54 -21.5q-35 0 -61.5 22.5t-29.5 55.5q-38 -36 -73.5 -53t-82.5 -17q-72 0 -115 34.5t-43 93.5q0 23 4 38l60 270q7 30 31 49.5t55 19.5q40 0 63 -25t23 -66q0 -12 -4 -32l-35 -160q-2 -16 -2 -17q0 -23 16 -34.5
t42 -11.5q45 0 85 37l53 240q7 30 31 49.5t55 19.5q37 0 62.5 -24.5t25.5 -61.5z" />
    <glyph glyph-name="v" unicode="v" horiz-adv-x="495" 
d="M525 410q0 -24 -13 -43l-195 -315q-40 -62 -111 -62q-48 0 -84 31t-44 78l-51 290q-1 3 -1 16q0 36 26 62t63 26q34 0 59.5 -23.5t29.5 -56.5l25 -208l140 246q23 42 72 42q35 0 59.5 -24.5t24.5 -58.5z" />
    <glyph glyph-name="w" unicode="w" horiz-adv-x="785" 
d="M404 104l-12 166l-108 -213q-15 -30 -44.5 -48.5t-65.5 -18.5q-49 0 -84 33t-38 81l-20 295q-2 38 24 66t63 28q36 0 61.5 -25t26.5 -61l4 -190l120 222q13 24 37.5 39t53.5 15q40 0 69 -26.5t33 -66.5l17 -183l105 227q10 22 31 35.5t46 13.5q35 0 59.5 -25t24.5 -59
q0 -22 -10 -38l-160 -314q-15 -30 -44.5 -48.5t-65.5 -18.5q-48 0 -83.5 33t-39.5 81z" />
    <glyph glyph-name="x" unicode="x" horiz-adv-x="481" 
d="M498 409q0 -34 -34 -64l-118 -104l74 -112q19 -28 19 -56q0 -35 -26.5 -59t-60.5 -24q-48 0 -82 57l-48 82l-112 -111q-28 -28 -59 -28q-32 0 -54.5 22.5t-22.5 53.5q0 43 36 75l123 112l-66 102q-18 25 -18 55q0 34 26.5 58.5t61.5 24.5q49 0 83 -58l40 -68l98 97
q29 29 60 29q35 0 57.5 -23.5t22.5 -60.5z" />
    <glyph glyph-name="y" unicode="y" horiz-adv-x="515" 
d="M38 -37h8q36 0 49 19l10 16l-65 391q-1 3 -1 15q0 36 26.5 62.5t63.5 26.5q34 0 59.5 -23.5t29.5 -56.5l22 -206l137 244q23 42 72 42q35 0 59 -24.5t24 -57.5q0 -22 -12 -43l-261 -428q-44 -74 -93 -104t-123 -32h-7q-33 0 -56.5 23.5t-23.5 56.5t24.5 56.5t57.5 22.5z
" />
    <glyph glyph-name="z" unicode="z" horiz-adv-x="486" 
d="M-12 79q0 35 25 57l203 191h-78q-32 0 -55 23t-23 55t23 55t55 23h281q31 0 53 -22t22 -53q0 -33 -24 -54l-210 -198h87q32 0 55 -23t23 -55t-23 -55t-55 -23h-280q-32 0 -55.5 23t-23.5 56z" />
    <glyph glyph-name="braceleft" unicode="{" horiz-adv-x="316" 
d="M-6 -40q0 12 2 24l31 141q4 16 4 26q0 27 -17 38q-24 18 -24 51q0 19 11.5 35t30.5 22q35 10 46 58l31 138q42 185 222 185h4q23 0 40 -17t17 -40t-17 -40t-40 -17h-25q-60 0 -76 -70l-38 -172q-19 -77 -66 -91q29 -17 29 -57q0 -11 -2 -25l-29 -131q-7 -35 -7 -40
q0 -23 13 -38.5t31 -15.5h2q24 0 40.5 -17.5t16.5 -39.5q0 -23 -17 -40t-40 -17h-8q-68 0 -116.5 43t-48.5 107z" />
    <glyph glyph-name="bar" unicode="|" horiz-adv-x="222" 
d="M74 27v613q0 23 17 40t40 17t40 -17t17 -40v-613q0 -23 -17 -40t-40 -17t-40 17t-17 40z" />
    <glyph glyph-name="braceright" unicode="}" horiz-adv-x="316" 
d="M321 528q0 -12 -2 -24l-31 -141q-4 -16 -4 -26q0 -27 17 -38q24 -18 24 -51q0 -19 -11.5 -35t-30.5 -22q-35 -10 -46 -58l-31 -138q-42 -185 -222 -185h-4q-23 0 -40 17t-17 40t17 40t40 17h25q60 0 76 70l38 172q19 77 66 91q-29 17 -29 57q0 11 2 25l29 131q7 35 7 40
q0 23 -13 38.5t-31 15.5h-2q-24 0 -40.5 17.5t-16.5 39.5q0 23 17 40t40 17h8q68 0 116.5 -43t48.5 -107z" />
    <glyph glyph-name="asciitilde" unicode="~" horiz-adv-x="518" 
d="M571 614q0 -1 -0.5 -3t-1 -5t-0.5 -6q-55 -199 -185 -199q-34 1 -56 10t-32.5 27t-14.5 34.5t-7 45.5q-4 45 -19 45q-17 0 -36.5 -35.5t-32.5 -88.5q-5 -18 -20.5 -30.5t-34.5 -12.5q-24 0 -40.5 17t-16.5 41q0 1 0.5 3t1 5t0.5 6q52 199 186 199q34 -1 56 -10
t32.5 -27.5t14.5 -35t7 -45.5q2 -26 6 -35.5t13 -9.5q17 0 37 36.5t33 89.5q5 18 20 29.5t34 11.5q24 0 40 -16.5t16 -40.5z" />
    <glyph glyph-name="uni00A0" unicode="&#xa0;" horiz-adv-x="255" 
 />
    <glyph glyph-name="exclamdown" unicode="&#xa1;" horiz-adv-x="283" 
d="M161 281q-40 0 -68.5 29t-28.5 70q0 47 35 81.5t82 34.5q40 0 68.5 -29t28.5 -70q0 -47 -35 -81.5t-82 -34.5zM206 162q0 -10 -1 -13l-41 -260q-5 -36 -32.5 -59.5t-64.5 -23.5q-42 0 -70.5 27.5t-28.5 68.5q0 18 4 30l71 252q8 27 30 44t50 17q35 0 59 -24t24 -59z" />
    <glyph glyph-name="cent" unicode="&#xa2;" horiz-adv-x="502" 
d="M197 224q0 -33 26 -55t63 -22q22 0 43 10q13 7 33 7q32 0 54.5 -22.5t22.5 -54.5q0 -46 -42 -68q-47 -24 -99 -29l-12 -52q-5 -21 -21.5 -34.5t-37.5 -13.5q-25 0 -43.5 18.5t-18.5 42.5l2 14l8 36q-75 22 -117.5 78.5t-42.5 132.5q0 113 77 193.5t192 88.5l7 33
q4 21 21 34.5t39 13.5q26 0 44 -18.5t18 -44.5q0 -9 -1 -12l-5 -21q15 -4 29 -12q46 -25 46 -75q0 -34 -24.5 -58.5t-59.5 -24.5q-24 0 -44 13q-23 14 -50 14q-47 0 -77 -31.5t-30 -80.5z" />
    <glyph glyph-name="sterling" unicode="&#xa3;" horiz-adv-x="581" 
d="M306 434q0 -20 7 -47l2 -8h76q23 0 38.5 -16t15.5 -39q0 -22 -15.5 -38t-38.5 -16h-82q-15 -37 -43 -69q-27 -31 -48 -42q31 13 61 13q27 0 50 -8q27 -8 47 -8q19 0 37 7q15 5 27 5q35 0 59 -26t24 -62q0 -27 -15.5 -49t-40.5 -31q-31 -12 -73 -12q-63 0 -118 15
q-66 16 -86 16q-25 0 -62 -14q-24 -10 -40 -10q-29 0 -49.5 20.5t-20.5 49.5q0 38 31 58q35 24 57 66q23 44 23 80v1h-40q-23 0 -38.5 16t-15.5 39t16 38.5t38 15.5h14q-16 42 -16 80q-2 91 83 155.5t198 62.5q108 0 178 -43q43 -26 43 -76q0 -38 -25.5 -65t-64.5 -27
q-40 0 -66 28q-19 21 -55 21q-32 0 -52 -23.5t-20 -57.5z" />
    <glyph glyph-name="currency" unicode="&#xa4;" horiz-adv-x="648" 
d="M661 536q0 -35 -25 -55l-38 -31q19 -42 19 -91q0 -99 -66 -176l15 -19q16 -20 16 -46q0 -31 -22 -53.5t-53 -22.5q-36 0 -58 27l-24 29q-48 -16 -100 -16q-75 0 -138 29l-53 -43q-18 -15 -41 -15q-31 0 -52 21t-21 51q0 31 25 53l40 33q-20 45 -20 94q0 99 65 177l-17 22
q-15 20 -15 45q0 31 22 53t53 22q38 0 60 -29l21 -28q51 17 103 17q80 0 142 -32l48 39q18 15 43 15q29 0 50 -20.5t21 -49.5zM334 239q45 0 73.5 30.5t28.5 76.5q0 37 -23 58.5t-66 21.5q-44 0 -72 -31t-28 -78q0 -36 23 -57t64 -21z" />
    <glyph glyph-name="yen" unicode="&#xa5;" horiz-adv-x="664" 
d="M720 587q0 -35 -21 -58l-157 -159h72q22 0 37 -15.5t15 -36.5q0 -22 -15 -37.5t-37 -15.5h-176l-12 -53h152q22 0 37.5 -15.5t15.5 -36.5q0 -22 -15.5 -37.5t-37.5 -15.5h-175l-8 -39q-7 -33 -34.5 -55.5t-62.5 -22.5q-40 0 -69.5 26.5t-29.5 65.5q0 12 1 15l2 10h-153
q-22 0 -37 15.5t-15 36.5q0 22 15 37.5t37 15.5h175l12 53h-152q-22 0 -37 15.5t-15 36.5q0 22 15 37.5t37 15.5h102l-84 171q-10 19 -10 40q0 39 30 67.5t72 28.5q62 0 94 -68l81 -174l190 207q32 35 71 35q38 0 64 -26t26 -64z" />
    <glyph glyph-name="brokenbar" unicode="&#xa6;" horiz-adv-x="222" 
d="M74 419v220q0 23 17 40t40 17t40 -17t17 -40v-220q0 -23 -17 -40t-40 -17t-40 17t-17 40zM74 28v221q0 23 17 40t40 17t40 -17t17 -40v-221q0 -23 -17 -40t-40 -17t-40 17t-17 40z" />
    <glyph glyph-name="section" unicode="&#xa7;" horiz-adv-x="500" 
d="M442 96q0 -77 -63.5 -127t-158.5 -50q-112 0 -199 45q-38 18 -38 61q0 28 20 48t48 20q20 0 37 -11q62 -41 132 -41q20 0 32 7.5t12 19.5q0 15 -16 24t-62 25q-45 16 -79 30q-75 36 -75 113q0 101 110 146q-55 31 -55 102q0 77 61.5 123t155.5 46q100 0 168 -33
q37 -18 37 -58q0 -27 -19 -46t-46 -19q-16 0 -30 8q-50 26 -103 26q-47 0 -47 -29q0 -12 16.5 -21t57.5 -21q42 -13 80 -29q79 -35 79 -111q0 -49 -30.5 -91.5t-76.5 -60.5q52 -32 52 -96zM213 295q0 -34 52 -48q21 5 33.5 21t12.5 34t-12.5 31t-31.5 17q-54 -8 -54 -55z
" />
    <glyph glyph-name="dieresis" unicode="&#xa8;" horiz-adv-x="433" 
d="M102 608q0 39 31 69t70 30q34 0 56.5 -22.5t22.5 -56.5q0 -39 -31 -69t-70 -30q-34 0 -56.5 22.5t-22.5 56.5zM318 608q0 39 31 69t70 30q34 0 56.5 -22.5t22.5 -56.5q0 -39 -31 -69t-70 -30q-34 0 -56.5 22.5t-22.5 56.5z" />
    <glyph glyph-name="copyright" unicode="&#xa9;" horiz-adv-x="778" 
d="M64 334q-3 139 101.5 243t242.5 102q140 2 244.5 -102t101.5 -243q3 -139 -101.5 -243.5t-244.5 -101.5q-138 -3 -242.5 101.5t-101.5 243.5zM712 334q3 121 -89.5 213t-214.5 90q-121 2 -212.5 -89.5t-89.5 -213.5q-2 -122 89 -213.5t213 -89.5q123 -2 215 89.5
t89 213.5zM204 307q-2 97 69 167.5t162 68.5q98 0 149 -62q7 -7 7 -18t-8 -19t-19 -8q-13 0 -22 10q-41 50 -110 50q-67 0 -120 -55t-53 -132q0 -58 37.5 -97.5t99.5 -39.5q53 0 98 37q7 5 15 5q10 0 17 -7t8 -17q0 -13 -10 -20q-58 -45 -129 -45q-85 0 -138 51.5t-53 130.5
z" />
    <glyph glyph-name="ordfeminine" unicode="&#xaa;" horiz-adv-x="417" 
d="M451 587q0 -8 -1 -11l-47 -213q-5 -21 -22 -34t-38 -13q-22 0 -39.5 14.5t-21.5 36.5q-39 -49 -91 -49q-53 0 -88 35t-35 96q0 85 49 142t118 57q66 0 96 -40q6 19 21.5 30.5t36.5 11.5q26 0 44 -19t18 -44zM292 435l22 101q-16 13 -43 13q-30 0 -51 -24.5t-21 -58.5
q0 -23 13.5 -35.5t36.5 -12.5q24 0 43 17z" />
    <glyph glyph-name="guillemotleft" unicode="&#xab;" horiz-adv-x="615" 
d="M136 82l-59 89q-18 25 -18 56q0 45 35 73l131 116q17 14 36 14q23 0 39 -16t16 -38q0 -24 -18 -41l-109 -97l56 -84q11 -17 11 -35q0 -27 -19 -46.5t-46 -19.5q-35 0 -55 29zM371 82l-59 89q-18 26 -18 56q0 45 35 73l131 116q17 14 36 14q23 0 39 -16t16 -38
q0 -24 -18 -41l-109 -97l56 -84q11 -17 11 -35q0 -27 -19 -46.5t-46 -19.5q-35 0 -55 29z" />
    <glyph glyph-name="logicalnot" unicode="&#xac;" horiz-adv-x="527" 
d="M423 179q-20 0 -35.5 17.5t-15.5 38.5q0 7 1 9l28 129h-289q-22 0 -37.5 15.5t-15.5 36.5q0 22 15.5 37.5t37.5 15.5h344q28 0 44.5 -17t16.5 -43q0 -2 -2 -16l-36 -164q-6 -31 -19 -45t-37 -14z" />
    <glyph glyph-name="uni00AD" unicode="&#xad;" horiz-adv-x="300" 
d="M21 242q0 31 22 53t53 22h108q31 0 53 -22t22 -53t-22 -53t-53 -22h-108q-31 0 -53 22t-22 53z" />
    <glyph glyph-name="registered" unicode="&#xae;" horiz-adv-x="494" 
d="M84 465q0 88 62 150t150 62t150 -62t62 -150t-62.5 -150t-150.5 -62q-87 0 -149 62t-62 150zM473 465q0 74 -52.5 125.5t-125.5 51.5t-124.5 -51.5t-51.5 -125.5q0 -72 52 -124.5t124 -52.5q73 0 125.5 52.5t52.5 124.5zM325 350l-39 89h-41l-19 -86q-2 -15 -18 -15
q-9 0 -14 6t-3 17l45 206q1 8 8 13.5t15 5.5h75q33 0 53 -18.5t20 -45.5q0 -33 -24.5 -57.5t-55.5 -24.5l34 -74l2 -8q0 -8 -6 -14t-14 -6q-12 0 -18 12zM325 555h-54l-19 -84h62q24 0 39 14t15 35q0 35 -43 35z" />
    <glyph glyph-name="overscore" unicode="&#xaf;" horiz-adv-x="363" 
d="M71 599q0 20 14.5 34.5t34.5 14.5h283q20 0 34.5 -14.5t14.5 -34.5q0 -19 -14.5 -33.5t-34.5 -14.5h-283q-20 0 -34.5 14.5t-14.5 33.5z" />
    <glyph glyph-name="degree" unicode="&#xb0;" horiz-adv-x="331" 
d="M80 528q0 61 43.5 105t104.5 44t105 -44t44 -105t-44 -104.5t-105 -43.5t-104.5 43.5t-43.5 104.5zM171 528q0 -24 16 -40.5t40 -16.5t42 16.5t18 40.5t-17.5 41.5t-41.5 17.5t-40.5 -17.5t-16.5 -41.5z" />
    <glyph glyph-name="plusminus" unicode="&#xb1;" horiz-adv-x="510" 
d="M331 328l-35 -159q-4 -19 -20 -31.5t-36 -12.5q-24 0 -40 16.5t-16 39.5q0 10 1 13l30 134h-113q-22 0 -37.5 15.5t-15.5 36.5q0 22 15.5 37.5t37.5 15.5h136l34 151q4 19 19.5 31.5t35.5 12.5q24 0 40.5 -17t16.5 -40q0 -9 -1 -12l-29 -126h113q22 0 37.5 -15.5
t15.5 -36.5q0 -22 -15.5 -37.5t-37.5 -15.5h-136zM-23 53q0 21 15.5 36.5t37.5 15.5h365q22 0 37.5 -15.5t15.5 -36.5q0 -22 -15.5 -37.5t-37.5 -15.5h-365q-22 0 -37.5 15.5t-15.5 37.5z" />
    <glyph glyph-name="uni00B2" unicode="&#xb2;" horiz-adv-x="387" 
d="M67 477q0 34 27 48q110 62 155.5 91t58 42t15.5 32q0 33 -51 33q-37 0 -80 -20q-11 -6 -23 -6q-21 0 -36 15t-15 36q0 31 28 46q66 33 132 33q81 0 131 -34.5t50 -89.5q0 -45 -40.5 -85t-140.5 -93h91q22 0 37 -15t15 -37t-15 -37t-37 -15h-246q-23 0 -39.5 16.5
t-16.5 39.5z" />
    <glyph glyph-name="uni00B3" unicode="&#xb3;" horiz-adv-x="387" 
d="M108 450q-28 15 -28 49q0 23 16.5 39.5t39.5 16.5q19 0 32 -10q39 -27 85 -27q45 0 45 28q0 26 -65 26h-2q-20 0 -33.5 15t-13.5 35q0 21 15 36t36 14h38q52 0 52 25q0 26 -66 26q-38 0 -71 -14q-6 -3 -18 -3q-19 0 -33 14t-14 33q0 29 24 42q62 32 126 32q87 0 137 -30
t50 -81q0 -38 -29 -66.5t-81 -31.5q78 -20 78 -87q0 -46 -46.5 -81.5t-121.5 -35.5q-88 0 -152 36z" />
    <glyph glyph-name="acute" unicode="&#xb4;" horiz-adv-x="275" 
d="M171 550q-18 0 -31 14t-13 30q0 23 15 35l83 79q16 14 37 14q20 0 35.5 -16t15.5 -38q0 -27 -20 -42l-92 -67q-15 -9 -30 -9z" />
    <glyph glyph-name="uni00B5" unicode="&#xb5;" horiz-adv-x="620" 
d="M62 -194q-37 0 -62.5 25t-25.5 61q0 11 2 21l117 512q7 29 30.5 48.5t54.5 19.5q40 0 63 -25t23 -66q0 -12 -4 -32l-35 -160q-2 -16 -2 -17q0 -23 15.5 -34.5t40.5 -11.5q44 0 85 38l52 239q6 29 30.5 49t55.5 20q37 0 62.5 -26t25.5 -63q0 -2 -2 -18l-46 -208
q-1 -1 -1 -7q0 -11 9 -18q9 -6 18 -19q18 -26 18 -54q0 -32 -20 -58t-51 -32q-14 -2 -30 -2q-121 0 -136 87q-57 -87 -137 -87q-25 0 -37 7l-28 -121q-7 -29 -30.5 -48.5t-54.5 -19.5z" />
    <glyph glyph-name="paragraph" unicode="&#xb6;" horiz-adv-x="449" 
d="M277 -72q0 6 1 8l145 651h-68l-148 -665q-8 -32 -39 -32q-16 0 -27.5 11t-11.5 27q0 6 1 8l86 387q-57 0 -97 44.5t-40 111.5q0 73 57 130.5t137 57.5h161q70 0 70 -61q0 -10 -3 -24l-146 -660q-8 -32 -39 -32q-16 0 -27.5 11t-11.5 27z" />
    <glyph glyph-name="middot" unicode="&#xb7;" horiz-adv-x="283" 
d="M151 353q40 0 68.5 -29t28.5 -70q0 -47 -35 -81.5t-82 -34.5q-40 0 -68.5 29t-28.5 70q0 47 35 81.5t82 34.5z" />
    <glyph glyph-name="cedilla" unicode="&#xb8;" horiz-adv-x="237" 
d="M-81 -143q0 15 11 26t26 11q10 0 18 -5q32 -21 66 -21q38 0 38 24q0 17 -22 17q-8 0 -15 -4t-16 -4q-15 0 -25.5 10.5t-10.5 24.5q0 10 5 18l34 57h80l-38 -58q13 9 29 9q25 0 42.5 -18t17.5 -47q0 -44 -33.5 -70.5t-84.5 -26.5q-58 0 -102 24q-20 12 -20 33z" />
    <glyph glyph-name="uni00B9" unicode="&#xb9;" horiz-adv-x="316" 
d="M196 475q0 1 0.5 3t1 5t0.5 6l35 161l-51 -41q-10 -10 -31 -10q-20 0 -34.5 14.5t-14.5 34.5q0 22 19 38l164 131q17 14 40 14q27 0 46 -19t19 -45l-2 -14l-64 -291q-5 -22 -22.5 -36.5t-40.5 -14.5q-27 0 -46 19t-19 45z" />
    <glyph glyph-name="ordmasculine" unicode="&#xba;" horiz-adv-x="405" 
d="M267 648q79 0 126.5 -41.5t47.5 -107.5q0 -77 -59.5 -129t-137.5 -52q-79 0 -126.5 41.5t-47.5 107.5q0 77 59.5 129t137.5 52zM264 546q-31 0 -47.5 -24t-16.5 -59q0 -45 47 -45q31 0 47.5 24t16.5 59q0 45 -47 45z" />
    <glyph glyph-name="guillemotright" unicode="&#xbb;" horiz-adv-x="615" 
d="M246 401l59 -89q18 -26 18 -56q0 -45 -35 -73l-131 -116q-17 -14 -36 -14q-23 0 -39 16t-16 38q0 25 18 41l109 97l-56 84q-11 17 -11 35q0 27 19 46.5t46 19.5q35 0 55 -29zM481 401l59 -89q18 -26 18 -56q0 -45 -35 -73l-131 -116q-17 -14 -36 -14q-23 0 -39 16t-16 38
q0 25 18 41l109 97l-56 84q-11 17 -11 35q0 27 19 46.5t46 19.5q35 0 55 -29z" />
    <glyph glyph-name="onequarter" unicode="&#xbc;" horiz-adv-x="843" 
d="M162 321l2 14l35 161l-51 -41q-10 -10 -31 -10q-20 0 -34.5 14.5t-14.5 34.5q0 22 19 38l164 131q17 14 40 14q27 0 46 -19t19 -45l-2 -14l-64 -291q-5 -22 -22.5 -36.5t-40.5 -14.5q-27 0 -46 19t-19 45zM161 -10q-15 0 -25.5 10.5t-10.5 26.5q0 13 8 24l528 613
q10 13 28 13q15 0 26 -10.5t11 -26.5q0 -14 -9 -24l-528 -613q-10 -13 -28 -13zM822 122q0 -21 -15 -36t-36 -15h-17l-6 -30q-5 -22 -22.5 -36.5t-40.5 -14.5q-27 0 -45.5 19t-18.5 45q0 10 1 13l1 4h-142q-21 0 -36 14.5t-15 35.5q0 18 16 37l173 214q32 38 81 38
q44 0 74 -29t30 -72q0 -11 -3 -25l-24 -111q19 -2 32 -17t13 -34zM646 173l25 114l-92 -114h67z" />
    <glyph glyph-name="onehalf" unicode="&#xbd;" horiz-adv-x="883" 
d="M162 321l2 14l35 161l-51 -41q-10 -10 -31 -10q-20 0 -34.5 14.5t-14.5 34.5q0 22 19 38l164 131q17 14 40 14q27 0 46 -19t19 -45l-2 -14l-64 -291q-5 -22 -22.5 -36.5t-40.5 -14.5q-27 0 -46 19t-19 45zM161 -10q-15 0 -25.5 10.5t-10.5 26.5q0 13 8 24l528 613
q10 13 28 13q15 0 26 -10.5t11 -26.5q0 -14 -9 -24l-528 -613q-10 -13 -28 -13zM470 56q0 34 27 48q110 62 155.5 91t58 42t15.5 32q0 33 -51 33q-37 0 -80 -20q-11 -6 -23 -6q-21 0 -36 15t-15 36q0 31 28 46q66 33 132 33q81 0 131 -34.5t50 -89.5q0 -45 -40.5 -85
t-140.5 -93h91q22 0 37 -15t15 -37t-15 -37t-37 -15h-246q-23 0 -39.5 16.5t-16.5 39.5z" />
    <glyph glyph-name="threequarters" unicode="&#xbe;" horiz-adv-x="914" 
d="M74 296q-28 15 -28 49q0 23 16.5 39.5t39.5 16.5q19 0 32 -10q39 -27 85 -27q45 0 45 28q0 26 -65 26h-2q-20 0 -33.5 15t-13.5 35q0 21 15 36t36 14h38q52 0 52 25q0 26 -66 26q-38 0 -71 -14q-6 -3 -18 -3q-19 0 -33 14t-14 33q0 29 24 42q62 32 126 32q87 0 137 -30
t50 -81q0 -38 -29 -66.5t-81 -31.5q78 -20 78 -87q0 -46 -46.5 -81.5t-121.5 -35.5q-88 0 -152 36zM232 -10q-15 0 -25.5 10.5t-10.5 26.5q0 13 8 24l528 613q10 13 28 13q15 0 26 -10.5t11 -26.5q0 -14 -9 -24l-528 -613q-10 -13 -28 -13zM893 122q0 -21 -15 -36t-36 -15
h-17l-6 -30q-5 -22 -22.5 -36.5t-40.5 -14.5q-27 0 -45.5 19t-18.5 45q0 10 1 13l1 4h-142q-21 0 -36 14.5t-15 35.5q0 18 16 37l173 214q32 38 81 38q44 0 74 -29t30 -72q0 -11 -3 -25l-24 -111q19 -2 32 -17t13 -34zM717 173l25 114l-92 -114h67z" />
    <glyph glyph-name="questiondown" unicode="&#xbf;" horiz-adv-x="401" 
d="M244 280q-40 0 -68.5 29t-28.5 70q0 47 35 81.5t82 34.5q40 0 68.5 -29t28.5 -70q0 -47 -35 -81.5t-82 -34.5zM290 221q20 -26 20 -56q0 -45 -28 -75t-83 -57q-24 -13 -31.5 -18.5t-7.5 -13.5q0 -20 42 -20q21 0 41 7q12 3 26 3q35 0 59 -24.5t24 -58.5q0 -25 -14 -46.5
t-37 -30.5q-64 -26 -132 -26q-94 0 -158 40t-64 109q3 68 30.5 102t88.5 67q58 32 73 66l6 15l7 13q24 35 70 35q20 0 39.5 -9t28.5 -22z" />
    <glyph glyph-name="Agrave" unicode="&#xc0;" horiz-adv-x="690" 
d="M649 91q0 -42 -29.5 -71.5t-71.5 -29.5q-40 0 -68.5 26.5t-32.5 65.5l-1 16h-247l-30 -56q-12 -24 -35.5 -38t-50.5 -14q-40 0 -69 28.5t-29 68.5q0 25 14 50l268 455q24 39 63.5 62t84.5 23q65 0 113 -42t57 -105l63 -424q1 -3 1 -15zM287 266h144l-21 233zM412 733
l-60 69q-12 15 -12 35q0 21 16.5 36.5t36.5 15.5q29 0 44 -24l51 -80q7 -10 7 -21q0 -19 -13.5 -33t-32.5 -14q-24 0 -37 16z" />
    <glyph glyph-name="Aacute" unicode="&#xc1;" horiz-adv-x="690" 
d="M649 91q0 -42 -29.5 -71.5t-71.5 -29.5q-40 0 -68.5 26.5t-32.5 65.5l-1 16h-247l-30 -56q-12 -24 -35.5 -38t-50.5 -14q-40 0 -69 28.5t-29 68.5q0 25 14 50l268 455q24 39 63.5 62t84.5 23q65 0 113 -42t57 -105l63 -424q1 -3 1 -15zM287 266h144l-21 233zM461 717
q-18 0 -31 14t-13 30q0 23 15 35l83 79q16 14 37 14q20 0 35.5 -16t15.5 -38q0 -27 -20 -42l-92 -67q-15 -9 -30 -9z" />
    <glyph glyph-name="Acircumflex" unicode="&#xc2;" horiz-adv-x="690" 
d="M649 91q0 -42 -29.5 -71.5t-71.5 -29.5q-40 0 -68.5 26.5t-32.5 65.5l-1 16h-247l-30 -56q-12 -24 -35.5 -38t-50.5 -14q-40 0 -69 28.5t-29 68.5q0 25 14 50l268 455q24 39 63.5 62t84.5 23q65 0 113 -42t57 -105l63 -424q1 -3 1 -15zM287 266h144l-21 233zM506 739
l-37 57l-67 -64q-16 -15 -33 -15q-18 0 -30 12.5t-12 29.5q0 16 10 26l33 40q35 42 86 42h55q49 0 67 -42l17 -40q4 -11 4 -18q0 -21 -14.5 -35.5t-36.5 -14.5q-26 0 -42 22z" />
    <glyph glyph-name="Atilde" unicode="&#xc3;" horiz-adv-x="690" 
d="M649 91q0 -42 -29.5 -71.5t-71.5 -29.5q-40 0 -68.5 26.5t-32.5 65.5l-1 16h-247l-30 -56q-12 -24 -35.5 -38t-50.5 -14q-40 0 -69 28.5t-29 68.5q0 25 14 50l268 455q24 39 63.5 62t84.5 23q65 0 113 -42t57 -105l63 -424q1 -3 1 -15zM287 266h144l-21 233zM399 764
q-14 0 -21 -19q-4 -13 -15.5 -20.5t-26.5 -7.5q-19 0 -31 12.5t-12 31.5q0 1 0.5 2.5t1 4.5t0.5 6q15 46 41.5 66.5t71.5 20.5q40 0 81 -26q30 -17 43 -17q14 0 21 19q12 28 41 28q19 0 31 -11.5t12 -30.5q0 -1 -2 -15q-15 -46 -41.5 -66.5t-71.5 -20.5q-38 0 -81 26
q-27 17 -42 17z" />
    <glyph glyph-name="Adieresis" unicode="&#xc4;" horiz-adv-x="690" 
d="M649 91q0 -42 -29.5 -71.5t-71.5 -29.5q-40 0 -68.5 26.5t-32.5 65.5l-1 16h-247l-30 -56q-12 -24 -35.5 -38t-50.5 -14q-40 0 -69 28.5t-29 68.5q0 25 14 50l268 455q24 39 63.5 62t84.5 23q65 0 113 -42t57 -105l63 -424q1 -3 1 -15zM287 266h144l-21 233zM270 775
q0 39 31 69t70 30q34 0 56.5 -22.5t22.5 -56.5q0 -39 -31 -69t-70 -30q-34 0 -56.5 22.5t-22.5 56.5zM486 775q0 39 31 69t70 30q34 0 56.5 -22.5t22.5 -56.5q0 -39 -31 -69t-70 -30q-34 0 -56.5 22.5t-22.5 56.5z" />
    <glyph glyph-name="Aring" unicode="&#xc5;" horiz-adv-x="690" 
d="M649 91q0 -42 -29.5 -71.5t-71.5 -29.5q-40 0 -68.5 26.5t-32.5 65.5l-1 16h-247l-30 -56q-12 -24 -35.5 -38t-50.5 -14q-40 0 -69 28.5t-29 68.5q0 25 14 50l268 455q24 39 63.5 62t84.5 23q65 0 113 -42t57 -105l63 -424q1 -3 1 -15zM287 266h144l-21 233zM478 910
q46 0 74 -28t28 -74q0 -50 -36 -86t-86 -36q-46 0 -74 28t-28 74q0 50 36 86t86 36zM470 832q-14 0 -25 -11t-11 -25t9 -23t23 -9t25 11t11 25t-9 23t-23 9z" />
    <glyph glyph-name="AE" unicode="&#xc6;" horiz-adv-x="969" 
d="M938 499h-247l-17 -78h203q35 0 59.5 -24.5t24.5 -59.5q0 -34 -24.5 -59t-59.5 -25h-240l-19 -85h210q35 0 59.5 -24.5t24.5 -59.5q0 -34 -24.5 -59t-59.5 -25h-329q-100 0 -100 72q0 12 3 26h-205l-53 -73q-24 -35 -69 -35q-36 0 -61.5 25.5t-25.5 61.5q0 28 20 54
l385 474q50 62 130 62h415q35 0 59.5 -24.5t24.5 -59.5q0 -34 -24.5 -59t-59.5 -25zM488 500l-169 -234h119z" />
    <glyph glyph-name="Ccedilla" unicode="&#xc7;" horiz-adv-x="667" 
d="M237 308q0 -59 42 -100.5t108 -41.5q54 0 100 38q26 20 58 20q38 0 64.5 -26.5t26.5 -64.5q0 -47 -37 -73q-97 -72 -223 -72q-21 0 -28 1l-23 -36q13 9 29 9q25 0 42.5 -18t17.5 -47q0 -44 -33.5 -70.5t-84.5 -26.5q-58 0 -102 24q-20 12 -20 33q0 15 11 26t26 11
q10 0 18 -5q32 -21 66 -21q38 0 38 24q0 17 -22 17q-8 0 -15 -4t-16 -4q-15 0 -25.5 10.5t-10.5 24.5q0 10 5 18l27 45q-110 25 -180 104q-68 80 -68 191q-3 166 115 276t286 108q169 0 260 -109q23 -29 23 -64q0 -41 -29.5 -70t-70.5 -29q-48 0 -80 40q-39 54 -112 54
q-77 0 -130 -57.5t-53 -134.5z" />
    <glyph glyph-name="Egrave" unicode="&#xc8;" 
d="M22 85q0 18 4 33l100 455q21 94 117 94h316q35 0 59.5 -24.5t24.5 -59.5q0 -34 -24.5 -59t-59.5 -25h-247l-17 -78h203q35 0 59.5 -24.5t24.5 -59.5q0 -34 -24.5 -59t-59.5 -25h-240l-19 -85h210q35 0 59.5 -24.5t24.5 -59.5q0 -34 -24.5 -59t-59.5 -25h-329
q-47 0 -72.5 22t-25.5 63zM381 733l-60 69q-12 15 -12 35q0 21 16.5 36.5t36.5 15.5q29 0 44 -24l51 -80q7 -10 7 -21q0 -19 -13.5 -33t-32.5 -14q-24 0 -37 16z" />
    <glyph glyph-name="Eacute" unicode="&#xc9;" 
d="M22 85q0 18 4 33l100 455q21 94 117 94h316q35 0 59.5 -24.5t24.5 -59.5q0 -34 -24.5 -59t-59.5 -25h-247l-17 -78h203q35 0 59.5 -24.5t24.5 -59.5q0 -34 -24.5 -59t-59.5 -25h-240l-19 -85h210q35 0 59.5 -24.5t24.5 -59.5q0 -34 -24.5 -59t-59.5 -25h-329
q-47 0 -72.5 22t-25.5 63zM430 717q-18 0 -31 14t-13 30q0 23 15 35l83 79q16 14 37 14q20 0 35.5 -16t15.5 -38q0 -27 -20 -42l-92 -67q-15 -9 -30 -9z" />
    <glyph glyph-name="Ecircumflex" unicode="&#xca;" 
d="M22 85q0 18 4 33l100 455q21 94 117 94h316q35 0 59.5 -24.5t24.5 -59.5q0 -34 -24.5 -59t-59.5 -25h-247l-17 -78h203q35 0 59.5 -24.5t24.5 -59.5q0 -34 -24.5 -59t-59.5 -25h-240l-19 -85h210q35 0 59.5 -24.5t24.5 -59.5q0 -34 -24.5 -59t-59.5 -25h-329
q-47 0 -72.5 22t-25.5 63zM475 739l-37 57l-67 -64q-17 -15 -33 -15q-18 0 -30 12.5t-12 29.5q0 16 10 26l33 40q35 42 86 42h55q49 0 67 -42l17 -40q4 -11 4 -18q0 -21 -15 -35.5t-36 -14.5q-26 0 -42 22z" />
    <glyph glyph-name="Edieresis" unicode="&#xcb;" 
d="M22 85q0 18 4 33l100 455q21 94 117 94h316q35 0 59.5 -24.5t24.5 -59.5q0 -34 -24.5 -59t-59.5 -25h-247l-17 -78h203q35 0 59.5 -24.5t24.5 -59.5q0 -34 -24.5 -59t-59.5 -25h-240l-19 -85h210q35 0 59.5 -24.5t24.5 -59.5q0 -34 -24.5 -59t-59.5 -25h-329
q-47 0 -72.5 22t-25.5 63zM239 775q0 39 31 69q32 30 70 30q34 0 56.5 -22.5t22.5 -56.5q0 -39 -31 -69q-32 -30 -70 -30q-34 0 -56.5 22.5t-22.5 56.5zM455 775q0 39 31 69q32 30 70 30q34 0 56.5 -22.5t22.5 -56.5q0 -39 -31 -69q-32 -30 -70 -30q-34 0 -56.5 22.5
t-22.5 56.5z" />
    <glyph glyph-name="Igrave" unicode="&#xcc;" horiz-adv-x="310" 
d="M22 87q0 13 2 23l108 490q8 34 34.5 55.5t61.5 21.5q41 0 70.5 -28t29.5 -68q0 -12 -3 -24l-108 -490q-8 -34 -34.5 -55.5t-61.5 -21.5q-42 0 -70.5 28t-28.5 69zM222 733l-60 69q-12 15 -12 35q0 21 16.5 36.5t36.5 15.5q29 0 44 -24l51 -80q7 -10 7 -21
q0 -19 -13.5 -33t-32.5 -14q-24 0 -37 16z" />
    <glyph glyph-name="Iacute" unicode="&#xcd;" horiz-adv-x="310" 
d="M22 87q0 13 2 23l108 490q8 34 34.5 55.5t61.5 21.5q41 0 70.5 -28t29.5 -68q0 -12 -3 -24l-108 -490q-8 -34 -34.5 -55.5t-61.5 -21.5q-42 0 -70.5 28t-28.5 69zM271 717q-18 0 -31 14t-13 30q0 23 15 35l83 79q16 14 37 14q20 0 35.5 -16t15.5 -38q0 -27 -20 -42
l-92 -67q-15 -9 -30 -9z" />
    <glyph glyph-name="Icircumflex" unicode="&#xce;" horiz-adv-x="310" 
d="M22 87q0 13 2 23l108 490q8 34 34.5 55.5t61.5 21.5q41 0 70.5 -28t29.5 -68q0 -12 -3 -24l-108 -490q-8 -34 -34.5 -55.5t-61.5 -21.5q-42 0 -70.5 28t-28.5 69zM316 739l-37 57l-67 -64q-16 -15 -33 -15q-18 0 -30 12.5t-12 29.5q0 16 10 26l33 40q35 42 86 42h55
q49 0 67 -42l17 -40q4 -11 4 -18q0 -21 -14.5 -35.5t-36.5 -14.5q-26 0 -42 22z" />
    <glyph glyph-name="Idieresis" unicode="&#xcf;" horiz-adv-x="310" 
d="M22 87q0 13 2 23l108 490q8 34 34.5 55.5t61.5 21.5q41 0 70.5 -28t29.5 -68q0 -12 -3 -24l-108 -490q-8 -34 -34.5 -55.5t-61.5 -21.5q-42 0 -70.5 28t-28.5 69zM80 775q0 39 31 69t70 30q34 0 56.5 -22.5t22.5 -56.5q0 -39 -31 -69t-70 -30q-34 0 -56.5 22.5
t-22.5 56.5zM296 775q0 39 31 69t70 30q34 0 56.5 -22.5t22.5 -56.5q0 -39 -31 -69t-70 -30q-34 0 -56.5 22.5t-22.5 56.5z" />
    <glyph glyph-name="Eth" unicode="&#xd0;" horiz-adv-x="757" 
d="M763 379q0 -57 -15 -110t-49 -103t-84.5 -86.5t-127 -58.5t-169.5 -21h-177q-47 0 -72.5 22t-25.5 63q0 18 4 33l30 139q-25 7 -42 28t-17 48q0 33 24 56.5t56 23.5h14l35 160q21 94 117 94h197q116 2 210.5 -82t91.5 -206zM554 364q0 55 -36.5 91t-93.5 36h-93l-17 -78
h39q32 0 56 -23.5t24 -56.5q0 -32 -24 -55.5t-56 -23.5h-74l-17 -78h93q90 0 144.5 54t54.5 134z" />
    <glyph glyph-name="Ntilde" unicode="&#xd1;" horiz-adv-x="750" 
d="M419 67l-135 309l-67 -309q-8 -34 -34.5 -55.5t-62.5 -21.5q-42 0 -70.5 27.5t-28.5 68.5q0 12 3 24l101 459q11 47 48.5 77.5t86.5 30.5q42 0 76.5 -23t50.5 -60l122 -281l63 287q8 34 34.5 55.5t61.5 21.5q42 0 70.5 -28t28.5 -69q0 -13 -2 -23l-103 -466
q-10 -43 -45 -72t-80 -29q-39 0 -71 21t-47 56zM429 764q-14 0 -21 -19q-4 -13 -15.5 -20.5t-26.5 -7.5q-19 0 -31 12.5t-12 31.5q0 1 0.5 2.5t1 4.5t0.5 6q15 46 41.5 66.5t71.5 20.5q40 0 81 -26q30 -17 43 -17q14 0 21 19q12 28 41 28q19 0 31 -11.5t12 -30.5
q0 -1 -2 -15q-15 -46 -41.5 -66.5t-71.5 -20.5q-38 0 -81 26q-27 17 -42 17z" />
    <glyph glyph-name="Ograve" unicode="&#xd2;" horiz-adv-x="766" 
d="M429 678q147 2 248 -85.5t99 -218.5q2 -159 -115 -274t-285 -112q-147 -2 -248.5 86t-99.5 220q-3 159 114.5 272.5t286.5 111.5zM417 500q-77 0 -128.5 -57t-51.5 -135q0 -62 41.5 -102t108.5 -40q77 0 128.5 57t51.5 135q0 62 -41.5 102t-108.5 40zM450 733l-60 69
q-12 15 -12 35q0 21 16.5 36.5t36.5 15.5q29 0 44 -24l51 -80q7 -10 7 -21q0 -19 -13.5 -33t-32.5 -14q-24 0 -37 16z" />
    <glyph glyph-name="Oacute" unicode="&#xd3;" horiz-adv-x="766" 
d="M429 678q147 2 248 -85.5t99 -218.5q2 -159 -115 -274t-285 -112q-147 -2 -248.5 86t-99.5 220q-3 159 114.5 272.5t286.5 111.5zM417 500q-77 0 -128.5 -57t-51.5 -135q0 -62 41.5 -102t108.5 -40q77 0 128.5 57t51.5 135q0 62 -41.5 102t-108.5 40zM499 717
q-18 0 -31 14t-13 30q0 23 15 35l83 79q16 14 37 14q20 0 35.5 -16t15.5 -38q0 -27 -20 -42l-92 -67q-15 -9 -30 -9z" />
    <glyph glyph-name="Ocircumflex" unicode="&#xd4;" horiz-adv-x="766" 
d="M429 678q147 2 248 -85.5t99 -218.5q2 -159 -115 -274t-285 -112q-147 -2 -248.5 86t-99.5 220q-3 159 114.5 272.5t286.5 111.5zM417 500q-77 0 -128.5 -57t-51.5 -135q0 -62 41.5 -102t108.5 -40q77 0 128.5 57t51.5 135q0 62 -41.5 102t-108.5 40zM544 739l-37 57
l-67 -64q-16 -15 -33 -15q-18 0 -30 12.5t-12 29.5q0 16 10 26l33 40q35 42 86 42h55q49 0 67 -42l17 -40q4 -11 4 -18q0 -21 -14.5 -35.5t-36.5 -14.5q-26 0 -42 22z" />
    <glyph glyph-name="Otilde" unicode="&#xd5;" horiz-adv-x="766" 
d="M429 678q147 2 248 -85.5t99 -218.5q2 -159 -115 -274t-285 -112q-147 -2 -248.5 86t-99.5 220q-3 159 114.5 272.5t286.5 111.5zM417 500q-77 0 -128.5 -57t-51.5 -135q0 -62 41.5 -102t108.5 -40q77 0 128.5 57t51.5 135q0 62 -41.5 102t-108.5 40zM437 764
q-14 0 -21 -19q-4 -13 -15.5 -20.5t-26.5 -7.5q-19 0 -31 12.5t-12 31.5q0 1 0.5 2.5t1 4.5t0.5 6q15 46 41.5 66.5t71.5 20.5q40 0 81 -26q30 -17 43 -17q14 0 21 19q12 28 41 28q19 0 31 -11.5t12 -30.5q0 -1 -2 -15q-15 -46 -41.5 -66.5t-71.5 -20.5q-38 0 -81 26
q-27 17 -42 17z" />
    <glyph glyph-name="Odieresis" unicode="&#xd6;" horiz-adv-x="766" 
d="M429 678q147 2 248 -85.5t99 -218.5q2 -159 -115 -274t-285 -112q-147 -2 -248.5 86t-99.5 220q-3 159 114.5 272.5t286.5 111.5zM417 500q-77 0 -128.5 -57t-51.5 -135q0 -62 41.5 -102t108.5 -40q77 0 128.5 57t51.5 135q0 62 -41.5 102t-108.5 40zM308 775q0 39 31 69
q32 30 70 30q34 0 56.5 -22.5t22.5 -56.5q0 -39 -31 -69t-70 -30q-34 0 -56.5 22.5t-22.5 56.5zM524 775q0 39 31 69t70 30q34 0 56.5 -22.5t22.5 -56.5q0 -39 -31 -69t-70 -30q-34 0 -56.5 22.5t-22.5 56.5z" />
    <glyph glyph-name="multiply" unicode="&#xd7;" horiz-adv-x="510" 
d="M265 259l-134 -110q-13 -11 -33 -11q-21 0 -36.5 15t-15.5 36q0 25 19 41l137 111l-76 96q-11 14 -11 34q0 22 16 37.5t38 15.5q25 0 42 -21l73 -94l135 110q13 11 32 11q22 0 37 -15t15 -36q0 -24 -19 -40l-135 -112l74 -97q12 -15 12 -33q0 -22 -16 -37.5t-38 -15.5
q-24 0 -43 21z" />
    <glyph glyph-name="Oslash" unicode="&#xd8;" horiz-adv-x="766" 
d="M776 374q2 -159 -115 -274t-285 -112q-109 0 -192 46l-62 -66q-16 -16 -34 -16t-32 13.5t-14 32.5q0 18 14 32l55 59q-83 83 -83 205q-3 159 114.5 272.5t286.5 111.5q108 0 194 -47l64 68q16 16 34 16t32 -13.5t14 -32.5q0 -18 -14 -32l-58 -61q81 -83 81 -202zM253 239
l233 247q-33 14 -69 14q-77 0 -128.5 -57t-51.5 -135q0 -38 16 -69zM567 358q0 38 -15 66l-231 -245q26 -13 66 -13q77 0 128.5 57t51.5 135z" />
    <glyph glyph-name="Ugrave" unicode="&#xd9;" horiz-adv-x="749" 
d="M60 274l72 325q8 34 35.5 56t62.5 22q43 0 71.5 -27.5t28.5 -69.5q0 -12 -3 -25l-61 -276q-2 -14 -2 -24q1 -38 28.5 -64.5t74.5 -26.5q105 0 130 115l71 320q8 34 35.5 56t62.5 22q43 0 71.5 -27.5t28.5 -69.5q0 -12 -3 -25l-62 -280q-29 -133 -108 -210
q-80 -77 -226 -77q-151 0 -231.5 65t-80.5 179q0 20 5 42zM441 733l-60 69q-12 15 -12 35q0 21 16.5 36.5t36.5 15.5q29 0 44 -24l51 -80q7 -10 7 -21q0 -19 -13.5 -33t-32.5 -14q-24 0 -37 16z" />
    <glyph glyph-name="Uacute" unicode="&#xda;" horiz-adv-x="749" 
d="M60 274l72 325q8 34 35.5 56t62.5 22q43 0 71.5 -27.5t28.5 -69.5q0 -12 -3 -25l-61 -276q-2 -14 -2 -24q1 -38 28.5 -64.5t74.5 -26.5q105 0 130 115l71 320q8 34 35.5 56t62.5 22q43 0 71.5 -27.5t28.5 -69.5q0 -12 -3 -25l-62 -280q-29 -133 -108 -210
q-80 -77 -226 -77q-151 0 -231.5 65t-80.5 179q0 20 5 42zM490 717q-18 0 -31 14t-13 30q0 23 15 35l83 79q16 14 37 14q20 0 35.5 -16t15.5 -38q0 -27 -20 -42l-92 -67q-15 -9 -30 -9z" />
    <glyph glyph-name="Ucircumflex" unicode="&#xdb;" horiz-adv-x="749" 
d="M60 274l72 325q8 34 35.5 56t62.5 22q43 0 71.5 -27.5t28.5 -69.5q0 -12 -3 -25l-61 -276q-2 -14 -2 -24q1 -38 28.5 -64.5t74.5 -26.5q105 0 130 115l71 320q8 34 35.5 56t62.5 22q43 0 71.5 -27.5t28.5 -69.5q0 -12 -3 -25l-62 -280q-29 -133 -108 -210
q-80 -77 -226 -77q-151 0 -231.5 65t-80.5 179q0 20 5 42zM535 739l-37 57l-67 -64q-17 -15 -33 -15q-18 0 -30 12.5t-12 29.5q0 16 10 26l33 40q35 42 86 42h55q49 0 67 -42l17 -40q4 -11 4 -18q0 -21 -15 -35.5t-36 -14.5q-26 0 -42 22z" />
    <glyph glyph-name="Udieresis" unicode="&#xdc;" horiz-adv-x="749" 
d="M60 274l72 325q8 34 35.5 56t62.5 22q43 0 71.5 -27.5t28.5 -69.5q0 -12 -3 -25l-61 -276q-2 -14 -2 -24q1 -38 28.5 -64.5t74.5 -26.5q105 0 130 115l71 320q8 34 35.5 56t62.5 22q43 0 71.5 -27.5t28.5 -69.5q0 -12 -3 -25l-62 -280q-29 -133 -108 -210
q-80 -77 -226 -77q-151 0 -231.5 65t-80.5 179q0 20 5 42zM299 775q0 39 31 69t70 30q34 0 56.5 -22.5t22.5 -56.5q0 -39 -31 -69q-32 -30 -70 -30q-34 0 -56.5 22.5t-22.5 56.5zM515 775q0 39 31 69q32 30 70 30q34 0 56.5 -22.5t22.5 -56.5q0 -39 -31 -69q-32 -30 -70 -30
q-34 0 -56.5 22.5t-22.5 56.5z" />
    <glyph glyph-name="Yacute" unicode="&#xdd;" horiz-adv-x="644" 
d="M689 529l-261 -265l-43 -197q-8 -34 -34.5 -55.5t-62.5 -21.5q-41 0 -70 28t-29 68q0 12 3 24l35 157l-135 274q-10 19 -10 40q0 39 30 67.5t72 28.5q62 0 94 -68l81 -174l190 207q32 35 71 35q38 0 64 -26t26 -64q0 -35 -21 -58zM439 717q-18 0 -31 14t-13 30
q0 23 15 35l83 79q16 14 37 14q20 0 35.5 -16t15.5 -38q0 -27 -20 -42l-92 -67q-15 -9 -30 -9z" />
    <glyph glyph-name="Thorn" unicode="&#xde;" horiz-adv-x="662" 
d="M674 374q1 -47 -17 -92.5t-52.5 -84t-93 -61.5t-131.5 -22h-153l-10 -47q-8 -34 -34.5 -55.5t-62.5 -21.5q-42 0 -70.5 27.5t-28.5 68.5q0 12 3 24l108 490q8 34 35 56t62 22q44 0 73 -32t25 -75h131q98 0 157 -58t59 -139zM465 351q0 24 -15 38t-44 14h-115l-27 -121
h123q35 0 56.5 19.5t21.5 49.5z" />
    <glyph glyph-name="germandbls" unicode="&#xdf;" horiz-adv-x="594" 
d="M466 338q42 -18 65.5 -56t23.5 -87q0 -26 -5 -48q-16 -73 -76 -116q-58 -43 -137 -43q-26 0 -49 4q-26 5 -43.5 25.5t-17.5 47.5q0 31 20.5 52.5t48.5 21.5h26q25 0 40 18t15 50q0 37 -37 53q-21 9 -34 29.5t-13 45.5q0 27 16.5 48.5t42.5 28.5q35 9 46 48q1 3 1 12
q0 20 -13.5 33t-34.5 13q-28 0 -47.5 -19t-26.5 -52l-87 -387q-7 -30 -30.5 -49.5t-54.5 -19.5q-37 0 -62.5 24.5t-25.5 61.5q0 11 2 21l78 353q22 104 92 165t178 61q87 0 149.5 -50.5t62.5 -126.5q0 -22 -4 -39q-19 -83 -109 -123z" />
    <glyph glyph-name="agrave" unicode="&#xe0;" 
d="M579 403q0 -13 -1 -17l-73 -328q-18 -80 -95 -80q-29 0 -54 20.5t-33 51.5q-56 -62 -130 -62q-84 0 -132 53t-48 148q-1 72 28 141.5t89.5 118t137.5 46.5q97 0 140 -64q10 28 32.5 45t51.5 17q38 0 62.5 -25.5t24.5 -64.5zM352 180l28 123q-30 33 -80 33
q-43 0 -72 -31.5t-29 -77.5q0 -35 23 -57.5t57 -22.5q40 0 73 33zM336 586l-60 69q-12 15 -12 35q0 21 16.5 36.5t36.5 15.5q29 0 44 -24l51 -80q7 -10 7 -21q0 -19 -13.5 -33t-32.5 -14q-24 0 -37 16z" />
    <glyph glyph-name="aacute" unicode="&#xe1;" 
d="M579 403q0 -13 -1 -17l-73 -328q-18 -80 -95 -80q-29 0 -54 20.5t-33 51.5q-56 -62 -130 -62q-84 0 -132 53t-48 148q-1 72 28 141.5t89.5 118t137.5 46.5q97 0 140 -64q10 28 32.5 45t51.5 17q38 0 62.5 -25.5t24.5 -64.5zM352 180l28 123q-30 33 -80 33
q-43 0 -72 -31.5t-29 -77.5q0 -35 23 -57.5t57 -22.5q40 0 73 33zM385 570q-18 0 -31 14t-13 30q0 23 15 35l83 79q16 14 37 14q20 0 35.5 -16t15.5 -38q0 -27 -20 -42l-92 -67q-15 -9 -30 -9z" />
    <glyph glyph-name="acircumflex" unicode="&#xe2;" 
d="M579 403q0 -13 -1 -17l-73 -328q-18 -80 -95 -80q-29 0 -54 20.5t-33 51.5q-56 -62 -130 -62q-84 0 -132 53t-48 148q-1 72 28 141.5t89.5 118t137.5 46.5q97 0 140 -64q10 28 32.5 45t51.5 17q38 0 62.5 -25.5t24.5 -64.5zM352 180l28 123q-30 33 -80 33
q-43 0 -72 -31.5t-29 -77.5q0 -35 23 -57.5t57 -22.5q40 0 73 33zM430 592l-37 57l-67 -64q-16 -15 -33 -15q-18 0 -30 12.5t-12 29.5q0 16 10 26l33 40q35 42 86 42h55q49 0 67 -42l17 -40q4 -11 4 -18q0 -20 -14.5 -35t-36.5 -15q-26 0 -42 22z" />
    <glyph glyph-name="atilde" unicode="&#xe3;" 
d="M579 403q0 -13 -1 -17l-73 -328q-18 -80 -95 -80q-29 0 -54 20.5t-33 51.5q-56 -62 -130 -62q-84 0 -132 53t-48 148q-1 72 28 141.5t89.5 118t137.5 46.5q97 0 140 -64q10 28 32.5 45t51.5 17q38 0 62.5 -25.5t24.5 -64.5zM352 180l28 123q-30 33 -80 33
q-43 0 -72 -31.5t-29 -77.5q0 -35 23 -57.5t57 -22.5q40 0 73 33zM323 617q-14 0 -21 -19q-4 -13 -15.5 -20.5t-26.5 -7.5q-19 0 -31 12.5t-12 31.5q0 1 0.5 2.5t1 4.5t0.5 6q15 46 41.5 66.5t71.5 20.5q40 0 81 -26q30 -17 43 -17q14 0 21 19q12 28 41 28q19 0 31 -11.5
t12 -30.5q0 -1 -2 -15q-15 -46 -41.5 -66.5t-71.5 -20.5q-38 0 -81 26q-27 17 -42 17z" />
    <glyph glyph-name="adieresis" unicode="&#xe4;" 
d="M579 403q0 -13 -1 -17l-73 -328q-18 -80 -95 -80q-29 0 -54 20.5t-33 51.5q-56 -62 -130 -62q-84 0 -132 53t-48 148q-1 72 28 141.5t89.5 118t137.5 46.5q97 0 140 -64q10 28 32.5 45t51.5 17q38 0 62.5 -25.5t24.5 -64.5zM352 180l28 123q-30 33 -80 33
q-43 0 -72 -31.5t-29 -77.5q0 -35 23 -57.5t57 -22.5q40 0 73 33zM194 628q0 39 31 69t70 30q34 0 56.5 -22.5t22.5 -56.5q0 -39 -31 -69t-70 -30q-34 0 -56.5 22.5t-22.5 56.5zM410 628q0 39 31 69t70 30q34 0 56.5 -22.5t22.5 -56.5q0 -39 -31 -69t-70 -30
q-34 0 -56.5 22.5t-22.5 56.5z" />
    <glyph glyph-name="aring" unicode="&#xe5;" 
d="M579 403q0 -13 -1 -17l-73 -328q-18 -80 -95 -80q-29 0 -54 20.5t-33 51.5q-56 -62 -130 -62q-84 0 -132 53t-48 148q-1 72 28 141.5t89.5 118t137.5 46.5q97 0 140 -64q10 28 32.5 45t51.5 17q38 0 62.5 -25.5t24.5 -64.5zM352 180l28 123q-30 33 -80 33
q-43 0 -72 -31.5t-29 -77.5q0 -35 23 -57.5t57 -22.5q40 0 73 33zM402 763q46 0 74 -28t28 -74q0 -49 -36 -85.5t-86 -36.5q-46 0 -74 28t-28 74q0 49 36 85.5t86 36.5zM394 685q-14 0 -25 -11t-11 -25t9 -23t23 -9t25 11t11 25t-9 23t-23 9z" />
    <glyph glyph-name="ae" unicode="&#xe6;" horiz-adv-x="890" 
d="M875 289v-4q-1 -47 -30.5 -73t-81.5 -26h-224v-1q0 -7 13 -19.5t40 -24.5t58 -12q30 0 52 7q3 1 17 1q29 0 48.5 -19.5t19.5 -48.5q0 -22 -12.5 -39.5t-32.5 -24.5q-49 -17 -89 -17q-108 0 -150 61q-9 -27 -31.5 -43t-51.5 -16q-33 0 -57.5 20t-29.5 51q-62 -73 -140 -73
q-84 0 -132 53t-48 148q-1 72 28 141.5t89.5 118t137.5 46.5q98 0 141 -64q8 27 31 44.5t53 17.5q29 0 51.5 -15.5t31.5 -41.5q62 59 133 59q166 0 166 -206zM717 300v1q0 19 -19.5 38t-55.5 19q-30 0 -53 -18t-30 -40h158zM352 180l28 123q-30 33 -80 33q-43 0 -72 -31.5
t-29 -77.5q0 -35 23 -57.5t57 -22.5q40 0 73 33z" />
    <glyph glyph-name="ccedilla" unicode="&#xe7;" horiz-adv-x="482" 
d="M197 224q0 -33 26 -55t63 -22q22 0 43 10q13 7 33 7q32 0 54.5 -22.5t22.5 -54.5q0 -46 -42 -68q-59 -31 -129 -31h-8l-23 -35q13 9 29 9q25 0 42.5 -18t17.5 -47q0 -44 -33.5 -70.5t-84.5 -26.5q-58 0 -102 24q-20 12 -20 33q0 15 11 26t26 11q10 0 18 -5q32 -21 66 -21
q38 0 38 24q0 17 -22 17q-8 0 -15 -4t-16 -4q-15 0 -25.5 10.5t-10.5 24.5q0 10 5 18l26 43q-81 21 -126.5 78.5t-45.5 136.5q-2 117 84.5 201t206.5 82q77 0 130 -28q46 -25 46 -75q0 -34 -24.5 -58.5t-59.5 -24.5q-24 0 -44 13q-23 14 -50 14q-47 0 -77 -31.5t-30 -80.5z
" />
    <glyph glyph-name="egrave" unicode="&#xe8;" horiz-adv-x="543" 
d="M302 495q95 0 159 -56t67 -155v-9q0 -37 -31.5 -63t-79.5 -26h-224v-1q0 -7 11 -20.5t35 -26.5t53 -13q28 0 65 8q14 2 16 2q28 0 47 -19.5t19 -46.5q0 -22 -12.5 -39.5t-32.5 -23.5q-54 -18 -115 -18q-121 0 -192 58q-72 58 -72 162q-2 116 82 202.5t205 84.5zM369 300
v3q0 17 -19.5 36t-54.5 19q-30 0 -54 -18t-31 -40h159zM316 586l-60 69q-12 15 -12 35q0 21 16.5 36.5t36.5 15.5q29 0 44 -24l51 -80q7 -10 7 -21q0 -19 -13.5 -33t-32.5 -14q-24 0 -37 16z" />
    <glyph glyph-name="eacute" unicode="&#xe9;" horiz-adv-x="543" 
d="M302 495q95 0 159 -56t67 -155v-9q0 -37 -31.5 -63t-79.5 -26h-224v-1q0 -7 11 -20.5t35 -26.5t53 -13q28 0 65 8q14 2 16 2q28 0 47 -19.5t19 -46.5q0 -22 -12.5 -39.5t-32.5 -23.5q-54 -18 -115 -18q-121 0 -192 58q-72 58 -72 162q-2 116 82 202.5t205 84.5zM369 300
v3q0 17 -19.5 36t-54.5 19q-30 0 -54 -18t-31 -40h159zM365 570q-18 0 -31 14t-13 30q0 23 15 35l83 79q16 14 37 14q20 0 35.5 -16t15.5 -38q0 -27 -20 -42l-92 -67q-15 -9 -30 -9z" />
    <glyph glyph-name="ecircumflex" unicode="&#xea;" horiz-adv-x="543" 
d="M302 495q95 0 159 -56t67 -155v-9q0 -37 -31.5 -63t-79.5 -26h-224v-1q0 -7 11 -20.5t35 -26.5t53 -13q28 0 65 8q14 2 16 2q28 0 47 -19.5t19 -46.5q0 -22 -12.5 -39.5t-32.5 -23.5q-54 -18 -115 -18q-121 0 -192 58q-72 58 -72 162q-2 116 82 202.5t205 84.5zM369 300
v3q0 17 -19.5 36t-54.5 19q-30 0 -54 -18t-31 -40h159zM410 592l-37 57l-67 -64q-16 -15 -33 -15q-18 0 -30 12.5t-12 29.5q0 16 10 26l33 40q35 42 86 42h55q49 0 67 -42l17 -40q4 -11 4 -18q0 -20 -14.5 -35t-36.5 -15q-26 0 -42 22z" />
    <glyph glyph-name="edieresis" unicode="&#xeb;" horiz-adv-x="543" 
d="M302 495q95 0 159 -56t67 -155v-9q0 -37 -31.5 -63t-79.5 -26h-224v-1q0 -7 11 -20.5t35 -26.5t53 -13q28 0 65 8q14 2 16 2q28 0 47 -19.5t19 -46.5q0 -22 -12.5 -39.5t-32.5 -23.5q-54 -18 -115 -18q-121 0 -192 58q-72 58 -72 162q-2 116 82 202.5t205 84.5zM369 300
v3q0 17 -19.5 36t-54.5 19q-30 0 -54 -18t-31 -40h159zM174 628q0 39 31 69q32 30 70 30q34 0 56.5 -22.5t22.5 -56.5q0 -39 -31 -69t-70 -30q-34 0 -56.5 22.5t-22.5 56.5zM390 628q0 39 31 69t70 30q34 0 56.5 -22.5t22.5 -56.5q0 -39 -31 -69q-32 -30 -70 -30
q-34 0 -56.5 22.5t-22.5 56.5z" />
    <glyph glyph-name="igrave" unicode="&#xec;" horiz-adv-x="280" 
d="M16 80q0 13 1 17l73 327q7 30 31 49.5t55 19.5q38 0 62.5 -25.5t24.5 -64.5q0 -13 -1 -17l-73 -327q-7 -30 -31 -49.5t-55 -19.5q-38 0 -62.5 25.5t-24.5 64.5zM175 586l-60 69q-12 15 -12 35q0 21 16.5 36.5t36.5 15.5q29 0 44 -24l51 -80q7 -10 7 -21q0 -19 -13.5 -33
t-32.5 -14q-24 0 -37 16z" />
    <glyph glyph-name="iacute" unicode="&#xed;" horiz-adv-x="280" 
d="M16 80q0 13 1 17l73 327q7 30 31 49.5t55 19.5q38 0 62.5 -25.5t24.5 -64.5q0 -13 -1 -17l-73 -327q-7 -30 -31 -49.5t-55 -19.5q-38 0 -62.5 25.5t-24.5 64.5zM224 570q-18 0 -31 14t-13 30q0 23 15 35l83 79q16 14 37 14q20 0 35.5 -16t15.5 -38q0 -27 -20 -42l-92 -67
q-15 -9 -30 -9z" />
    <glyph glyph-name="icircumflex" unicode="&#xee;" horiz-adv-x="280" 
d="M16 80q0 13 1 17l73 327q7 30 31 49.5t55 19.5q38 0 62.5 -25.5t24.5 -64.5q0 -13 -1 -17l-73 -327q-7 -30 -31 -49.5t-55 -19.5q-38 0 -62.5 25.5t-24.5 64.5zM269 592l-37 57l-67 -64q-17 -15 -33 -15q-18 0 -30 12.5t-12 29.5q0 16 10 26l33 40q35 42 86 42h55
q49 0 67 -42l17 -40q4 -11 4 -18q0 -20 -15 -35t-36 -15q-26 0 -42 22z" />
    <glyph glyph-name="idieresis" unicode="&#xef;" horiz-adv-x="280" 
d="M16 80q0 13 1 17l73 327q7 30 31 49.5t55 19.5q38 0 62.5 -25.5t24.5 -64.5q0 -13 -1 -17l-73 -327q-7 -30 -31 -49.5t-55 -19.5q-38 0 -62.5 25.5t-24.5 64.5zM33 628q0 39 31 69q32 30 70 30q34 0 56.5 -22.5t22.5 -56.5q0 -39 -31 -69q-32 -30 -70 -30
q-34 0 -56.5 22.5t-22.5 56.5zM249 628q0 39 31 69q32 30 70 30q34 0 56.5 -22.5t22.5 -56.5q0 -39 -31 -69q-32 -30 -70 -30q-34 0 -56.5 22.5t-22.5 56.5z" />
    <glyph glyph-name="eth" unicode="&#xf0;" horiz-adv-x="577" 
d="M571 309q2 -134 -80 -228.5t-216 -92.5q-121 0 -193 58t-72 156q-2 99 68 170t168 69q120 0 162 -111q-8 71 -115 177l-137 -41q-2 -1 -10 -1q-16 0 -27.5 11.5t-11.5 28.5q0 13 7.5 23.5t18.5 13.5l96 28q-13 22 -13 46q0 37 25.5 63.5t63.5 26.5q34 0 60 -23
q44 -40 58 -56l77 23q8 2 10 2q15 0 27 -11.5t12 -28.5q0 -13 -8 -23.5t-19 -13.5l-43 -13q92 -122 92 -253zM369 222q0 28 -23.5 44.5t-64.5 16.5q-39 0 -63 -21.5t-24 -53.5q0 -61 84 -61q42 0 66.5 20.5t24.5 54.5z" />
    <glyph glyph-name="ntilde" unicode="&#xf1;" horiz-adv-x="607" 
d="M580 367q0 -23 -4 -38l-60 -270q-7 -30 -31 -49.5t-55 -19.5q-40 0 -63 25t-23 66q0 12 4 32l35 160q2 16 2 17q0 23 -16 34.5t-42 11.5q-45 0 -85 -37l-53 -240q-7 -30 -31 -49.5t-55 -19.5q-37 0 -62.5 24.5t-25.5 61.5q0 11 2 21l73 328q9 35 31 56.5t54 21.5
q35 0 61.5 -22.5t29.5 -55.5q38 36 73.5 53t82.5 17q72 0 115 -34.5t43 -93.5zM326 617q-14 0 -21 -19q-4 -13 -15.5 -20.5t-26.5 -7.5q-19 0 -31 12.5t-12 31.5q0 1 0.5 2.5t1 4.5t0.5 6q15 46 41.5 66.5t71.5 20.5q40 0 81 -26q30 -17 43 -17q14 0 21 19q12 28 41 28
q19 0 31 -11.5t12 -30.5q0 -1 -2 -15q-15 -46 -41.5 -66.5t-71.5 -20.5q-38 0 -81 26q-27 17 -42 17z" />
    <glyph glyph-name="ograve" unicode="&#xf2;" horiz-adv-x="577" 
d="M303 495q122 0 190 -63t68 -162q2 -113 -83 -199t-206 -83q-122 0 -190 63t-68 162q-2 112 83 198t206 84zM296 336q-43 0 -70.5 -33t-27.5 -81q0 -36 21.5 -55.5t59.5 -19.5q43 0 70.5 33t27.5 81q0 36 -21.5 55.5t-59.5 19.5zM323 586l-60 69q-12 15 -12 35
q0 21 16.5 36.5t36.5 15.5q29 0 44 -24l51 -80q7 -10 7 -21q0 -19 -13.5 -33t-32.5 -14q-24 0 -37 16z" />
    <glyph glyph-name="oacute" unicode="&#xf3;" horiz-adv-x="577" 
d="M303 495q122 0 190 -63t68 -162q2 -113 -83 -199t-206 -83q-122 0 -190 63t-68 162q-2 112 83 198t206 84zM296 336q-43 0 -70.5 -33t-27.5 -81q0 -36 21.5 -55.5t59.5 -19.5q43 0 70.5 33t27.5 81q0 36 -21.5 55.5t-59.5 19.5zM372 570q-18 0 -31 14t-13 30q0 23 15 35
l83 79q16 14 37 14q20 0 35.5 -16t15.5 -38q0 -27 -20 -42l-92 -67q-15 -9 -30 -9z" />
    <glyph glyph-name="ocircumflex" unicode="&#xf4;" horiz-adv-x="577" 
d="M303 495q122 0 190 -63t68 -162q2 -113 -83 -199t-206 -83q-122 0 -190 63t-68 162q-2 112 83 198t206 84zM296 336q-43 0 -70.5 -33t-27.5 -81q0 -36 21.5 -55.5t59.5 -19.5q43 0 70.5 33t27.5 81q0 36 -21.5 55.5t-59.5 19.5zM417 592l-37 57l-67 -64q-17 -15 -33 -15
q-18 0 -30 12.5t-12 29.5q0 16 10 26l33 40q35 42 86 42h55q49 0 67 -42l17 -40q4 -11 4 -18q0 -20 -15 -35t-36 -15q-26 0 -42 22z" />
    <glyph glyph-name="otilde" unicode="&#xf5;" horiz-adv-x="577" 
d="M303 495q122 0 190 -63t68 -162q2 -113 -83 -199t-206 -83q-122 0 -190 63t-68 162q-2 112 83 198t206 84zM296 336q-43 0 -70.5 -33t-27.5 -81q0 -36 21.5 -55.5t59.5 -19.5q43 0 70.5 33t27.5 81q0 36 -21.5 55.5t-59.5 19.5zM310 617q-14 0 -21 -19
q-4 -13 -15.5 -20.5t-26.5 -7.5q-19 0 -31 12.5t-12 31.5q0 1 0.5 2.5t1 4.5t0.5 6q15 46 41.5 66.5t71.5 20.5q40 0 81 -26q30 -17 43 -17q14 0 21 19q12 28 41 28q19 0 31 -11.5t12 -30.5q0 -1 -2 -15q-15 -46 -41.5 -66.5t-71.5 -20.5q-38 0 -81 26q-27 17 -42 17z" />
    <glyph glyph-name="odieresis" unicode="&#xf6;" horiz-adv-x="577" 
d="M303 495q122 0 190 -63t68 -162q2 -113 -83 -199t-206 -83q-122 0 -190 63t-68 162q-2 112 83 198t206 84zM296 336q-43 0 -70.5 -33t-27.5 -81q0 -36 21.5 -55.5t59.5 -19.5q43 0 70.5 33t27.5 81q0 36 -21.5 55.5t-59.5 19.5zM181 628q0 39 31 69q32 30 70 30
q34 0 56.5 -22.5t22.5 -56.5q0 -39 -31 -69q-32 -30 -70 -30q-34 0 -56.5 22.5t-22.5 56.5zM397 628q0 39 31 69q32 30 70 30q34 0 56.5 -22.5t22.5 -56.5q0 -39 -31 -69q-32 -30 -70 -30q-34 0 -56.5 22.5t-22.5 56.5z" />
    <glyph glyph-name="divide" unicode="&#xf7;" horiz-adv-x="511" 
d="M236 498q0 33 24.5 57.5t58.5 24.5q28 0 48.5 -20.5t20.5 -49.5q0 -33 -25 -57.5t-58 -24.5q-28 0 -48.5 20.5t-20.5 49.5zM40 338q0 21 15.5 36.5t37.5 15.5h366q22 0 37.5 -15.5t15.5 -36.5q0 -22 -15.5 -37.5t-37.5 -15.5h-366q-22 0 -37.5 15.5t-15.5 37.5zM162 164
q0 33 24.5 57.5t58.5 24.5q28 0 48.5 -20.5t20.5 -49.5q0 -33 -25 -57.5t-58 -24.5q-28 0 -48.5 20.5t-20.5 49.5z" />
    <glyph glyph-name="oslash" unicode="&#xf8;" horiz-adv-x="577" 
d="M561 270q2 -113 -83 -199t-206 -83q-70 0 -129 24l-37 -46q-11 -14 -27 -14q-14 0 -24 10t-10 23q0 11 9 23l32 39q-72 60 -72 166q-2 112 83 198t206 84q77 0 131 -25l39 47q11 14 27 14q13 0 22.5 -9.5t9.5 -22.5q0 -11 -9 -23l-33 -41q71 -62 71 -165zM204 190
l118 143q-12 3 -26 3q-43 0 -70.5 -33t-27.5 -81q0 -18 6 -32zM377 261q0 13 -5 30l-116 -142q18 -2 23 -2q43 0 70.5 33t27.5 81z" />
    <glyph glyph-name="ugrave" unicode="&#xf9;" horiz-adv-x="606" 
d="M590 407q0 -11 -2 -21l-73 -328q-9 -35 -31 -56.5t-54 -21.5q-35 0 -61.5 22.5t-29.5 55.5q-38 -36 -73.5 -53t-82.5 -17q-72 0 -115 34.5t-43 93.5q0 23 4 38l60 270q7 30 31 49.5t55 19.5q40 0 63 -25t23 -66q0 -12 -4 -32l-35 -160q-2 -16 -2 -17q0 -23 16 -34.5
t42 -11.5q45 0 85 37l53 240q7 30 31 49.5t55 19.5q37 0 62.5 -24.5t25.5 -61.5zM337 586l-60 69q-12 15 -12 35q0 21 16.5 36.5t36.5 15.5q29 0 44 -24l51 -80q7 -10 7 -21q0 -19 -13.5 -33t-32.5 -14q-24 0 -37 16z" />
    <glyph glyph-name="uacute" unicode="&#xfa;" horiz-adv-x="606" 
d="M590 407q0 -11 -2 -21l-73 -328q-9 -35 -31 -56.5t-54 -21.5q-35 0 -61.5 22.5t-29.5 55.5q-38 -36 -73.5 -53t-82.5 -17q-72 0 -115 34.5t-43 93.5q0 23 4 38l60 270q7 30 31 49.5t55 19.5q40 0 63 -25t23 -66q0 -12 -4 -32l-35 -160q-2 -16 -2 -17q0 -23 16 -34.5
t42 -11.5q45 0 85 37l53 240q7 30 31 49.5t55 19.5q37 0 62.5 -24.5t25.5 -61.5zM386 570q-18 0 -31 14t-13 30q0 23 15 35l83 79q16 14 37 14q20 0 35.5 -16t15.5 -38q0 -27 -20 -42l-92 -67q-15 -9 -30 -9z" />
    <glyph glyph-name="ucircumflex" unicode="&#xfb;" horiz-adv-x="606" 
d="M590 407q0 -11 -2 -21l-73 -328q-9 -35 -31 -56.5t-54 -21.5q-35 0 -61.5 22.5t-29.5 55.5q-38 -36 -73.5 -53t-82.5 -17q-72 0 -115 34.5t-43 93.5q0 23 4 38l60 270q7 30 31 49.5t55 19.5q40 0 63 -25t23 -66q0 -12 -4 -32l-35 -160q-2 -16 -2 -17q0 -23 16 -34.5
t42 -11.5q45 0 85 37l53 240q7 30 31 49.5t55 19.5q37 0 62.5 -24.5t25.5 -61.5zM431 592l-37 57l-67 -64q-17 -15 -33 -15q-18 0 -30 12.5t-12 29.5q0 16 10 26l33 40q35 42 86 42h55q49 0 67 -42l17 -40q4 -11 4 -18q0 -20 -15 -35t-36 -15q-26 0 -42 22z" />
    <glyph glyph-name="udieresis" unicode="&#xfc;" horiz-adv-x="606" 
d="M590 407q0 -11 -2 -21l-73 -328q-9 -35 -31 -56.5t-54 -21.5q-35 0 -61.5 22.5t-29.5 55.5q-38 -36 -73.5 -53t-82.5 -17q-72 0 -115 34.5t-43 93.5q0 23 4 38l60 270q7 30 31 49.5t55 19.5q40 0 63 -25t23 -66q0 -12 -4 -32l-35 -160q-2 -16 -2 -17q0 -23 16 -34.5
t42 -11.5q45 0 85 37l53 240q7 30 31 49.5t55 19.5q37 0 62.5 -24.5t25.5 -61.5zM195 628q0 39 31 69t70 30q34 0 56.5 -22.5t22.5 -56.5q0 -39 -31 -69q-32 -30 -70 -30q-34 0 -56.5 22.5t-22.5 56.5zM411 628q0 39 31 69q32 30 70 30q34 0 56.5 -22.5t22.5 -56.5
q0 -39 -31 -69q-32 -30 -70 -30q-34 0 -56.5 22.5t-22.5 56.5z" />
    <glyph glyph-name="yacute" unicode="&#xfd;" horiz-adv-x="515" 
d="M38 -37h8q36 0 49 19l10 16l-65 391q-1 3 -1 15q0 36 26.5 62.5t63.5 26.5q34 0 59.5 -23.5t29.5 -56.5l22 -206l137 244q23 42 72 42q35 0 59 -24.5t24 -57.5q0 -22 -12 -43l-261 -428q-44 -74 -93 -104t-123 -32h-7q-33 0 -56.5 23.5t-23.5 56.5t24.5 56.5t57.5 22.5z
M339 570q-18 0 -31 14t-13 30q0 23 15 35l83 79q16 14 37 14q20 0 35.5 -16t15.5 -38q0 -27 -20 -42l-92 -67q-15 -9 -30 -9z" />
    <glyph glyph-name="thorn" unicode="&#xfe;" horiz-adv-x="595" 
d="M187 51l-39 -176q-7 -30 -31 -49.5t-55 -19.5q-37 0 -62.5 26t-25.5 63q0 2 2 18l154 695q7 30 31 49.5t55 19.5q38 0 62.5 -25.5t24.5 -64.5q0 -13 -1 -17l-31 -138q57 63 131 63q84 0 132 -53t48 -148q1 -72 -28 -142t-89.5 -118t-137.5 -46q-95 0 -140 63zM316 336
q-40 0 -73 -33l-28 -123q30 -33 80 -33q43 0 72 31.5t29 77.5q0 35 -23 57.5t-57 22.5z" />
    <glyph glyph-name="ydieresis" unicode="&#xff;" horiz-adv-x="515" 
d="M38 -37h8q36 0 49 19l10 16l-65 391q-1 3 -1 15q0 36 26.5 62.5t63.5 26.5q34 0 59.5 -23.5t29.5 -56.5l22 -206l137 244q23 42 72 42q35 0 59 -24.5t24 -57.5q0 -22 -12 -43l-261 -428q-44 -74 -93 -104t-123 -32h-7q-33 0 -56.5 23.5t-23.5 56.5t24.5 56.5t57.5 22.5z
M148 628q0 39 31 69q32 30 70 30q34 0 56.5 -22.5t22.5 -56.5q0 -39 -31 -69t-70 -30q-34 0 -56.5 22.5t-22.5 56.5zM364 628q0 39 31 69t70 30q34 0 56.5 -22.5t22.5 -56.5q0 -39 -31 -69t-70 -30q-34 0 -56.5 22.5t-22.5 56.5z" />
    <glyph glyph-name="Amacron" unicode="&#x100;" horiz-adv-x="690" 
d="M649 91q0 -42 -29.5 -71.5t-71.5 -29.5q-40 0 -68.5 26.5t-32.5 65.5l-1 16h-247l-30 -56q-12 -24 -35.5 -38t-50.5 -14q-40 0 -69 28.5t-29 68.5q0 25 14 50l268 455q24 39 63.5 62t84.5 23q65 0 113 -42t57 -105l63 -424q1 -3 1 -15zM287 266h144l-21 233zM272 766
q0 20 14.5 34.5t34.5 14.5h283q20 0 34.5 -14.5t14.5 -34.5q0 -19 -14.5 -33.5t-34.5 -14.5h-283q-20 0 -34.5 14.5t-14.5 33.5z" />
    <glyph glyph-name="amacron" unicode="&#x101;" 
d="M579 403q0 -13 -1 -17l-73 -328q-18 -80 -95 -80q-29 0 -54 20.5t-33 51.5q-56 -62 -130 -62q-84 0 -132 53t-48 148q-1 72 28 141.5t89.5 118t137.5 46.5q97 0 140 -64q10 28 32.5 45t51.5 17q38 0 62.5 -25.5t24.5 -64.5zM352 180l28 123q-30 33 -80 33
q-43 0 -72 -31.5t-29 -77.5q0 -35 23 -57.5t57 -22.5q40 0 73 33zM196 619q0 20 14.5 34.5t34.5 14.5h283q20 0 34.5 -14.5t14.5 -34.5q0 -19 -14.5 -33.5t-34.5 -14.5h-283q-20 0 -34.5 14.5t-14.5 33.5z" />
    <glyph glyph-name="Abreve" unicode="&#x102;" horiz-adv-x="690" 
d="M649 91q0 -42 -29.5 -71.5t-71.5 -29.5q-40 0 -68.5 26.5t-32.5 65.5l-1 16h-247l-30 -56q-12 -24 -35.5 -38t-50.5 -14q-40 0 -69 28.5t-29 68.5q0 25 14 50l268 455q24 39 63.5 62t84.5 23q65 0 113 -42t57 -105l63 -424q1 -3 1 -15zM287 266h144l-21 233zM329 764
q-17 17 -17 39t15 37.5t37 15.5t37 -15q27 -27 69 -27q48 0 91 34q11 10 28 10q18 0 31 -13t13 -32q0 -21 -17 -35q-76 -61 -163 -61q-74 0 -124 47z" />
    <glyph glyph-name="abreve" unicode="&#x103;" 
d="M579 403q0 -13 -1 -17l-73 -328q-18 -80 -95 -80q-29 0 -54 20.5t-33 51.5q-56 -62 -130 -62q-84 0 -132 53t-48 148q-1 72 28 141.5t89.5 118t137.5 46.5q97 0 140 -64q10 28 32.5 45t51.5 17q38 0 62.5 -25.5t24.5 -64.5zM352 180l28 123q-30 33 -80 33
q-43 0 -72 -31.5t-29 -77.5q0 -35 23 -57.5t57 -22.5q40 0 73 33zM253 617q-17 17 -17 39t15 37.5t37 15.5t37 -15q27 -27 69 -27q48 0 91 34q11 10 28 10q18 0 31 -13t13 -32q0 -21 -17 -35q-76 -61 -163 -61q-74 0 -124 47z" />
    <glyph glyph-name="Aogonek" unicode="&#x104;" horiz-adv-x="710" 
d="M546 -65q0 -14 17 -20l12 -3q17 -3 28 -15.5t11 -29.5q0 -16 -10 -28t-24 -16q-36 -9 -85 -9q-51 0 -82.5 18t-31.5 52q0 38 28 62t100 52q-55 24 -62 84l-1 16h-247l-30 -56q-12 -24 -35.5 -38t-50.5 -14q-40 0 -69 28.5t-29 68.5q0 25 14 50l268 455q24 39 63.5 62
t84.5 23q65 0 113 -42t57 -105l63 -424q1 -3 1 -15q0 -31 -17 -57t-46 -37q-40 -33 -40 -62zM287 266h144l-21 233z" />
    <glyph glyph-name="aogonek" unicode="&#x105;" 
d="M579 403q0 -13 -1 -17l-73 -328q-18 -80 -94 -80q-20 -23 -20 -43q0 -14 17 -20l12 -3q17 -3 28 -15.5t11 -29.5q0 -16 -10 -28t-24 -16q-36 -9 -85 -9q-51 0 -82.5 18t-31.5 52q0 38 29.5 63t100.5 52q-26 23 -33 51q-56 -62 -130 -62q-84 0 -132 53t-48 148
q-1 72 28 141.5t89.5 118t137.5 46.5q97 0 140 -64q10 28 32.5 45t51.5 17q38 0 62.5 -25.5t24.5 -64.5zM352 180l28 123q-30 33 -80 33q-43 0 -72 -31.5t-29 -77.5q0 -35 23 -57.5t57 -22.5q40 0 73 33z" />
    <glyph glyph-name="Cacute" unicode="&#x106;" horiz-adv-x="667" 
d="M429 678q169 0 260 -109q23 -29 23 -64q0 -41 -29.5 -70t-70.5 -29q-48 0 -80 40q-39 54 -112 54q-77 0 -130 -57.5t-53 -134.5q0 -59 42 -100.5t108 -41.5q54 0 100 38q26 20 58 20q38 0 64.5 -26.5t26.5 -64.5q0 -47 -37 -73q-97 -72 -223 -72q-145 -2 -247.5 85
t-100.5 221q-3 166 115 276t286 108zM490 717q-18 0 -31 14t-13 30q0 23 15 35l83 79q16 14 37 14q20 0 35.5 -16t15.5 -38q0 -27 -20 -42l-92 -67q-15 -9 -30 -9z" />
    <glyph glyph-name="cacute" unicode="&#x107;" horiz-adv-x="482" 
d="M306 495q77 0 130 -28q46 -25 46 -75q0 -34 -24.5 -58.5t-59.5 -24.5q-24 0 -44 13q-23 14 -50 14q-47 0 -77 -31.5t-30 -80.5q0 -33 26 -55t63 -22q22 0 43 10q13 7 33 7q32 0 54.5 -22.5t22.5 -54.5q0 -46 -42 -68q-59 -31 -129 -31q-115 0 -184 63t-69 161
q-2 117 84.5 201t206.5 82zM370 570q-18 0 -31 14t-13 30q0 23 15 35l83 79q16 14 37 14q20 0 35.5 -16t15.5 -38q0 -27 -20 -42l-92 -67q-15 -9 -30 -9z" />
    <glyph glyph-name="Ccircumflex" unicode="&#x108;" horiz-adv-x="667" 
d="M429 678q169 0 260 -109q23 -29 23 -64q0 -41 -29.5 -70t-70.5 -29q-48 0 -80 40q-39 54 -112 54q-77 0 -130 -57.5t-53 -134.5q0 -59 42 -100.5t108 -41.5q54 0 100 38q26 20 58 20q38 0 64.5 -26.5t26.5 -64.5q0 -47 -37 -73q-97 -72 -223 -72q-145 -2 -247.5 85
t-100.5 221q-3 166 115 276t286 108zM535 739l-37 57l-67 -64q-17 -15 -33 -15q-18 0 -30 12.5t-12 29.5q0 16 10 26l33 40q35 42 86 42h55q49 0 67 -42l17 -40q4 -11 4 -18q0 -21 -15 -35.5t-36 -14.5q-26 0 -42 22z" />
    <glyph glyph-name="ccircumflex" unicode="&#x109;" horiz-adv-x="482" 
d="M306 495q77 0 130 -28q46 -25 46 -75q0 -34 -24.5 -58.5t-59.5 -24.5q-24 0 -44 13q-23 14 -50 14q-47 0 -77 -31.5t-30 -80.5q0 -33 26 -55t63 -22q22 0 43 10q13 7 33 7q32 0 54.5 -22.5t22.5 -54.5q0 -46 -42 -68q-59 -31 -129 -31q-115 0 -184 63t-69 161
q-2 117 84.5 201t206.5 82zM415 592l-37 57l-67 -64q-17 -15 -33 -15q-18 0 -30 12.5t-12 29.5q0 16 10 26l33 40q35 42 86 42h55q49 0 67 -42l17 -40q4 -11 4 -18q0 -20 -15 -35t-36 -15q-26 0 -42 22z" />
    <glyph glyph-name="Cdotaccent" unicode="&#x10a;" horiz-adv-x="667" 
d="M429 678q169 0 260 -109q23 -29 23 -64q0 -41 -29.5 -70t-70.5 -29q-48 0 -80 40q-39 54 -112 54q-77 0 -130 -57.5t-53 -134.5q0 -59 42 -100.5t108 -41.5q54 0 100 38q26 20 58 20q38 0 64.5 -26.5t26.5 -64.5q0 -47 -37 -73q-97 -72 -223 -72q-145 -2 -247.5 85
t-100.5 221q-3 166 115 276t286 108zM404 776q0 39 31 69t70 30q34 0 56.5 -22.5t22.5 -56.5q0 -39 -31 -69t-70 -30q-34 0 -56.5 22.5t-22.5 56.5z" />
    <glyph glyph-name="cdotaccent" unicode="&#x10b;" horiz-adv-x="482" 
d="M306 495q77 0 130 -28q46 -25 46 -75q0 -34 -24.5 -58.5t-59.5 -24.5q-24 0 -44 13q-23 14 -50 14q-47 0 -77 -31.5t-30 -80.5q0 -33 26 -55t63 -22q22 0 43 10q13 7 33 7q32 0 54.5 -22.5t22.5 -54.5q0 -46 -42 -68q-59 -31 -129 -31q-115 0 -184 63t-69 161
q-2 117 84.5 201t206.5 82zM284 629q0 39 31 69t70 30q34 0 56.5 -22.5t22.5 -56.5q0 -39 -31 -69t-70 -30q-34 0 -56.5 22.5t-22.5 56.5z" />
    <glyph glyph-name="Ccaron" unicode="&#x10c;" horiz-adv-x="667" 
d="M429 678q169 0 260 -109q23 -29 23 -64q0 -41 -29.5 -70t-70.5 -29q-48 0 -80 40q-39 54 -112 54q-77 0 -130 -57.5t-53 -134.5q0 -59 42 -100.5t108 -41.5q54 0 100 38q26 20 58 20q38 0 64.5 -26.5t26.5 -64.5q0 -47 -37 -73q-97 -72 -223 -72q-145 -2 -247.5 85
t-100.5 221q-3 166 115 276t286 108zM457 851l37 -57l67 64q17 15 33 15q18 0 30 -12.5t12 -29.5q0 -16 -10 -26l-33 -40q-35 -42 -86 -42h-55q-49 0 -67 42l-17 40q-4 11 -4 18q0 21 15 35.5t36 14.5q26 0 42 -22z" />
    <glyph glyph-name="ccaron" unicode="&#x10d;" horiz-adv-x="482" 
d="M306 495q77 0 130 -28q46 -25 46 -75q0 -34 -24.5 -58.5t-59.5 -24.5q-24 0 -44 13q-23 14 -50 14q-47 0 -77 -31.5t-30 -80.5q0 -33 26 -55t63 -22q22 0 43 10q13 7 33 7q32 0 54.5 -22.5t22.5 -54.5q0 -46 -42 -68q-59 -31 -129 -31q-115 0 -184 63t-69 161
q-2 117 84.5 201t206.5 82zM337 704l37 -57l67 64q17 15 33 15q18 0 30 -12.5t12 -29.5q0 -16 -10 -26l-33 -40q-35 -42 -86 -42h-55q-49 0 -67 42l-17 40q-4 11 -4 18q0 20 15 35t36 15q26 0 42 -22z" />
    <glyph glyph-name="Dcaron" unicode="&#x10e;" horiz-adv-x="736" 
d="M22 85q0 18 4 33l100 455q21 94 117 94h197q116 2 210.5 -82t91.5 -206q0 -57 -15 -110t-49 -103t-84.5 -86.5t-127 -58.5t-169.5 -21h-177q-47 0 -72.5 22t-25.5 63zM533 364q0 55 -36.5 91t-93.5 36h-93l-69 -315h93q90 0 144.5 54t54.5 134zM449 851l37 -57l67 64
q17 15 33 15q18 0 30 -12.5t12 -29.5q0 -16 -10 -26l-33 -40q-35 -42 -86 -42h-55q-49 0 -67 42l-17 40q-4 11 -4 18q0 21 15 35.5t36 14.5q26 0 42 -22z" />
    <glyph glyph-name="dcaron" unicode="&#x10f;" horiz-adv-x="736" 
d="M620 587q0 -13 -1 -17l-114 -512q-9 -37 -31.5 -58.5t-57.5 -21.5q-33 0 -58.5 22.5t-30.5 54.5q-60 -67 -134 -67q-84 0 -132 53t-48 148q-1 72 28 141.5t89.5 118t137.5 46.5q95 0 140 -63l39 176q7 30 31 49.5t55 19.5q38 0 62.5 -25.5t24.5 -64.5zM352 180l28 123
q-30 33 -80 33q-43 0 -72 -31.5t-29 -77.5q0 -35 23 -57.5t57 -22.5q40 0 73 33zM684 426q-13 0 -22 9t-9 22q0 18 16 27q41 21 55 48q-1 -1 -10 -1q-27 0 -43.5 17t-16.5 47q0 33 27 59t61 26q32 0 54 -21.5t22 -57.5q0 -50 -35 -97q-35 -48 -83 -73q-12 -5 -16 -5z" />
    <glyph glyph-name="Dcroat" unicode="&#x110;" horiz-adv-x="757" 
d="M763 379q0 -57 -15 -110t-49 -103t-84.5 -86.5t-127 -58.5t-169.5 -21h-177q-47 0 -72.5 22t-25.5 63q0 18 4 33l30 139q-25 7 -42 28t-17 48q0 33 24 56.5t56 23.5h14l35 160q21 94 117 94h197q116 2 210.5 -82t91.5 -206zM554 364q0 55 -36.5 91t-93.5 36h-93l-17 -78
h39q32 0 56 -23.5t24 -56.5q0 -32 -24 -55.5t-56 -23.5h-74l-17 -78h93q90 0 144.5 54t54.5 134z" />
    <glyph glyph-name="dslash" unicode="&#x111;" horiz-adv-x="602" 
d="M676 569q0 -19 -14.5 -33.5t-34.5 -14.5h-19l-103 -463q-9 -37 -31.5 -58.5t-57.5 -21.5q-33 0 -58.5 22.5t-30.5 54.5q-60 -67 -134 -67q-84 0 -132 53t-48 148q-1 72 28 141.5t89.5 118t137.5 46.5q95 0 140 -63l20 89h-84q-20 0 -34.5 14.5t-14.5 33.5q0 20 14.5 34.5
t34.5 14.5h106q9 26 32 42.5t51 16.5q63 0 83 -59h11q20 0 34.5 -14.5t14.5 -34.5zM352 180l28 123q-30 33 -80 33q-43 0 -72 -31.5t-29 -77.5q0 -35 23 -57.5t57 -22.5q40 0 73 33z" />
    <glyph glyph-name="Emacron" unicode="&#x112;" 
d="M22 85q0 18 4 33l100 455q21 94 117 94h316q35 0 59.5 -24.5t24.5 -59.5q0 -34 -24.5 -59t-59.5 -25h-247l-17 -78h203q35 0 59.5 -24.5t24.5 -59.5q0 -34 -24.5 -59t-59.5 -25h-240l-19 -85h210q35 0 59.5 -24.5t24.5 -59.5q0 -34 -24.5 -59t-59.5 -25h-329
q-47 0 -72.5 22t-25.5 63zM241 766q0 20 14.5 34.5t34.5 14.5h283q20 0 34.5 -14.5t14.5 -34.5q0 -19 -14.5 -33.5t-34.5 -14.5h-283q-20 0 -34.5 14.5t-14.5 33.5z" />
    <glyph glyph-name="emacron" unicode="&#x113;" horiz-adv-x="543" 
d="M302 495q95 0 159 -56t67 -155v-9q0 -37 -31.5 -63t-79.5 -26h-224v-1q0 -7 11 -20.5t35 -26.5t53 -13q28 0 65 8q14 2 16 2q28 0 47 -19.5t19 -46.5q0 -22 -12.5 -39.5t-32.5 -23.5q-54 -18 -115 -18q-121 0 -192 58q-72 58 -72 162q-2 116 82 202.5t205 84.5zM369 300
v3q0 17 -19.5 36t-54.5 19q-30 0 -54 -18t-31 -40h159zM176 619q0 20 14.5 34.5t34.5 14.5h283q20 0 34.5 -14.5t14.5 -34.5q0 -19 -14.5 -33.5t-34.5 -14.5h-283q-20 0 -34.5 14.5t-14.5 33.5z" />
    <glyph glyph-name="Ebreve" unicode="&#x114;" 
d="M22 85q0 18 4 33l100 455q21 94 117 94h316q35 0 59.5 -24.5t24.5 -59.5q0 -34 -24.5 -59t-59.5 -25h-247l-17 -78h203q35 0 59.5 -24.5t24.5 -59.5q0 -34 -24.5 -59t-59.5 -25h-240l-19 -85h210q35 0 59.5 -24.5t24.5 -59.5q0 -34 -24.5 -59t-59.5 -25h-329
q-47 0 -72.5 22t-25.5 63zM298 764q-17 17 -17 39t15 37.5t37 15.5t37 -15q27 -27 69 -27q48 0 91 34q11 10 28 10q18 0 31 -13t13 -32q0 -21 -17 -35q-76 -61 -163 -61q-74 0 -124 47z" />
    <glyph glyph-name="ebreve" unicode="&#x115;" horiz-adv-x="543" 
d="M302 495q95 0 159 -56t67 -155v-9q0 -37 -31.5 -63t-79.5 -26h-224v-1q0 -7 11 -20.5t35 -26.5t53 -13q28 0 65 8q14 2 16 2q28 0 47 -19.5t19 -46.5q0 -22 -12.5 -39.5t-32.5 -23.5q-54 -18 -115 -18q-121 0 -192 58q-72 58 -72 162q-2 116 82 202.5t205 84.5zM369 300
v3q0 17 -19.5 36t-54.5 19q-30 0 -54 -18t-31 -40h159zM233 617q-17 17 -17 39t15 37.5t37 15.5t37 -15q27 -27 69 -27q48 0 91 34q11 10 28 10q18 0 31 -13t13 -32q0 -21 -17 -35q-76 -61 -163 -61q-74 0 -124 47z" />
    <glyph glyph-name="Edotaccent" unicode="&#x116;" 
d="M22 85q0 18 4 33l100 455q21 94 117 94h316q35 0 59.5 -24.5t24.5 -59.5q0 -34 -24.5 -59t-59.5 -25h-247l-17 -78h203q35 0 59.5 -24.5t24.5 -59.5q0 -34 -24.5 -59t-59.5 -25h-240l-19 -85h210q35 0 59.5 -24.5t24.5 -59.5q0 -34 -24.5 -59t-59.5 -25h-329
q-47 0 -72.5 22t-25.5 63zM344 776q0 39 31 69t70 30q34 0 56.5 -22.5t22.5 -56.5q0 -39 -31 -69t-70 -30q-34 0 -56.5 22.5t-22.5 56.5z" />
    <glyph glyph-name="edotaccent" unicode="&#x117;" horiz-adv-x="543" 
d="M302 495q95 0 159 -56t67 -155v-9q0 -37 -31.5 -63t-79.5 -26h-224v-1q0 -7 11 -20.5t35 -26.5t53 -13q28 0 65 8q14 2 16 2q28 0 47 -19.5t19 -46.5q0 -22 -12.5 -39.5t-32.5 -23.5q-54 -18 -115 -18q-121 0 -192 58q-72 58 -72 162q-2 116 82 202.5t205 84.5zM369 300
v3q0 17 -19.5 36t-54.5 19q-30 0 -54 -18t-31 -40h159zM279 629q0 39 31 69q32 30 70 30q34 0 56.5 -22.5t22.5 -56.5q0 -39 -31 -69q-32 -30 -70 -30q-34 0 -56.5 22.5t-22.5 56.5z" />
    <glyph glyph-name="Eogonek" unicode="&#x118;" 
d="M559 499h-247l-17 -78h203q35 0 59.5 -24.5t24.5 -59.5q0 -34 -24.5 -59t-59.5 -25h-240l-19 -85h210q35 0 59.5 -24.5t24.5 -59.5q0 -32 -21.5 -55.5t-52.5 -27.5q-44 -34 -44 -66q0 -14 17 -20l12 -3q17 -3 28 -15.5t11 -29.5q0 -16 -10 -28t-24 -16q-36 -9 -85 -9
q-51 0 -82.5 18t-31.5 52q0 39 29 63t104 53h-263q-47 0 -72.5 22t-25.5 63q0 18 4 33l100 455q21 94 117 94h316q35 0 59.5 -24.5t24.5 -59.5q0 -34 -24.5 -59t-59.5 -25z" />
    <glyph glyph-name="eogonek" unicode="&#x119;" horiz-adv-x="543" 
d="M292 -12h-13q-121 0 -192 58q-72 58 -72 162q-2 116 82 202.5t205 84.5q97 0 161.5 -58.5t64.5 -161.5q0 -13 -3 -25q-13 -64 -108 -64h-224v-1q0 -7 11 -20.5t35 -26.5t53 -13q27 0 64 8q3 1 16 1q28 0 48 -19.5t20 -47.5q0 -38 -33 -58q-67 -40 -67 -74q0 -19 16 -22
l16 -2q36 -6 36 -44q0 -16 -10 -28t-24 -16q-36 -9 -85 -9q-51 0 -82.5 18t-31.5 53q0 72 117 103zM369 300v3q0 17 -19.5 36t-54.5 19q-30 0 -54 -18t-31 -40h159z" />
    <glyph glyph-name="Ecaron" unicode="&#x11a;" 
d="M22 85q0 18 4 33l100 455q21 94 117 94h316q35 0 59.5 -24.5t24.5 -59.5q0 -34 -24.5 -59t-59.5 -25h-247l-17 -78h203q35 0 59.5 -24.5t24.5 -59.5q0 -34 -24.5 -59t-59.5 -25h-240l-19 -85h210q35 0 59.5 -24.5t24.5 -59.5q0 -34 -24.5 -59t-59.5 -25h-329
q-47 0 -72.5 22t-25.5 63zM397 851l37 -57l67 64q17 15 33 15q18 0 30 -12.5t12 -29.5q0 -16 -10 -26l-33 -40q-35 -42 -86 -42h-55q-49 0 -67 42l-17 40q-4 11 -4 18q0 21 15 35.5t36 14.5q26 0 42 -22z" />
    <glyph glyph-name="ecaron" unicode="&#x11b;" horiz-adv-x="543" 
d="M302 495q95 0 159 -56t67 -155v-9q0 -37 -31.5 -63t-79.5 -26h-224v-1q0 -7 11 -20.5t35 -26.5t53 -13q28 0 65 8q14 2 16 2q28 0 47 -19.5t19 -46.5q0 -22 -12.5 -39.5t-32.5 -23.5q-54 -18 -115 -18q-121 0 -192 58q-72 58 -72 162q-2 116 82 202.5t205 84.5zM369 300
v3q0 17 -19.5 36t-54.5 19q-30 0 -54 -18t-31 -40h159zM332 704l37 -57l67 64q16 15 33 15q18 0 30 -12.5t12 -29.5q0 -16 -10 -26l-33 -40q-35 -42 -86 -42h-55q-49 0 -67 42l-17 40q-4 11 -4 18q0 20 14.5 35t36.5 15q26 0 42 -22z" />
    <glyph glyph-name="Gcircumflex" unicode="&#x11c;" horiz-adv-x="726" 
d="M703 317q0 -12 -4 -32l-18 -82q-23 -95 -62 -128q-101 -87 -243 -87q-143 -2 -246.5 83.5t-101.5 222.5q-3 164 117 275t304 109q119 0 202 -66q37 -31 37 -76q0 -40 -28 -69.5t-70 -29.5q-37 0 -66 26q-43 37 -104 37q-76 0 -129.5 -56.5t-53.5 -135.5q0 -57 41.5 -99.5
t108.5 -42.5q55 0 96 30l6 30h-35q-34 0 -58.5 24.5t-24.5 58.5q0 32 25 57.5t58 25.5h177q35 0 53.5 -20.5t18.5 -54.5zM546 739l-37 57l-67 -64q-16 -15 -33 -15q-18 0 -30 12.5t-12 29.5q0 16 10 26l33 40q35 42 86 42h55q49 0 67 -42l17 -40q4 -11 4 -18
q0 -21 -14.5 -35.5t-36.5 -14.5q-26 0 -42 22z" />
    <glyph glyph-name="gcircumflex" unicode="&#x11d;" horiz-adv-x="595" 
d="M577 403q0 -13 -1 -17l-74 -333q-31 -139 -112 -194q-79 -55 -178 -55q-104 0 -182 38q-19 9 -30.5 28t-11.5 41q0 32 22.5 54.5t54.5 22.5q19 0 36 -10q51 -27 108 -27q88 0 113 102l6 25q-55 -65 -132 -65q-82 0 -132 48.5t-50 143.5q-2 114 69.5 203.5t180.5 86.5
q42 0 80 -17.5t63 -47.5q12 28 34 45.5t49 17.5q38 0 62.5 -25.5t24.5 -64.5zM356 206l20 91q-27 39 -85 39q-40 0 -65.5 -25t-25.5 -69q0 -30 23.5 -50t60.5 -20q41 0 72 34zM430 592l-37 57l-67 -64q-16 -15 -33 -15q-18 0 -30 12.5t-12 29.5q0 16 10 26l33 40
q35 42 86 42h55q49 0 67 -42l17 -40q4 -11 4 -18q0 -20 -14.5 -35t-36.5 -15q-26 0 -42 22z" />
    <glyph glyph-name="Gbreve" unicode="&#x11e;" horiz-adv-x="726" 
d="M703 317q0 -12 -4 -32l-18 -82q-23 -95 -62 -128q-101 -87 -243 -87q-143 -2 -246.5 83.5t-101.5 222.5q-3 164 117 275t304 109q119 0 202 -66q37 -31 37 -76q0 -40 -28 -69.5t-70 -29.5q-37 0 -66 26q-43 37 -104 37q-76 0 -129.5 -56.5t-53.5 -135.5q0 -57 41.5 -99.5
t108.5 -42.5q55 0 96 30l6 30h-35q-34 0 -58.5 24.5t-24.5 58.5q0 32 25 57.5t58 25.5h177q35 0 53.5 -20.5t18.5 -54.5zM369 764q-17 17 -17 39t15 37.5t37 15.5t37 -15q27 -27 69 -27q48 0 91 34q11 10 28 10q18 0 31 -13t13 -32q0 -21 -17 -35q-76 -61 -163 -61
q-74 0 -124 47z" />
    <glyph glyph-name="gbreve" unicode="&#x11f;" horiz-adv-x="595" 
d="M577 403q0 -13 -1 -17l-74 -333q-31 -139 -112 -194q-79 -55 -178 -55q-104 0 -182 38q-19 9 -30.5 28t-11.5 41q0 32 22.5 54.5t54.5 22.5q19 0 36 -10q51 -27 108 -27q88 0 113 102l6 25q-55 -65 -132 -65q-82 0 -132 48.5t-50 143.5q-2 114 69.5 203.5t180.5 86.5
q42 0 80 -17.5t63 -47.5q12 28 34 45.5t49 17.5q38 0 62.5 -25.5t24.5 -64.5zM356 206l20 91q-27 39 -85 39q-40 0 -65.5 -25t-25.5 -69q0 -30 23.5 -50t60.5 -20q41 0 72 34zM253 617q-17 17 -17 39t15 37.5t37 15.5t37 -15q27 -27 69 -27q48 0 91 34q11 10 28 10
q18 0 31 -13t13 -32q0 -21 -17 -35q-76 -61 -163 -61q-74 0 -124 47z" />
    <glyph glyph-name="Gdotaccent" unicode="&#x120;" horiz-adv-x="726" 
d="M703 317q0 -12 -4 -32l-18 -82q-23 -95 -62 -128q-101 -87 -243 -87q-143 -2 -246.5 83.5t-101.5 222.5q-3 164 117 275t304 109q119 0 202 -66q37 -31 37 -76q0 -40 -28 -69.5t-70 -29.5q-37 0 -66 26q-43 37 -104 37q-76 0 -129.5 -56.5t-53.5 -135.5q0 -57 41.5 -99.5
t108.5 -42.5q55 0 96 30l6 30h-35q-34 0 -58.5 24.5t-24.5 58.5q0 32 25 57.5t58 25.5h177q35 0 53.5 -20.5t18.5 -54.5zM415 776q0 39 31 69q32 30 70 30q34 0 56.5 -22.5t22.5 -56.5q0 -39 -31 -69q-32 -30 -70 -30q-34 0 -56.5 22.5t-22.5 56.5z" />
    <glyph glyph-name="gdotaccent" unicode="&#x121;" horiz-adv-x="595" 
d="M577 403q0 -13 -1 -17l-74 -333q-31 -139 -112 -194q-79 -55 -178 -55q-104 0 -182 38q-19 9 -30.5 28t-11.5 41q0 32 22.5 54.5t54.5 22.5q19 0 36 -10q51 -27 108 -27q88 0 113 102l6 25q-55 -65 -132 -65q-82 0 -132 48.5t-50 143.5q-2 114 69.5 203.5t180.5 86.5
q42 0 80 -17.5t63 -47.5q12 28 34 45.5t49 17.5q38 0 62.5 -25.5t24.5 -64.5zM356 206l20 91q-27 39 -85 39q-40 0 -65.5 -25t-25.5 -69q0 -30 23.5 -50t60.5 -20q41 0 72 34zM299 629q0 39 31 69q32 30 70 30q34 0 56.5 -22.5t22.5 -56.5q0 -39 -31 -69q-32 -30 -70 -30
q-34 0 -56.5 22.5t-22.5 56.5z" />
    <glyph glyph-name="uni0122" unicode="&#x122;" horiz-adv-x="726" 
d="M703 317q0 -12 -4 -32l-18 -82q-23 -95 -62 -128q-101 -87 -243 -87q-143 -2 -246.5 83.5t-101.5 222.5q-3 164 117 275t304 109q119 0 202 -66q37 -31 37 -76q0 -40 -28 -69.5t-70 -29.5q-37 0 -66 26q-43 37 -104 37q-76 0 -129.5 -56.5t-53.5 -135.5q0 -57 41.5 -99.5
t108.5 -42.5q55 0 96 30l6 30h-35q-34 0 -58.5 24.5t-24.5 58.5q0 32 25 57.5t58 25.5h177q35 0 53.5 -20.5t18.5 -54.5zM254 -295q-13 0 -22 9t-9 22q0 18 16 27q41 21 55 48q-1 -1 -10 -1q-27 0 -43.5 17t-16.5 47q0 33 27 59t61 26q32 0 54 -21.5t22 -57.5q0 -50 -35 -97
q-35 -48 -83 -73q-12 -5 -16 -5z" />
    <glyph glyph-name="uni0123" unicode="&#x123;" horiz-adv-x="595" 
d="M291 609q0 50 35 97q35 48 83 73q12 5 16 5q13 0 22 -9t9 -22q0 -18 -16 -27q-41 -21 -55 -48q1 1 10 1q27 0 43.5 -17t16.5 -47q0 -33 -27 -59t-61 -26q-32 0 -54 21.5t-22 57.5zM577 403q0 -13 -1 -17l-74 -333q-31 -139 -112 -194q-79 -55 -178 -55q-104 0 -182 38
q-19 9 -30.5 28t-11.5 41q0 32 22.5 54.5t54.5 22.5q19 0 36 -10q51 -27 108 -27q88 0 113 102l6 25q-55 -65 -132 -65q-82 0 -132 48.5t-50 143.5q-2 114 69.5 203.5t180.5 86.5q42 0 80 -17.5t63 -47.5q12 28 34 45.5t49 17.5q38 0 62.5 -25.5t24.5 -64.5zM356 206l20 91
q-27 39 -85 39q-40 0 -65.5 -25t-25.5 -69q0 -30 23.5 -50t60.5 -20q41 0 72 34z" />
    <glyph glyph-name="Hcircumflex" unicode="&#x124;" horiz-adv-x="751" 
d="M464 91q0 15 1 19l32 145h-239l-41 -188q-8 -34 -34.5 -55.5t-62.5 -21.5q-43 0 -70 28.5t-27 72.5q0 14 1 19l108 490q8 34 34.5 55.5t61.5 21.5q43 0 70.5 -28.5t27.5 -72.5q0 -15 -1 -19l-28 -126h239l37 169q8 34 34.5 55.5t62.5 21.5q42 0 69.5 -28.5t27.5 -72.5
q0 -15 -1 -19l-108 -490q-8 -34 -34.5 -55.5t-62.5 -21.5q-42 0 -69.5 28.5t-27.5 72.5zM537 739l-37 57l-67 -64q-17 -15 -33 -15q-18 0 -30 12.5t-12 29.5q0 16 10 26l33 40q35 42 86 42h55q49 0 67 -42l17 -40q4 -11 4 -18q0 -21 -15 -35.5t-36 -14.5q-26 0 -42 22z" />
    <glyph glyph-name="hcircumflex" unicode="&#x125;" horiz-adv-x="608" 
d="M343 75q0 11 2 21l35 163q5 25 5 32q0 45 -65 45q-38 0 -78 -37l-52 -240q-6 -29 -30.5 -49t-55.5 -20q-36 0 -62 25.5t-26 61.5q0 10 2 20l113 511q7 30 31 49.5t55 19.5q37 0 62 -24.5t25 -61.5q0 -11 -2 -21l-32 -142q37 34 71.5 50.5t80.5 16.5q73 0 116 -35t43 -92
q0 -14 -5 -39l-59 -270q-7 -30 -31 -49.5t-55 -19.5q-36 0 -62 24.5t-26 60.5zM464 739l-37 57l-67 -64q-16 -15 -33 -15q-18 0 -30 12.5t-12 29.5q0 16 10 26l33 40q35 42 86 42h55q49 0 67 -42l17 -40q4 -11 4 -18q0 -21 -14.5 -35.5t-36.5 -14.5q-26 0 -42 22z" />
    <glyph glyph-name="Hbar" unicode="&#x126;" horiz-adv-x="751" 
d="M826 550q0 -20 -14.5 -34.5t-34.5 -14.5h-23l-96 -434q-8 -34 -34.5 -55.5t-62.5 -21.5q-42 0 -69.5 28.5t-27.5 72.5q0 15 1 19l32 145h-239l-41 -188q-8 -34 -34.5 -55.5t-62.5 -21.5q-43 0 -70 28.5t-27 72.5q0 14 1 19l86 391h-3q-20 0 -34.5 14.5t-14.5 33.5
q0 20 14.5 34.5t34.5 14.5h25v2q8 34 34.5 55.5t61.5 21.5q36 0 62.5 -22t33.5 -57h249v2q8 34 34.5 55.5t62.5 21.5t62 -22t33 -57h12q20 0 34.5 -14.5t14.5 -33.5zM536 431l15 70h-238l-16 -70h239z" />
    <glyph glyph-name="hbar" unicode="&#x127;" horiz-adv-x="613" 
d="M586 368q0 -14 -5 -39l-59 -270q-7 -30 -31 -49.5t-55 -19.5q-36 0 -62 24.5t-26 60.5q0 11 2 21l35 163q5 25 5 32q0 45 -65 45q-38 0 -78 -37l-52 -240q-6 -29 -30.5 -49t-55.5 -20q-36 0 -62 25.5t-26 61.5q0 10 2 20l94 424q-20 1 -33.5 15t-13.5 34t14.5 34t33.5 14
h21q9 26 32 42.5t51 16.5q30 0 52.5 -16t30.5 -43h97q20 0 34 -14.5t14 -34.5q0 -19 -14 -33.5t-34 -14.5h-106l-21 -93q37 34 71.5 50.5t80.5 16.5q73 0 116 -35t43 -92z" />
    <glyph glyph-name="Itilde" unicode="&#x128;" horiz-adv-x="310" 
d="M22 87q0 13 2 23l108 490q8 34 34.5 55.5t61.5 21.5q41 0 70.5 -28t29.5 -68q0 -12 -3 -24l-108 -490q-8 -34 -34.5 -55.5t-61.5 -21.5q-42 0 -70.5 28t-28.5 69zM209 764q-14 0 -21 -19q-4 -13 -15.5 -20.5t-26.5 -7.5q-19 0 -31 12.5t-12 31.5q0 1 0.5 2.5t1 4.5t0.5 6
q15 46 41.5 66.5t71.5 20.5q40 0 81 -26q30 -17 43 -17q14 0 21 19q12 28 41 28q19 0 31 -11.5t12 -30.5q0 -1 -2 -15q-15 -46 -41.5 -66.5t-71.5 -20.5q-38 0 -81 26q-27 17 -42 17z" />
    <glyph glyph-name="itilde" unicode="&#x129;" horiz-adv-x="280" 
d="M16 80q0 13 1 17l73 327q7 30 31 49.5t55 19.5q38 0 62.5 -25.5t24.5 -64.5q0 -13 -1 -17l-73 -327q-7 -30 -31 -49.5t-55 -19.5q-38 0 -62.5 25.5t-24.5 64.5zM162 617q-14 0 -21 -19q-4 -13 -15.5 -20.5t-26.5 -7.5q-19 0 -31 12.5t-12 31.5q0 1 0.5 2.5t1 4.5t0.5 6
q15 46 41.5 66.5t71.5 20.5q40 0 81 -26q30 -17 43 -17q14 0 21 19q12 28 41 28q19 0 31 -11.5t12 -30.5q0 -1 -2 -15q-15 -46 -41.5 -66.5t-71.5 -20.5q-38 0 -81 26q-27 17 -42 17z" />
    <glyph glyph-name="Imacron" unicode="&#x12a;" horiz-adv-x="310" 
d="M22 87q0 13 2 23l108 490q8 34 34.5 55.5t61.5 21.5q41 0 70.5 -28t29.5 -68q0 -12 -3 -24l-108 -490q-8 -34 -34.5 -55.5t-61.5 -21.5q-42 0 -70.5 28t-28.5 69zM82 766q0 20 14.5 34.5t34.5 14.5h283q20 0 34.5 -14.5t14.5 -34.5q0 -19 -14.5 -33.5t-34.5 -14.5h-283
q-20 0 -34.5 14.5t-14.5 33.5z" />
    <glyph glyph-name="imacron" unicode="&#x12b;" horiz-adv-x="280" 
d="M16 80q0 13 1 17l73 327q7 30 31 49.5t55 19.5q38 0 62.5 -25.5t24.5 -64.5q0 -13 -1 -17l-73 -327q-7 -30 -31 -49.5t-55 -19.5q-38 0 -62.5 25.5t-24.5 64.5zM35 619q0 20 14.5 34.5t34.5 14.5h283q20 0 34.5 -14.5t14.5 -34.5q0 -19 -14.5 -33.5t-34.5 -14.5h-283
q-20 0 -34.5 14.5t-14.5 33.5z" />
    <glyph glyph-name="Ibreve" unicode="&#x12c;" horiz-adv-x="310" 
d="M22 87q0 13 2 23l108 490q8 34 34.5 55.5t61.5 21.5q41 0 70.5 -28t29.5 -68q0 -12 -3 -24l-108 -490q-8 -34 -34.5 -55.5t-61.5 -21.5q-42 0 -70.5 28t-28.5 69zM139 764q-17 17 -17 39t15 37.5t37 15.5t37 -15q27 -27 69 -27q48 0 91 34q11 10 28 10q18 0 31 -13
t13 -32q0 -21 -17 -35q-76 -61 -163 -61q-74 0 -124 47z" />
    <glyph glyph-name="ibreve" unicode="&#x12d;" horiz-adv-x="280" 
d="M16 80q0 13 1 17l73 327q7 30 31 49.5t55 19.5q38 0 62.5 -25.5t24.5 -64.5q0 -13 -1 -17l-73 -327q-7 -30 -31 -49.5t-55 -19.5q-38 0 -62.5 25.5t-24.5 64.5zM92 617q-17 17 -17 39t15 37.5t37 15.5t37 -15q27 -27 69 -27q48 0 91 34q11 10 28 10q18 0 31 -13t13 -32
q0 -21 -17 -35q-76 -61 -163 -61q-74 0 -124 47z" />
    <glyph glyph-name="Iogonek" unicode="&#x12e;" horiz-adv-x="310" 
d="M328 581q0 -12 -3 -24l-108 -490q-6 -27 -25 -47t-46 -27q-35 -27 -35 -58q0 -14 17 -20l12 -3q17 -3 28 -15.5t11 -29.5q0 -16 -10 -28t-24 -16q-36 -9 -85 -9q-51 0 -82.5 18t-31.5 52q0 39 29 62.5t103 52.5q-57 26 -57 88q0 11 3 23l108 490q8 34 34.5 55.5
t61.5 21.5q41 0 70.5 -28t29.5 -68z" />
    <glyph glyph-name="iogonek" unicode="&#x12f;" horiz-adv-x="280" 
d="M330 654q0 -51 -35 -83.5t-79 -32.5q-39 0 -65 25t-26 61q0 51 35 83.5t79 32.5q39 0 65 -25t26 -61zM264 407q0 -11 -2 -21l-73 -327q-7 -30 -30 -49t-53 -20q-31 -28 -31 -55q0 -14 17 -20l12 -3q17 -3 28 -15.5t11 -29.5q0 -16 -10 -28t-24 -16q-36 -9 -85 -9
q-51 0 -82.5 18t-31.5 52q3 43 32 66t109 53l3 1q-39 26 -39 72q0 11 2 21l73 327q7 30 31 49.5t55 19.5q37 0 62.5 -24.5t25.5 -61.5z" />
    <glyph glyph-name="Idot" unicode="&#x130;" horiz-adv-x="310" 
d="M22 87q0 13 2 23l108 490q8 34 34.5 55.5t61.5 21.5q41 0 70.5 -28t29.5 -68q0 -12 -3 -24l-108 -490q-8 -34 -34.5 -55.5t-61.5 -21.5q-42 0 -70.5 28t-28.5 69zM185 776q0 39 31 69t70 30q34 0 56.5 -22.5t22.5 -56.5q0 -39 -31 -69q-32 -30 -70 -30q-34 0 -56.5 22.5
t-22.5 56.5z" />
    <glyph glyph-name="dotlessi" unicode="&#x131;" horiz-adv-x="280" 
d="M16 80q0 13 1 17l73 327q7 30 31 49.5t55 19.5q38 0 62.5 -25.5t24.5 -64.5q0 -13 -1 -17l-73 -327q-7 -30 -31 -49.5t-55 -19.5q-38 0 -62.5 25.5t-24.5 64.5z" />
    <glyph glyph-name="IJ" unicode="&#x132;" horiz-adv-x="808" 
d="M22 87q0 13 2 23l108 490q8 34 34.5 55.5t61.5 21.5q41 0 70.5 -28t29.5 -68q0 -12 -3 -24l-108 -490q-8 -34 -34.5 -55.5t-61.5 -21.5q-42 0 -70.5 28t-28.5 69zM303 90q0 38 26.5 64t63.5 26q18 0 33 -6q22 -8 40 -8q68 0 85 75l79 359q8 34 34.5 55.5t61.5 21.5
q42 0 71 -28t29 -69q0 -11 -3 -23l-71 -319q-29 -131 -93 -190.5t-178 -59.5q-59 0 -115 17q-28 9 -45.5 32t-17.5 53z" />
    <glyph glyph-name="ij" unicode="&#x133;" horiz-adv-x="560" 
d="M239 740q39 0 65 -25t26 -61q0 -51 -35 -83.5t-79 -32.5q-39 0 -65 25t-26 61q0 51 35 83.5t79 32.5zM15 76q0 11 2 21l73 327q7 30 31 49.5t55 19.5q37 0 62.5 -24.5t25.5 -61.5q0 -11 -2 -21l-73 -327q-7 -30 -31 -49.5t-55 -19.5q-37 0 -62.5 24.5t-25.5 61.5z
M405 624q0 51 35 83.5t79 32.5q39 0 65 -25t26 -61q0 -51 -35 -83.5t-79 -32.5q-39 0 -65 25t-26 61zM156 -123q0 26 16.5 48t38.5 27l11 2q44 7 58 67l90 403q7 30 31 49.5t55 19.5q38 0 62 -25t24 -64q0 -14 -1 -18l-81 -365q-46 -217 -219 -217h-6q-33 0 -56 20.5
t-23 52.5z" />
    <glyph glyph-name="Jcircumflex" unicode="&#x134;" horiz-adv-x="498" 
d="M-7 90q0 38 26.5 64t63.5 26q18 0 33 -6q22 -8 40 -8q68 0 85 75l79 359q8 34 34.5 55.5t61.5 21.5q42 0 71 -28t29 -69q0 -11 -3 -23l-71 -319q-29 -131 -93 -190.5t-178 -59.5q-59 0 -115 17q-28 9 -45.5 32t-17.5 53zM509 756l-37 57l-67 -64q-17 -15 -33 -15
q-18 0 -30 12.5t-12 29.5q0 16 10 26l33 40q35 42 86 42h55q49 0 67 -42l17 -40q4 -11 4 -18q0 -20 -15 -35t-36 -15q-26 0 -42 22z" />
    <glyph glyph-name="jcircumflex" unicode="&#x135;" horiz-adv-x="280" 
d="M-124 -123q0 26 16.5 48t38.5 27l11 2q44 7 58 67l90 403q7 30 31 49.5t55 19.5q38 0 62 -25t24 -64q0 -14 -1 -18l-81 -365q-46 -217 -219 -217h-6q-33 0 -56 20.5t-23 52.5zM269 592l-37 57l-67 -64q-17 -15 -33 -15q-18 0 -30 12.5t-12 29.5q0 16 10 26l33 40
q35 42 86 42h55q49 0 67 -42l17 -40q4 -11 4 -18q0 -20 -15 -35t-36 -15q-26 0 -42 22z" />
    <glyph glyph-name="uni0136" unicode="&#x136;" horiz-adv-x="651" 
d="M681 588q0 -39 -27 -63l-201 -168l140 -217q11 -17 11 -47q0 -43 -30 -73t-73 -30q-59 0 -94 62l-109 191l-55 -58l-26 -118q-8 -34 -34.5 -55.5t-61.5 -21.5q-42 0 -70.5 28.5t-28.5 69.5q0 12 2 22l108 490q8 34 34.5 55.5t61.5 21.5q41 0 70.5 -28t29.5 -68
q0 -12 -3 -24l-28 -128l230 219q32 29 65 29q37 0 63 -26t26 -63zM213 -295q-13 0 -22 9t-9 22q0 18 16 27q41 21 55 48q-1 -1 -10 -1q-27 0 -43.5 17t-16.5 47q0 33 27 59t61 26q32 0 54 -21.5t22 -57.5q0 -50 -35 -97q-35 -48 -83 -73q-12 -5 -16 -5z" />
    <glyph glyph-name="uni0137" unicode="&#x137;" horiz-adv-x="557" 
d="M552 414q0 -36 -31 -61l-119 -95l81 -125q15 -23 15 -49q0 -38 -30 -66q-28 -28 -66 -28q-52 0 -91 66l-55 96l-57 -47l-10 -46q-7 -30 -31 -49.5t-55 -19.5q-36 0 -62 25.5t-26 61.5q0 10 2 20l113 511q7 30 31 49.5t55 19.5q38 0 62.5 -24t24.5 -61q0 -12 -2 -22
l-55 -251l167 147q29 27 60 27q33 0 56 -23t23 -56zM146 -295q-13 0 -22 9t-9 22q0 18 16 27q41 21 55 48q-1 -1 -10 -1q-27 0 -43.5 17t-16.5 47q0 33 27 59t61 26q32 0 54 -21.5t22 -57.5q0 -50 -35 -97q-35 -48 -83 -73q-12 -5 -16 -5z" />
    <glyph glyph-name="kgreenlandic" unicode="&#x138;" horiz-adv-x="557" 
d="M552 414q0 -36 -31 -61l-119 -95l81 -125q15 -23 15 -49q0 -38 -30 -66q-28 -28 -66 -28q-52 0 -91 66l-55 96l-57 -47l-10 -46q-7 -30 -31 -49.5t-55 -19.5q-37 0 -62.5 24.5t-25.5 61.5q0 11 2 21l73 328q7 30 30.5 49t54.5 19q37 0 63 -24.5t26 -60.5q0 -12 -3 -22
l-15 -67l167 147q29 27 60 27q33 0 56 -23t23 -56z" />
    <glyph glyph-name="Lacute" unicode="&#x139;" horiz-adv-x="526" 
d="M22 84q0 18 4 33l106 483q8 34 34.5 55.5t62.5 21.5q41 0 70 -28t29 -68q0 -12 -3 -24l-84 -381h154q36 0 62 -25.5t26 -62.5t-26 -62.5t-62 -25.5h-275q-47 0 -72.5 22t-25.5 62zM271 717q-18 0 -31 14t-13 30q0 23 15 35l83 79q16 14 37 14q20 0 35.5 -16t15.5 -38
q0 -27 -20 -42l-92 -67q-15 -9 -30 -9z" />
    <glyph glyph-name="lacute" unicode="&#x13a;" horiz-adv-x="280" 
d="M15 77q0 10 2 20l113 511q7 30 31 49.5t55 19.5q36 0 62 -25.5t26 -61.5q0 -10 -2 -20l-113 -511q-7 -30 -31 -49.5t-55 -19.5q-36 0 -62 25.5t-26 61.5zM257 717q-18 0 -31 14t-13 30q0 23 15 35l83 79q16 14 37 14q20 0 35.5 -16t15.5 -38q0 -27 -20 -42l-92 -67
q-15 -9 -30 -9z" />
    <glyph glyph-name="uni013B" unicode="&#x13b;" horiz-adv-x="526" 
d="M22 84q0 18 4 33l106 483q8 34 34.5 55.5t62.5 21.5q41 0 70 -28t29 -68q0 -12 -3 -24l-84 -381h154q36 0 62 -25.5t26 -62.5t-26 -62.5t-62 -25.5h-275q-47 0 -72.5 22t-25.5 62zM151 -295q-13 0 -22 9t-9 22q0 18 16 27q41 21 55 48q-1 -1 -10 -1q-27 0 -43.5 17
t-16.5 47q0 33 27 59t61 26q32 0 54 -21.5t22 -57.5q0 -50 -35 -97q-35 -48 -83 -73q-12 -5 -16 -5z" />
    <glyph glyph-name="uni013C" unicode="&#x13c;" horiz-adv-x="280" 
d="M15 77q0 10 2 20l113 511q7 30 31 49.5t55 19.5q36 0 62 -25.5t26 -61.5q0 -10 -2 -20l-113 -511q-7 -30 -31 -49.5t-55 -19.5q-36 0 -62 25.5t-26 61.5zM9 -295q-13 0 -22 9t-9 22q0 18 16 27q41 21 55 48q-1 -1 -10 -1q-27 0 -43.5 17t-16.5 47q0 33 27 59t61 26
q32 0 54 -21.5t22 -57.5q0 -50 -35 -97q-35 -48 -83 -73q-12 -5 -16 -5z" />
    <glyph glyph-name="Lcaron" unicode="&#x13d;" horiz-adv-x="536" 
d="M22 84q0 18 4 33l106 483q8 34 34.5 55.5t62.5 21.5q41 0 70 -28t29 -68q0 -12 -3 -24l-84 -381h154q36 0 62 -25.5t26 -62.5t-26 -62.5t-62 -25.5h-275q-47 0 -72.5 22t-25.5 62zM428 428q-13 0 -22 9t-9 22q0 18 16 27q41 21 55 48q-1 -1 -10 -1q-27 0 -43.5 17
t-16.5 47q0 33 27 59t61 26q32 0 54 -21.5t22 -57.5q0 -50 -35 -97q-35 -48 -83 -73q-12 -5 -16 -5z" />
    <glyph glyph-name="lcaron" unicode="&#x13e;" horiz-adv-x="418" 
d="M15 77q0 10 2 20l113 511q7 30 31 49.5t55 19.5q36 0 62 -25.5t26 -61.5q0 -10 -2 -20l-113 -511q-7 -30 -31 -49.5t-55 -19.5q-36 0 -62 25.5t-26 61.5zM376 428q-13 0 -22 9t-9 22q0 18 16 27q41 21 55 48q-1 -1 -10 -1q-27 0 -43.5 17t-16.5 47q0 33 27 59t61 26
q32 0 54 -21.5t22 -57.5q0 -50 -35 -97q-35 -48 -83 -73q-12 -5 -16 -5z" />
    <glyph glyph-name="Ldot" unicode="&#x13f;" horiz-adv-x="599" 
d="M22 84q0 18 4 33l106 483q8 34 34.5 55.5t62.5 21.5q41 0 70 -28t29 -68q0 -12 -3 -24l-84 -381h154q36 0 62 -25.5t26 -62.5t-26 -62.5t-62 -25.5h-275q-47 0 -72.5 22t-25.5 62zM488 451q40 0 68.5 -29t28.5 -70q0 -47 -35 -81.5t-82 -34.5q-40 0 -68.5 29t-28.5 70
q0 47 35 81.5t82 34.5z" />
    <glyph glyph-name="ldot" unicode="&#x140;" horiz-adv-x="462" 
d="M15 77q0 10 2 20l113 511q7 30 31 49.5t55 19.5q36 0 62 -25.5t26 -61.5q0 -10 -2 -20l-113 -511q-7 -30 -31 -49.5t-55 -19.5q-36 0 -62 25.5t-26 61.5zM381 353q40 0 68.5 -29t28.5 -70q0 -47 -35 -81.5t-82 -34.5q-40 0 -68.5 29t-28.5 70q0 47 35 81.5t82 34.5z" />
    <glyph glyph-name="Lslash" unicode="&#x141;" horiz-adv-x="545" 
d="M492 88q0 -37 -26 -62.5t-62 -25.5h-275q-47 0 -72.5 22t-25.5 62q0 18 4 33l21 95q-22 5 -37 22t-15 40q0 38 35 57l48 25l54 244q8 34 34.5 55.5t62.5 21.5q41 0 70 -28t29 -68q0 -12 -3 -24l-23 -102q22 -5 37 -22.5t15 -40.5q0 -38 -35 -57l-48 -24l-30 -135h154
q36 0 62 -25.5t26 -62.5z" />
    <glyph glyph-name="lslash" unicode="&#x142;" horiz-adv-x="330" 
d="M319 452q19 0 33.5 -14.5t14.5 -35.5q0 -30 -27 -44l-68 -35l-58 -264q-7 -30 -31 -49.5t-55 -19.5q-36 0 -62 25.5t-26 61.5q0 10 2 20l27 123q-8 -3 -16 -3q-21 0 -36 14t-15 35q0 32 27 45l68 34l58 263q7 30 31 49.5t55 19.5q36 0 62 -25.5t26 -61.5q0 -10 -2 -20
l-27 -122q7 4 19 4z" />
    <glyph glyph-name="Nacute" unicode="&#x143;" horiz-adv-x="750" 
d="M419 67l-135 309l-67 -309q-8 -34 -34.5 -55.5t-62.5 -21.5q-42 0 -70.5 27.5t-28.5 68.5q0 12 3 24l101 459q11 47 48.5 77.5t86.5 30.5q42 0 76.5 -23t50.5 -60l122 -281l63 287q8 34 34.5 55.5t61.5 21.5q42 0 70.5 -28t28.5 -69q0 -13 -2 -23l-103 -466
q-10 -43 -45 -72t-80 -29q-39 0 -71 21t-47 56zM491 717q-18 0 -31 14t-13 30q0 23 15 35l83 79q16 14 37 14q20 0 35.5 -16t15.5 -38q0 -27 -20 -42l-92 -67q-15 -9 -30 -9z" />
    <glyph glyph-name="nacute" unicode="&#x144;" horiz-adv-x="607" 
d="M580 367q0 -23 -4 -38l-60 -270q-7 -30 -31 -49.5t-55 -19.5q-40 0 -63 25t-23 66q0 12 4 32l35 160q2 16 2 17q0 23 -16 34.5t-42 11.5q-45 0 -85 -37l-53 -240q-7 -30 -31 -49.5t-55 -19.5q-37 0 -62.5 24.5t-25.5 61.5q0 11 2 21l73 328q9 35 31 56.5t54 21.5
q35 0 61.5 -22.5t29.5 -55.5q38 36 73.5 53t82.5 17q72 0 115 -34.5t43 -93.5zM388 570q-18 0 -31 14t-13 30q0 23 15 35l83 79q16 14 37 14q20 0 35.5 -16t15.5 -38q0 -27 -20 -42l-92 -67q-15 -9 -30 -9z" />
    <glyph glyph-name="uni0145" unicode="&#x145;" horiz-adv-x="750" 
d="M419 67l-135 309l-67 -309q-8 -34 -34.5 -55.5t-62.5 -21.5q-42 0 -70.5 27.5t-28.5 68.5q0 12 3 24l101 459q11 47 48.5 77.5t86.5 30.5q42 0 76.5 -23t50.5 -60l122 -281l63 287q8 34 34.5 55.5t61.5 21.5q42 0 70.5 -28t28.5 -69q0 -13 -2 -23l-103 -466
q-10 -43 -45 -72t-80 -29q-39 0 -71 21t-47 56zM244 -295q-13 0 -22 9t-9 22q0 18 16 27q41 21 55 48q-1 -1 -10 -1q-27 0 -43.5 17t-16.5 47q0 33 27 59t61 26q32 0 54 -21.5t22 -57.5q0 -50 -35 -97q-35 -48 -83 -73q-12 -5 -16 -5z" />
    <glyph glyph-name="uni0146" unicode="&#x146;" horiz-adv-x="607" 
d="M580 367q0 -23 -4 -38l-60 -270q-7 -30 -31 -49.5t-55 -19.5q-40 0 -63 25t-23 66q0 12 4 32l35 160q2 16 2 17q0 23 -16 34.5t-42 11.5q-45 0 -85 -37l-53 -240q-7 -30 -31 -49.5t-55 -19.5q-37 0 -62.5 24.5t-25.5 61.5q0 11 2 21l73 328q9 35 31 56.5t54 21.5
q35 0 61.5 -22.5t29.5 -55.5q38 36 73.5 53t82.5 17q72 0 115 -34.5t43 -93.5zM172 -295q-13 0 -22 9t-9 22q0 18 16 27q41 21 55 48q-1 -1 -10 -1q-27 0 -43.5 17t-16.5 47q0 33 27 59t61 26q32 0 54 -21.5t22 -57.5q0 -50 -35 -97q-35 -48 -83 -73q-12 -5 -16 -5z" />
    <glyph glyph-name="Ncaron" unicode="&#x147;" horiz-adv-x="750" 
d="M419 67l-135 309l-67 -309q-8 -34 -34.5 -55.5t-62.5 -21.5q-42 0 -70.5 27.5t-28.5 68.5q0 12 3 24l101 459q11 47 48.5 77.5t86.5 30.5q42 0 76.5 -23t50.5 -60l122 -281l63 287q8 34 34.5 55.5t61.5 21.5q42 0 70.5 -28t28.5 -69q0 -13 -2 -23l-103 -466
q-10 -43 -45 -72t-80 -29q-39 0 -71 21t-47 56zM458 851l37 -57l67 64q16 15 33 15q18 0 30 -12.5t12 -29.5q0 -16 -10 -26l-33 -40q-35 -42 -86 -42h-55q-49 0 -67 42l-17 40q-4 11 -4 18q0 21 14.5 35.5t36.5 14.5q26 0 42 -22z" />
    <glyph glyph-name="ncaron" unicode="&#x148;" horiz-adv-x="607" 
d="M580 367q0 -23 -4 -38l-60 -270q-7 -30 -31 -49.5t-55 -19.5q-40 0 -63 25t-23 66q0 12 4 32l35 160q2 16 2 17q0 23 -16 34.5t-42 11.5q-45 0 -85 -37l-53 -240q-7 -30 -31 -49.5t-55 -19.5q-37 0 -62.5 24.5t-25.5 61.5q0 11 2 21l73 328q9 35 31 56.5t54 21.5
q35 0 61.5 -22.5t29.5 -55.5q38 36 73.5 53t82.5 17q72 0 115 -34.5t43 -93.5zM355 704l37 -57l67 64q17 15 33 15q18 0 30 -12.5t12 -29.5q0 -16 -10 -26l-33 -40q-35 -42 -86 -42h-55q-49 0 -67 42l-17 40q-4 11 -4 18q0 20 15 35t36 15q26 0 42 -22z" />
    <glyph glyph-name="napostrophe" unicode="&#x149;" horiz-adv-x="607" 
d="M580 367q0 -23 -4 -38l-60 -270q-7 -30 -31 -49.5t-55 -19.5q-40 0 -63 25t-23 66q0 12 4 32l35 160q2 16 2 17q0 23 -16 34.5t-42 11.5q-45 0 -85 -37l-53 -240q-7 -30 -31 -49.5t-55 -19.5q-37 0 -62.5 24.5t-25.5 61.5q0 11 2 21l73 328q9 35 31 56.5t54 21.5
q35 0 61.5 -22.5t29.5 -55.5q38 36 73.5 53t82.5 17q72 0 115 -34.5t43 -93.5zM155 532q-13 0 -22 9t-9 22q0 18 16 27q41 21 55 48q-1 -1 -10 -1q-27 0 -43.5 17t-16.5 47q0 33 27 59t61 26q32 0 54 -21.5t22 -57.5q0 -50 -35 -97q-35 -48 -83 -73q-12 -5 -16 -5z" />
    <glyph glyph-name="Eng" unicode="&#x14a;" horiz-adv-x="750" 
d="M767 577q0 -2 -2 -20l-112 -503q-28 -130 -93.5 -190t-177.5 -60q-67 0 -125 20q-24 8 -39 29t-15 47q0 34 23.5 57.5t56.5 23.5q21 0 34 -7q25 -11 46 -11q55 0 78 53l-157 360l-67 -309q-8 -34 -34.5 -55.5t-62.5 -21.5q-43 0 -70 28.5t-27 72.5q0 14 1 19l101 459
q11 47 48.5 77.5t86.5 30.5q42 0 76.5 -23t50.5 -60l122 -281l63 287q8 34 34.5 55.5t61.5 21.5q42 0 70.5 -29t28.5 -71z" />
    <glyph glyph-name="eng" unicode="&#x14b;" horiz-adv-x="607" 
d="M581 368q0 -14 -5 -39l-69 -308q-23 -107 -75.5 -162t-143.5 -55h-6q-33 0 -56 20.5t-23 52.5q0 26 16.5 48t38.5 27l11 2q44 7 58 67l56 252q2 16 2 17q0 23 -16 34.5t-42 11.5q-45 0 -85 -37l-53 -240q-7 -30 -31 -49.5t-55 -19.5q-37 0 -62.5 24.5t-25.5 61.5
q0 11 2 21l73 328q9 35 31 56.5t54 21.5q35 0 61.5 -22.5t29.5 -55.5q38 36 73.5 53t82.5 17q72 0 115.5 -34t43.5 -93z" />
    <glyph glyph-name="Omacron" unicode="&#x14c;" horiz-adv-x="766" 
d="M429 678q147 2 248 -85.5t99 -218.5q2 -159 -115 -274t-285 -112q-147 -2 -248.5 86t-99.5 220q-3 159 114.5 272.5t286.5 111.5zM417 500q-77 0 -128.5 -57t-51.5 -135q0 -62 41.5 -102t108.5 -40q77 0 128.5 57t51.5 135q0 62 -41.5 102t-108.5 40zM310 766
q0 20 14.5 34.5t34.5 14.5h283q20 0 34.5 -14.5t14.5 -34.5q0 -19 -14.5 -33.5t-34.5 -14.5h-283q-20 0 -34.5 14.5t-14.5 33.5z" />
    <glyph glyph-name="omacron" unicode="&#x14d;" horiz-adv-x="577" 
d="M303 495q122 0 190 -63t68 -162q2 -113 -83 -199t-206 -83q-122 0 -190 63t-68 162q-2 112 83 198t206 84zM296 336q-43 0 -70.5 -33t-27.5 -81q0 -36 21.5 -55.5t59.5 -19.5q43 0 70.5 33t27.5 81q0 36 -21.5 55.5t-59.5 19.5zM183 619q0 20 14.5 34.5t34.5 14.5h283
q20 0 34.5 -14.5t14.5 -34.5q0 -19 -14.5 -33.5t-34.5 -14.5h-283q-20 0 -34.5 14.5t-14.5 33.5z" />
    <glyph glyph-name="Obreve" unicode="&#x14e;" horiz-adv-x="766" 
d="M429 678q147 2 248 -85.5t99 -218.5q2 -159 -115 -274t-285 -112q-147 -2 -248.5 86t-99.5 220q-3 159 114.5 272.5t286.5 111.5zM417 500q-77 0 -128.5 -57t-51.5 -135q0 -62 41.5 -102t108.5 -40q77 0 128.5 57t51.5 135q0 62 -41.5 102t-108.5 40zM367 764
q-17 17 -17 39t15 37.5t37 15.5t37 -15q27 -27 69 -27q48 0 91 34q11 10 28 10q18 0 31 -13t13 -32q0 -21 -17 -35q-76 -61 -163 -61q-74 0 -124 47z" />
    <glyph glyph-name="obreve" unicode="&#x14f;" horiz-adv-x="577" 
d="M303 495q122 0 190 -63t68 -162q2 -113 -83 -199t-206 -83q-122 0 -190 63t-68 162q-2 112 83 198t206 84zM296 336q-43 0 -70.5 -33t-27.5 -81q0 -36 21.5 -55.5t59.5 -19.5q43 0 70.5 33t27.5 81q0 36 -21.5 55.5t-59.5 19.5zM240 617q-17 17 -17 39t15 37.5t37 15.5
t37 -15q27 -27 69 -27q48 0 91 34q11 10 28 10q18 0 31 -13t13 -32q0 -21 -17 -35q-76 -61 -163 -61q-74 0 -124 47z" />
    <glyph glyph-name="Ohungarumlaut" unicode="&#x150;" horiz-adv-x="766" 
d="M429 678q147 2 248 -85.5t99 -218.5q2 -159 -115 -274t-285 -112q-147 -2 -248.5 86t-99.5 220q-3 159 114.5 272.5t286.5 111.5zM417 500q-77 0 -128.5 -57t-51.5 -135q0 -62 41.5 -102t108.5 -40q77 0 128.5 57t51.5 135q0 62 -41.5 102t-108.5 40zM398 758q0 16 9 26
l58 74q13 16 35 16q19 0 33 -13.5t14 -33.5t-13 -33l-63 -62q-15 -15 -32 -15t-29 12t-12 29zM554 758q0 16 9 26l58 74q13 16 35 16q20 0 33.5 -13.5t13.5 -33.5t-13 -33l-63 -62q-15 -15 -32 -15t-29 12t-12 29z" />
    <glyph glyph-name="ohungarumlaut" unicode="&#x151;" horiz-adv-x="577" 
d="M303 495q122 0 190 -63t68 -162q2 -113 -83 -199t-206 -83q-122 0 -190 63t-68 162q-2 112 83 198t206 84zM296 336q-43 0 -70.5 -33t-27.5 -81q0 -36 21.5 -55.5t59.5 -19.5q43 0 70.5 33t27.5 81q0 36 -21.5 55.5t-59.5 19.5zM271 611q0 15 9 26l58 74q13 16 35 16
q19 0 33 -13.5t14 -33.5t-13 -33l-63 -62q-15 -15 -32 -15t-29 12t-12 29zM427 611q0 15 9 26l58 74q13 16 35 16q20 0 33.5 -13.5t13.5 -33.5t-13 -33l-63 -62q-15 -15 -32 -15t-29 12t-12 29z" />
    <glyph glyph-name="OE" unicode="&#x152;" horiz-adv-x="1062" 
d="M1031 499h-247l-17 -78h203q35 0 59.5 -24.5t24.5 -59.5q0 -34 -24.5 -59t-59.5 -25h-240l-19 -85h210q35 0 59.5 -24.5t24.5 -59.5q0 -34 -24.5 -59t-59.5 -25h-330q-88 0 -102 56q-66 -68 -182 -68q-112 -2 -196.5 88t-82.5 218q-2 109 51 198.5t140.5 138t188.5 46.5
q124 0 198 -75q18 65 109 65h316q35 0 59.5 -24.5t24.5 -59.5q0 -34 -24.5 -59t-59.5 -25zM524 237l40 179q-19 39 -55.5 61t-83.5 22q-84 0 -136 -56t-52 -135q0 -62 40.5 -102t101.5 -40q89 0 145 71z" />
    <glyph glyph-name="oe" unicode="&#x153;" horiz-adv-x="901" 
d="M557 186v-1q0 -16 29 -38t69 -22q25 0 62 8q14 2 17 2q27 0 46.5 -19.5t19.5 -46.5q0 -22 -13 -39t-33 -24q-50 -18 -113 -18q-60 0 -110.5 21t-78.5 55q-49 -40 -89 -58t-93 -18q-115 0 -186 59q-70 60 -70 166q-2 110 81 197t206 85q56 0 105 -21.5t78 -55.5
q49 41 88 59t92 18q95 0 159.5 -58t64.5 -162q0 -5 -2 -23q-17 -66 -109 -66h-220zM729 300v1q0 21 -19 39t-53 18q-29 0 -53 -18t-30 -40h155zM198 222q0 -36 21 -55.5t58 -19.5q42 0 69 32.5t27 81.5q0 36 -21 55.5t-58 19.5q-42 0 -69 -32t-27 -82z" />
    <glyph glyph-name="Racute" unicode="&#x154;" horiz-adv-x="678" 
d="M541 229l50 -84q14 -26 14 -51q0 -43 -28.5 -73.5t-74.5 -30.5q-67 0 -94 57l-80 167h-79l-32 -147q-8 -34 -34.5 -55.5t-62.5 -21.5q-42 0 -70.5 27t-28.5 68q0 13 3 25l102 463q21 94 117 94h228q94 0 159 -56.5t65 -145.5q0 -80 -44 -145q-43 -64 -110 -91zM312 499
l-26 -117h118q38 0 60 16.5t22 46.5q0 25 -16 39.5t-43 14.5h-115zM460 717q-18 0 -31 14t-13 30q0 23 15 35l83 79q16 14 37 14q20 0 35.5 -16t15.5 -38q0 -27 -20 -42l-92 -67q-15 -9 -30 -9z" />
    <glyph glyph-name="racute" unicode="&#x155;" horiz-adv-x="390" 
d="M421 417q0 -40 -22.5 -65t-60.5 -25h-7q-52 0 -92 -37l-50 -231q-6 -29 -30.5 -49t-55.5 -20q-37 0 -62.5 24.5t-25.5 61.5q0 11 2 21l71 320q8 36 31.5 57t59.5 21q32 0 53 -20t26 -54q26 74 92 74q31 0 51 -21.5t20 -56.5zM300 570q-18 0 -31 14t-13 30q0 23 15 35
l83 79q16 14 37 14q20 0 35.5 -16t15.5 -38q0 -27 -20 -42l-92 -67q-15 -9 -30 -9z" />
    <glyph glyph-name="uni0156" unicode="&#x156;" horiz-adv-x="678" 
d="M541 229l50 -84q14 -26 14 -51q0 -43 -28.5 -73.5t-74.5 -30.5q-67 0 -94 57l-80 167h-79l-32 -147q-8 -34 -34.5 -55.5t-62.5 -21.5q-42 0 -70.5 27t-28.5 68q0 13 3 25l102 463q21 94 117 94h228q94 0 159 -56.5t65 -145.5q0 -80 -44 -145q-43 -64 -110 -91zM312 499
l-26 -117h118q38 0 60 16.5t22 46.5q0 25 -16 39.5t-43 14.5h-115zM213 -295q-13 0 -22 9t-9 22q0 18 16 27q41 21 55 48q-1 -1 -10 -1q-27 0 -43.5 17t-16.5 47q0 33 27 59t61 26q32 0 54 -21.5t22 -57.5q0 -50 -35 -97q-35 -48 -83 -73q-12 -5 -16 -5z" />
    <glyph glyph-name="uni0157" unicode="&#x157;" horiz-adv-x="390" 
d="M421 417q0 -40 -22.5 -65t-60.5 -25h-7q-52 0 -92 -37l-50 -231q-6 -29 -30.5 -49t-55.5 -20q-37 0 -62.5 24.5t-25.5 61.5q0 11 2 21l71 320q8 36 31.5 57t59.5 21q32 0 53 -20t26 -54q26 74 92 74q31 0 51 -21.5t20 -56.5zM12 -295q-13 0 -22 9t-9 22q0 18 16 27
q41 21 55 48q-1 -1 -10 -1q-27 0 -43.5 17t-16.5 47q0 33 27 59t61 26q32 0 54 -21.5t22 -57.5q0 -50 -35 -97q-35 -48 -83 -73q-12 -5 -16 -5z" />
    <glyph glyph-name="Rcaron" unicode="&#x158;" horiz-adv-x="678" 
d="M541 229l50 -84q14 -26 14 -51q0 -43 -28.5 -73.5t-74.5 -30.5q-67 0 -94 57l-80 167h-79l-32 -147q-8 -34 -34.5 -55.5t-62.5 -21.5q-42 0 -70.5 27t-28.5 68q0 13 3 25l102 463q21 94 117 94h228q94 0 159 -56.5t65 -145.5q0 -80 -44 -145q-43 -64 -110 -91zM312 499
l-26 -117h118q38 0 60 16.5t22 46.5q0 25 -16 39.5t-43 14.5h-115zM427 851l37 -57l67 64q17 15 33 15q18 0 30 -12.5t12 -29.5q0 -16 -10 -26l-33 -40q-35 -42 -86 -42h-55q-49 0 -67 42l-17 40q-4 11 -4 18q0 21 15 35.5t36 14.5q26 0 42 -22z" />
    <glyph glyph-name="rcaron" unicode="&#x159;" horiz-adv-x="390" 
d="M421 417q0 -40 -22.5 -65t-60.5 -25h-7q-52 0 -92 -37l-50 -231q-6 -29 -30.5 -49t-55.5 -20q-37 0 -62.5 24.5t-25.5 61.5q0 11 2 21l71 320q8 36 31.5 57t59.5 21q32 0 53 -20t26 -54q26 74 92 74q31 0 51 -21.5t20 -56.5zM267 704l37 -57l67 64q17 15 33 15
q18 0 30 -12.5t12 -29.5q0 -16 -10 -26l-33 -40q-35 -42 -86 -42h-55q-49 0 -67 42l-17 40q-4 11 -4 18q0 20 15 35t36 15q26 0 42 -22z" />
    <glyph glyph-name="Sacute" unicode="&#x15a;" horiz-adv-x="613" 
d="M10 135q0 38 26.5 65t64.5 27q29 0 51 -15q80 -54 177 -54q56 0 56 33q0 16 -19.5 28.5t-64.5 27.5q-59 19 -112 44q-118 57 -118 174q-2 78 77 146t204 66q115 0 212 -53q47 -27 47 -79q0 -37 -26.5 -63.5t-63.5 -26.5q-26 0 -46 13q-70 42 -145 42q-52 0 -52 -34
q0 -14 20 -26t65 -27q100 -31 166 -78q66 -46 66 -130q0 -96 -77.5 -161.5t-201.5 -65.5q-151 0 -263 70q-43 28 -43 77zM417 717q-18 0 -31 14t-13 30q0 23 15 35l83 79q16 14 37 14q20 0 35.5 -16t15.5 -38q0 -27 -20 -42l-92 -67q-15 -9 -30 -9z" />
    <glyph glyph-name="sacute" unicode="&#x15b;" horiz-adv-x="490" 
d="M3 98q0 29 21 49.5t50 20.5q20 0 35 -9q76 -43 139 -43q31 0 31 21t-71 42q-75 21 -118 50q-46 31 -46 89q0 73 58.5 125t156.5 52q89 0 168 -41q36 -19 36 -59q0 -28 -19.5 -47.5t-47.5 -19.5q-16 0 -32 9q-53 29 -103 29q-37 0 -37 -21q0 -20 61 -35q73 -19 125 -50
q49 -30 49 -93q0 -78 -62 -128.5t-166 -50.5q-101 0 -190 48q-38 20 -38 62zM330 570q-18 0 -31 14t-13 30q0 23 15 35l83 79q16 14 37 14q20 0 35.5 -16t15.5 -38q0 -27 -20 -42l-92 -67q-15 -9 -30 -9z" />
    <glyph glyph-name="Scircumflex" unicode="&#x15c;" horiz-adv-x="613" 
d="M10 135q0 38 26.5 65t64.5 27q29 0 51 -15q80 -54 177 -54q56 0 56 33q0 16 -19.5 28.5t-64.5 27.5q-59 19 -112 44q-118 57 -118 174q-2 78 77 146t204 66q115 0 212 -53q47 -27 47 -79q0 -37 -26.5 -63.5t-63.5 -26.5q-26 0 -46 13q-70 42 -145 42q-52 0 -52 -34
q0 -14 20 -26t65 -27q100 -31 166 -78q66 -46 66 -130q0 -96 -77.5 -161.5t-201.5 -65.5q-151 0 -263 70q-43 28 -43 77zM462 739l-37 57l-67 -64q-16 -15 -33 -15q-18 0 -30 12.5t-12 29.5q0 16 10 26l33 40q35 42 86 42h55q49 0 67 -42l17 -40q4 -11 4 -18
q0 -21 -14.5 -35.5t-36.5 -14.5q-26 0 -42 22z" />
    <glyph glyph-name="scircumflex" unicode="&#x15d;" horiz-adv-x="490" 
d="M3 98q0 29 21 49.5t50 20.5q20 0 35 -9q76 -43 139 -43q31 0 31 21t-71 42q-75 21 -118 50q-46 31 -46 89q0 73 58.5 125t156.5 52q89 0 168 -41q36 -19 36 -59q0 -28 -19.5 -47.5t-47.5 -19.5q-16 0 -32 9q-53 29 -103 29q-37 0 -37 -21q0 -20 61 -35q73 -19 125 -50
q49 -30 49 -93q0 -78 -62 -128.5t-166 -50.5q-101 0 -190 48q-38 20 -38 62zM375 592l-37 57l-67 -64q-17 -15 -33 -15q-18 0 -30 12.5t-12 29.5q0 16 10 26l33 40q35 42 86 42h55q49 0 67 -42l17 -40q4 -11 4 -18q0 -20 -15 -35t-36 -15q-26 0 -42 22z" />
    <glyph glyph-name="uni015E" unicode="&#x15e;" horiz-adv-x="613" 
d="M595 215q0 -96 -77.5 -161.5t-201.5 -65.5q-31 0 -40 1l-24 -36q14 9 29 9q25 0 42.5 -18t17.5 -47q0 -44 -33.5 -70.5t-84.5 -26.5q-58 0 -102 24q-20 12 -20 33q0 15 11 26t26 11q10 0 18 -5q32 -21 66 -21q38 0 38 24q0 17 -22 17q-8 0 -15 -4t-16 -4
q-15 0 -25.5 10.5t-10.5 24.5q0 10 5 18l27 45q-84 18 -150 59q-43 28 -43 77q0 38 26.5 65t64.5 27q29 0 51 -15q80 -54 177 -54q56 0 56 33q0 16 -19.5 28.5t-64.5 27.5q-59 19 -112 44q-118 57 -118 174q-2 78 77 146t204 66q115 0 212 -53q47 -27 47 -79
q0 -37 -26.5 -63.5t-63.5 -26.5q-26 0 -46 13q-70 42 -145 42q-52 0 -52 -34q0 -14 20 -26t65 -27q100 -31 166 -78q66 -46 66 -130z" />
    <glyph glyph-name="uni015F" unicode="&#x15f;" horiz-adv-x="490" 
d="M459 167q0 -78 -62 -128.5t-166 -50.5h-12l-23 -35q14 9 29 9q25 0 42.5 -18t17.5 -47q0 -44 -33.5 -70.5t-84.5 -26.5q-58 0 -102 24q-20 12 -20 33q0 15 11 26t26 11q10 0 18 -5q32 -21 66 -21q38 0 38 24q0 17 -22 17q-8 0 -15 -4t-16 -4q-15 0 -25.5 10.5t-10.5 24.5
q0 10 5 18l26 43q-57 13 -105 39q-38 20 -38 62q0 29 21 49.5t50 20.5q20 0 35 -9q76 -43 139 -43q31 0 31 21t-71 42q-75 21 -118 50q-46 31 -46 89q0 73 58.5 125t156.5 52q89 0 168 -41q36 -19 36 -59q0 -28 -19.5 -47.5t-47.5 -19.5q-16 0 -32 9q-53 29 -103 29
q-37 0 -37 -21q0 -20 61 -35q73 -19 125 -50q49 -30 49 -93z" />
    <glyph glyph-name="Scaron" unicode="&#x160;" horiz-adv-x="613" 
d="M10 135q0 38 26.5 65t64.5 27q29 0 51 -15q80 -54 177 -54q56 0 56 33q0 16 -19.5 28.5t-64.5 27.5q-59 19 -112 44q-118 57 -118 174q-2 78 77 146t204 66q115 0 212 -53q47 -27 47 -79q0 -37 -26.5 -63.5t-63.5 -26.5q-26 0 -46 13q-70 42 -145 42q-52 0 -52 -34
q0 -14 20 -26t65 -27q100 -31 166 -78q66 -46 66 -130q0 -96 -77.5 -161.5t-201.5 -65.5q-151 0 -263 70q-43 28 -43 77zM384 851l37 -57l67 64q16 15 33 15q18 0 30 -12.5t12 -29.5q0 -16 -10 -26l-33 -40q-35 -42 -86 -42h-55q-49 0 -67 42l-17 40q-4 11 -4 18
q0 21 14.5 35.5t36.5 14.5q26 0 42 -22z" />
    <glyph glyph-name="scaron" unicode="&#x161;" horiz-adv-x="490" 
d="M3 98q0 29 21 49.5t50 20.5q20 0 35 -9q76 -43 139 -43q31 0 31 21t-71 42q-75 21 -118 50q-46 31 -46 89q0 73 58.5 125t156.5 52q89 0 168 -41q36 -19 36 -59q0 -28 -19.5 -47.5t-47.5 -19.5q-16 0 -32 9q-53 29 -103 29q-37 0 -37 -21q0 -20 61 -35q73 -19 125 -50
q49 -30 49 -93q0 -78 -62 -128.5t-166 -50.5q-101 0 -190 48q-38 20 -38 62zM297 704l37 -57l67 64q17 15 33 15q18 0 30 -12.5t12 -29.5q0 -16 -10 -26l-33 -40q-35 -42 -86 -42h-55q-49 0 -67 42l-17 40q-4 11 -4 18q0 20 15 35t36 15q26 0 42 -22z" />
    <glyph glyph-name="uni0162" unicode="&#x162;" horiz-adv-x="595" 
d="M172 86q0 12 3 24l84 381h-88q-36 0 -62 25.5t-26 62.5t26 62.5t62 25.5h400q36 0 62 -25.5t26 -62.5t-26 -62.5t-62 -25.5h-110l-93 -424q-8 -34 -34.5 -55.5t-62.5 -21.5q-42 0 -70.5 27.5t-28.5 68.5zM167 -295q-13 0 -22 9t-9 22q0 18 16 27q41 21 55 48
q-1 -1 -10 -1q-27 0 -43.5 17t-16.5 47q0 33 27 59t61 26q32 0 54 -21.5t22 -57.5q0 -50 -35 -97q-35 -48 -83 -73q-12 -5 -16 -5z" />
    <glyph glyph-name="uni0163" unicode="&#x163;" horiz-adv-x="382" 
d="M285 327l-28 -127q0 -3 -0.5 -5.5t-1 -4.5t-0.5 -3.5v-2.5q0 -30 25 -36l17 -3q17 -3 30.5 -22.5t13.5 -41.5q0 -36 -22.5 -60t-60.5 -31q-14 -2 -31 -2q-75 0 -120 33t-45 91q0 21 4 36l40 180q-31 3 -51.5 24.5t-20.5 52.5q0 32 23 55t55 23h28l16 73q7 30 31 49.5
t55 19.5q36 0 62 -25.5t26 -61.5q0 -10 -2 -20l-8 -35h11q32 0 55 -23t23 -55t-23 -55t-55 -23h-46zM42 -295q-13 0 -22 9t-9 22q0 18 16 27q41 21 55 48q-1 -1 -10 -1q-27 0 -43.5 17t-16.5 47q0 33 27 59t61 26q32 0 54 -21.5t22 -57.5q0 -50 -35 -97q-35 -48 -83 -73
q-12 -5 -16 -5z" />
    <glyph glyph-name="Tcaron" unicode="&#x164;" horiz-adv-x="595" 
d="M172 86q0 12 3 24l84 381h-88q-36 0 -62 25.5t-26 62.5t26 62.5t62 25.5h400q36 0 62 -25.5t26 -62.5t-26 -62.5t-62 -25.5h-110l-93 -424q-8 -34 -34.5 -55.5t-62.5 -21.5q-42 0 -70.5 27.5t-28.5 68.5zM381 851l37 -57l67 64q17 15 33 15q18 0 30 -12.5t12 -29.5
q0 -16 -10 -26l-33 -40q-35 -42 -86 -42h-55q-49 0 -67 42l-17 40q-4 11 -4 18q0 21 15 35.5t36 14.5q26 0 42 -22z" />
    <glyph glyph-name="tcaron" unicode="&#x165;" horiz-adv-x="412" 
d="M285 327l-28 -127q0 -3 -0.5 -5.5t-1 -4.5t-0.5 -3.5v-2.5q0 -30 25 -36l17 -3q17 -3 30.5 -22.5t13.5 -41.5q0 -36 -22.5 -60t-60.5 -31q-14 -2 -31 -2q-75 0 -120 33t-45 91q0 21 4 36l40 180q-31 3 -51.5 24.5t-20.5 52.5q0 32 23 55t55 23h28l16 73q7 30 31 49.5
t55 19.5q36 0 62 -25.5t26 -61.5q0 -10 -2 -20l-8 -35h11q32 0 55 -23t23 -55t-23 -55t-55 -23h-46zM413 532q-13 0 -22 9t-9 22q0 18 16 27q41 21 55 48q-1 -1 -10 -1q-27 0 -43.5 17t-16.5 47q0 33 27 59t61 26q32 0 54 -21.5t22 -57.5q0 -50 -35 -97q-35 -48 -83 -73
q-12 -5 -16 -5z" />
    <glyph glyph-name="Tbar" unicode="&#x166;" horiz-adv-x="595" 
d="M659 579q0 -37 -26 -62.5t-62 -25.5h-110l-36 -163h58q20 0 34.5 -14.5t14.5 -34.5q0 -19 -14.5 -33.5t-34.5 -14.5h-79l-36 -164q-8 -34 -34.5 -55.5t-62.5 -21.5q-42 0 -70.5 27.5t-28.5 68.5q0 12 3 24l27 121h-74q-20 0 -34.5 14.5t-14.5 33.5q0 20 14.5 34.5
t34.5 14.5h95l36 163h-88q-36 0 -62 25.5t-26 62.5t26 62.5t62 25.5h400q36 0 62 -25.5t26 -62.5z" />
    <glyph glyph-name="tbar" unicode="&#x167;" horiz-adv-x="382" 
d="M331 327h-46l-8 -39h15q20 0 34.5 -14.5t14.5 -34.5t-14.5 -34t-34.5 -14h-37q-4 -37 25 -43l17 -3q17 -3 30.5 -22.5t13.5 -41.5q0 -36 -22.5 -60t-60.5 -31q-14 -2 -31 -2q-75 0 -120 33t-45 91q0 21 4 36l9 43h-29q-20 0 -34.5 14t-14.5 34t14.5 34.5t34.5 14.5h51
l9 40q-31 3 -51.5 24.5t-20.5 52.5q0 32 23 55t55 23h28l16 73q7 30 31 49.5t55 19.5q36 0 62 -25.5t26 -61.5q0 -10 -2 -20l-8 -35h11q32 0 55 -23t23 -55t-23 -55t-55 -23z" />
    <glyph glyph-name="Utilde" unicode="&#x168;" horiz-adv-x="749" 
d="M60 274l72 325q8 34 35.5 56t62.5 22q43 0 71.5 -27.5t28.5 -69.5q0 -12 -3 -25l-61 -276q-2 -14 -2 -24q1 -38 28.5 -64.5t74.5 -26.5q105 0 130 115l71 320q8 34 35.5 56t62.5 22q43 0 71.5 -27.5t28.5 -69.5q0 -12 -3 -25l-62 -280q-29 -133 -108 -210
q-80 -77 -226 -77q-151 0 -231.5 65t-80.5 179q0 20 5 42zM428 764q-14 0 -21 -19q-4 -13 -15.5 -20.5t-26.5 -7.5q-19 0 -31 12.5t-12 31.5q0 1 0.5 2.5t1 4.5t0.5 6q15 46 41.5 66.5t71.5 20.5q40 0 81 -26q30 -17 43 -17q14 0 21 19q12 28 41 28q19 0 31 -11.5t12 -30.5
q0 -1 -2 -15q-15 -46 -41.5 -66.5t-71.5 -20.5q-38 0 -81 26q-27 17 -42 17z" />
    <glyph glyph-name="utilde" unicode="&#x169;" horiz-adv-x="606" 
d="M590 407q0 -11 -2 -21l-73 -328q-9 -35 -31 -56.5t-54 -21.5q-35 0 -61.5 22.5t-29.5 55.5q-38 -36 -73.5 -53t-82.5 -17q-72 0 -115 34.5t-43 93.5q0 23 4 38l60 270q7 30 31 49.5t55 19.5q40 0 63 -25t23 -66q0 -12 -4 -32l-35 -160q-2 -16 -2 -17q0 -23 16 -34.5
t42 -11.5q45 0 85 37l53 240q7 30 31 49.5t55 19.5q37 0 62.5 -24.5t25.5 -61.5zM324 617q-14 0 -21 -19q-4 -13 -15.5 -20.5t-26.5 -7.5q-19 0 -31 12.5t-12 31.5q0 1 0.5 2.5t1 4.5t0.5 6q15 46 41.5 66.5t71.5 20.5q40 0 81 -26q30 -17 43 -17q14 0 21 19q12 28 41 28
q19 0 31 -11.5t12 -30.5q0 -1 -2 -15q-15 -46 -41.5 -66.5t-71.5 -20.5q-38 0 -81 26q-27 17 -42 17z" />
    <glyph glyph-name="Umacron" unicode="&#x16a;" horiz-adv-x="749" 
d="M60 274l72 325q8 34 35.5 56t62.5 22q43 0 71.5 -27.5t28.5 -69.5q0 -12 -3 -25l-61 -276q-2 -14 -2 -24q1 -38 28.5 -64.5t74.5 -26.5q105 0 130 115l71 320q8 34 35.5 56t62.5 22q43 0 71.5 -27.5t28.5 -69.5q0 -12 -3 -25l-62 -280q-29 -133 -108 -210
q-80 -77 -226 -77q-151 0 -231.5 65t-80.5 179q0 20 5 42zM301 766q0 20 14.5 34.5t34.5 14.5h283q20 0 34.5 -14.5t14.5 -34.5q0 -19 -14.5 -33.5t-34.5 -14.5h-283q-20 0 -34.5 14.5t-14.5 33.5z" />
    <glyph glyph-name="umacron" unicode="&#x16b;" horiz-adv-x="606" 
d="M590 407q0 -11 -2 -21l-73 -328q-9 -35 -31 -56.5t-54 -21.5q-35 0 -61.5 22.5t-29.5 55.5q-38 -36 -73.5 -53t-82.5 -17q-72 0 -115 34.5t-43 93.5q0 23 4 38l60 270q7 30 31 49.5t55 19.5q40 0 63 -25t23 -66q0 -12 -4 -32l-35 -160q-2 -16 -2 -17q0 -23 16 -34.5
t42 -11.5q45 0 85 37l53 240q7 30 31 49.5t55 19.5q37 0 62.5 -24.5t25.5 -61.5zM197 619q0 20 14.5 34.5t34.5 14.5h283q20 0 34.5 -14.5t14.5 -34.5q0 -19 -14.5 -33.5t-34.5 -14.5h-283q-20 0 -34.5 14.5t-14.5 33.5z" />
    <glyph glyph-name="Ubreve" unicode="&#x16c;" horiz-adv-x="749" 
d="M60 274l72 325q8 34 35.5 56t62.5 22q43 0 71.5 -27.5t28.5 -69.5q0 -12 -3 -25l-61 -276q-2 -14 -2 -24q1 -38 28.5 -64.5t74.5 -26.5q105 0 130 115l71 320q8 34 35.5 56t62.5 22q43 0 71.5 -27.5t28.5 -69.5q0 -12 -3 -25l-62 -280q-29 -133 -108 -210
q-80 -77 -226 -77q-151 0 -231.5 65t-80.5 179q0 20 5 42zM358 764q-17 17 -17 39t15 37.5t37 15.5t37 -15q27 -27 69 -27q48 0 91 34q11 10 28 10q18 0 31 -13t13 -32q0 -21 -17 -35q-76 -61 -163 -61q-74 0 -124 47z" />
    <glyph glyph-name="ubreve" unicode="&#x16d;" horiz-adv-x="606" 
d="M590 407q0 -11 -2 -21l-73 -328q-9 -35 -31 -56.5t-54 -21.5q-35 0 -61.5 22.5t-29.5 55.5q-38 -36 -73.5 -53t-82.5 -17q-72 0 -115 34.5t-43 93.5q0 23 4 38l60 270q7 30 31 49.5t55 19.5q40 0 63 -25t23 -66q0 -12 -4 -32l-35 -160q-2 -16 -2 -17q0 -23 16 -34.5
t42 -11.5q45 0 85 37l53 240q7 30 31 49.5t55 19.5q37 0 62.5 -24.5t25.5 -61.5zM254 617q-17 17 -17 39t15 37.5t37 15.5t37 -15q27 -27 69 -27q48 0 91 34q11 10 28 10q18 0 31 -13t13 -32q0 -21 -17 -35q-76 -61 -163 -61q-74 0 -124 47z" />
    <glyph glyph-name="Uring" unicode="&#x16e;" horiz-adv-x="749" 
d="M60 274l72 325q8 34 35.5 56t62.5 22q43 0 71.5 -27.5t28.5 -69.5q0 -12 -3 -25l-61 -276q-2 -14 -2 -24q1 -38 28.5 -64.5t74.5 -26.5q105 0 130 115l71 320q8 34 35.5 56t62.5 22q43 0 71.5 -27.5t28.5 -69.5q0 -12 -3 -25l-62 -280q-29 -133 -108 -210
q-80 -77 -226 -77q-151 0 -231.5 65t-80.5 179q0 20 5 42zM507 910q46 0 74 -28t28 -74q0 -50 -36.5 -86t-85.5 -36q-46 0 -74 28t-28 74q0 50 36.5 86t85.5 36zM499 832q-14 0 -25 -11t-11 -25t9 -23t23 -9t25 11t11 25t-9 23t-23 9z" />
    <glyph glyph-name="uring" unicode="&#x16f;" horiz-adv-x="606" 
d="M590 407q0 -11 -2 -21l-73 -328q-9 -35 -31 -56.5t-54 -21.5q-35 0 -61.5 22.5t-29.5 55.5q-38 -36 -73.5 -53t-82.5 -17q-72 0 -115 34.5t-43 93.5q0 23 4 38l60 270q7 30 31 49.5t55 19.5q40 0 63 -25t23 -66q0 -12 -4 -32l-35 -160q-2 -16 -2 -17q0 -23 16 -34.5
t42 -11.5q45 0 85 37l53 240q7 30 31 49.5t55 19.5q37 0 62.5 -24.5t25.5 -61.5zM403 763q46 0 74 -28t28 -74q0 -49 -36.5 -85.5t-85.5 -36.5q-46 0 -74 28t-28 74q0 49 36.5 85.5t85.5 36.5zM395 685q-14 0 -25 -11t-11 -25t9 -23t23 -9t25 11t11 25t-9 23t-23 9z" />
    <glyph glyph-name="Uhungarumlaut" unicode="&#x170;" horiz-adv-x="749" 
d="M60 274l72 325q8 34 35.5 56t62.5 22q43 0 71.5 -27.5t28.5 -69.5q0 -12 -3 -25l-61 -276q-2 -14 -2 -24q1 -38 28.5 -64.5t74.5 -26.5q105 0 130 115l71 320q8 34 35.5 56t62.5 22q43 0 71.5 -27.5t28.5 -69.5q0 -12 -3 -25l-62 -280q-29 -133 -108 -210
q-80 -77 -226 -77q-151 0 -231.5 65t-80.5 179q0 20 5 42zM389 758q0 16 9 26l58 74q13 16 35 16q19 0 33 -13.5t14 -33.5t-13 -33l-63 -62q-15 -15 -32 -15t-29 12t-12 29zM545 758q0 16 9 26l58 74q13 16 35 16q20 0 33.5 -13.5t13.5 -33.5t-13 -33l-63 -62
q-15 -15 -32 -15t-29 12t-12 29z" />
    <glyph glyph-name="uhungarumlaut" unicode="&#x171;" horiz-adv-x="606" 
d="M590 407q0 -11 -2 -21l-73 -328q-9 -35 -31 -56.5t-54 -21.5q-35 0 -61.5 22.5t-29.5 55.5q-38 -36 -73.5 -53t-82.5 -17q-72 0 -115 34.5t-43 93.5q0 23 4 38l60 270q7 30 31 49.5t55 19.5q40 0 63 -25t23 -66q0 -12 -4 -32l-35 -160q-2 -16 -2 -17q0 -23 16 -34.5
t42 -11.5q45 0 85 37l53 240q7 30 31 49.5t55 19.5q37 0 62.5 -24.5t25.5 -61.5zM285 611q0 15 9 26l58 74q13 16 35 16q19 0 33 -13.5t14 -33.5t-13 -33l-63 -62q-15 -15 -32 -15t-29 12t-12 29zM441 611q0 15 9 26l58 74q13 16 35 16q20 0 33.5 -13.5t13.5 -33.5t-13 -33
l-63 -62q-15 -15 -32 -15t-29 12t-12 29z" />
    <glyph glyph-name="Uogonek" unicode="&#x172;" horiz-adv-x="749" 
d="M411 -87h4q17 -2 29 -15.5t12 -30.5q0 -16 -10 -28t-24 -16q-36 -9 -85 -9q-51 0 -82.5 18t-31.5 52q0 41 35 68t97 36h-12q-76 0 -139 25t-106 81.5t-43 137.5q0 20 5 42l72 325q8 34 35.5 56t62.5 22q44 0 71 -28.5t27 -73.5q0 -15 -1 -20l-61 -276q-2 -14 -2 -24
q1 -39 27.5 -65t75.5 -26q104 0 130 115l71 320q8 34 35.5 56t62.5 22q44 0 71 -28.5t27 -73.5q0 -15 -1 -20l-62 -280q-46 -212 -204 -268q-61 -22 -85 -36.5t-24 -35.5q0 -20 23 -22z" />
    <glyph glyph-name="uogonek" unicode="&#x173;" horiz-adv-x="606" 
d="M590 407q0 -11 -2 -21l-73 -328q-9 -35 -30.5 -56t-52.5 -22q-21 -26 -21 -45q0 -14 17 -20l12 -3q17 -3 28 -15.5t11 -29.5q0 -16 -10 -28t-24 -16q-36 -9 -85 -9q-51 0 -82.5 18t-31.5 52q0 38 28 62t100 52q-32 24 -35 60q-38 -36 -73.5 -53t-82.5 -17
q-72 0 -115 34.5t-43 93.5q0 23 4 38l60 270q7 30 31 49.5t55 19.5q40 0 63 -25t23 -66q0 -12 -4 -32l-35 -160q-2 -16 -2 -17q0 -23 16 -34.5t42 -11.5q45 0 85 37l53 240q7 30 31 49.5t55 19.5q37 0 62.5 -24.5t25.5 -61.5z" />
    <glyph glyph-name="Wcircumflex" unicode="&#x174;" horiz-adv-x="934" 
d="M498 118l-2 260l-139 -311q-15 -35 -47.5 -56t-71.5 -21q-52 0 -90 35q-37 35 -40 87l-30 451q-3 46 29 80t77 34q44 0 76 -32t31 -76l-3 -310l171 366q11 23 33.5 37.5t49.5 14.5q37 0 63.5 -26t27.5 -63l9 -329l153 356q11 27 37 44.5t56 17.5q44 0 73 -30.5t29 -72.5
q0 -21 -11 -45l-237 -469q-16 -31 -47.5 -50.5t-67.5 -19.5q-53 0 -91 38t-38 90zM627 739l-37 57l-67 -64q-17 -15 -33 -15q-18 0 -30 12.5t-12 29.5q0 16 10 26l33 40q35 42 86 42h55q49 0 67 -42l17 -40q4 -11 4 -18q0 -21 -15 -35.5t-36 -14.5q-26 0 -42 22z" />
    <glyph glyph-name="wcircumflex" unicode="&#x175;" horiz-adv-x="785" 
d="M404 104l-12 166l-108 -213q-15 -30 -44.5 -48.5t-65.5 -18.5q-49 0 -84 33t-38 81l-20 295q-2 38 24 66t63 28q36 0 61.5 -25t26.5 -61l4 -190l120 222q13 24 37.5 39t53.5 15q40 0 69 -26.5t33 -66.5l17 -183l105 227q10 22 31 35.5t46 13.5q35 0 59.5 -25t24.5 -59
q0 -22 -10 -38l-160 -314q-15 -30 -44.5 -48.5t-65.5 -18.5q-48 0 -83.5 33t-39.5 81zM504 592l-37 57l-67 -64q-16 -15 -33 -15q-18 0 -30 12.5t-12 29.5q0 16 10 26l33 40q35 42 86 42h55q49 0 67 -42l17 -40q4 -11 4 -18q0 -20 -14.5 -35t-36.5 -15q-26 0 -42 22z" />
    <glyph glyph-name="Ycircumflex" unicode="&#x176;" horiz-adv-x="644" 
d="M689 529l-261 -265l-43 -197q-8 -34 -34.5 -55.5t-62.5 -21.5q-41 0 -70 28t-29 68q0 12 3 24l35 157l-135 274q-10 19 -10 40q0 39 30 67.5t72 28.5q62 0 94 -68l81 -174l190 207q32 35 71 35q38 0 64 -26t26 -64q0 -35 -21 -58zM484 739l-37 57l-67 -64
q-16 -15 -33 -15q-18 0 -30 12.5t-12 29.5q0 16 10 26l33 40q35 42 86 42h55q49 0 67 -42l17 -40q4 -11 4 -18q0 -21 -14.5 -35.5t-36.5 -14.5q-26 0 -42 22z" />
    <glyph glyph-name="ycircumflex" unicode="&#x177;" horiz-adv-x="515" 
d="M38 -37h8q36 0 49 19l10 16l-65 391q-1 3 -1 15q0 36 26.5 62.5t63.5 26.5q34 0 59.5 -23.5t29.5 -56.5l22 -206l137 244q23 42 72 42q35 0 59 -24.5t24 -57.5q0 -22 -12 -43l-261 -428q-44 -74 -93 -104t-123 -32h-7q-33 0 -56.5 23.5t-23.5 56.5t24.5 56.5t57.5 22.5z
M384 592l-37 57l-67 -64q-16 -15 -33 -15q-18 0 -30 12.5t-12 29.5q0 16 10 26l33 40q35 42 86 42h55q49 0 67 -42l17 -40q4 -11 4 -18q0 -20 -14.5 -35t-36.5 -15q-26 0 -42 22z" />
    <glyph glyph-name="Ydieresis" unicode="&#x178;" horiz-adv-x="644" 
d="M689 529l-261 -265l-43 -197q-8 -34 -34.5 -55.5t-62.5 -21.5q-41 0 -70 28t-29 68q0 12 3 24l35 157l-135 274q-10 19 -10 40q0 39 30 67.5t72 28.5q62 0 94 -68l81 -174l190 207q32 35 71 35q38 0 64 -26t26 -64q0 -35 -21 -58zM248 775q0 39 31 69q32 30 70 30
q34 0 56.5 -22.5t22.5 -56.5q0 -39 -31 -69t-70 -30q-34 0 -56.5 22.5t-22.5 56.5zM464 775q0 39 31 69t70 30q34 0 56.5 -22.5t22.5 -56.5q0 -39 -31 -69t-70 -30q-34 0 -56.5 22.5t-22.5 56.5z" />
    <glyph glyph-name="Zacute" unicode="&#x179;" horiz-adv-x="600" 
d="M-5 98q0 40 28 68l311 325h-145q-36 0 -62 25.5t-26 62.5t26 62.5t62 25.5h350q40 0 69 -28.5t29 -68.5q0 -39 -27 -68l-313 -326h153q36 0 62 -25.5t26 -62.5t-26 -62.5t-62 -25.5h-357q-40 0 -69 29t-29 69zM416 717q-18 0 -31 14t-13 30q0 23 15 35l83 79q16 14 37 14
q20 0 35.5 -16t15.5 -38q0 -27 -20 -42l-92 -67q-15 -9 -30 -9z" />
    <glyph glyph-name="zacute" unicode="&#x17a;" horiz-adv-x="486" 
d="M-12 79q0 35 25 57l203 191h-78q-32 0 -55 23t-23 55t23 55t55 23h281q31 0 53 -22t22 -53q0 -33 -24 -54l-210 -198h87q32 0 55 -23t23 -55t-23 -55t-55 -23h-280q-32 0 -55.5 23t-23.5 56zM328 570q-18 0 -31 14t-13 30q0 23 15 35l83 79q16 14 37 14q20 0 35.5 -16
t15.5 -38q0 -27 -20 -42l-92 -67q-15 -9 -30 -9z" />
    <glyph glyph-name="Zdotaccent" unicode="&#x17b;" horiz-adv-x="600" 
d="M-5 98q0 40 28 68l311 325h-145q-36 0 -62 25.5t-26 62.5t26 62.5t62 25.5h350q40 0 69 -28.5t29 -68.5q0 -39 -27 -68l-313 -326h153q36 0 62 -25.5t26 -62.5t-26 -62.5t-62 -25.5h-357q-40 0 -69 29t-29 69zM330 776q0 39 31 69t70 30q34 0 56.5 -22.5t22.5 -56.5
q0 -39 -31 -69t-70 -30q-34 0 -56.5 22.5t-22.5 56.5z" />
    <glyph glyph-name="zdotaccent" unicode="&#x17c;" horiz-adv-x="486" 
d="M-12 79q0 35 25 57l203 191h-78q-32 0 -55 23t-23 55t23 55t55 23h281q31 0 53 -22t22 -53q0 -33 -24 -54l-210 -198h87q32 0 55 -23t23 -55t-23 -55t-55 -23h-280q-32 0 -55.5 23t-23.5 56zM242 629q0 39 31 69t70 30q34 0 56.5 -22.5t22.5 -56.5q0 -39 -31 -69t-70 -30
q-34 0 -56.5 22.5t-22.5 56.5z" />
    <glyph glyph-name="Zcaron" unicode="&#x17d;" horiz-adv-x="600" 
d="M-5 98q0 40 28 68l311 325h-145q-36 0 -62 25.5t-26 62.5t26 62.5t62 25.5h350q40 0 69 -28.5t29 -68.5q0 -39 -27 -68l-313 -326h153q36 0 62 -25.5t26 -62.5t-26 -62.5t-62 -25.5h-357q-40 0 -69 29t-29 69zM383 851l37 -57l67 64q17 15 33 15q18 0 30 -12.5t12 -29.5
q0 -16 -10 -26l-33 -40q-35 -42 -86 -42h-55q-49 0 -67 42l-17 40q-4 11 -4 18q0 21 15 35.5t36 14.5q26 0 42 -22z" />
    <glyph glyph-name="zcaron" unicode="&#x17e;" horiz-adv-x="486" 
d="M-12 79q0 35 25 57l203 191h-78q-32 0 -55 23t-23 55t23 55t55 23h281q31 0 53 -22t22 -53q0 -33 -24 -54l-210 -198h87q32 0 55 -23t23 -55t-23 -55t-55 -23h-280q-32 0 -55.5 23t-23.5 56zM295 704l37 -57l67 64q17 15 33 15q18 0 30 -12.5t12 -29.5q0 -16 -10 -26
l-33 -40q-35 -42 -86 -42h-55q-49 0 -67 42l-17 40q-4 11 -4 18q0 20 15 35t36 15q26 0 42 -22z" />
    <glyph glyph-name="longs" unicode="&#x17f;" horiz-adv-x="371" 
d="M459 609q0 -29 -22.5 -49.5t-51.5 -16.5q-2 1 -10 1q-43 0 -50 -36l-99 -449q-7 -30 -31 -49.5t-55 -19.5q-37 0 -62.5 26t-25.5 63q0 2 2 18l51 230q-31 2 -51 24t-20 54t23 55t55 23h27l6 25q18 76 73 122.5t132 46.5q27 0 54 -5q24 -4 39.5 -21.5t15.5 -41.5z" />
    <glyph glyph-name="uni018F" unicode="&#x18f;" horiz-adv-x="741" 
d="M751 372q3 -167 -115 -276.5t-286 -107.5q-78 -1 -151.5 34.5t-123 109t-47.5 166.5q0 48 30 73.5t82 25.5h373q16 0 25 -4q-12 48 -51 77.5t-95 29.5q-54 0 -100 -38q-26 -20 -58 -20q-38 0 -64.5 26.5t-26.5 64.5q0 47 37 73q97 72 223 72q145 2 247.5 -85t100.5 -221z
M504 241h-269q15 -31 50.5 -53t73.5 -22q92 0 145 75z" />
    <glyph glyph-name="uni0192" unicode="&#x192;" horiz-adv-x="477" 
d="M370 459l-18 -80h19q32 0 55 -23t23 -55t-23 -55t-55 -23h-53l-71 -315q-8 -34 -35.5 -56.5t-62.5 -22.5q-43 0 -71 29t-28 74q0 14 1 19l61 277q-23 8 -37 28t-14 45q0 32 23 55t55 23h6l28 127q18 80 69 125.5t130 45.5q50 0 94 -15q59 -20 59 -77q0 -36 -25.5 -61
t-61.5 -25l-8 1l-10 1q-39 0 -50 -42z" />
    <glyph glyph-name="uni019D" unicode="&#x19d;" horiz-adv-x="750" 
d="M669 677q42 0 70 -29t28 -72q0 -1 -2 -19l-103 -466q-10 -43 -45 -72t-80 -29q-39 0 -71 21t-47 56l-135 309l-72 -332q-28 -128 -90.5 -184t-178.5 -56q-22 0 -29 1q-33 2 -56 26t-23 57q0 35 26.5 60.5t61.5 23.5h3q68 0 85 75l114 522q10 47 48 77.5t87 30.5
q42 0 76.5 -23t50.5 -60l122 -281l63 287q8 34 34.5 55.5t62.5 21.5z" />
    <glyph glyph-name="Ohorn" unicode="&#x1a0;" horiz-adv-x="766" 
d="M731 531q45 -67 45 -157q2 -159 -115 -274t-285 -112q-147 -2 -248.5 86t-99.5 220q-3 159 114.5 272.5t286.5 111.5q166 0 268 -104q45 23 59 49q-1 -1 -8 -1q-24 0 -38.5 15t-14.5 41q0 30 23.5 52t53.5 22q28 0 47.5 -19t19.5 -50q0 -42 -30 -84.5t-78 -67.5zM567 358
q0 62 -41.5 102t-108.5 40q-77 0 -128.5 -57t-51.5 -135q0 -62 41.5 -102t108.5 -40q77 0 128.5 57t51.5 135z" />
    <glyph glyph-name="ohorn" unicode="&#x1a1;" horiz-adv-x="577" 
d="M522 400q39 -54 39 -130q2 -113 -83 -199t-206 -83q-122 0 -190 63t-68 162q-2 112 83 198t206 84q113 0 180 -54q45 22 60 49q-1 -1 -8 -1q-24 0 -38.5 15t-14.5 41q0 30 23.5 52t53.5 22q28 0 47.5 -19t19.5 -50q0 -41 -29 -83t-75 -67zM377 261q0 36 -21.5 55.5
t-59.5 19.5q-43 0 -70.5 -33t-27.5 -81q0 -36 21.5 -55.5t59.5 -19.5q43 0 70.5 33t27.5 81z" />
    <glyph glyph-name="Uhorn" unicode="&#x1af;" horiz-adv-x="749" 
d="M764 575q0 -15 -1 -20l-62 -280q-29 -133 -108 -210q-80 -77 -226 -77q-151 0 -231.5 65t-80.5 179q0 20 5 42l72 325q8 34 35.5 56t62.5 22q44 0 71 -28.5t27 -73.5q0 -15 -1 -20l-61 -276q-2 -14 -2 -24q1 -38 28.5 -64.5t74.5 -26.5q105 0 130 115l71 320
q8 34 35.5 56t62.5 22q61 0 86 -49q52 21 69 53q-1 -1 -8 -1q-24 0 -38.5 15t-14.5 41q0 30 23.5 52t53.5 22q28 0 47.5 -19t19.5 -50q0 -53 -38.5 -97t-101.5 -69z" />
    <glyph glyph-name="uhorn" unicode="&#x1b0;" horiz-adv-x="606" 
d="M589 420q1 -3 1 -15q0 -9 -2 -19l-73 -328q-9 -35 -31 -56.5t-54 -21.5q-35 0 -61.5 22.5t-29.5 55.5q-38 -36 -73.5 -53t-82.5 -17q-72 0 -115 34.5t-43 93.5q0 23 4 38l60 270q7 30 31 49.5t55 19.5q40 0 63 -25t23 -66q0 -12 -4 -32l-35 -160q-2 -16 -2 -17
q0 -23 16 -34.5t42 -11.5q45 0 85 37l53 240q7 30 31 49.5t55 19.5q38 0 63 -25q34 21 46 42q-1 -1 -8 -1q-24 0 -38.5 15t-14.5 41q0 30 23.5 52t53.5 22q28 0 47.5 -19t19.5 -50q0 -44 -28 -83t-77 -67z" />
    <glyph glyph-name="Gcaron" unicode="&#x1e6;" horiz-adv-x="726" 
d="M703 317q0 -12 -4 -32l-18 -82q-23 -95 -62 -128q-101 -87 -243 -87q-143 -2 -246.5 83.5t-101.5 222.5q-3 164 117 275t304 109q119 0 202 -66q37 -31 37 -76q0 -40 -28 -69.5t-70 -29.5q-37 0 -66 26q-43 37 -104 37q-76 0 -129.5 -56.5t-53.5 -135.5q0 -57 41.5 -99.5
t108.5 -42.5q55 0 96 30l6 30h-35q-34 0 -58.5 24.5t-24.5 58.5q0 32 25 57.5t58 25.5h177q35 0 53.5 -20.5t18.5 -54.5zM468 851l37 -57l67 64q16 15 33 15q18 0 30 -12.5t12 -29.5q0 -16 -10 -26l-33 -40q-35 -42 -86 -42h-55q-49 0 -67 42l-17 40q-4 11 -4 18
q0 21 14.5 35.5t36.5 14.5q26 0 42 -22z" />
    <glyph glyph-name="gcaron" unicode="&#x1e7;" horiz-adv-x="595" 
d="M577 403q0 -13 -1 -17l-74 -333q-31 -139 -112 -194q-79 -55 -178 -55q-104 0 -182 38q-19 9 -30.5 28t-11.5 41q0 32 22.5 54.5t54.5 22.5q19 0 36 -10q51 -27 108 -27q88 0 113 102l6 25q-55 -65 -132 -65q-82 0 -132 48.5t-50 143.5q-2 114 69.5 203.5t180.5 86.5
q42 0 80 -17.5t63 -47.5q12 28 34 45.5t49 17.5q38 0 62.5 -25.5t24.5 -64.5zM356 206l20 91q-27 39 -85 39q-40 0 -65.5 -25t-25.5 -69q0 -30 23.5 -50t60.5 -20q41 0 72 34zM352 704l37 -57l67 64q16 15 33 15q18 0 30 -12.5t12 -29.5q0 -16 -10 -26l-33 -40
q-35 -42 -86 -42h-55q-49 0 -67 42l-17 40q-4 11 -4 18q0 20 14.5 35t36.5 15q26 0 42 -22z" />
    <glyph glyph-name="uni01EA" unicode="&#x1ea;" horiz-adv-x="766" 
d="M444 -65q0 -14 17 -20l12 -3q17 -3 28 -15.5t11 -29.5q0 -16 -10 -28t-24 -16q-36 -9 -85 -9q-51 0 -82.5 18t-31.5 52q0 35 23.5 57.5t79.5 46.5h-6q-147 -2 -248.5 86t-99.5 220q-3 159 114.5 272.5t286.5 111.5q147 2 248 -85.5t99 -218.5q0 -131 -78.5 -234
t-205.5 -137q-48 -33 -48 -68zM387 166q77 0 128.5 57t51.5 135q0 62 -41.5 102t-108.5 40q-77 0 -128.5 -57t-51.5 -135q0 -62 41.5 -102t108.5 -40z" />
    <glyph glyph-name="uni01EB" unicode="&#x1eb;" horiz-adv-x="577" 
d="M324 -65q0 -14 17 -20l12 -3q17 -3 28 -15.5t11 -29.5q0 -16 -10 -28t-24 -16q-36 -9 -85 -9q-51 0 -82.5 18t-31.5 52q0 35 23.5 57.5t79.5 46.5q-117 3 -182.5 65.5t-65.5 159.5q-2 112 83 198t206 84q122 0 190 -63t68 -162q0 -88 -51 -161q-49 -73 -135 -103
q-51 -35 -51 -71zM279 147q43 0 70.5 33t27.5 81q0 36 -21.5 55.5t-59.5 19.5q-43 0 -70.5 -33t-27.5 -81q0 -36 21.5 -55.5t59.5 -19.5z" />
    <glyph glyph-name="Aringacute" unicode="&#x1fa;" horiz-adv-x="690" 
d="M649 91q0 -42 -29.5 -71.5t-71.5 -29.5q-40 0 -68.5 26.5t-32.5 65.5l-1 16h-247l-30 -56q-12 -24 -35.5 -38t-50.5 -14q-40 0 -69 28.5t-29 68.5q0 25 14 50l268 455q24 39 63.5 62t84.5 23q65 0 113 -42t57 -105l63 -424q1 -3 1 -15zM287 266h144l-21 233zM478 910
q46 0 74 -28t28 -74q0 -50 -36 -86t-86 -36q-46 0 -74 28t-28 74q0 50 36 86t86 36zM470 832q-14 0 -25 -11t-11 -25t9 -23t23 -9t25 11t11 25t-9 23t-23 9zM509 929q-18 0 -31 14t-13 30q0 23 15 35l83 79q16 14 37 14q20 0 35.5 -16t15.5 -38q0 -27 -20 -42l-92 -67
q-15 -9 -30 -9z" />
    <glyph glyph-name="aringacute" unicode="&#x1fb;" 
d="M579 403q0 -13 -1 -17l-73 -328q-18 -80 -95 -80q-29 0 -54 20.5t-33 51.5q-56 -62 -130 -62q-84 0 -132 53t-48 148q-1 72 28 141.5t89.5 118t137.5 46.5q97 0 140 -64q10 28 32.5 45t51.5 17q38 0 62.5 -25.5t24.5 -64.5zM352 180l28 123q-30 33 -80 33
q-43 0 -72 -31.5t-29 -77.5q0 -35 23 -57.5t57 -22.5q40 0 73 33zM402 763q46 0 74 -28t28 -74q0 -49 -36 -85.5t-86 -36.5q-46 0 -74 28t-28 74q0 49 36 85.5t86 36.5zM394 685q-14 0 -25 -11t-11 -25t9 -23t23 -9t25 11t11 25t-9 23t-23 9zM433 782q-18 0 -31 14t-13 30
q0 23 15 35l83 79q16 14 37 14q20 0 35.5 -16t15.5 -38q0 -27 -20 -42l-92 -67q-15 -9 -30 -9z" />
    <glyph glyph-name="AEacute" unicode="&#x1fc;" horiz-adv-x="969" 
d="M938 499h-247l-17 -78h203q35 0 59.5 -24.5t24.5 -59.5q0 -34 -24.5 -59t-59.5 -25h-240l-19 -85h210q35 0 59.5 -24.5t24.5 -59.5q0 -34 -24.5 -59t-59.5 -25h-329q-100 0 -100 72q0 12 3 26h-205l-53 -73q-24 -35 -69 -35q-36 0 -61.5 25.5t-25.5 61.5q0 28 20 54
l385 474q50 62 130 62h415q35 0 59.5 -24.5t24.5 -59.5q0 -34 -24.5 -59t-59.5 -25zM488 500l-169 -234h119zM648 717q-18 0 -31 14t-13 30q0 23 15 35l83 79q16 14 37 14q20 0 35.5 -16t15.5 -38q0 -27 -20 -42l-92 -67q-15 -9 -30 -9z" />
    <glyph glyph-name="aeacute" unicode="&#x1fd;" horiz-adv-x="890" 
d="M875 289v-4q-1 -47 -30.5 -73t-81.5 -26h-224v-1q0 -7 13 -19.5t40 -24.5t58 -12q30 0 52 7q3 1 17 1q29 0 48.5 -19.5t19.5 -48.5q0 -22 -12.5 -39.5t-32.5 -24.5q-49 -17 -89 -17q-108 0 -150 61q-9 -27 -31.5 -43t-51.5 -16q-33 0 -57.5 20t-29.5 51q-62 -73 -140 -73
q-84 0 -132 53t-48 148q-1 72 28 141.5t89.5 118t137.5 46.5q98 0 141 -64q8 27 31 44.5t53 17.5q29 0 51.5 -15.5t31.5 -41.5q62 59 133 59q166 0 166 -206zM717 300v1q0 19 -19.5 38t-55.5 19q-30 0 -53 -18t-30 -40h158zM352 180l28 123q-30 33 -80 33q-43 0 -72 -31.5
t-29 -77.5q0 -35 23 -57.5t57 -22.5q40 0 73 33zM540 570q-18 0 -31 14t-13 30q0 23 15 35l83 79q16 14 37 14q20 0 35.5 -16t15.5 -38q0 -27 -20 -42l-92 -67q-15 -9 -30 -9z" />
    <glyph glyph-name="Oslashacute" unicode="&#x1fe;" horiz-adv-x="766" 
d="M776 374q2 -159 -115 -274t-285 -112q-109 0 -192 46l-62 -66q-16 -16 -34 -16t-32 13.5t-14 32.5q0 18 14 32l55 59q-83 83 -83 205q-3 159 114.5 272.5t286.5 111.5q108 0 194 -47l64 68q16 16 34 16t32 -13.5t14 -32.5q0 -18 -14 -32l-58 -61q81 -83 81 -202zM253 239
l233 247q-33 14 -69 14q-77 0 -128.5 -57t-51.5 -135q0 -38 16 -69zM567 358q0 38 -15 66l-231 -245q26 -13 66 -13q77 0 128.5 57t51.5 135zM499 717q-18 0 -31 14t-13 30q0 23 15 35l83 79q16 14 37 14q20 0 35.5 -16t15.5 -38q0 -27 -20 -42l-92 -67q-15 -9 -30 -9z" />
    <glyph glyph-name="oslashacute" unicode="&#x1ff;" horiz-adv-x="577" 
d="M561 270q2 -113 -83 -199t-206 -83q-70 0 -129 24l-37 -46q-11 -14 -27 -14q-14 0 -24 10t-10 23q0 11 9 23l32 39q-72 60 -72 166q-2 112 83 198t206 84q77 0 131 -25l39 47q11 14 27 14q13 0 22.5 -9.5t9.5 -22.5q0 -11 -9 -23l-33 -41q71 -62 71 -165zM204 190
l118 143q-12 3 -26 3q-43 0 -70.5 -33t-27.5 -81q0 -18 6 -32zM377 261q0 13 -5 30l-116 -142q18 -2 23 -2q43 0 70.5 33t27.5 81zM372 570q-18 0 -31 14t-13 30q0 23 15 35l83 79q16 14 37 14q20 0 35.5 -16t15.5 -38q0 -27 -20 -42l-92 -67q-15 -9 -30 -9z" />
    <glyph glyph-name="uni0218" unicode="&#x218;" horiz-adv-x="613" 
d="M10 135q0 38 26.5 65t64.5 27q29 0 51 -15q80 -54 177 -54q56 0 56 33q0 16 -19.5 28.5t-64.5 27.5q-59 19 -112 44q-118 57 -118 174q-2 78 77 146t204 66q115 0 212 -53q47 -27 47 -79q0 -37 -26.5 -63.5t-63.5 -26.5q-26 0 -46 13q-70 42 -145 42q-52 0 -52 -34
q0 -14 20 -26t65 -27q100 -31 166 -78q66 -46 66 -130q0 -96 -77.5 -161.5t-201.5 -65.5q-151 0 -263 70q-43 28 -43 77zM170 -295q-13 0 -22 9t-9 22q0 18 16 27q41 21 55 48q-1 -1 -10 -1q-27 0 -43.5 17t-16.5 47q0 33 27 59t61 26q32 0 54 -21.5t22 -57.5q0 -50 -35 -97
q-35 -48 -83 -73q-12 -5 -16 -5z" />
    <glyph glyph-name="uni0219" unicode="&#x219;" horiz-adv-x="490" 
d="M3 98q0 29 21 49.5t50 20.5q20 0 35 -9q76 -43 139 -43q31 0 31 21t-71 42q-75 21 -118 50q-46 31 -46 89q0 73 58.5 125t156.5 52q89 0 168 -41q36 -19 36 -59q0 -28 -19.5 -47.5t-47.5 -19.5q-16 0 -32 9q-53 29 -103 29q-37 0 -37 -21q0 -20 61 -35q73 -19 125 -50
q49 -30 49 -93q0 -78 -62 -128.5t-166 -50.5q-101 0 -190 48q-38 20 -38 62zM114 -295q-13 0 -22 9t-9 22q0 18 16 27q41 21 55 48q-1 -1 -10 -1q-27 0 -43.5 17t-16.5 47q0 33 27 59t61 26q32 0 54 -21.5t22 -57.5q0 -50 -35 -97q-35 -48 -83 -73q-12 -5 -16 -5z" />
    <glyph glyph-name="uni021A" unicode="&#x21a;" horiz-adv-x="595" 
d="M172 86q0 12 3 24l84 381h-88q-36 0 -62 25.5t-26 62.5t26 62.5t62 25.5h400q36 0 62 -25.5t26 -62.5t-26 -62.5t-62 -25.5h-110l-93 -424q-8 -34 -34.5 -55.5t-62.5 -21.5q-42 0 -70.5 27.5t-28.5 68.5zM167 -295q-13 0 -22 9t-9 22q0 18 16 27q41 21 55 48
q-1 -1 -10 -1q-27 0 -43.5 17t-16.5 47q0 33 27 59t61 26q32 0 54 -21.5t22 -57.5q0 -50 -35 -97q-35 -48 -83 -73q-12 -5 -16 -5z" />
    <glyph glyph-name="uni021B" unicode="&#x21b;" horiz-adv-x="382" 
d="M285 327l-28 -127q0 -3 -0.5 -5.5t-1 -4.5t-0.5 -3.5v-2.5q0 -30 25 -36l17 -3q17 -3 30.5 -22.5t13.5 -41.5q0 -36 -22.5 -60t-60.5 -31q-14 -2 -31 -2q-75 0 -120 33t-45 91q0 21 4 36l40 180q-31 3 -51.5 24.5t-20.5 52.5q0 32 23 55t55 23h28l16 73q7 30 31 49.5
t55 19.5q36 0 62 -25.5t26 -61.5q0 -10 -2 -20l-8 -35h11q32 0 55 -23t23 -55t-23 -55t-55 -23h-46zM42 -295q-13 0 -22 9t-9 22q0 18 16 27q41 21 55 48q-1 -1 -10 -1q-27 0 -43.5 17t-16.5 47q0 33 27 59t61 26q32 0 54 -21.5t22 -57.5q0 -50 -35 -97q-35 -48 -83 -73
q-12 -5 -16 -5z" />
    <glyph glyph-name="uni0232" unicode="&#x232;" horiz-adv-x="644" 
d="M689 529l-261 -265l-43 -197q-8 -34 -34.5 -55.5t-62.5 -21.5q-41 0 -70 28t-29 68q0 12 3 24l35 157l-135 274q-10 19 -10 40q0 39 30 67.5t72 28.5q62 0 94 -68l81 -174l190 207q32 35 71 35q38 0 64 -26t26 -64q0 -35 -21 -58zM250 766q0 20 14.5 34.5t34.5 14.5h283
q20 0 34.5 -14.5t14.5 -34.5q0 -19 -14.5 -33.5t-34.5 -14.5h-283q-20 0 -34.5 14.5t-14.5 33.5z" />
    <glyph glyph-name="uni0233" unicode="&#x233;" horiz-adv-x="515" 
d="M38 -37h8q36 0 49 19l10 16l-65 391q-1 3 -1 15q0 36 26.5 62.5t63.5 26.5q34 0 59.5 -23.5t29.5 -56.5l22 -206l137 244q23 42 72 42q35 0 59 -24.5t24 -57.5q0 -22 -12 -43l-261 -428q-44 -74 -93 -104t-123 -32h-7q-33 0 -56.5 23.5t-23.5 56.5t24.5 56.5t57.5 22.5z
M150 619q0 20 14.5 34.5t34.5 14.5h283q20 0 34.5 -14.5t14.5 -34.5q0 -19 -14.5 -33.5t-34.5 -14.5h-283q-20 0 -34.5 14.5t-14.5 33.5z" />
    <glyph glyph-name="uni0237" unicode="&#x237;" horiz-adv-x="280" 
d="M-124 -123q0 26 16.5 48t38.5 27l11 2q44 7 58 67l90 403q7 30 31 49.5t55 19.5q38 0 62 -25t24 -64q0 -14 -1 -18l-81 -365q-46 -217 -219 -217h-6q-33 0 -56 20.5t-23 52.5z" />
    <glyph glyph-name="uni0259" unicode="&#x259;" horiz-adv-x="543" 
d="M241 -12q-95 0 -159 56t-67 155v9q0 37 31.5 63t79.5 26h224v1q0 7 -11 20.5t-35 26.5t-53 13q-28 0 -65 -8q-14 -2 -16 -2q-28 0 -47 19.5t-19 46.5q0 22 12.5 39.5t32.5 23.5q54 18 115 18q121 0 192 -58q72 -59 72 -162q2 -116 -82 -202.5t-205 -84.5zM174 183v-3
q0 -17 19.5 -36t54.5 -19q30 0 54 18t31 40h-159z" />
    <glyph glyph-name="uni0272" unicode="&#x272;" horiz-adv-x="607" 
d="M580 367q0 -23 -4 -38l-60 -270q-7 -30 -31 -49.5t-55 -19.5q-40 0 -63 25t-23 66q0 12 4 32l35 160q2 16 2 17q0 23 -16 34.5t-42 11.5q-45 0 -85 -37l-62 -278q-24 -106 -76.5 -161.5t-142.5 -55.5h-6q-33 0 -56 20.5t-23 52.5q0 27 17 48.5t42 28.5q3 0 17 2
q36 10 48 65l90 404q9 35 31 56.5t54 21.5q35 0 61.5 -22.5t29.5 -55.5q38 36 73.5 53t82.5 17q72 0 115 -34.5t43 -93.5z" />
    <glyph glyph-name="uni02B0" unicode="&#x2b0;" horiz-adv-x="424" 
d="M289 378q0 10 1 13l24 108q2 10 2 15q0 27 -38 27q-25 0 -51 -25l-33 -152q-5 -21 -22 -34.5t-39 -13.5q-26 0 -44 18.5t-18 43.5q0 10 1 13l73 331q5 21 22 34.5t39 13.5q26 0 44 -18.5t18 -43.5q0 -10 -1 -13l-20 -89q43 42 98 42q50 0 79 -23t29 -63q0 -12 -4 -29
l-37 -169q-5 -21 -22 -34.5t-39 -13.5q-25 0 -43.5 18.5t-18.5 43.5z" />
    <glyph glyph-name="uni02BC" unicode="&#x2bc;" horiz-adv-x="281" 
d="M147 337q-17 0 -29 12.5t-12 29.5q0 23 20 35q57 35 73 66q-3 -1 -13 -1q-36 0 -58.5 22.5t-22.5 62.5q0 44 36.5 78.5t81.5 34.5q43 0 72.5 -29t29.5 -76q0 -62 -43 -123q-43 -63 -113 -106q-9 -6 -22 -6z" />
    <glyph glyph-name="circumflex" unicode="&#x2c6;" horiz-adv-x="335" 
d="M290 572l-37 57l-67 -64q-16 -15 -33 -15q-18 0 -30 12.5t-12 29.5q0 16 10 26l33 40q35 42 86 42h55q49 0 67 -42l17 -40q4 -11 4 -18q0 -20 -14.5 -35t-36.5 -15q-26 0 -42 22z" />
    <glyph glyph-name="caron" unicode="&#x2c7;" horiz-adv-x="335" 
d="M215 684l37 -57l67 64q17 15 33 15q18 0 30 -12.5t12 -29.5q0 -16 -10 -26l-33 -40q-35 -42 -86 -42h-55q-49 0 -67 42l-17 40q-4 11 -4 18q0 20 15 35t36 15q26 0 42 -22z" />
    <glyph glyph-name="uni02C9" unicode="&#x2c9;" horiz-adv-x="363" 
d="M79 640q0 19 14.5 33.5t34.5 14.5h283q20 0 34.5 -14.5t14.5 -34.5q0 -19 -14.5 -33.5t-34.5 -14.5h-283q-20 0 -34.5 14.5t-14.5 34.5z" />
    <glyph glyph-name="uni02CB" unicode="&#x2cb;" horiz-adv-x="275" 
d="M223 566l-60 69q-12 15 -12 35q0 21 16.5 36.5t36.5 15.5q29 0 44 -24l51 -80q7 -10 7 -21q0 -19 -13.5 -33t-32.5 -14q-24 0 -37 16z" />
    <glyph glyph-name="breve" unicode="&#x2d8;" horiz-adv-x="351" 
d="M120 597q-17 17 -17 39t15 37.5t37 15.5t37 -15q27 -27 69 -27q48 0 91 34q11 10 28 10q18 0 31 -13t13 -32q0 -21 -17 -35q-76 -61 -163 -61q-74 0 -124 47z" />
    <glyph glyph-name="dotaccent" unicode="&#x2d9;" horiz-adv-x="190" 
d="M89 609q0 39 31 69t70 30q34 0 56.5 -22.5t22.5 -56.5q0 -39 -31 -69q-32 -30 -70 -30q-34 0 -56.5 22.5t-22.5 56.5z" />
    <glyph glyph-name="ring" unicode="&#x2da;" horiz-adv-x="265" 
d="M229 743q46 0 74 -28t28 -74q0 -49 -36.5 -85.5t-85.5 -36.5q-46 0 -74 28t-28 74q0 49 36.5 85.5t85.5 36.5zM221 665q-14 0 -25 -11t-11 -25t9 -23t23 -9t25 11t11 25t-9 23t-23 9z" />
    <glyph glyph-name="ogonek" unicode="&#x2db;" horiz-adv-x="253" 
d="M127 -177q-36 -9 -85 -9q-51 0 -82.5 18t-31.5 52q3 43 32 66t109 53q53 20 83 20q8 0 8 -3t-11 -11q-56 -37 -56 -74q0 -14 17 -20l12 -3q17 -3 28 -15.5t11 -29.5q0 -16 -10 -28t-24 -16z" />
    <glyph glyph-name="tilde" unicode="&#x2dc;" horiz-adv-x="341" 
d="M188 597q-14 0 -21 -19q-4 -13 -15.5 -20.5t-26.5 -7.5q-19 0 -31 12.5t-12 31.5q0 1 0.5 2.5t1 4.5t0.5 6q15 46 41.5 66.5t71.5 20.5q40 0 81 -26q30 -17 43 -17q14 0 21 19q12 28 41 28q19 0 31 -11.5t12 -30.5q0 -1 -2 -15q-15 -46 -41.5 -66.5t-71.5 -20.5
q-38 0 -81 26q-27 17 -42 17z" />
    <glyph glyph-name="hungarumlaut" unicode="&#x2dd;" horiz-adv-x="371" 
d="M105 591q0 15 9 26l58 74q13 16 35 16q19 0 33 -13.5t14 -33.5t-13 -33l-63 -62q-15 -15 -32 -15t-29 12t-12 29zM261 591q0 15 9 26l58 74q13 16 35 16q20 0 33.5 -13.5t13.5 -33.5t-13 -33l-63 -62q-15 -15 -32 -15t-29 12t-12 29z" />
    <glyph glyph-name="gravecomb" unicode="&#x300;" horiz-adv-x="0" 
d="M-52 566l-60 69q-12 15 -12 35q0 21 16.5 36.5t36.5 15.5q29 0 44 -24l51 -80q7 -10 7 -21q0 -19 -13.5 -33t-32.5 -14q-24 0 -37 16z" />
    <glyph glyph-name="acutecomb" unicode="&#x301;" horiz-adv-x="0" 
d="M-104 550q-18 0 -31 14t-13 30q0 23 15 35l83 79q16 14 37 14q20 0 35.5 -16t15.5 -38q0 -27 -20 -42l-92 -67q-15 -9 -30 -9z" />
    <glyph glyph-name="uni0302" unicode="&#x302;" horiz-adv-x="0" 
d="M-45 572l-37 57l-67 -64q-17 -15 -33 -15q-18 0 -30 12.5t-12 29.5q0 16 10 26l33 40q35 42 86 42h55q49 0 67 -42l17 -40q4 -11 4 -18q0 -20 -15 -35t-36 -15q-26 0 -42 22z" />
    <glyph glyph-name="tildecomb" unicode="&#x303;" horiz-adv-x="0" 
d="M-153 597q-14 0 -21 -19q-4 -13 -15.5 -20.5t-26.5 -7.5q-19 0 -31 12.5t-12 31.5q0 1 0.5 2.5t1 4.5t0.5 6q15 46 41.5 66.5t71.5 20.5q40 0 81 -26q30 -17 43 -17q14 0 21 19q12 28 41 28q19 0 31 -11.5t12 -30.5q0 -1 -2 -15q-15 -46 -41.5 -66.5t-71.5 -20.5
q-38 0 -81 26q-27 17 -42 17z" />
    <glyph glyph-name="uni0304" unicode="&#x304;" horiz-adv-x="0" 
d="M-292 599q0 20 14.5 34.5t34.5 14.5h283q20 0 34.5 -14.5t14.5 -34.5q0 -19 -14.5 -33.5t-34.5 -14.5h-283q-20 0 -34.5 14.5t-14.5 33.5z" />
    <glyph glyph-name="uni0306" unicode="&#x306;" horiz-adv-x="0" 
d="M-231 597q-17 17 -17 39t15 37.5t37 15.5t37 -15q27 -27 69 -27q48 0 91 34q11 10 28 10q18 0 31 -13t13 -32q0 -21 -17 -35q-76 -61 -163 -61q-74 0 -124 47z" />
    <glyph glyph-name="uni0307" unicode="&#x307;" horiz-adv-x="0" 
d="M-101 609q0 39 31 69q32 30 70 30q34 0 56.5 -22.5t22.5 -56.5q0 -39 -31 -69q-32 -30 -70 -30q-34 0 -56.5 22.5t-22.5 56.5z" />
    <glyph glyph-name="uni0308" unicode="&#x308;" horiz-adv-x="0" 
d="M-331 608q0 39 31 69t70 30q34 0 56.5 -22.5t22.5 -56.5q0 -39 -31 -69t-70 -30q-34 0 -56.5 22.5t-22.5 56.5zM-115 608q0 39 31 69q32 30 70 30q34 0 56.5 -22.5t22.5 -56.5q0 -39 -31 -69t-70 -30q-34 0 -56.5 22.5t-22.5 56.5z" />
    <glyph glyph-name="uni0309" unicode="&#x309;" horiz-adv-x="0" 
d="M-8 590q0 1 2 11t2 17q0 12 -8 20t-20 8q-18 0 -29 -12q-9 -11 -25 -11t-26.5 10.5t-10.5 26.5q0 17 11 26q36 30 90 30q43 0 74.5 -23t31.5 -61q0 -24 -18 -62q-9 -20 -34 -20q-16 0 -28 12t-12 28z" />
    <glyph glyph-name="uni030A" unicode="&#x30a;" horiz-adv-x="0" 
d="M-36 743q46 0 74 -28t28 -74q0 -49 -36 -85.5t-86 -36.5q-46 0 -74 28t-28 74q0 49 36 85.5t86 36.5zM-44 665q-14 0 -25 -11t-11 -25t9 -23t23 -9t25 11t11 25t-9 23t-23 9z" />
    <glyph glyph-name="uni030B" unicode="&#x30b;" horiz-adv-x="0" 
d="M-266 591q0 15 9 26l58 74q13 16 35 16q19 0 33 -13.5t14 -33.5t-13 -33l-63 -62q-15 -15 -32 -15t-29 12t-12 29zM-110 591q0 15 9 26l58 74q13 16 35 16q20 0 33.5 -13.5t13.5 -33.5t-13 -33l-63 -62q-15 -15 -32 -15t-29 12t-12 29z" />
    <glyph glyph-name="uni030C" unicode="&#x30c;" horiz-adv-x="0" 
d="M-120 684l37 -57l67 64q16 15 33 15q18 0 30 -12.5t12 -29.5q0 -16 -10 -26l-33 -40q-35 -42 -86 -42h-55q-49 0 -67 42l-17 40q-4 11 -4 18q0 20 14.5 35t36.5 15q26 0 42 -22z" />
    <glyph glyph-name="dotbelowcomb" unicode="&#x323;" horiz-adv-x="0" 
d="M-266 -131q0 39 31 69t70 30q34 0 56.5 -22.5t22.5 -56.5q0 -39 -31 -69t-70 -30q-34 0 -56.5 22.5t-22.5 56.5z" />
    <glyph glyph-name="uni0326" unicode="&#x326;" horiz-adv-x="0" 
d="M-272 -295q-13 0 -22 9t-9 22q0 18 16 27q41 21 55 48q-1 -1 -10 -1q-27 0 -43.5 17t-16.5 47q0 33 27 59t61 26q32 0 54 -21.5t22 -57.5q0 -50 -35 -97q-35 -48 -83 -73q-12 -5 -16 -5z" />
    <glyph glyph-name="uni0327" unicode="&#x327;" horiz-adv-x="0" 
d="M-318 -143q0 15 11 26t26 11q10 0 18 -5q32 -21 66 -21q38 0 38 24q0 17 -22 17q-8 0 -15 -4t-16 -4q-15 0 -25.5 10.5t-10.5 24.5q0 10 5 18l34 57h80l-38 -58q13 9 29 9q25 0 42.5 -18t17.5 -47q0 -44 -33.5 -70.5t-84.5 -26.5q-58 0 -102 24q-20 12 -20 33z" />
    <glyph glyph-name="uni0328" unicode="&#x328;" horiz-adv-x="0" 
d="M-126 -177q-36 -9 -85 -9q-51 0 -82.5 18t-31.5 52q3 43 32 66t109 53q53 20 83 20q8 0 8 -3t-11 -11q-56 -37 -56 -74q0 -14 17 -20l12 -3q17 -3 28 -15.5t11 -29.5q0 -16 -10 -28t-24 -16z" />
    <glyph glyph-name="uni037E" unicode="&#x37e;" horiz-adv-x="283" 
d="M181 491q40 0 68.5 -29t28.5 -70q0 -47 -35 -81.5t-82 -34.5q-40 0 -68.5 29t-28.5 70q0 47 35 81.5t82 34.5zM42 -138q-17 0 -29 12.5t-12 29.5q0 23 20 35q57 35 73 66q-2 -1 -13 -1q-36 0 -58.5 22.5t-22.5 62.5q0 44 36.5 78.5t81.5 34.5q43 0 72.5 -29t29.5 -76
q0 -62 -43 -123q-43 -63 -113 -106q-9 -6 -22 -6z" />
    <glyph glyph-name="tonos" unicode="&#x384;" horiz-adv-x="167" 
d="M83 572q0 2 2 12l48 148q5 16 20 27.5t32 11.5q23 0 39.5 -16t16.5 -39q0 -15 -7 -25l-80 -135q-12 -21 -33 -21q-16 0 -27 11t-11 26z" />
    <glyph glyph-name="dieresistonos" unicode="&#x385;" horiz-adv-x="520" 
d="M282 572q0 2 2 12l48 148q5 16 20 27.5t32 11.5q23 0 39.5 -16t16.5 -39q0 -15 -7 -25l-80 -135q-12 -21 -33 -21q-16 0 -27 11t-11 26zM88 608q0 39 31 69q32 30 70 30q34 0 56.5 -22.5t22.5 -56.5q0 -39 -31 -69q-32 -30 -70 -30q-34 0 -56.5 22.5t-22.5 56.5zM419 608
q0 39 31 69q32 30 70 30q34 0 56.5 -22.5t22.5 -56.5q0 -39 -31 -69q-32 -30 -70 -30q-34 0 -56.5 22.5t-22.5 56.5z" />
    <glyph glyph-name="Alphatonos" unicode="&#x386;" horiz-adv-x="690" 
d="M649 91q0 -42 -29.5 -71.5t-71.5 -29.5q-40 0 -68.5 26.5t-32.5 65.5l-1 16h-247l-30 -56q-12 -24 -35.5 -38t-50.5 -14q-40 0 -69 28.5t-29 68.5q0 25 14 50l268 455q24 39 63.5 62t84.5 23q65 0 113 -42t57 -105l63 -424q1 -3 1 -15zM287 266h144l-21 233zM50 481
q0 2 2 12l48 148q5 16 20 27.5t32 11.5q23 0 39.5 -16t16.5 -39q0 -15 -7 -25l-80 -135q-12 -21 -33 -21q-16 0 -27 11t-11 26z" />
    <glyph glyph-name="Epsilontonos" unicode="&#x388;" horiz-adv-x="676" 
d="M102 85q0 18 4 33l100 455q21 94 117 94h316q35 0 59.5 -24.5t24.5 -59.5q0 -34 -24.5 -59t-59.5 -25h-247l-17 -78h203q35 0 59.5 -24.5t24.5 -59.5q0 -34 -24.5 -59t-59.5 -25h-240l-19 -85h210q35 0 59.5 -24.5t24.5 -59.5q0 -34 -24.5 -59t-59.5 -25h-329
q-47 0 -72.5 22t-25.5 63zM36 481q0 2 2 12l48 148q5 16 20 27.5t32 11.5q23 0 39.5 -16t16.5 -39q0 -15 -7 -25l-80 -135q-12 -21 -33 -21q-16 0 -27 11t-11 26z" />
    <glyph glyph-name="Etatonos" unicode="&#x389;" horiz-adv-x="831" 
d="M544 91q0 15 1 19l32 145h-239l-41 -188q-8 -34 -34.5 -55.5t-62.5 -21.5q-43 0 -70 28.5t-27 72.5q0 14 1 19l108 490q8 34 34.5 55.5t61.5 21.5q43 0 70.5 -28.5t27.5 -72.5q0 -15 -1 -19l-28 -126h239l37 169q8 34 34.5 55.5t62.5 21.5q42 0 69.5 -28.5t27.5 -72.5
q0 -15 -1 -19l-108 -490q-8 -34 -34.5 -55.5t-62.5 -21.5q-42 0 -69.5 28.5t-27.5 72.5zM36 481q0 2 2 12l48 148q5 16 20 27.5t32 11.5q23 0 39.5 -16t16.5 -39q0 -15 -7 -25l-80 -135q-12 -21 -33 -21q-16 0 -27 11t-11 26z" />
    <glyph glyph-name="Iotatonos" unicode="&#x38a;" horiz-adv-x="390" 
d="M102 87q0 13 2 23l108 490q8 34 34.5 55.5t61.5 21.5q41 0 70.5 -28t29.5 -68q0 -12 -3 -24l-108 -490q-8 -34 -34.5 -55.5t-61.5 -21.5q-42 0 -70.5 28t-28.5 69zM36 481q0 2 2 12l48 148q5 16 20 27.5t32 11.5q23 0 39.5 -16t16.5 -39q0 -15 -7 -25l-80 -135
q-12 -21 -33 -21q-16 0 -27 11t-11 26z" />
    <glyph glyph-name="Omicrontonos" unicode="&#x38c;" horiz-adv-x="856" 
d="M519 678q147 2 248 -85.5t99 -218.5q2 -159 -115 -274t-285 -112q-147 -2 -248.5 86t-99.5 220q-3 159 114.5 272.5t286.5 111.5zM507 500q-77 0 -128.5 -57t-51.5 -135q0 -62 41.5 -102t108.5 -40q77 0 128.5 57t51.5 135q0 62 -41.5 102t-108.5 40zM34 481q0 2 2 12
l48 148q5 16 20 27.5t32 11.5q23 0 39.5 -16t16.5 -39q0 -15 -7 -25l-80 -135q-12 -21 -33 -21q-16 0 -27 11t-11 26z" />
    <glyph glyph-name="Upsilontonos" unicode="&#x38e;" horiz-adv-x="778" 
d="M803 529l-261 -265l-43 -197q-8 -34 -34.5 -55.5t-62.5 -21.5q-41 0 -70 28t-29 68q0 12 3 24l35 157l-135 274q-10 19 -10 40q0 39 30 67.5t72 28.5q62 0 94 -68l81 -174l190 207q32 35 71 35q38 0 64 -26t26 -64q0 -35 -21 -58zM34 481q0 2 2 12l48 148q5 16 20 27.5
t32 11.5q23 0 39.5 -16t16.5 -39q0 -15 -7 -25l-80 -135q-12 -21 -33 -21q-16 0 -27 11t-11 26z" />
    <glyph glyph-name="Omegatonos" unicode="&#x38f;" horiz-adv-x="868" 
d="M807 88q0 -37 -26 -62.5t-62 -25.5h-124q-41 0 -70.5 29t-29.5 71q0 30 17 55.5t44 36.5q55 23 83.5 68.5t28.5 101.5q0 63 -39 100t-110 37q-79 0 -128.5 -57t-49.5 -130q0 -65 40 -105q34 -34 34 -87q0 -48 -35 -85q-35 -35 -85 -35h-113q-36 0 -62 25.5t-26 62.5
t26 62.5t62 25.5h62q-97 78 -97 203q-1 52 24 104.5t71.5 97t121.5 71.5t165 26q97 1 178 -31t130.5 -95t47.5 -143q0 -81 -48 -141q-48 -59 -107 -93q32 -4 54.5 -28.5t22.5 -58.5zM34 481q0 2 2 12l48 148q5 16 20 27.5t32 11.5q23 0 39.5 -16t16.5 -39q0 -15 -7 -25
l-80 -135q-12 -21 -33 -21q-16 0 -27 11t-11 26z" />
    <glyph glyph-name="iotadieresistonos" unicode="&#x390;" horiz-adv-x="294" 
d="M28 140l65 285q7 29 30.5 48.5t54.5 19.5q37 0 62.5 -25t25.5 -61q0 -11 -2 -21l-48 -208q-1 -1 -1 -7q0 -11 9 -18q9 -6 18 -19q18 -26 18 -54q0 -32 -20 -58t-51 -32q-14 -2 -35 -2q-64 0 -98 27t-34 79q0 20 6 46zM189 592q0 2 2 12l48 148q5 16 20 27.5t32 11.5
q23 0 39.5 -16t16.5 -39q0 -15 -7 -25l-80 -135q-12 -21 -33 -21q-16 0 -27 11t-11 26zM-5 628q0 39 31 69q32 30 70 30q34 0 56.5 -22.5t22.5 -56.5q0 -39 -31 -69q-32 -30 -70 -30q-34 0 -56.5 22.5t-22.5 56.5zM326 628q0 39 31 69t70 30q34 0 56.5 -22.5t22.5 -56.5
q0 -39 -31 -69t-70 -30q-34 0 -56.5 22.5t-22.5 56.5z" />
    <glyph glyph-name="Alpha" unicode="&#x391;" horiz-adv-x="690" 
d="M649 91q0 -42 -29.5 -71.5t-71.5 -29.5q-40 0 -68.5 26.5t-32.5 65.5l-1 16h-247l-30 -56q-12 -24 -35.5 -38t-50.5 -14q-40 0 -69 28.5t-29 68.5q0 25 14 50l268 455q24 39 63.5 62t84.5 23q65 0 113 -42t57 -105l63 -424q1 -3 1 -15zM287 266h144l-21 233z" />
    <glyph glyph-name="Beta" unicode="&#x392;" horiz-adv-x="697" 
d="M22 85q0 18 4 33l100 455q21 94 117 94h275q92 0 142.5 -49t50.5 -117q0 -62 -45.5 -113.5t-104.5 -56.5q45 -12 70 -49t25 -83q0 -80 -60 -139.5t-177 -59.5h-299q-47 0 -72.5 22t-25.5 63zM457 503h-144l-19 -84h150q26 0 39 13.5t13 34.5q0 36 -39 36zM414 255h-156
l-20 -91h156q27 0 44 14.5t17 35.5q0 18 -11.5 29.5t-29.5 11.5z" />
    <glyph glyph-name="Gamma" unicode="&#x393;" horiz-adv-x="575" 
d="M22 91q0 1 2 19l102 463q21 94 117 94h311q36 0 62 -25.5t26 -62.5t-26 -62.5t-62 -25.5h-244l-93 -424q-8 -34 -34.5 -55.5t-62.5 -21.5q-42 0 -70 29t-28 72z" />
    <glyph glyph-name="uni0394" unicode="&#x394;" horiz-adv-x="710" 
d="M-16 68q0 29 19 60l274 465q23 39 63 61.5t85 22.5q65 0 113 -42t57 -105l62 -416q2 -22 2 -24q0 -43 -26 -66.5t-75 -23.5h-481q-45 0 -69 18t-24 50zM414 469l-154 -293h180z" />
    <glyph glyph-name="Epsilon" unicode="&#x395;" 
d="M22 85q0 18 4 33l100 455q21 94 117 94h316q35 0 59.5 -24.5t24.5 -59.5q0 -34 -24.5 -59t-59.5 -25h-247l-17 -78h203q35 0 59.5 -24.5t24.5 -59.5q0 -34 -24.5 -59t-59.5 -25h-240l-19 -85h210q35 0 59.5 -24.5t24.5 -59.5q0 -34 -24.5 -59t-59.5 -25h-329
q-47 0 -72.5 22t-25.5 63z" />
    <glyph glyph-name="Zeta" unicode="&#x396;" horiz-adv-x="600" 
d="M-5 98q0 40 28 68l311 325h-145q-36 0 -62 25.5t-26 62.5t26 62.5t62 25.5h350q40 0 69 -28.5t29 -68.5q0 -39 -27 -68l-313 -326h153q36 0 62 -25.5t26 -62.5t-26 -62.5t-62 -25.5h-357q-40 0 -69 29t-29 69z" />
    <glyph glyph-name="Eta" unicode="&#x397;" horiz-adv-x="751" 
d="M464 91q0 15 1 19l32 145h-239l-41 -188q-8 -34 -34.5 -55.5t-62.5 -21.5q-43 0 -70 28.5t-27 72.5q0 14 1 19l108 490q8 34 34.5 55.5t61.5 21.5q43 0 70.5 -28.5t27.5 -72.5q0 -15 -1 -19l-28 -126h239l37 169q8 34 34.5 55.5t62.5 21.5q42 0 69.5 -28.5t27.5 -72.5
q0 -15 -1 -19l-108 -490q-8 -34 -34.5 -55.5t-62.5 -21.5q-42 0 -69.5 28.5t-27.5 72.5z" />
    <glyph glyph-name="Theta" unicode="&#x398;" horiz-adv-x="766" 
d="M429 678q147 2 248 -85.5t99 -218.5q2 -159 -115 -274t-285 -112q-147 -2 -248.5 86t-99.5 220q-3 159 114.5 272.5t286.5 111.5zM417 500q-77 0 -128.5 -57t-51.5 -135q0 -62 41.5 -102t108.5 -40q77 0 128.5 57t51.5 135q0 62 -41.5 102t-108.5 40zM260 338
q0 36 26.5 61.5t62.5 25.5h105q36 0 62.5 -25.5t26.5 -61.5q0 -37 -26.5 -63t-62.5 -26h-105q-36 0 -62.5 26t-26.5 63z" />
    <glyph glyph-name="Iota" unicode="&#x399;" horiz-adv-x="310" 
d="M22 87q0 13 2 23l108 490q8 34 34.5 55.5t61.5 21.5q41 0 70.5 -28t29.5 -68q0 -12 -3 -24l-108 -490q-8 -34 -34.5 -55.5t-61.5 -21.5q-42 0 -70.5 28t-28.5 69z" />
    <glyph glyph-name="Kappa" unicode="&#x39a;" horiz-adv-x="651" 
d="M681 588q0 -39 -27 -63l-201 -168l140 -217q11 -17 11 -47q0 -43 -30 -73t-73 -30q-59 0 -94 62l-109 191l-55 -58l-26 -118q-8 -34 -34.5 -55.5t-61.5 -21.5q-42 0 -70.5 28.5t-28.5 69.5q0 12 2 22l108 490q8 34 34.5 55.5t61.5 21.5q41 0 70.5 -28t29.5 -68
q0 -12 -3 -24l-28 -128l230 219q32 29 65 29q37 0 63 -26t26 -63z" />
    <glyph glyph-name="Lambda" unicode="&#x39b;" horiz-adv-x="710" 
d="M447 86l-33 383l-224 -425q-28 -54 -90 -54q-44 0 -73 30t-29 72q0 28 14 51l265 450q23 39 63 61.5t85 22.5q65 0 113 -42t57 -105l62 -419q1 -3 1 -15q0 -44 -31 -75q-30 -31 -74 -31q-41 0 -71.5 27.5t-34.5 68.5z" />
    <glyph glyph-name="Mu" unicode="&#x39c;" horiz-adv-x="900" 
d="M613 91q0 15 1 19l64 291l-226 -383q-18 -28 -50 -28q-21 0 -37.5 14t-19.5 35l-55 362l-73 -334q-8 -34 -34.5 -55.5t-62.5 -21.5q-42 0 -70.5 27.5t-28.5 68.5q0 12 3 24l97 441q12 55 56 90.5t101 35.5q61 0 105 -40q46 -39 54 -98l28 -192l149 253q21 36 56.5 56.5
t77.5 20.5q65 0 110.5 -45.5t45.5 -108.5q0 -20 -4 -35l-93 -421q-8 -34 -34.5 -55.5t-62.5 -21.5q-42 0 -69.5 28.5t-27.5 72.5z" />
    <glyph glyph-name="Nu" unicode="&#x39d;" horiz-adv-x="750" 
d="M419 67l-135 309l-67 -309q-8 -34 -34.5 -55.5t-62.5 -21.5q-42 0 -70.5 27.5t-28.5 68.5q0 12 3 24l101 459q11 47 48.5 77.5t86.5 30.5q42 0 76.5 -23t50.5 -60l122 -281l63 287q8 34 34.5 55.5t61.5 21.5q42 0 70.5 -28t28.5 -69q0 -13 -2 -23l-103 -466
q-10 -43 -45 -72t-80 -29q-39 0 -71 21t-47 56z" />
    <glyph glyph-name="Xi" unicode="&#x39e;" horiz-adv-x="636" 
d="M107 583q0 35 25 59.5t59 24.5h408q35 0 59.5 -24.5t24.5 -59.5q0 -34 -24.5 -59t-59.5 -25h-408q-34 0 -59 25t-25 59zM59 337q0 35 25 59.5t59 24.5h395q35 0 59.5 -24.5t24.5 -59.5q0 -34 -24.5 -59t-59.5 -25h-395q-34 0 -59 25t-25 59zM-2 84q0 35 25 59.5t59 24.5
h408q35 0 59.5 -24.5t24.5 -59.5q0 -34 -24.5 -59t-59.5 -25h-408q-34 0 -59 25t-25 59z" />
    <glyph glyph-name="Omicron" unicode="&#x39f;" horiz-adv-x="766" 
d="M429 678q147 2 248 -85.5t99 -218.5q2 -159 -115 -274t-285 -112q-147 -2 -248.5 86t-99.5 220q-3 159 114.5 272.5t286.5 111.5zM417 500q-77 0 -128.5 -57t-51.5 -135q0 -62 41.5 -102t108.5 -40q77 0 128.5 57t51.5 135q0 62 -41.5 102t-108.5 40z" />
    <glyph glyph-name="Pi" unicode="&#x3a0;" horiz-adv-x="751" 
d="M464 91q0 15 1 19l84 381h-239l-93 -424q-8 -34 -34.5 -55.5t-62.5 -21.5q-42 0 -70 29t-28 72q0 1 2 19l102 463q21 94 117 94h427q98 0 98 -84q0 -18 -4 -33l-106 -483q-8 -34 -34.5 -55.5t-62.5 -21.5q-42 0 -69.5 28.5t-27.5 72.5z" />
    <glyph glyph-name="Rho" unicode="&#x3a1;" horiz-adv-x="662" 
d="M21 86q0 12 3 24l102 463q21 94 117 94h239q94 0 153.5 -56.5t59.5 -140.5q0 -34 -9.5 -69.5t-32 -71t-56 -63t-85 -44.5t-113.5 -16h-152l-30 -139q-8 -34 -34.5 -55.5t-62.5 -21.5q-42 0 -70.5 27.5t-28.5 68.5zM486 449q0 50 -61 50h-113l-26 -117h119q38 0 59.5 18.5
t21.5 48.5z" />
    <glyph glyph-name="Sigma" unicode="&#x3a3;" horiz-adv-x="597" 
d="M289 176h158q36 0 62 -25.5t26 -62.5t-26 -62.5t-62 -25.5h-310q-49 0 -84 35t-35 84q0 59 47 94l189 146l-109 119q-29 32 -29 76q0 47 33 80t79 33h327q36 0 62 -25.5t26 -62.5t-26 -62.5t-62 -25.5h-197l66 -74q33 -37 33 -72q0 -43 -47 -78z" />
    <glyph glyph-name="Tau" unicode="&#x3a4;" horiz-adv-x="595" 
d="M172 86q0 12 3 24l84 381h-88q-36 0 -62 25.5t-26 62.5t26 62.5t62 25.5h400q36 0 62 -25.5t26 -62.5t-26 -62.5t-62 -25.5h-110l-93 -424q-8 -34 -34.5 -55.5t-62.5 -21.5q-42 0 -70.5 27.5t-28.5 68.5z" />
    <glyph glyph-name="Upsilon" unicode="&#x3a5;" horiz-adv-x="644" 
d="M689 529l-261 -265l-43 -197q-8 -34 -34.5 -55.5t-62.5 -21.5q-41 0 -70 28t-29 68q0 12 3 24l35 157l-135 274q-10 19 -10 40q0 39 30 67.5t72 28.5q62 0 94 -68l81 -174l190 207q32 35 71 35q38 0 64 -26t26 -64q0 -35 -21 -58z" />
    <glyph glyph-name="Phi" unicode="&#x3a6;" horiz-adv-x="904" 
d="M516 66q-8 -33 -34.5 -54.5t-61.5 -21.5q-37 0 -64.5 23t-33.5 58q-147 15 -218 75.5t-71 173.5q0 118 109 193t289 87q8 34 34.5 55.5t61.5 21.5q37 0 65.5 -23.5t33.5 -58.5q148 -16 218.5 -76.5t70.5 -173.5q0 -118 -109 -192.5t-290 -86.5zM353 248l38 171
q-148 -16 -148 -99q0 -58 110 -72zM705 346q0 59 -112 72l-37 -171q149 16 149 99z" />
    <glyph glyph-name="Chi" unicode="&#x3a7;" horiz-adv-x="644" 
d="M683 583q0 -38 -23 -61l-193 -190l121 -196q14 -23 14 -47q0 -40 -33 -70q-32 -29 -74 -29q-55 0 -94 61l-91 145l-170 -172q-31 -34 -72 -34q-39 0 -66.5 27.5t-27.5 65.5t23 61l211 208l-112 180q-13 19 -13 44q0 39 32 70t74 31q54 0 94 -62l81 -132l151 158
q35 36 74 36t66.5 -27.5t27.5 -66.5z" />
    <glyph glyph-name="Psi" unicode="&#x3a8;" horiz-adv-x="937" 
d="M857 677q44 0 72 -31q29 -32 29 -72q0 -10 -2 -20l-40 -174q-22 -97 -122.5 -168.5t-248.5 -84.5l-14 -60q-8 -34 -34.5 -55.5t-61.5 -21.5q-42 0 -70.5 27t-28.5 68q0 13 3 25l5 23q-253 37 -253 228q0 43 10 82l36 156q8 34 35 56t62 22q46 0 73 -28.5t27 -69.5
q0 -12 -2 -22l-28 -122q0 -2 -2 -9.5t-3.5 -16t-1.5 -15.5q0 -62 88 -82l66 289q8 33 34.5 54.5t61.5 21.5q41 0 69.5 -29.5t28.5 -69.5q0 -11 -2 -21l-56 -245q112 25 131 105l41 182q8 33 35.5 55.5t62.5 22.5z" />
    <glyph glyph-name="uni03A9" unicode="&#x3a9;" horiz-adv-x="766" 
d="M705 88q0 -37 -26 -62.5t-62 -25.5h-124q-41 0 -70.5 29t-29.5 71q0 30 17 55.5t44 36.5q55 23 83.5 68.5t28.5 101.5q0 63 -39 100t-110 37q-79 0 -128.5 -57t-49.5 -130q0 -65 40 -105q34 -34 34 -87q0 -48 -35 -85q-35 -35 -85 -35h-113q-36 0 -62 25.5t-26 62.5
t26 62.5t62 25.5h62q-97 78 -97 203q-1 52 24 104.5t71.5 97t121.5 71.5t165 26q97 1 178 -31t130.5 -95t47.5 -143q0 -81 -48 -141q-48 -59 -107 -93q32 -4 54.5 -28.5t22.5 -58.5z" />
    <glyph glyph-name="Iotadieresis" unicode="&#x3aa;" horiz-adv-x="310" 
d="M22 87q0 13 2 23l108 490q8 34 34.5 55.5t61.5 21.5q41 0 70.5 -28t29.5 -68q0 -12 -3 -24l-108 -490q-8 -34 -34.5 -55.5t-61.5 -21.5q-42 0 -70.5 28t-28.5 69zM80 775q0 39 31 69t70 30q34 0 56.5 -22.5t22.5 -56.5q0 -39 -31 -69t-70 -30q-34 0 -56.5 22.5
t-22.5 56.5zM296 775q0 39 31 69t70 30q34 0 56.5 -22.5t22.5 -56.5q0 -39 -31 -69t-70 -30q-34 0 -56.5 22.5t-22.5 56.5z" />
    <glyph glyph-name="Upsilondieresis" unicode="&#x3ab;" horiz-adv-x="644" 
d="M689 529l-261 -265l-43 -197q-8 -34 -34.5 -55.5t-62.5 -21.5q-41 0 -70 28t-29 68q0 12 3 24l35 157l-135 274q-10 19 -10 40q0 39 30 67.5t72 28.5q62 0 94 -68l81 -174l190 207q32 35 71 35q38 0 64 -26t26 -64q0 -35 -21 -58zM248 775q0 39 31 69q32 30 70 30
q34 0 56.5 -22.5t22.5 -56.5q0 -39 -31 -69t-70 -30q-34 0 -56.5 22.5t-22.5 56.5zM464 775q0 39 31 69t70 30q34 0 56.5 -22.5t22.5 -56.5q0 -39 -31 -69t-70 -30q-34 0 -56.5 22.5t-22.5 56.5z" />
    <glyph glyph-name="alphatonos" unicode="&#x3ac;" horiz-adv-x="610" 
d="M578 386l-46 -208q-1 -1 -1 -7q0 -11 9 -18q9 -6 18 -19q18 -26 18 -54q0 -32 -20 -58t-51 -32q-16 -2 -35 -2q-114 0 -130 82q-41 -46 -74 -64t-73 -18q-84 0 -132 53t-48 148q-1 72 28 141.5t89.5 118t137.5 46.5q98 0 141 -64q9 28 31.5 45t51.5 17q37 0 62.5 -26
t25.5 -63q0 -2 -2 -18zM352 180l28 123q-30 33 -80 33q-43 0 -72 -31.5t-29 -77.5q0 -35 23 -57.5t57 -22.5q40 0 73 33zM346 592q0 2 2 12l48 148q5 16 20 27.5t32 11.5q23 0 39.5 -16t16.5 -39q0 -15 -7 -25l-80 -135q-12 -21 -33 -21q-16 0 -27 11t-11 26z" />
    <glyph glyph-name="epsilontonos" unicode="&#x3ad;" horiz-adv-x="502" 
d="M-8 140q0 60 46 88q47 29 107 29q-44 14 -69.5 43t-25.5 63q0 3 2 19q28 112 220 112q107 0 188 -54q31 -20 31 -56q0 -28 -20 -48t-48 -20q-20 0 -37 11q-51 33 -107 33q-20 0 -34.5 -8.5t-14.5 -22.5q0 -29 47 -29h29q23 0 40 -17t17 -40t-17 -40t-40 -17h-55
q-70 0 -70 -30q0 -33 70 -33q58 0 103 14q9 3 19 3q27 0 46.5 -19t19.5 -47q0 -43 -42 -61q-68 -25 -149 -25q-119 0 -187.5 44t-68.5 108zM300 592q0 2 2 12l48 148q5 16 20 27.5t32 11.5q23 0 39.5 -16t16.5 -39q0 -15 -7 -25l-80 -135q-12 -21 -33 -21q-16 0 -27 11
t-11 26z" />
    <glyph glyph-name="etatonos" unicode="&#x3ae;" horiz-adv-x="607" 
d="M581 368q0 -19 -5 -39l-102 -455q-7 -30 -31 -49t-55 -19q-37 0 -61.5 25.5t-24.5 64.5q0 13 1 17l79 355q3 13 3 23q0 45 -65 45q-38 0 -78 -37l-53 -240q-7 -30 -31 -49.5t-55 -19.5q-38 0 -62.5 25.5t-24.5 64.5q0 13 1 17l73 328q9 35 31 56.5t54 21.5q37 0 63 -24.5
t27 -61.5q61 78 157 78q73 0 116 -35t43 -92zM348 592q0 2 2 12l48 148q5 16 20 27.5t32 11.5q23 0 39.5 -16t16.5 -39q0 -15 -7 -25l-80 -135q-12 -21 -33 -21q-16 0 -27 11t-11 26z" />
    <glyph glyph-name="iotatonos" unicode="&#x3af;" horiz-adv-x="294" 
d="M28 140l65 285q7 29 30.5 48.5t54.5 19.5q37 0 62.5 -25t25.5 -61q0 -11 -2 -21l-48 -208q-1 -1 -1 -7q0 -11 9 -18q9 -6 18 -19q18 -26 18 -54q0 -32 -20 -58t-51 -32q-14 -2 -35 -2q-64 0 -98 27t-34 79q0 20 6 46zM185 592q0 2 2 12l48 148q5 16 20 27.5t32 11.5
q23 0 39.5 -16t16.5 -39q0 -15 -7 -25l-80 -135q-12 -21 -33 -21q-16 0 -27 11t-11 26z" />
    <glyph glyph-name="upsilondieresistonos" unicode="&#x3b0;" horiz-adv-x="592" 
d="M47 224l46 201q7 29 30.5 48.5t54.5 19.5q37 0 63 -24.5t26 -60.5q0 -10 -3 -22l-36 -159q-3 -12 -3 -23q0 -27 15 -42t42 -15q57 0 86.5 46.5t29.5 129.5q0 35 -5 62q-2 16 -2 18q0 37 29 64q28 28 67 28q38 0 64 -22t32 -59q4 -25 4 -64q0 -159 -87.5 -260.5
t-236.5 -101.5q-107 0 -165 48t-58 131q0 30 7 57zM352 592q0 2 2 12l48 148q5 16 20 27.5t32 11.5q23 0 39.5 -16t16.5 -39q0 -15 -7 -25l-80 -135q-12 -21 -33 -21q-16 0 -27 11t-11 26zM158 628q0 39 31 69t70 30q34 0 56.5 -22.5t22.5 -56.5q0 -39 -31 -69t-70 -30
q-34 0 -56.5 22.5t-22.5 56.5zM489 628q0 39 31 69q32 30 70 30q34 0 56.5 -22.5t22.5 -56.5q0 -39 -31 -69q-32 -30 -70 -30q-34 0 -56.5 22.5t-22.5 56.5z" />
    <glyph glyph-name="alpha" unicode="&#x3b1;" horiz-adv-x="610" 
d="M578 386l-46 -208q-1 -1 -1 -7q0 -11 9 -18q9 -6 18 -19q18 -26 18 -54q0 -32 -20 -58t-51 -32q-16 -2 -35 -2q-114 0 -130 82q-41 -46 -74 -64t-73 -18q-84 0 -132 53t-48 148q-1 72 28 141.5t89.5 118t137.5 46.5q98 0 141 -64q9 28 31.5 45t51.5 17q37 0 62.5 -26
t25.5 -63q0 -2 -2 -18zM352 180l28 123q-30 33 -80 33q-43 0 -72 -31.5t-29 -77.5q0 -35 23 -57.5t57 -22.5q40 0 73 33z" />
    <glyph glyph-name="beta" unicode="&#x3b2;" 
d="M187 50l-40 -176q-7 -30 -30.5 -49t-54.5 -19q-37 0 -62.5 25t-25.5 61q0 11 2 21l120 528q27 116 115.5 176t192.5 60q107 0 165 -42t58 -118q0 -61 -52.5 -111t-128.5 -62q122 -29 122 -141q3 -87 -71.5 -152t-154.5 -63q-99 0 -155 62zM388 211q0 30 -36 41
q-63 18 -63 83q0 30 22.5 54t53.5 26q32 2 49.5 19t17.5 42q0 41 -60 41q-35 0 -61.5 -21.5t-34.5 -54.5l-60 -263q28 -31 84 -31q39 0 63.5 18.5t24.5 45.5z" />
    <glyph glyph-name="gamma" unicode="&#x3b3;" horiz-adv-x="535" 
d="M551 408q0 -15 -6 -30q-41 -105 -106 -204q-66 -103 -135 -169l-30 -131q-7 -30 -30.5 -50t-54.5 -20q-35 0 -63 25q-27 25 -27 59q0 8 1 11l2 9q23 106 23 204q0 134 -42 264q-5 15 -5 29q0 36 26 62t64 26q30 0 54 -18t32 -47q28 -99 28 -189q0 -6 -2 -38q24 29 55 98
q32 73 50 134q8 26 30.5 43t50.5 17q36 0 60.5 -25.5t24.5 -59.5z" />
    <glyph glyph-name="delta" unicode="&#x3b4;" horiz-adv-x="577" 
d="M567 271q1 -49 -23 -100.5t-65 -92.5t-99.5 -66.5t-121.5 -23.5q-120 0 -183.5 58t-63.5 156q0 76 43 132q42 56 106 89q-29 35 -29 82q0 72 72.5 123t184.5 51q61 0 118 -20q22 -8 36 -28t14 -44q0 -31 -22.5 -54t-54.5 -23q-16 0 -34 8q-42 21 -88 21q-20 0 -34.5 -5.5
t-14.5 -13.5q0 -5 2 -8t10.5 -6.5t16.5 -6t27 -8.5q58 -17 98 -36q105 -52 105 -184zM389 249q0 36 -23 58.5t-74 42.5q-41 -21 -66.5 -55.5t-25.5 -67.5q0 -37 22 -58.5t61 -21.5q42 0 74 31.5t32 70.5z" />
    <glyph glyph-name="epsilon" unicode="&#x3b5;" horiz-adv-x="502" 
d="M-8 140q0 60 46 88q47 29 107 29q-44 14 -69.5 43t-25.5 63q0 3 2 19q28 112 220 112q107 0 188 -54q31 -20 31 -56q0 -28 -20 -48t-48 -20q-20 0 -37 11q-51 33 -107 33q-20 0 -34.5 -8.5t-14.5 -22.5q0 -29 47 -29h29q23 0 40 -17t17 -40t-17 -40t-40 -17h-55
q-70 0 -70 -30q0 -33 70 -33q58 0 103 14q9 3 19 3q27 0 46.5 -19t19.5 -47q0 -43 -42 -61q-68 -25 -149 -25q-119 0 -187.5 44t-68.5 108z" />
    <glyph glyph-name="zeta" unicode="&#x3b6;" horiz-adv-x="482" 
d="M4 165q0 100 76.5 195t199.5 151h-97q-32 0 -55 23t-23 55t23 55t55 23h280q32 0 53.5 -21.5t21.5 -53.5q0 -46 -43 -67q-116 -54 -209.5 -148t-90.5 -173q0 -28 18 -36.5t66 -8.5q146 0 146 -93q0 -70 -90 -200q-23 -33 -63 -33q-32 0 -54.5 22.5t-22.5 53.5q0 20 12 41
q20 32 20 44q0 6 -8 6q-103 0 -159 42.5t-56 122.5z" />
    <glyph glyph-name="eta" unicode="&#x3b7;" horiz-adv-x="607" 
d="M581 368q0 -19 -5 -39l-102 -455q-7 -30 -31 -49t-55 -19q-37 0 -61.5 25.5t-24.5 64.5q0 13 1 17l79 355q3 13 3 23q0 45 -65 45q-38 0 -78 -37l-53 -240q-7 -30 -31 -49.5t-55 -19.5q-38 0 -62.5 25.5t-24.5 64.5q0 13 1 17l73 328q9 35 31 56.5t54 21.5q37 0 63 -24.5
t27 -61.5q61 78 157 78q73 0 116 -35t43 -92z" />
    <glyph glyph-name="theta" unicode="&#x3b8;" horiz-adv-x="577" 
d="M594 400q2 -171 -93 -293t-230 -119q-108 0 -175.5 73t-67.5 205q-2 170 93.5 293t230.5 120q109 0 175.5 -73t66.5 -206zM242 413h170v17q0 42 -16.5 66t-46.5 24q-63 0 -107 -107zM379 257h-170q-1 -5 -1 -19q0 -42 17.5 -66.5t49.5 -24.5q63 0 104 110z" />
    <glyph glyph-name="iota" unicode="&#x3b9;" horiz-adv-x="294" 
d="M28 140l65 285q7 29 30.5 48.5t54.5 19.5q37 0 62.5 -25t25.5 -61q0 -11 -2 -21l-48 -208q-1 -1 -1 -7q0 -11 9 -18q9 -6 18 -19q18 -26 18 -54q0 -32 -20 -58t-51 -32q-14 -2 -35 -2q-64 0 -98 27t-34 79q0 20 6 46z" />
    <glyph glyph-name="kappa" unicode="&#x3ba;" horiz-adv-x="557" 
d="M552 414q0 -36 -31 -61l-119 -95l81 -125q15 -23 15 -49q0 -38 -30 -66q-28 -28 -66 -28q-52 0 -91 66l-55 96l-57 -47l-10 -46q-7 -30 -31 -49.5t-55 -19.5q-37 0 -62.5 24.5t-25.5 61.5q0 11 2 21l73 328q7 30 30.5 49t54.5 19q37 0 63 -24.5t26 -60.5q0 -12 -3 -22
l-15 -67l167 147q29 27 60 27q33 0 56 -23t23 -56z" />
    <glyph glyph-name="lambda" unicode="&#x3bb;" horiz-adv-x="535" 
d="M409 542l72 -448q1 -3 1 -15q0 -37 -26 -63t-64 -26q-34 0 -59.5 23t-29.5 57l-22 206l-137 -244q-25 -42 -72 -42q-35 0 -58.5 24.5t-23.5 58.5q0 23 12 42l231 375l-2 10q-5 14 -34 18q-15 2 -27 9q-42 25 -42 71q0 30 20 52.5t52 26.5q4 1 15 1q92 -3 137 -32t57 -104
z" />
    <glyph glyph-name="uni03BC" unicode="&#x3bc;" horiz-adv-x="620" 
d="M62 -194q-37 0 -62.5 25t-25.5 61q0 11 2 21l117 512q7 29 30.5 48.5t54.5 19.5q40 0 63 -25t23 -66q0 -12 -4 -32l-35 -160q-2 -16 -2 -17q0 -23 15.5 -34.5t40.5 -11.5q44 0 85 38l52 239q6 29 30.5 49t55.5 20q37 0 62.5 -26t25.5 -63q0 -2 -2 -18l-46 -208
q-1 -1 -1 -7q0 -11 9 -18q9 -6 18 -19q18 -26 18 -54q0 -32 -20 -58t-51 -32q-14 -2 -30 -2q-121 0 -136 87q-57 -87 -137 -87q-25 0 -37 7l-28 -121q-7 -29 -30.5 -48.5t-54.5 -19.5z" />
    <glyph glyph-name="nu" unicode="&#x3bd;" horiz-adv-x="535" 
d="M101 106l-45 281q-1 3 -1 15q0 37 27 64t65 27q36 0 62 -23.5t30 -58.5l24 -232q76 92 123 253q8 27 30 44t51 17q35 0 60 -25t25 -59q0 -16 -6 -31q-68 -178 -203 -339q-40 -49 -106 -49q-51 0 -89.5 33t-46.5 83z" />
    <glyph glyph-name="xi" unicode="&#x3be;" horiz-adv-x="482" 
d="M262 451q0 -39 74 -39h64q32 0 54.5 -22.5t22.5 -54.5t-22.5 -54.5t-54.5 -22.5h-99q-53 0 -81 -18t-28 -49q0 -19 19.5 -25.5t67.5 -6.5q146 0 146 -93q0 -70 -90 -200q-25 -33 -63 -33q-31 0 -53.5 22t-22.5 54q0 24 11 41q20 32 20 44q0 6 -8 6q-224 0 -224 140
q0 56 38 98.5t103 64.5q-34 6 -54 28.5t-20 57.5q0 36 33.5 71.5t82.5 52.5q-28 5 -47 26t-19 50q0 32 23 55t55 23h269q32 0 55 -23t23 -55t-23 -55t-55 -23h-140q-57 -17 -57 -60z" />
    <glyph glyph-name="omicron" unicode="&#x3bf;" horiz-adv-x="577" 
d="M303 495q122 0 190 -63t68 -162q2 -113 -83 -199t-206 -83q-122 0 -190 63t-68 162q-2 112 83 198t206 84zM296 336q-43 0 -70.5 -33t-27.5 -81q0 -36 21.5 -55.5t59.5 -19.5q43 0 70.5 33t27.5 81q0 36 -21.5 55.5t-59.5 19.5z" />
    <glyph glyph-name="pi" unicode="&#x3c0;" horiz-adv-x="681" 
d="M720 405q0 -32 -23 -55t-55 -23h-28l-61 -269q-7 -30 -30.5 -49t-54.5 -19q-37 0 -63 24.5t-26 60.5q0 10 3 22l52 230h-147l-61 -269q-7 -30 -30.5 -49t-54.5 -19q-37 0 -63 24.5t-26 60.5q0 10 3 22l52 231q-30 3 -50 25t-20 52q0 32 23 55t55 23h527q32 0 55 -23
t23 -55z" />
    <glyph glyph-name="rho" unicode="&#x3c1;" horiz-adv-x="595" 
d="M188 51l-41 -177q-7 -29 -30.5 -48.5t-54.5 -19.5q-37 0 -63 24.5t-26 60.5q0 10 3 22l74 329q27 119 105 186t197 67q105 0 167.5 -61.5t62.5 -159.5q1 -63 -28 -128t-90 -112.5t-137 -45.5q-42 0 -80.5 16.5t-58.5 46.5zM323 336q-36 0 -60 -25t-34 -69l-14 -62
q30 -33 80 -33q43 0 72 31.5t29 77.5q0 35 -21 57.5t-52 22.5z" />
    <glyph glyph-name="uni03C2" unicode="&#x3c2;" horiz-adv-x="502" 
d="M306 495q77 0 130 -28q46 -25 46 -75q0 -34 -24.5 -58.5t-59.5 -24.5q-24 0 -44 13q-23 14 -50 14q-47 0 -77 -31.5t-30 -80.5q0 -36 26.5 -50.5t94.5 -14.5q54 0 86.5 -26.5t32.5 -71.5q0 -65 -89 -195q-22 -34 -63 -34q-31 0 -53.5 22.5t-22.5 54.5q0 23 11 40
q20 34 20 45q0 6 -5 6q-83 -2 -152.5 59.5t-67.5 152.5q-2 117 84.5 201t206.5 82z" />
    <glyph glyph-name="sigma" unicode="&#x3c3;" horiz-adv-x="577" 
d="M14 213q0 116 88.5 193t221.5 77h205q33 0 56 -23.5t23 -56.5q0 -32 -23 -55.5t-56 -23.5h-12q26 -32 26 -82q2 -98 -78.5 -177.5t-192.5 -76.5q-122 0 -190 63t-68 162zM356 324h-49q-51 0 -80 -27.5t-29 -74.5q0 -36 21.5 -55.5t59.5 -19.5q43 0 70.5 33t27.5 81
q0 42 -21 63z" />
    <glyph glyph-name="tau" unicode="&#x3c4;" horiz-adv-x="495" 
d="M526 405q0 -32 -23 -55t-55 -23h-90l-28 -127q-2 -8 -2 -17q0 -29 25 -35l17 -3q17 -3 30.5 -22.5t13.5 -41.5q0 -36 -22.5 -60t-60.5 -31q-14 -2 -31 -2q-76 0 -121 32t-45 89q0 22 4 37l40 181h-55q-32 0 -55 23t-23 55t23 55t55 23h325q32 0 55 -23t23 -55z" />
    <glyph glyph-name="upsilon" unicode="&#x3c5;" horiz-adv-x="592" 
d="M47 224l46 201q7 29 30.5 48.5t54.5 19.5q37 0 63 -24.5t26 -60.5q0 -10 -3 -22l-36 -159q-3 -12 -3 -23q0 -27 15 -42t42 -15q57 0 86.5 46.5t29.5 129.5q0 35 -5 62q-2 16 -2 18q0 37 29 64q28 28 67 28q38 0 64 -22t32 -59q4 -25 4 -64q0 -159 -87.5 -260.5
t-236.5 -101.5q-107 0 -165 48t-58 131q0 30 7 57z" />
    <glyph glyph-name="phi" unicode="&#x3c6;" horiz-adv-x="754" 
d="M411 -12l-25 -113q-7 -30 -31 -49.5t-55 -19.5q-36 0 -62 25.5t-26 61.5q0 10 2 20l19 85q-88 11 -150 71.5t-62 150.5q0 168 145 240q19 10 37 10q31 0 54.5 -24t23.5 -56q0 -43 -37 -67q-43 -27 -43 -81q0 -75 67 -85l54 250q8 38 40 62t72 24q126 1 213 -69.5
t85 -166.5q0 -127 -81.5 -198t-239.5 -71zM551 235q0 66 -69 79l-37 -167q51 0 78.5 23t27.5 65z" />
    <glyph glyph-name="chi" unicode="&#x3c7;" horiz-adv-x="521" 
d="M530 412q0 -31 -23 -60l-165 -199l86 -221q6 -16 6 -33q0 -38 -27 -65.5t-64 -27.5q-32 0 -55.5 20t-35.5 54l-42 121l-119 -158q-27 -37 -69 -37q-34 0 -58 23.5t-24 56.5q0 31 23 60l179 218l-77 196q-9 24 -9 45q0 38 27 63t64 25q65 0 91 -75l36 -102l104 139
q29 38 70 38q34 0 58 -24t24 -57z" />
    <glyph glyph-name="psi" unicode="&#x3c8;" horiz-adv-x="798" 
d="M694 493q40 0 63 -25t23 -66q0 -13 -4 -34l-29 -132q-22 -105 -107 -176.5t-206 -71.5l-25 -113q-7 -30 -31 -49.5t-55 -19.5q-36 0 -62 25.5t-26 61.5q0 10 2 20l19 85q-96 13 -151 68.5t-55 138.5q0 35 7 63l34 156q6 29 30.5 49t55.5 20q40 0 63 -24.5t23 -65.5
q0 -20 -4 -35l-18 -82q-9 -41 -9 -61q0 -53 58 -69l99 452q7 30 31 49.5t55 19.5q37 0 62.5 -25t25.5 -61q0 -11 -2 -21l-93 -423q78 0 104 111l36 166q6 29 30.5 49t55.5 20z" />
    <glyph glyph-name="omega" unicode="&#x3c9;" horiz-adv-x="806" 
d="M385 115q-39 -67 -84.5 -97t-113.5 -30q-81 0 -128 53.5t-47 138.5q0 160 133 290q24 24 54 24q32 0 54.5 -23t22.5 -55q0 -24 -15 -46q-60 -82 -60 -162q0 -61 43 -61q49 0 70 95l13 58q6 32 29.5 52.5t57.5 20.5t61 -25.5t27 -60.5q0 -9 -2 -19l-6 -26q-5 -28 -5 -41
q0 -54 42 -54q36 0 57 44q22 44 22 104q0 40 -15 83q-4 11 -4 28q0 37 25.5 62.5t62.5 25.5q55 0 81 -56q33 -70 33 -132q1 -82 -28.5 -154t-90 -119t-140.5 -45q-135 0 -149 127z" />
    <glyph glyph-name="iotadieresis" unicode="&#x3ca;" horiz-adv-x="294" 
d="M28 140l65 285q7 29 30.5 48.5t54.5 19.5q37 0 62.5 -25t25.5 -61q0 -11 -2 -21l-48 -208q-1 -1 -1 -7q0 -11 9 -18q9 -6 18 -19q18 -26 18 -54q0 -32 -20 -58t-51 -32q-14 -2 -35 -2q-64 0 -98 27t-34 79q0 20 6 46zM34 628q0 39 31 69q32 30 70 30q34 0 56.5 -22.5
t22.5 -56.5q0 -39 -31 -69t-70 -30q-34 0 -56.5 22.5t-22.5 56.5zM250 628q0 39 31 69t70 30q34 0 56.5 -22.5t22.5 -56.5q0 -39 -31 -69t-70 -30q-34 0 -56.5 22.5t-22.5 56.5z" />
    <glyph glyph-name="upsilondieresis" unicode="&#x3cb;" horiz-adv-x="592" 
d="M47 224l46 201q7 29 30.5 48.5t54.5 19.5q37 0 63 -24.5t26 -60.5q0 -10 -3 -22l-36 -159q-3 -12 -3 -23q0 -27 15 -42t42 -15q57 0 86.5 46.5t29.5 129.5q0 35 -5 62q-2 16 -2 18q0 37 29 64q28 28 67 28q38 0 64 -22t32 -59q4 -25 4 -64q0 -159 -87.5 -260.5
t-236.5 -101.5q-107 0 -165 48t-58 131q0 30 7 57zM197 628q0 39 31 69q32 30 70 30q34 0 56.5 -22.5t22.5 -56.5q0 -39 -31 -69q-32 -30 -70 -30q-34 0 -56.5 22.5t-22.5 56.5zM413 628q0 39 31 69q32 30 70 30q34 0 56.5 -22.5t22.5 -56.5q0 -39 -31 -69q-32 -30 -70 -30
q-34 0 -56.5 22.5t-22.5 56.5z" />
    <glyph glyph-name="omicrontonos" unicode="&#x3cc;" horiz-adv-x="577" 
d="M303 495q122 0 190 -63t68 -162q2 -113 -83 -199t-206 -83q-122 0 -190 63t-68 162q-2 112 83 198t206 84zM296 336q-43 0 -70.5 -33t-27.5 -81q0 -36 21.5 -55.5t59.5 -19.5q43 0 70.5 33t27.5 81q0 36 -21.5 55.5t-59.5 19.5zM332 592q0 2 2 12l48 148q5 16 20 27.5
t32 11.5q23 0 39.5 -16t16.5 -39q0 -15 -7 -25l-80 -135q-12 -21 -33 -21q-16 0 -27 11t-11 26z" />
    <glyph glyph-name="upsilontonos" unicode="&#x3cd;" horiz-adv-x="592" 
d="M47 224l46 201q7 29 30.5 48.5t54.5 19.5q37 0 63 -24.5t26 -60.5q0 -10 -3 -22l-36 -159q-3 -12 -3 -23q0 -27 15 -42t42 -15q57 0 86.5 46.5t29.5 129.5q0 35 -5 62q-2 16 -2 18q0 37 29 64q28 28 67 28q38 0 64 -22t32 -59q4 -25 4 -64q0 -159 -87.5 -260.5
t-236.5 -101.5q-107 0 -165 48t-58 131q0 30 7 57zM348 592q0 2 2 12l48 148q5 16 20 27.5t32 11.5q23 0 39.5 -16t16.5 -39q0 -15 -7 -25l-80 -135q-12 -21 -33 -21q-16 0 -27 11t-11 26z" />
    <glyph glyph-name="omegatonos" unicode="&#x3ce;" horiz-adv-x="806" 
d="M385 115q-39 -67 -84.5 -97t-113.5 -30q-81 0 -128 53.5t-47 138.5q0 160 133 290q24 24 54 24q32 0 54.5 -23t22.5 -55q0 -24 -15 -46q-60 -82 -60 -162q0 -61 43 -61q49 0 70 95l13 58q6 32 29.5 52.5t57.5 20.5t61 -25.5t27 -60.5q0 -9 -2 -19l-6 -26q-5 -28 -5 -41
q0 -54 42 -54q36 0 57 44q22 44 22 104q0 40 -15 83q-4 11 -4 28q0 37 25.5 62.5t62.5 25.5q55 0 81 -56q33 -70 33 -132q1 -82 -28.5 -154t-90 -119t-140.5 -45q-135 0 -149 127zM443 592q0 2 2 12l48 148q5 16 20 27.5t32 11.5q23 0 39.5 -16t16.5 -39q0 -15 -7 -25
l-80 -135q-12 -21 -33 -21q-16 0 -27 11t-11 26z" />
    <glyph glyph-name="uni0401" unicode="&#x401;" 
d="M22 85q0 18 4 33l100 455q21 94 117 94h316q35 0 59.5 -24.5t24.5 -59.5q0 -34 -24.5 -59t-59.5 -25h-247l-17 -78h203q35 0 59.5 -24.5t24.5 -59.5q0 -34 -24.5 -59t-59.5 -25h-240l-19 -85h210q35 0 59.5 -24.5t24.5 -59.5q0 -34 -24.5 -59t-59.5 -25h-329
q-47 0 -72.5 22t-25.5 63zM239 775q0 39 31 69q32 30 70 30q34 0 56.5 -22.5t22.5 -56.5q0 -39 -31 -69q-32 -30 -70 -30q-34 0 -56.5 22.5t-22.5 56.5zM455 775q0 39 31 69q32 30 70 30q34 0 56.5 -22.5t22.5 -56.5q0 -39 -31 -69q-32 -30 -70 -30q-34 0 -56.5 22.5
t-22.5 56.5z" />
    <glyph glyph-name="uni0402" unicode="&#x402;" horiz-adv-x="805" 
d="M459 70q0 30 20 53t49 28q44 8 52 48l1 5q1 3 1 12q0 24 -21 38.5t-60 14.5q-53 0 -102 -25l-39 -177q-8 -34 -34.5 -55.5t-62.5 -21.5q-41 0 -69.5 28t-28.5 69q0 13 2 23l83 381h-80q-36 0 -62 25.5t-26 62.5t26 62.5t62 25.5h400q36 0 62 -25.5t26 -62.5t-26 -62.5
t-62 -25.5h-118l-19 -91q81 45 183 45q81 0 127 -52q47 -53 47 -131q0 -26 -7 -58l-2 -9q-24 -109 -110 -168q-57 -39 -128 -39q-34 0 -59 24t-25 58z" />
    <glyph glyph-name="uni0403" unicode="&#x403;" horiz-adv-x="575" 
d="M22 91q0 1 2 19l102 463q21 94 117 94h311q36 0 62 -25.5t26 -62.5t-26 -62.5t-62 -25.5h-244l-93 -424q-8 -34 -34.5 -55.5t-62.5 -21.5q-42 0 -70 29t-28 72zM462 717q-22 0 -37 15.5t-15 37.5q0 19 19 38l54 52q13 13 37 13q22 0 38.5 -16.5t16.5 -39.5q0 -29 -22 -45
l-59 -45q-13 -10 -32 -10z" />
    <glyph glyph-name="uni0404" unicode="&#x404;" horiz-adv-x="697" 
d="M275 425h132q36 0 61.5 -25.5t25.5 -61.5q0 -37 -25.5 -63t-61.5 -26h-157q16 -38 52.5 -60.5t84.5 -22.5q54 0 100 38q26 20 58 20q38 0 64.5 -26.5t26.5 -64.5q0 -47 -37 -73q-97 -72 -223 -72q-145 -2 -247.5 85t-100.5 221q-3 166 115 276t286 108q169 0 260 -109
q23 -28 23 -63q0 -40 -29 -70t-71 -30q-48 0 -80 40q-39 54 -112 54q-92 0 -145 -75z" />
    <glyph glyph-name="uni0405" unicode="&#x405;" horiz-adv-x="613" 
d="M10 135q0 38 26.5 65t64.5 27q29 0 51 -15q80 -54 177 -54q56 0 56 33q0 16 -19.5 28.5t-64.5 27.5q-59 19 -112 44q-118 57 -118 174q-2 78 77 146t204 66q115 0 212 -53q47 -27 47 -79q0 -37 -26.5 -63.5t-63.5 -26.5q-26 0 -46 13q-70 42 -145 42q-52 0 -52 -34
q0 -14 20 -26t65 -27q100 -31 166 -78q66 -46 66 -130q0 -96 -77.5 -161.5t-201.5 -65.5q-151 0 -263 70q-43 28 -43 77z" />
    <glyph glyph-name="uni0406" unicode="&#x406;" horiz-adv-x="310" 
d="M22 87q0 13 2 23l108 490q8 34 34.5 55.5t61.5 21.5q41 0 70.5 -28t29.5 -68q0 -12 -3 -24l-108 -490q-8 -34 -34.5 -55.5t-61.5 -21.5q-42 0 -70.5 28t-28.5 69z" />
    <glyph glyph-name="uni0407" unicode="&#x407;" horiz-adv-x="310" 
d="M22 87q0 13 2 23l108 490q8 34 34.5 55.5t61.5 21.5q41 0 70.5 -28t29.5 -68q0 -12 -3 -24l-108 -490q-8 -34 -34.5 -55.5t-61.5 -21.5q-42 0 -70.5 28t-28.5 69zM80 775q0 39 31 69t70 30q34 0 56.5 -22.5t22.5 -56.5q0 -39 -31 -69t-70 -30q-34 0 -56.5 22.5
t-22.5 56.5zM296 775q0 39 31 69t70 30q34 0 56.5 -22.5t22.5 -56.5q0 -39 -31 -69t-70 -30q-34 0 -56.5 22.5t-22.5 56.5z" />
    <glyph glyph-name="uni0408" unicode="&#x408;" horiz-adv-x="498" 
d="M-7 90q0 38 26.5 64t63.5 26q18 0 33 -6q22 -8 40 -8q68 0 85 75l79 359q8 34 34.5 55.5t61.5 21.5q42 0 71 -28t29 -69q0 -11 -3 -23l-71 -319q-29 -131 -93 -190.5t-178 -59.5q-59 0 -115 17q-28 9 -45.5 32t-17.5 53z" />
    </font>
</defs>
</svg>
