<?xml version="1.0" standalone="no"?>
<!DOCTYPE svg PUBLIC "-//W3C//DTD SVG 1.1//EN" "http://www.w3.org/Graphics/SVG/1.1/DTD/svg11.dtd" >
<svg xmlns="http://www.w3.org/2000/svg" xmlns:xlink="http://www.w3.org/1999/xlink" version="1.1">
<metadata>
Created by FontForge 20170731 at Tue Dec 25 03:00:00 2018
 By Aleksey,,,
Copyright (c) 2018 by Mark Simonson. All rights reserved.
</metadata>
<defs>
<font id="ProximaSoft-BoldIt" horiz-adv-x="579" >
  <font-face 
    font-family="Proxima Soft"
    font-weight="700"
    font-style="italic"
    font-stretch="normal"
    units-per-em="1000"
    panose-1="2 0 5 6 3 0 0 2 0 4"
    ascent="790"
    descent="-210"
    x-height="483"
    cap-height="667"
    bbox="-304 -351 1201.03 1088"
    underline-thickness="88"
    underline-position="-404"
    slope="-12.5"
    unicode-range="U+000D-FB04"
  />
<missing-glyph horiz-adv-x="483" 
d="M86 -28v718q0 62 62 62h227q62 0 62 -62v-718q0 -62 -62 -62h-227q-62 0 -62 62zM405 722h-288v-782h288v782z" />
    <glyph glyph-name="f_f_j" unicode="ffj" horiz-adv-x="907" 
d="M427 623q0 -20 -14.5 -34.5t-34.5 -14.5q-8 0 -10 1q-18 2 -21 2q-53 0 -70 -68l-6 -26h37q23 0 39.5 -16.5t16.5 -39.5q0 -22 -16.5 -38.5t-39.5 -16.5h-62l-72 -330q-4 -22 -21 -35.5t-40 -13.5q-26 0 -43.5 18t-17.5 44q0 10 1 13l67 304h-18q-23 0 -39.5 16t-16.5 39
t16.5 39.5t39.5 16.5h42l6 26q18 80 64.5 124t116.5 44q33 0 58 -7q17 -4 27.5 -17t10.5 -30zM754 623q0 -20 -14.5 -34.5t-34.5 -14.5q-8 0 -10 1q-18 2 -21 2q-53 0 -70 -68l-6 -26h37q23 0 39.5 -16.5t16.5 -39.5q0 -22 -16.5 -38.5t-39.5 -16.5h-62l-72 -330
q-4 -22 -21 -35.5t-40 -13.5q-26 0 -43.5 18t-17.5 44q0 10 1 13l67 304h-18q-23 0 -39.5 16t-16.5 39t16.5 39.5t39.5 16.5h42l6 26q18 80 64.5 124t116.5 44q33 0 58 -7q17 -4 27.5 -17t10.5 -30zM791 630q0 38 25.5 62.5t59.5 24.5q30 0 49.5 -19t19.5 -46
q0 -37 -26.5 -62t-58.5 -25q-30 0 -49.5 19t-19.5 46zM529 -143q0 21 14 36.5t35 17.5h9q56 3 72 76l101 455q4 21 21.5 34.5t39.5 13.5q26 0 43.5 -17.5t17.5 -43.5q0 -11 -1 -14l-95 -428q-39 -183 -186 -183q-16 0 -20 1q-22 2 -36.5 16.5t-14.5 35.5z" />
    <glyph glyph-name="f_j" unicode="fj" horiz-adv-x="580" 
d="M427 623q0 -20 -14.5 -34.5t-34.5 -14.5q-8 0 -10 1q-18 2 -21 2q-53 0 -70 -68l-6 -26h37q23 0 39.5 -16.5t16.5 -39.5q0 -22 -16.5 -38.5t-39.5 -16.5h-62l-72 -330q-4 -22 -21 -35.5t-40 -13.5q-26 0 -43.5 18t-17.5 44q0 10 1 13l67 304h-18q-23 0 -39.5 16t-16.5 39
t16.5 39.5t39.5 16.5h42l6 26q18 80 64.5 124t116.5 44q33 0 58 -7q17 -4 27.5 -17t10.5 -30zM464 630q0 38 25.5 62.5t59.5 24.5q30 0 49.5 -19t19.5 -46q0 -37 -26.5 -62t-58.5 -25q-30 0 -49.5 19t-19.5 46zM202 -143q0 21 14 36.5t35 17.5h9q56 3 72 76l101 455
q4 21 21.5 34.5t39.5 13.5q26 0 43.5 -17.5t17.5 -43.5q0 -11 -1 -14l-95 -428q-39 -183 -186 -183q-16 0 -20 1q-22 2 -36.5 16.5t-14.5 35.5z" />
    <glyph glyph-name="f_f" unicode="ff" horiz-adv-x="654" 
d="M427 623q0 -20 -14.5 -34.5t-34.5 -14.5q-8 0 -10 1q-18 2 -21 2q-53 0 -70 -68l-6 -26h37q23 0 39.5 -16.5t16.5 -39.5q0 -22 -16.5 -38.5t-39.5 -16.5h-62l-72 -330q-4 -22 -21 -35.5t-40 -13.5q-26 0 -43.5 18t-17.5 44q0 10 1 13l67 304h-18q-23 0 -39.5 16t-16.5 39
t16.5 39.5t39.5 16.5h42l6 26q18 80 64.5 124t116.5 44q33 0 58 -7q17 -4 27.5 -17t10.5 -30zM754 623q0 -20 -14.5 -34.5t-34.5 -14.5q-8 0 -10 1q-18 2 -21 2q-53 0 -70 -68l-6 -26h37q23 0 39.5 -16.5t16.5 -39.5q0 -22 -16.5 -38.5t-39.5 -16.5h-62l-72 -330
q-4 -22 -21 -35.5t-40 -13.5q-26 0 -43.5 18t-17.5 44q0 10 1 13l67 304h-18q-23 0 -39.5 16t-16.5 39t16.5 39.5t39.5 16.5h42l6 26q18 80 64.5 124t116.5 44q33 0 58 -7q17 -4 27.5 -17t10.5 -30z" />
    <glyph glyph-name="fi" unicode="fi" horiz-adv-x="580" 
d="M427 623q0 -20 -14.5 -34.5t-34.5 -14.5q-8 0 -10 1q-18 2 -21 2q-53 0 -70 -68l-6 -26h37q23 0 39.5 -16.5t16.5 -39.5q0 -22 -16.5 -38.5t-39.5 -16.5h-62l-72 -330q-4 -22 -21 -35.5t-40 -13.5q-26 0 -43.5 18t-17.5 44q0 10 1 13l67 304h-18q-23 0 -39.5 16t-16.5 39
t16.5 39.5t39.5 16.5h42l6 26q18 80 64.5 124t116.5 44q33 0 58 -7q17 -4 27.5 -17t10.5 -30zM549 717q30 0 49.5 -19t19.5 -46q0 -37 -26.5 -62t-58.5 -25q-30 0 -49.5 19t-19.5 46q0 38 25.5 62.5t59.5 24.5zM349 54l2 14l82 374q4 21 21.5 34.5t40.5 13.5q26 0 44 -18
t18 -43l-2 -14l-82 -373q-5 -22 -22 -35.5t-39 -13.5q-26 0 -44.5 18t-18.5 43z" />
    <glyph glyph-name="fl" unicode="fl" horiz-adv-x="580" 
d="M427 623q0 -20 -14.5 -34.5t-34.5 -14.5q-8 0 -10 1q-18 2 -21 2q-53 0 -70 -68l-6 -26h37q23 0 39.5 -16.5t16.5 -39.5q0 -22 -16.5 -38.5t-39.5 -16.5h-62l-72 -330q-4 -22 -21 -35.5t-40 -13.5q-26 0 -43.5 18t-17.5 44q0 10 1 13l67 304h-18q-23 0 -39.5 16t-16.5 39
t16.5 39.5t39.5 16.5h42l6 26q18 80 64.5 124t116.5 44q33 0 58 -7q17 -4 27.5 -17t10.5 -30zM349 55q0 10 1 13l123 558q4 21 21.5 34.5t40.5 13.5q26 0 44 -18t18 -43l-2 -14l-122 -557q-5 -22 -22.5 -35.5t-39.5 -13.5q-26 0 -44 18.5t-18 43.5z" />
    <glyph glyph-name="f_f_i" unicode="ffi" horiz-adv-x="907" 
d="M427 623q0 -20 -14.5 -34.5t-34.5 -14.5q-8 0 -10 1q-18 2 -21 2q-53 0 -70 -68l-6 -26h37q23 0 39.5 -16.5t16.5 -39.5q0 -22 -16.5 -38.5t-39.5 -16.5h-62l-72 -330q-4 -22 -21 -35.5t-40 -13.5q-26 0 -43.5 18t-17.5 44q0 10 1 13l67 304h-18q-23 0 -39.5 16t-16.5 39
t16.5 39.5t39.5 16.5h42l6 26q18 80 64.5 124t116.5 44q33 0 58 -7q17 -4 27.5 -17t10.5 -30zM754 623q0 -20 -14.5 -34.5t-34.5 -14.5q-8 0 -10 1q-18 2 -21 2q-53 0 -70 -68l-6 -26h37q23 0 39.5 -16.5t16.5 -39.5q0 -22 -16.5 -38.5t-39.5 -16.5h-62l-72 -330
q-4 -22 -21 -35.5t-40 -13.5q-26 0 -43.5 18t-17.5 44q0 10 1 13l67 304h-18q-23 0 -39.5 16t-16.5 39t16.5 39.5t39.5 16.5h42l6 26q18 80 64.5 124t116.5 44q33 0 58 -7q17 -4 27.5 -17t10.5 -30zM876 717q30 0 49.5 -19t19.5 -46q0 -37 -26.5 -62t-58.5 -25
q-30 0 -49.5 19t-19.5 46q0 38 25.5 62.5t59.5 24.5zM676 54q0 1 0.5 3t1 5t0.5 6l82 374q4 21 21.5 34.5t40.5 13.5q26 0 44 -18t18 -43q0 -1 -0.5 -3t-1 -5t-0.5 -6l-82 -373q-5 -22 -22 -35.5t-39 -13.5q-26 0 -44.5 18t-18.5 43z" />
    <glyph glyph-name="f_f_l" unicode="ffl" horiz-adv-x="907" 
d="M427 623q0 -20 -14.5 -34.5t-34.5 -14.5q-8 0 -10 1q-18 2 -21 2q-53 0 -70 -68l-6 -26h37q23 0 39.5 -16.5t16.5 -39.5q0 -22 -16.5 -38.5t-39.5 -16.5h-62l-72 -330q-4 -22 -21 -35.5t-40 -13.5q-26 0 -43.5 18t-17.5 44q0 10 1 13l67 304h-18q-23 0 -39.5 16t-16.5 39
t16.5 39.5t39.5 16.5h42l6 26q18 80 64.5 124t116.5 44q33 0 58 -7q17 -4 27.5 -17t10.5 -30zM754 623q0 -20 -14.5 -34.5t-34.5 -14.5q-8 0 -10 1q-18 2 -21 2q-53 0 -70 -68l-6 -26h37q23 0 39.5 -16.5t16.5 -39.5q0 -22 -16.5 -38.5t-39.5 -16.5h-62l-72 -330
q-4 -22 -21 -35.5t-40 -13.5q-26 0 -43.5 18t-17.5 44q0 10 1 13l67 304h-18q-23 0 -39.5 16t-16.5 39t16.5 39.5t39.5 16.5h42l6 26q18 80 64.5 124t116.5 44q33 0 58 -7q17 -4 27.5 -17t10.5 -30zM676 55q0 10 1 13l123 558q4 21 21.5 34.5t40.5 13.5q26 0 44 -18t18 -43
l-2 -14l-122 -557q-5 -22 -22.5 -35.5t-39.5 -13.5q-26 0 -44 18.5t-18 43.5z" />
    <glyph glyph-name="f_b" unicode="fb" horiz-adv-x="912" 
d="M427 623q0 -20 -14.5 -34.5t-34.5 -14.5q-8 0 -10 1q-18 2 -21 2q-53 0 -70 -68l-6 -26h37q23 0 39.5 -16.5t16.5 -39.5q0 -22 -16.5 -38.5t-39.5 -16.5h-62l-72 -330q-4 -22 -21 -35.5t-40 -13.5q-26 0 -43.5 18t-17.5 44q0 10 1 13l67 304h-18q-23 0 -39.5 16t-16.5 39
t16.5 39.5t39.5 16.5h42l6 26q18 80 64.5 124t116.5 44q33 0 58 -7q17 -4 27.5 -17t10.5 -30zM885 295q1 -75 -29 -145.5t-90 -117t-135 -44.5q-49 0 -90 20t-64 56l-5 -20q-5 -22 -21.5 -36.5t-39.5 -14.5q-26 0 -44 18.5t-18 43.5q0 10 1 13l123 558q4 21 21.5 34.5
t39.5 13.5q27 0 44.5 -18t17.5 -45q0 -9 -1 -12l-39 -176q62 72 146 72t133.5 -53.5t49.5 -146.5zM752 269q0 51 -30 82t-77 31q-63 0 -111 -58l-37 -168q16 -25 46.5 -40t66.5 -15q61 0 101.5 49.5t40.5 118.5z" />
    <glyph glyph-name="f_h" unicode="fh" horiz-adv-x="907" 
d="M427 623q0 -20 -14.5 -34.5t-34.5 -14.5q-8 0 -10 1q-18 2 -21 2q-53 0 -70 -68l-6 -26h37q23 0 39.5 -16.5t16.5 -39.5q0 -22 -16.5 -38.5t-39.5 -16.5h-62l-72 -330q-4 -22 -21 -35.5t-40 -13.5q-26 0 -43.5 18t-17.5 44q0 10 1 13l67 304h-18q-23 0 -39.5 16t-16.5 39
t16.5 39.5t39.5 16.5h42l6 26q18 80 64.5 124t116.5 44q33 0 58 -7q17 -4 27.5 -17t10.5 -30zM676 54q0 1 0.5 3t1 5t0.5 6l48 222q5 22 5 30q0 62 -83 62q-56 0 -113 -57l-62 -283q-5 -21 -22 -35t-40 -14q-25 0 -43.5 18t-18.5 43l2 14l122 558q5 21 22 34.5t39 13.5
q26 0 44.5 -18t18.5 -43l-2 -14l-39 -179q77 75 161 75q69 0 110 -33.5t41 -89.5q0 -12 -5 -40l-63 -290q-5 -21 -22 -35t-40 -14q-26 0 -44 18t-18 43z" />
    <glyph glyph-name="f_k" unicode="fk" horiz-adv-x="862" 
d="M427 623q0 -20 -14.5 -34.5t-34.5 -14.5q-8 0 -10 1q-18 2 -21 2q-53 0 -70 -68l-6 -26h37q23 0 39.5 -16.5t16.5 -39.5q0 -22 -16.5 -38.5t-39.5 -16.5h-62l-72 -330q-4 -22 -21 -35.5t-40 -13.5q-26 0 -43.5 18t-17.5 44q0 10 1 13l67 304h-18q-23 0 -39.5 16t-16.5 39
t16.5 39.5t39.5 16.5h42l6 26q18 80 64.5 124t116.5 44q33 0 58 -7q17 -4 27.5 -17t10.5 -30zM858 435q0 -26 -20 -41l-167 -132l112 -169q11 -17 11 -34q0 -27 -21 -46.5t-49 -19.5q-35 0 -61 41l-96 154l-77 -65l-18 -81q-5 -21 -22 -35t-39 -14q-26 0 -44 18t-18 44
q0 10 1 13l123 558q4 21 21.5 34.5t39.5 13.5q26 0 44.5 -18t18.5 -43l-2 -14l-72 -326l242 201q16 16 38 16q23 0 39 -16t16 -39z" />
    <glyph glyph-name=".notdef" horiz-adv-x="483" 
d="M86 -28v718q0 62 62 62h227q62 0 62 -62v-718q0 -62 -62 -62h-227q-62 0 -62 62zM405 722h-288v-782h288v782z" />
    <glyph glyph-name=".null" horiz-adv-x="0" 
 />
    <glyph glyph-name="nonmarkingreturn" horiz-adv-x="333" 
 />
    <glyph glyph-name="CR" unicode="&#xd;" horiz-adv-x="0" 
 />
    <glyph glyph-name="space" unicode=" " horiz-adv-x="256" 
 />
    <glyph glyph-name="exclam" unicode="!" horiz-adv-x="256" 
d="M75 277l60 337q4 26 24 43t46 17q31 0 52 -21t21 -50q0 -9 -3 -20l-89 -331q-5 -18 -20 -30t-34 -12q-26 0 -43.5 20.5t-13.5 46.5zM97 151q31 0 52 -22t21 -53q0 -36 -26 -62t-62 -26q-31 0 -52.5 22t-21.5 53q0 36 26.5 62t62.5 26z" />
    <glyph glyph-name="quotedbl" unicode="&#x22;" horiz-adv-x="406" 
d="M114 408l8 188q0 34 23 57.5t56 23.5q25 0 43 -18t18 -45q0 -10 -7 -30l-76 -188q-12 -25 -33 -25q-15 0 -24 10.5t-8 26.5zM296 408l8 188q1 35 23.5 58t55.5 23q25 0 43 -18t18 -45q0 -17 -7 -30l-76 -188q-12 -25 -33 -25q-15 0 -23.5 10.5t-8.5 26.5z" />
    <glyph glyph-name="numbersign" unicode="#" horiz-adv-x="618" 
d="M639 456q0 -16 -11.5 -28t-28.5 -12h-84l-92 -166h42q17 0 29 -11.5t12 -29.5q0 -16 -12 -28t-29 -12h-87l-86 -155q-12 -21 -36 -21q-17 0 -29 12t-12 28q0 11 6 21l64 115h-95l-86 -155q-12 -21 -36 -21q-18 0 -29.5 12t-11.5 29q0 7 5 20l64 115h-36q-17 0 -29 12
t-12 29t12 28.5t29 11.5h81l92 166h-39q-16 0 -28 12t-12 28t12 28t28 12h83l87 157q12 21 36 21q18 0 30 -13t12 -29q0 -7 -5 -19l-65 -117h94l87 157q12 21 36 21q17 0 29 -12t12 -28q0 -10 -6 -21l-65 -117h40q17 0 28.5 -11.5t11.5 -28.5zM330 250l92 166h-95l-92 -166
h95z" />
    <glyph glyph-name="dollar" unicode="$" horiz-adv-x="614" 
d="M426 540l-32 -146q88 -33 133 -75.5t45 -107.5q0 -93 -72 -158t-190 -65h-6l-13 -59q-4 -16 -17 -26t-29 -10q-19 0 -32.5 14t-13.5 33q0 7 1 9l11 49q-90 20 -157 70q-27 20 -27 54q0 28 19.5 47.5t47.5 19.5q24 0 41 -14q45 -36 104 -52l35 162q-87 33 -131.5 75
t-44.5 109q0 82 73 145t187 63h4l14 62q4 15 16.5 25.5t28.5 10.5q19 0 32.5 -14t13.5 -33q0 -7 -1 -9l-12 -54q66 -15 118 -52q30 -21 30 -55q0 -28 -19.5 -47.5t-46.5 -19.5q-22 0 -39 13q-33 24 -71 36zM312 425l29 130h-1q-40 0 -66.5 -20.5t-26.5 -49.5q0 -34 65 -60z
M354 255l-32 -143q47 0 73 22t26 55q0 36 -67 66z" />
    <glyph glyph-name="percent" unicode="%" horiz-adv-x="757" 
d="M267 677q65 0 112 -38t47 -100q0 -84 -54 -139t-131 -55q-66 0 -113 38q-46 37 -46 100q0 84 54.5 139t130.5 55zM103 21q0 12 7 19l536 624q7 10 22 10q12 0 20.5 -8t8.5 -20q0 -11 -7 -19l-537 -624q-7 -10 -22 -10q-11 0 -19.5 8t-8.5 20zM263 598q-39 0 -65 -30
t-26 -77q0 -29 20.5 -48.5t52.5 -19.5q39 0 65 30t26 77q0 29 -20.5 48.5t-52.5 19.5zM554 321q67 0 114 -38.5t47 -100.5q0 -84 -54.5 -139t-130.5 -55q-67 0 -114 38.5t-47 100.5q0 84 54.5 139t130.5 55zM552 242q-39 0 -65 -30t-26 -77q0 -30 20 -49.5t51 -19.5
q39 0 65.5 30.5t26.5 77.5q0 29 -20.5 48.5t-51.5 19.5z" />
    <glyph glyph-name="ampersand" unicode="&#x26;" horiz-adv-x="646" 
d="M593 257q0 -18 -10 -31q-48 -62 -85 -99l27 -28q20 -20 20 -44q0 -25 -18.5 -43.5t-44.5 -18.5q-25 0 -44 16q-6 6 -37 38q-91 -59 -180 -59q-99 0 -157.5 45t-58.5 131q0 84 48 135t143 86q-17 57 -17 105q0 79 59 133t144 54q74 0 123 -36q51 -36 51 -100
q0 -54 -29 -91q-26 -33 -65 -54t-114 -47q23 -44 38 -68q17 -32 49 -77q35 38 65 82q14 23 42 23q21 0 36 -15.5t15 -36.5zM318 425q65 22 94.5 45.5t29.5 58.5q0 26 -15 41t-40 15q-32 0 -56 -26t-24 -68q0 -28 11 -66zM338 121q-38 43 -61 85q-28 51 -48 95
q-85 -43 -85 -122q0 -43 27.5 -67t70.5 -24q46 0 96 33z" />
    <glyph glyph-name="quotesingle" unicode="'" horiz-adv-x="225" 
d="M114 408l8 188q0 34 23 57.5t56 23.5q25 0 43 -18t18 -45q0 -10 -7 -30l-76 -188q-12 -25 -33 -25q-15 0 -24 10.5t-8 26.5z" />
    <glyph glyph-name="parenleft" unicode="(" horiz-adv-x="297" 
d="M75 -150q-52 111 -52 257q0 145 63 288q65 146 178 260q14 15 36 15t37 -15t15 -36q0 -14 -11 -31q-184 -241 -184 -516q0 -85 28 -181q2 -16 2 -17q0 -26 -17 -42t-42 -16q-38 0 -53 34z" />
    <glyph glyph-name="parenright" unicode=")" horiz-adv-x="297" 
d="M220 636q53 -114 53 -257q0 -145 -64 -288q-65 -146 -178 -260q-13 -15 -35 -15q-21 0 -36 15.5t-15 36.5q0 17 10 30q184 240 184 515q0 86 -28 182q-2 8 -2 17q0 25 17 41.5t41 16.5q39 0 53 -34z" />
    <glyph glyph-name="asterisk" unicode="*" horiz-adv-x="351" 
d="M177 397l23 83l-83 -38q-4 -2 -11 -2q-12 0 -21 8t-9 20q0 20 19 27l88 32l-62 44q-13 9 -13 26q0 13 9 22t22 9q14 0 21 -7l60 -52l16 91q6 24 30 24q12 0 20.5 -9t8.5 -20q0 -7 -1 -9l-22 -82l82 37q6 2 12 2q12 0 21 -8t9 -20q0 -22 -19 -27l-87 -33l61 -42
q14 -9 14 -26q0 -13 -9.5 -23t-22.5 -10t-21 8l-60 52l-14 -89q-5 -26 -31 -26q-14 0 -23.5 12t-6.5 26z" />
    <glyph glyph-name="plus" unicode="+" horiz-adv-x="504" 
d="M307 298l-39 -178q-3 -14 -14.5 -23t-26.5 -9q-18 0 -30.5 12.5t-12.5 29.5q0 7 1 9l36 159h-138q-17 0 -28.5 11.5t-11.5 27.5q0 17 12 28.5t28 11.5h155l37 170q3 14 15 23t27 9q18 0 30 -12.5t12 -29.5q0 -7 -1 -9l-33 -151h138q16 0 28 -12t12 -28t-12 -27.5
t-28 -11.5h-156z" />
    <glyph glyph-name="comma" unicode="," horiz-adv-x="256" 
d="M28 -128q-13 0 -22.5 9t-9.5 23q0 16 15 27q53 33 69 69h-11q-27 0 -44 17.5t-17 47.5q0 35 27 60q28 26 61 26q34 0 56 -22t22 -60q0 -51 -35.5 -104t-93.5 -89q-4 -4 -17 -4z" />
    <glyph glyph-name="hyphen" unicode="-" horiz-adv-x="300" 
d="M23 242q0 22 16 38t38 16h145q22 0 38 -16t16 -38t-16 -38t-38 -16h-145q-22 0 -38 16t-16 38z" />
    <glyph glyph-name="period" unicode="." horiz-adv-x="256" 
d="M97 151q31 0 52 -22t21 -53q0 -36 -26 -62t-62 -26q-31 0 -52.5 22t-21.5 53q0 36 26.5 62t62.5 26z" />
    <glyph glyph-name="slash" unicode="/" horiz-adv-x="329" 
d="M-35 16q0 7 5 19l355 637q12 22 36 22q19 0 31 -12t12 -30q0 -7 -5 -20l-355 -638q-14 -21 -37 -21q-18 0 -30 12.5t-12 30.5z" />
    <glyph glyph-name="zero" unicode="0" horiz-adv-x="620" 
d="M375 677q111 0 175 -71t64 -197q1 -107 -41 -204.5t-120 -158t-169 -58.5q-110 0 -176 71q-65 71 -65 198q0 107 42 205q44 99 119 156q77 59 171 59zM361 551q-50 2 -91.5 -46t-62.5 -117.5t-20 -137.5q0 -65 27.5 -100.5t82.5 -35.5q49 -2 90.5 46t63 118t20.5 138
q0 64 -27.5 99.5t-82.5 35.5z" />
    <glyph glyph-name="one" unicode="1" horiz-adv-x="408" 
d="M162 63q0 12 1 15l89 406l-97 -82q-13 -12 -34 -12q-22 0 -37.5 15.5t-15.5 37.5q0 23 20 41l212 174q19 16 46 16q31 0 51.5 -21t20.5 -52q0 -12 -1 -15l-118 -539q-5 -23 -24 -38.5t-44 -15.5q-29 0 -49 20.5t-20 49.5z" />
    <glyph glyph-name="two" unicode="2" horiz-adv-x="594" 
d="M-1 81q0 45 42 70q154 85 233 135q86 55 128 100t42 88q0 36 -33 57t-87 21q-69 0 -125 -32q-10 -7 -28 -7q-25 0 -42.5 17.5t-17.5 42.5q0 34 31 52q88 52 192 52q109 0 184 -52.5t75 -141.5q0 -92 -88.5 -178.5t-266.5 -179.5h208q26 0 44.5 -18.5t18.5 -43.5
q0 -26 -18.5 -44.5t-44.5 -18.5h-366q-33 0 -57 23.5t-24 57.5z" />
    <glyph glyph-name="three" unicode="3" horiz-adv-x="581" 
d="M21 78q-21 18 -21 47q0 27 18.5 46.5t45.5 19.5q25 0 42 -16q72 -63 165 -63q56 0 87.5 26t31.5 68q0 71 -122 71h-11q-25 0 -43 18t-18 44q0 25 18.5 43t43.5 17h51q61 0 95.5 20t34.5 59q0 34 -35.5 55t-95.5 21q-64 0 -122 -31q-12 -6 -25 -6q-23 0 -39.5 17t-16.5 40
q0 35 27 49q86 54 190 54q122 0 193 -46.5t71 -127.5q0 -63 -54.5 -109t-125.5 -56q124 -31 124 -146q0 -87 -74.5 -145.5t-182.5 -58.5q-159 0 -252 90z" />
    <glyph glyph-name="four" unicode="4" horiz-adv-x="594" 
d="M564 200q0 -25 -18 -43.5t-44 -18.5h-42l-20 -90q-5 -24 -25 -39.5t-46 -15.5q-28 0 -48 19t-20 46q0 10 1 13l15 67h-214q-36 0 -62 23.5t-26 57.5q0 29 21 55l306 359q34 41 90 41q49 0 82 -35q34 -34 34 -84q0 -1 -2 -23l-59 -269h16q25 0 43 -18.5t18 -44.5zM344 263
l62 278l-242 -278h180z" />
    <glyph glyph-name="five" unicode="5" horiz-adv-x="602" 
d="M34 117q0 27 19.5 46.5t46.5 19.5q26 0 43 -17q57 -54 148 -54q56 0 91.5 31.5t35.5 78.5q0 42 -34.5 67t-91.5 25t-98 -28q-17 -11 -38 -11q-29 0 -49 20t-20 49q0 1 2 15l53 241q13 67 82 67h322q26 0 43.5 -18t17.5 -44q0 -25 -18 -42.5t-43 -17.5h-277l-35 -160
q52 42 134 42q87 0 143 -50.5t56 -137.5q2 -103 -78.5 -178t-199.5 -73q-145 0 -231 79q-24 21 -24 50z" />
    <glyph glyph-name="six" unicode="6" horiz-adv-x="610" 
d="M401 677q98 0 171 -49q31 -21 31 -54q0 -27 -19 -46t-46 -19q-18 0 -35 11q-47 33 -110 33q-68 0 -117 -49t-70 -117q-8 -14 -9 -28q29 31 76 51t97 20q92 0 151.5 -50t59.5 -133q2 -104 -82 -182.5t-194 -76.5q-123 0 -192.5 68t-69.5 190q-2 111 41 209.5t127 161
t190 60.5zM304 318q-67 0 -120 -50q-2 -10 -2 -36q0 -54 34.5 -87t89.5 -33q53 0 89 33q37 34 37 83q0 41 -35.5 65.5t-92.5 24.5z" />
    <glyph glyph-name="seven" unicode="7" horiz-adv-x="545" 
d="M114 60q0 20 12 38l292 444h-258q-25 0 -43.5 18.5t-18.5 43.5q0 26 18 44.5t44 18.5h392q24 0 41 -18t17 -42q0 -16 -9 -31l-361 -552q-20 -31 -57 -31q-29 0 -49 20t-20 47z" />
    <glyph glyph-name="eight" unicode="8" horiz-adv-x="609" 
d="M202 358q-44 19 -72 55t-28 79q0 88 77.5 136.5t184.5 48.5q69 0 127 -18.5t95.5 -58.5t37.5 -94q0 -65 -47.5 -112.5t-125.5 -62.5q51 -27 81 -66.5t30 -84.5q0 -86 -80.5 -139t-193.5 -53t-193 45q-78 47 -78 134q0 67 49.5 118t135.5 73zM355 554q-47 0 -79 -21.5
t-32 -56.5q0 -26 28 -48t68 -31q60 4 95.5 26.5t35.5 57.5q0 31 -33.5 52t-82.5 21zM314 283q-64 -3 -105 -29t-41 -65q0 -38 34 -58.5t92 -20.5q49 0 87 23q37 24 37 61q0 30 -30 54.5t-74 34.5z" />
    <glyph glyph-name="nine" unicode="9" horiz-adv-x="611" 
d="M246 -11q-100 0 -170 49q-31 19 -31 54q0 27 18 46t47 19q18 0 35 -11q47 -33 110 -33q68 0 116 48q49 48 72 117l9 28q-30 -31 -77 -50.5t-97 -19.5q-91 0 -151 50t-60 133q-2 103 82 182.5t195 76.5q123 0 192 -68t69 -190q2 -111 -41 -209.5t-127 -161t-191 -60.5z
M343 348q69 0 122 50q1 5 1 35q0 54 -34.5 87.5t-89.5 33.5q-53 0 -90 -34q-37 -33 -37 -82q0 -39 36.5 -64.5t91.5 -25.5z" />
    <glyph glyph-name="colon" unicode=":" horiz-adv-x="256" 
d="M171 490q31 0 52.5 -21.5t21.5 -52.5q0 -36 -26.5 -62t-62.5 -26q-31 0 -52 22t-21 53q0 36 26 61.5t62 25.5zM97 151q31 0 52 -22t21 -53q0 -36 -26 -62t-62 -26q-31 0 -52.5 22t-21.5 53q0 36 26.5 62t62.5 26z" />
    <glyph glyph-name="semicolon" unicode=";" horiz-adv-x="256" 
d="M171 490q31 0 52.5 -21.5t21.5 -52.5q0 -36 -26.5 -62t-62.5 -26q-31 0 -52 22t-21 53q0 36 26 61.5t62 25.5zM28 -128q-13 0 -22.5 9t-9.5 23q0 16 15 27q53 33 69 69h-11q-27 0 -44 17.5t-17 47.5q0 35 27 60q28 26 61 26q34 0 56 -22t22 -60q0 -51 -35.5 -104
t-93.5 -89q-4 -4 -17 -4z" />
    <glyph glyph-name="less" unicode="&#x3c;" horiz-adv-x="504" 
d="M42 329q0 43 41 61l402 164q6 3 16 3q17 0 29 -12t12 -29q0 -26 -27 -38l-376 -148l295 -139q26 -12 26 -39q0 -19 -13 -32t-31 -13q-11 0 -19 5l-318 157q-37 21 -37 60z" />
    <glyph glyph-name="equal" unicode="=" horiz-adv-x="504" 
d="M63 428q0 16 11.5 28t27.5 12h381q16 0 27.5 -12t11.5 -28t-11.5 -28t-27.5 -12h-381q-16 0 -27.5 12t-11.5 28zM21 239q0 16 12 28t28 12h380q16 0 28 -11.5t12 -27.5t-11.5 -27.5t-28.5 -11.5h-380q-16 0 -28 11t-12 27z" />
    <glyph glyph-name="greater" unicode="&#x3e;" horiz-adv-x="504" 
d="M43 113q-16 0 -28.5 12.5t-12.5 28.5q0 13 8 23.5t19 14.5l376 146l-296 140q-26 12 -26 41q0 18 13 31t32 13q12 0 19 -4l318 -159q37 -18 37 -59q0 -42 -42 -62l-402 -163q-6 -3 -15 -3z" />
    <glyph glyph-name="question" unicode="?" horiz-adv-x="456" 
d="M160 247q-8 19 -8 34q3 53 29.5 80.5t88.5 60.5q42 23 59 38.5t17 38.5q0 53 -81 53q-44 0 -85 -23q-12 -6 -25 -6q-24 0 -41 17t-17 42q0 34 30 50q73 45 159 45q91 0 150 -40q61 -40 61 -108q0 -48 -19 -79q-17 -29 -41 -47.5t-74 -46.5q-48 -26 -67 -43.5t-22 -43.5
q-1 -2 -1 -8l-3 -8q-3 -18 -19.5 -30.5t-36.5 -12.5q-18 0 -33.5 11t-20.5 26zM195 151q31 0 52 -22t21 -53q0 -36 -26 -62t-63 -26q-30 0 -51.5 22t-21.5 53q0 36 26.5 62t62.5 26z" />
    <glyph glyph-name="at" unicode="@" horiz-adv-x="783" 
d="M634 422l-39 -183q-2 -18 -2 -23q0 -45 37 -45q35 0 64.5 43t29.5 118q0 120 -75.5 193.5t-200.5 73.5q-90 2 -173 -48t-133 -133t-48 -172q0 -118 81 -198t201 -80q97 0 171 48q5 3 10 3q7 0 12.5 -5.5t5.5 -13.5q0 -10 -9 -15q-92 -55 -194 -55q-132 -2 -225.5 91
t-91.5 223q-3 100 54 193t150.5 148t192.5 53q136 2 226.5 -89t88.5 -217q0 -113 -61 -180t-137 -67q-40 0 -65.5 21t-31.5 53l-1 6q-26 -37 -65 -58.5t-79 -21.5q-71 0 -113 46.5t-42 121.5q-2 96 69 171.5t157 73.5q87 0 125 -66l2 12q12 47 55 47q24 0 39.5 -16t15.5 -39
q0 -11 -1 -14zM482 240l25 117q-25 51 -81 51q-58 0 -98 -43.5t-40 -101.5q0 -39 22.5 -63.5t60.5 -24.5q63 0 111 65z" />
    <glyph glyph-name="A" unicode="A" horiz-adv-x="678" 
d="M620 65q0 -30 -21 -51t-52 -21q-27 0 -47 17.5t-24 44.5l-8 64h-299l-52 -91q-20 -35 -61 -35q-28 0 -48.5 20.5t-20.5 48.5q0 16 11 36l313 517q38 59 105 59q45 0 79 -29.5t41 -73.5l83 -494q1 -3 1 -12zM239 242h212l-40 303z" />
    <glyph glyph-name="B" unicode="B" horiz-adv-x="663" 
d="M27 60q0 11 3 23l114 517q15 67 83 67h256q82 0 131.5 -46.5t49.5 -113.5q0 -66 -45.5 -117t-106.5 -57q44 -12 70 -49.5t26 -85.5q0 -81 -59.5 -139.5t-172.5 -58.5h-279q-70 0 -70 60zM443 546h-168l-33 -147h179q45 0 68 24t23 60q0 27 -19.5 45t-49.5 18zM392 278
h-177l-34 -157h183q46 0 74 25.5t28 63.5q0 30 -20.5 49t-53.5 19z" />
    <glyph glyph-name="C" unicode="C" horiz-adv-x="664" 
d="M432 678q164 0 253 -112q14 -20 14 -44q0 -30 -20.5 -50.5t-49.5 -20.5q-36 0 -58 29q-48 72 -146 72q-93 2 -164 -74.5t-69 -181.5q0 -80 51.5 -131t136.5 -51q69 0 129 49q18 15 41 15q27 0 46 -19t19 -46q0 -33 -26 -52q-91 -73 -217 -73q-140 -2 -235 83t-93 216
q-3 168 113.5 280.5t274.5 110.5z" />
    <glyph glyph-name="D" unicode="D" horiz-adv-x="718" 
d="M27 60q0 11 3 23l114 517q15 67 83 67h190q115 2 203 -81t86 -206q0 -72 -26 -138.5t-77 -121.5t-136.5 -88t-192.5 -32h-177q-70 0 -70 60zM558 371q0 73 -47.5 122t-120.5 49h-116l-92 -417h118q115 0 186.5 71t71.5 175z" />
    <glyph glyph-name="E" unicode="E" horiz-adv-x="583" 
d="M27 60q0 11 3 23l114 517q15 67 83 67h335q25 0 43 -18t18 -44q0 -25 -18 -42.5t-43 -17.5h-288l-31 -145h253q25 0 43 -18t18 -44q0 -25 -18 -42.5t-43 -17.5h-281l-34 -155h260q25 0 43.5 -18t18.5 -43t-18 -43.5t-44 -18.5h-344q-70 0 -70 60z" />
    <glyph glyph-name="F" unicode="F" horiz-adv-x="571" 
d="M27 62q0 1 2 15l115 523q15 67 83 67h335q25 0 43 -18t18 -44q0 -25 -18 -42.5t-43 -17.5h-288l-31 -145h253q25 0 43 -18t18 -44q0 -25 -18 -42.5t-43 -17.5h-281l-50 -231q-5 -23 -24 -38.5t-44 -15.5q-29 0 -49.5 20t-20.5 49z" />
    <glyph glyph-name="G" unicode="G" horiz-adv-x="720" 
d="M686 311q0 -10 -3 -22l-28 -127q-12 -56 -45 -86q-101 -88 -238 -88q-139 -2 -234.5 82.5t-93.5 216.5q-3 166 114 280t287 111q137 0 222 -90q21 -23 21 -49q0 -28 -20 -49t-49 -21q-31 0 -52 23q-51 60 -142 60q-93 2 -164 -74.5t-69 -181.5q0 -78 51.5 -130t136.5 -52
q75 0 135 51l17 81h-109q-25 0 -42.5 18t-17.5 43t17.5 43t42.5 18h201q30 0 46 -15t16 -42z" />
    <glyph glyph-name="H" unicode="H" horiz-adv-x="731" 
d="M485 63q0 12 1 15l45 202h-315l-51 -233q-5 -23 -24 -38.5t-44 -15.5q-29 0 -49 20.5t-20 49.5q0 12 1 15l119 542q5 23 24 38.5t44 15.5q29 0 49 -20.5t20 -49.5q0 -12 -1 -15l-40 -184h314l47 215q5 23 24.5 38.5t44.5 15.5q29 0 49 -20.5t20 -50.5q0 -11 -1 -14
l-120 -542q-5 -23 -24 -38.5t-44 -15.5q-29 0 -49 20.5t-20 49.5z" />
    <glyph glyph-name="I" unicode="I" horiz-adv-x="274" 
d="M27 62q0 2 2 16l119 542q5 23 24 38.5t44 15.5q29 0 49.5 -20t20.5 -48q0 -1 -2 -17l-119 -542q-5 -23 -24 -38.5t-44 -15.5q-29 0 -49.5 20t-20.5 49z" />
    <glyph glyph-name="J" unicode="J" horiz-adv-x="486" 
d="M-12 80q0 27 19 45.5t45 18.5q19 0 32 -8q32 -22 71 -22q93 0 118 107l87 399q5 23 24 38.5t44 15.5q29 0 49.5 -20t20.5 -49q0 -2 -2 -16l-81 -370q-26 -119 -86.5 -175t-163.5 -56q-82 0 -143 37q-34 20 -34 55z" />
    <glyph glyph-name="K" unicode="K" horiz-adv-x="630" 
d="M647 611q0 -29 -19 -45l-248 -212l169 -254q9 -14 9 -36q0 -29 -21 -50t-51 -21q-39 0 -63 39l-153 242l-70 -70l-35 -157q-5 -23 -24 -38.5t-44 -15.5q-29 0 -49.5 20t-20.5 49q0 2 2 16l119 542q5 23 24 38.5t44 15.5q29 0 49.5 -20t20.5 -48q0 -1 -2 -17l-46 -210
l302 277q20 18 45 18q26 0 44 -18.5t18 -44.5z" />
    <glyph glyph-name="L" unicode="L" horiz-adv-x="520" 
d="M27 60q0 11 3 23l118 537q5 23 24 38.5t44 15.5q29 0 49.5 -20t20.5 -48q0 -1 -2 -17l-102 -464h211q26 0 44.5 -18.5t18.5 -43.5q0 -26 -18.5 -44.5t-44.5 -18.5h-296q-70 0 -70 60z" />
    <glyph glyph-name="M" unicode="M" horiz-adv-x="855" 
d="M608 64q0 11 1 14l90 410l-288 -476q-12 -19 -34 -19q-15 0 -26 9.5t-14 23.5l-76 462l-96 -441q-5 -23 -24 -38.5t-44 -15.5q-29 0 -49.5 20t-20.5 48q0 2 2 16l112 507q8 39 39.5 64.5t72.5 25.5q43 0 75 -28t38 -69l55 -334l227 377q33 54 97 54q48 0 79.5 -32.5
t31.5 -80.5q0 -1 -2 -23l-109 -491q-5 -23 -24 -38.5t-44 -15.5q-29 0 -49 21t-20 50z" />
    <glyph glyph-name="N" unicode="N" horiz-adv-x="729" 
d="M451 47l-193 426l-93 -426q-5 -23 -24 -38.5t-44 -15.5q-29 0 -49.5 20t-20.5 49q0 2 2 16l114 520q8 33 34.5 54.5t61.5 21.5q30 0 54 -16t35 -42l185 -406l90 410q5 23 24 38.5t44 15.5q29 0 49.5 -20t20.5 -49q0 -2 -2 -16l-115 -525q-7 -30 -32 -50.5t-58 -20.5
q-27 0 -49.5 15t-33.5 39z" />
    <glyph glyph-name="O" unicode="O" horiz-adv-x="765" 
d="M432 678q141 0 234 -83t93 -215q3 -161 -112 -278t-275 -114q-140 -2 -234.5 82.5t-93.5 216.5q-3 161 112 277.5t276 113.5zM423 552q-95 2 -164 -74.5t-67 -181.5q0 -82 53 -132t135 -50q94 -2 163.5 75t67.5 181q0 82 -53 132t-135 50z" />
    <glyph glyph-name="P" unicode="P" horiz-adv-x="624" 
d="M27 62q0 2 2 16l115 522q15 67 83 67h220q91 0 147 -53t56 -132q0 -43 -16 -85t-47.5 -79.5t-87 -60t-125.5 -21.5h-168l-41 -189q-5 -23 -24 -38.5t-44 -15.5q-29 0 -49.5 20t-20.5 49zM501 468q0 33 -23 55t-61 22h-143l-40 -184h147q54 0 87 30.5t33 76.5z" />
    <glyph glyph-name="Q" unicode="Q" horiz-adv-x="765" 
d="M609 68l2 -3q12 -19 12 -37q0 -32 -29 -51q-17 -11 -36 -11q-30 0 -53 33l-6 10q-60 -21 -127 -21q-140 -2 -234.5 82.5t-93.5 216.5q-3 161 112 277.5t276 113.5q141 0 234 -83t93 -215q0 -94 -39.5 -175.5t-110.5 -136.5zM611 370q0 82 -53 132t-135 50
q-95 2 -164 -74.5t-67 -181.5q0 -82 53 -132t135 -50q25 0 49 6l-26 40q-11 19 -11 37q0 32 32 52q15 9 34 9q33 0 49 -28l30 -48q74 74 74 188z" />
    <glyph glyph-name="R" unicode="R" horiz-adv-x="643" 
d="M471 249l79 -152q8 -18 8 -32q0 -28 -21.5 -50t-51.5 -22q-44 0 -67 44l-95 202h-117l-41 -192q-5 -23 -24 -38.5t-44 -15.5q-29 0 -49.5 20t-20.5 48q0 2 2 16l115 523q15 67 83 67h217q85 0 145.5 -52.5t60.5 -135.5q0 -86 -51 -149q-49 -63 -128 -81zM501 465
q0 35 -24.5 57.5t-60.5 22.5h-142l-40 -184h148q54 0 86.5 29t32.5 75z" />
    <glyph glyph-name="S" unicode="S" horiz-adv-x="600" 
d="M18 122q0 28 19.5 47.5t47.5 19.5q24 0 41 -14q82 -63 186 -63q47 0 73.5 22.5t26.5 54.5q0 26 -26 43.5t-88 40.5q-65 23 -106 43q-103 53 -103 153q0 82 73 145t187 63q122 0 214 -64q30 -21 30 -55q0 -28 -19.5 -47.5t-46.5 -19.5q-22 0 -39 13q-73 51 -157 51
q-40 0 -66.5 -20.5t-26.5 -49.5q0 -23 25 -39.5t89 -39.5q61 -22 106 -45q105 -53 105 -150q0 -93 -72 -158t-190 -65q-154 0 -256 80q-27 20 -27 54z" />
    <glyph glyph-name="T" unicode="T" horiz-adv-x="582" 
d="M184 61q0 1 2 17l102 464h-127q-26 0 -44.5 18.5t-18.5 44.5q0 25 18.5 43.5t44.5 18.5h419q26 0 44 -18t18 -44t-18 -44.5t-44 -18.5h-150l-108 -495q-5 -23 -24 -38.5t-44 -15.5q-29 0 -49.5 20t-20.5 48z" />
    <glyph glyph-name="U" unicode="U" horiz-adv-x="728" 
d="M71 266l77 353q5 24 24.5 39.5t44.5 15.5q30 0 50.5 -20t20.5 -49q0 -2 -2 -16l-70 -319q-4 -11 -4 -33q1 -55 38.5 -89.5t102.5 -34.5q136 0 170 157l77 349q5 24 25 39.5t45 15.5q29 0 49.5 -20t20.5 -49q0 -2 -2 -16l-71 -322q-30 -137 -105.5 -208t-208.5 -71
q-137 0 -212 62t-75 171q0 17 5 45z" />
    <glyph glyph-name="V" unicode="V" horiz-adv-x="678" 
d="M180 96l-81 491q-1 3 -1 12q0 31 21.5 53t53.5 22q28 0 49.5 -19t25.5 -47l64 -454l280 484q20 36 63 36q30 0 50.5 -21t20.5 -50q0 -19 -10 -38l-311 -513q-34 -59 -104 -59q-45 0 -79 29t-42 74z" />
    <glyph glyph-name="W" unicode="W" horiz-adv-x="912" 
d="M516 83l-13 375l-196 -411q-11 -24 -34 -39t-50 -15q-37 0 -64 25.5t-29 62.5l-34 512q-2 33 20.5 57t54.5 24q31 0 53.5 -22t23.5 -53l9 -414l218 451q18 38 61 38q27 0 46.5 -18.5t20.5 -45.5l18 -425l207 447q8 19 26 30.5t39 11.5q31 0 51.5 -21t20.5 -50
q0 -17 -8 -33l-265 -526q-26 -51 -83 -51q-37 0 -64 26t-29 64z" />
    <glyph glyph-name="X" unicode="X" horiz-adv-x="656" 
d="M685 608q0 -27 -17 -44l-230 -230l142 -237q10 -16 10 -35q0 -28 -22 -48.5t-52 -20.5q-39 0 -64 40l-126 208l-226 -226q-19 -22 -49 -22q-27 0 -46.5 19t-19.5 47q0 27 18 44l248 248l-132 220q-9 13 -9 33q0 28 22 49t51 21q39 0 65 -41l114 -192l207 210q23 23 50 23
q28 0 47 -19t19 -47z" />
    <glyph glyph-name="Y" unicode="Y" horiz-adv-x="639" 
d="M666 568l-269 -295l-49 -226q-5 -23 -24 -38.5t-44 -15.5q-29 0 -49.5 20t-20.5 49q0 2 2 16l43 197l-138 302q-6 15 -6 29q0 28 20.5 48t49.5 20q46 0 66 -45l100 -231l221 252q21 24 49 24q27 0 45.5 -19t18.5 -45q0 -24 -15 -42z" />
    <glyph glyph-name="Z" unicode="Z" horiz-adv-x="592" 
d="M-3 70q0 28 20 48l397 424h-236q-26 0 -44.5 18.5t-18.5 43.5q0 26 18.5 44.5t44.5 18.5h379q29 0 49.5 -20.5t20.5 -49.5t-19 -49l-399 -423h245q26 0 44 -18.5t18 -44.5q0 -25 -18 -43.5t-44 -18.5h-386q-29 0 -50 20.5t-21 49.5z" />
    <glyph glyph-name="bracketleft" unicode="[" horiz-adv-x="280" 
d="M-38 -141q0 8 1 10l172 770q4 17 17.5 28t29.5 11h134q17 0 29.5 -12.5t12.5 -29.5q0 -18 -12.5 -30.5t-29.5 -12.5h-100l-155 -698h81q17 0 29.5 -12.5t12.5 -30.5q0 -17 -12.5 -29.5t-29.5 -12.5h-131q-20 0 -34.5 15t-14.5 34z" />
    <glyph glyph-name="backslash" unicode="\" horiz-adv-x="329" 
d="M149 694q17 0 30 -11.5t15 -28.5l71 -630q2 -20 -11.5 -35.5t-33.5 -15.5q-18 0 -31 11.5t-15 28.5l-71 630q-2 20 12 35.5t34 15.5z" />
    <glyph glyph-name="bracketright" unicode="]" horiz-adv-x="280" 
d="M-78 -148q0 18 12 30.5t29 12.5h101l155 698h-81q-17 0 -29.5 12.5t-12.5 30.5q0 17 12.5 29.5t29.5 12.5h131q20 0 34.5 -15t14.5 -34q0 -8 -1 -10l-172 -770q-4 -17 -17.5 -28t-29.5 -11h-135q-17 0 -29 12.5t-12 29.5z" />
    <glyph glyph-name="asciicircum" unicode="^" horiz-adv-x="441" 
d="M346 360l-47 220l-155 -236q-10 -18 -34 -18q-16 0 -28 12t-12 28t7 23l176 256q20 29 54 29q23 0 41 -14.5t23 -35.5l59 -245q1 -3 1 -11q0 -17 -12.5 -29.5t-30.5 -12.5q-16 0 -27.5 9.5t-14.5 24.5z" />
    <glyph glyph-name="underscore" unicode="_" horiz-adv-x="564" 
d="M-81 -82q0 17 12.5 29.5t29.5 12.5h497q17 0 30 -12.5t13 -29.5q0 -18 -13 -30.5t-30 -12.5h-497q-17 0 -29.5 12.5t-12.5 30.5z" />
    <glyph glyph-name="grave" unicode="`" horiz-adv-x="251" 
d="M226 564l-69 77q-12 12 -12 29t12.5 29t28.5 12q22 0 33 -17l63 -86q8 -11 8 -21q0 -14 -10.5 -25t-24.5 -11q-16 0 -29 13z" />
    <glyph glyph-name="a" unicode="a" horiz-adv-x="586" 
d="M562 428q0 -10 -1 -13l-83 -374q-12 -52 -63 -52q-26 0 -45 20t-18 48q-61 -69 -142 -69q-85 0 -134.5 53.5t-49.5 146.5q-1 76 29.5 146t90 116t135.5 45q49 0 89.5 -20t63.5 -56l5 21q5 22 22 36t39 14q26 0 44 -18t18 -44zM377 158l37 168q-16 25 -46.5 40.5
t-66.5 15.5q-60 0 -101 -50t-41 -118q0 -51 30 -82t77 -31q67 0 111 57z" />
    <glyph glyph-name="b" unicode="b" horiz-adv-x="586" 
d="M558 295q1 -75 -29 -145.5t-90 -117t-135 -44.5q-49 0 -90 20t-64 56l-5 -20q-5 -22 -21.5 -36.5t-39.5 -14.5q-26 0 -44 18.5t-18 43.5q0 10 1 13l123 558q4 21 21.5 34.5t39.5 13.5q27 0 44.5 -18t17.5 -45q0 -9 -1 -12l-39 -176q61 72 146 72q84 0 133.5 -53.5
t49.5 -146.5zM425 269q0 51 -30 82t-77 31q-63 0 -111 -58l-37 -168q16 -25 46.5 -40t66.5 -15q61 0 101.5 49.5t40.5 118.5z" />
    <glyph glyph-name="c" unicode="c" horiz-adv-x="493" 
d="M309 495q93 0 148 -45q26 -18 26 -49q0 -24 -18 -41.5t-42 -17.5q-21 0 -37 13q-31 27 -77 27q-66 0 -109 -48.5t-43 -119.5q0 -52 34 -82.5t87 -30.5q39 0 71 22q11 8 28 8q23 0 39 -15.5t16 -38.5q0 -29 -26 -47q-62 -42 -141 -42q-107 0 -172 60.5t-65 159.5
q-2 117 81.5 203t199.5 84z" />
    <glyph glyph-name="d" unicode="d" horiz-adv-x="586" 
d="M603 611q0 -9 -1 -12l-124 -558q-5 -24 -21.5 -38t-40.5 -14q-27 0 -46.5 21.5t-15.5 48.5q-62 -71 -144 -71q-85 0 -134.5 53.5t-49.5 146.5q-1 76 29.5 146t90 116t135.5 45q48 0 89 -20t65 -56l45 207q5 21 22 34.5t39 13.5q27 0 44.5 -18t17.5 -45zM377 158l37 168
q-16 25 -46.5 40.5t-66.5 15.5q-60 0 -101 -50t-41 -118q0 -51 30 -82t77 -31q67 0 111 57z" />
    <glyph glyph-name="e" unicode="e" horiz-adv-x="553" 
d="M307 495q95 0 156 -58t61 -155q0 -12 -1 -15q-1 -31 -22.5 -48.5t-56.5 -17.5h-289v-12q0 -37 36 -68.5t96 -31.5q45 0 89 18q7 4 17 4q19 0 33 -14.5t14 -34.5q0 -31 -28 -43q-63 -31 -134 -31q-116 0 -183 58t-67 159q-2 117 80.5 204.5t198.5 85.5zM410 287v10
q0 42 -29.5 69.5t-81.5 27.5q-49 0 -86 -33q-36 -31 -45 -74h242z" />
    <glyph glyph-name="f" unicode="f" horiz-adv-x="327" 
d="M427 623q0 -20 -14.5 -34.5t-34.5 -14.5q-8 0 -10 1q-18 2 -21 2q-53 0 -70 -68l-6 -26h37q23 0 39.5 -16.5t16.5 -39.5q0 -22 -16.5 -38.5t-39.5 -16.5h-62l-72 -330q-4 -22 -21 -35.5t-40 -13.5q-26 0 -43.5 18t-17.5 44q0 10 1 13l67 304h-18q-23 0 -39.5 16t-16.5 39
t16.5 39.5t39.5 16.5h42l6 26q18 80 64.5 124t116.5 44q33 0 58 -7q17 -4 27.5 -17t10.5 -30z" />
    <glyph glyph-name="g" unicode="g" horiz-adv-x="585" 
d="M560 428q0 -11 -1 -14l-84 -381q-27 -125 -99 -177q-71 -52 -164 -52q-116 0 -190 48q-26 18 -26 47q0 23 16.5 39t39.5 16q16 0 30 -9q52 -37 128 -37q108 0 137 125l10 44q-60 -73 -148 -73q-82 0 -132 50t-50 146q-2 116 70 207t180 88q45 0 87 -20.5t69 -55.5l4 20
q5 22 22 36.5t39 14.5q26 0 44 -18t18 -44zM378 172l34 150q-37 60 -118 60q-58 0 -96.5 -45.5t-38.5 -111.5q0 -49 30 -78.5t80 -29.5q63 0 109 55z" />
    <glyph glyph-name="h" unicode="h" horiz-adv-x="580" 
d="M349 54l2 14l48 222q5 22 5 30q0 62 -83 62q-56 0 -113 -57l-62 -283q-5 -21 -22 -35t-40 -14q-25 0 -43.5 18t-18.5 43l2 14l122 558q5 21 22 34.5t39 13.5q26 0 44.5 -18t18.5 -43l-2 -14l-39 -179q77 75 161 75q69 0 110 -33.5t41 -89.5q0 -12 -5 -40l-63 -290
q-5 -21 -22 -35t-40 -14q-26 0 -44 18t-18 43z" />
    <glyph glyph-name="i" unicode="i" horiz-adv-x="253" 
d="M222 717q30 0 49.5 -19t19.5 -46q0 -37 -26.5 -62t-58.5 -25q-30 0 -49.5 19t-19.5 46q0 38 25.5 62.5t59.5 24.5zM22 54l2 14l82 374q4 21 21.5 34.5t40.5 13.5q26 0 44 -18t18 -43l-2 -14l-82 -373q-5 -22 -22 -35.5t-39 -13.5q-26 0 -44.5 18t-18.5 43z" />
    <glyph glyph-name="j" unicode="j" horiz-adv-x="253" 
d="M137 630q0 38 25.5 62.5t59.5 24.5q30 0 49.5 -19t19.5 -46q0 -37 -26.5 -62t-58.5 -25q-30 0 -49.5 19t-19.5 46zM-125 -143q0 21 14 36.5t35 17.5h9q56 3 72 76l101 455q4 21 21.5 34.5t39.5 13.5q26 0 43.5 -17.5t17.5 -43.5q0 -11 -1 -14l-95 -428
q-39 -183 -186 -183q-16 0 -20 1q-22 2 -36.5 16.5t-14.5 35.5z" />
    <glyph glyph-name="k" unicode="k" horiz-adv-x="535" 
d="M531 435q0 -26 -20 -41l-167 -132l112 -169q11 -17 11 -34q0 -27 -21 -46.5t-49 -19.5q-35 0 -61 41l-96 154l-77 -65l-18 -81q-5 -21 -22 -35t-39 -14q-26 0 -44 18t-18 44q0 10 1 13l123 558q4 21 21.5 34.5t39.5 13.5q26 0 44.5 -18t18.5 -43l-2 -14l-72 -326l242 201
q16 16 38 16q23 0 39 -16t16 -39z" />
    <glyph glyph-name="l" unicode="l" horiz-adv-x="253" 
d="M22 55q0 10 1 13l123 558q4 21 21.5 34.5t40.5 13.5q26 0 44 -18t18 -43l-2 -14l-122 -557q-5 -22 -22.5 -35.5t-39.5 -13.5q-26 0 -44 18.5t-18 43.5z" />
    <glyph glyph-name="m" unicode="m" horiz-adv-x="852" 
d="M814 371q0 -14 -5 -39l-64 -290q-4 -22 -21 -35.5t-40 -13.5q-27 0 -44.5 18t-17.5 45q0 1 2 17l50 229q3 10 3 21q0 27 -19 43t-50 16q-52 0 -101 -56l-62 -284q-4 -22 -21 -35.5t-40 -13.5q-27 0 -44.5 17.5t-17.5 44.5q0 2 2 18l51 229q2 10 2 21q0 28 -18.5 43.5
t-51.5 15.5q-50 0 -99 -56l-62 -284q-5 -22 -22 -35.5t-39 -13.5q-27 0 -45 18t-18 44q0 10 1 13l83 374q5 22 21.5 36.5t39.5 14.5q25 0 43.5 -18t18.5 -42q0 -1 -0.5 -3t-1 -5t-0.5 -6q71 76 149 76q58 0 95.5 -31.5t37.5 -55.5v-2q72 89 167 89q62 0 100 -34t38 -90z" />
    <glyph glyph-name="n" unicode="n" 
d="M541 372q0 -15 -5 -40l-64 -290q-4 -22 -21 -35.5t-40 -13.5q-27 0 -44.5 18t-17.5 45q0 1 2 17l49 221q3 15 3 26q0 62 -73 62q-63 0 -122 -56l-62 -284q-5 -22 -22 -35.5t-39 -13.5q-27 0 -45 18t-18 44q0 10 1 13l83 374q5 22 21.5 36.5t39.5 14.5q26 0 44.5 -18
t18.5 -43q0 -9 -1 -12q80 75 161 75q69 0 110 -33t41 -90z" />
    <glyph glyph-name="o" unicode="o" horiz-adv-x="574" 
d="M306 495q112 0 176 -61t64 -159q2 -114 -80.5 -201.5t-199.5 -85.5q-111 0 -175 60.5t-64 158.5q-2 114 80.5 202.5t198.5 85.5zM302 382q-61 0 -102.5 -50.5t-41.5 -117.5q0 -53 30 -83t83 -30q61 0 102 50t41 118q0 53 -30 83t-82 30z" />
    <glyph glyph-name="p" unicode="p" horiz-adv-x="583" 
d="M558 295q1 -75 -29 -145.5t-90 -117t-135 -44.5q-103 0 -154 76l-45 -207q-5 -21 -22 -34.5t-39 -13.5q-26 0 -44.5 18t-18.5 43l2 14l123 558q5 24 21.5 38t39.5 14q28 0 47.5 -20t17.5 -48q60 69 143 69q84 0 133.5 -53.5t49.5 -146.5zM425 269q0 51 -30 82t-77 31
q-63 0 -111 -58l-37 -168q16 -25 46.5 -40t66.5 -15q61 0 101.5 49.5t40.5 118.5z" />
    <glyph glyph-name="q" unicode="q" horiz-adv-x="583" 
d="M562 428q0 -10 -1 -13l-124 -558q-4 -21 -21 -34.5t-39 -13.5q-26 0 -44.5 18t-18.5 43l2 14l39 176q-61 -72 -145 -72q-85 0 -134.5 53.5t-49.5 146.5q-1 76 29.5 146t90 116t135.5 45q49 0 89.5 -20t63.5 -56l5 21q5 22 22 36t39 14q26 0 44 -18t18 -44zM377 158
l37 168q-16 25 -46.5 40.5t-66.5 15.5q-60 0 -101 -50t-41 -118q0 -51 30 -82t77 -31q67 0 111 57z" />
    <glyph glyph-name="r" unicode="r" horiz-adv-x="360" 
d="M392 436q0 -27 -17.5 -45t-42.5 -17h-9q-64 0 -118 -58l-59 -274q-5 -21 -22 -35t-39 -14q-27 0 -45 18t-18 44q0 10 1 13l83 371q5 24 21.5 38t40.5 14q27 0 44 -21t15 -49q51 70 110 70q55 0 55 -55z" />
    <glyph glyph-name="s" unicode="s" horiz-adv-x="477" 
d="M8 87q0 23 16 38.5t38 15.5q18 0 31 -9q67 -47 138 -47q31 0 50.5 14.5t19.5 36.5q0 19 -20 31.5t-69 28.5q-78 26 -115.5 54t-40.5 82q0 68 54 115.5t145 47.5q93 0 166 -49q25 -15 25 -42q0 -21 -15 -36t-37 -15q-16 0 -28 9q-57 36 -113 36q-32 0 -51 -13t-19 -34
q0 -15 19.5 -27t63.5 -27q48 -15 81 -30q81 -37 81 -110q0 -72 -57 -120.5t-152 -48.5q-107 0 -186 54q-25 15 -25 45z" />
    <glyph glyph-name="t" unicode="t" horiz-adv-x="338" 
d="M361 428q0 -23 -16 -39t-39 -16h-61l-47 -214q-3 -11 -3 -19q0 -38 42 -39q6 0 8 -1q17 0 31 -15t14 -35q0 -45 -45 -56q-21 -6 -45 -6q-66 0 -103.5 26.5t-37.5 76.5q0 20 4 35l55 247h-18q-24 0 -40 15.5t-16 39.5q0 23 16 39t39 16h43l20 91q4 21 21 34.5t39 13.5
q26 0 45 -18t19 -43l-2 -14l-14 -64h36q23 0 39 -16t16 -39z" />
    <glyph glyph-name="u" unicode="u" 
d="M556 429l-2 -14l-82 -374q-5 -22 -21.5 -36.5t-39.5 -14.5q-27 0 -45.5 18.5t-18.5 44.5q0 7 1 9q-79 -74 -160 -74q-69 0 -110 33t-41 90q0 15 5 40l64 291q5 21 22 34.5t39 13.5q27 0 44.5 -18.5t17.5 -45.5l-2 -16l-49 -221q-3 -15 -3 -27q0 -61 73 -61q63 0 122 56
l62 285q4 21 21.5 34.5t39.5 13.5q26 0 44.5 -18t18.5 -43z" />
    <glyph glyph-name="v" unicode="v" horiz-adv-x="501" 
d="M523 431q0 -18 -10 -31l-227 -363q-26 -44 -79 -44q-34 0 -60 22t-33 55l-62 345q-1 3 -1 12q0 26 18.5 44.5t44.5 18.5q24 0 42 -16t21 -39l45 -290l190 317q18 28 51 28q26 0 43 -17.5t17 -41.5z" />
    <glyph glyph-name="w" unicode="w" horiz-adv-x="763" 
d="M422 72l-24 257l-153 -290q-25 -46 -77 -46q-34 0 -58.5 23t-26.5 56l-29 350q-2 26 16.5 47t45.5 21q25 0 43 -17t19 -42l16 -273l162 294q20 38 64 38q28 0 48.5 -19t23.5 -46l27 -267l149 299q18 33 54 33q26 0 43 -17t17 -42q0 -15 -7 -28l-190 -364q-25 -46 -77 -46
q-34 0 -59 23t-27 56z" />
    <glyph glyph-name="x" unicode="x" horiz-adv-x="492" 
d="M499 434q0 -24 -18 -41l-158 -149l99 -158q11 -17 11 -34q0 -24 -19 -41.5t-44 -17.5q-35 0 -57 37l-81 135l-157 -154q-18 -18 -41 -18q-22 0 -38 15.5t-16 37.5q0 28 20 45l167 160l-90 146q-10 16 -10 32q0 25 18.5 43t44.5 18q35 0 57 -37l74 -121l143 140
q20 18 41 18q23 0 38.5 -16t15.5 -40z" />
    <glyph glyph-name="y" unicode="y" horiz-adv-x="507" 
d="M23 -81q4 -1 16 -1q37 0 60 34l30 45l-74 418q-1 3 -1 11q0 26 19 45t46 19q24 0 41.5 -15.5t21.5 -39.5l44 -288l189 315q18 28 51 28q26 0 42.5 -17t16.5 -42q0 -16 -9 -31l-300 -479q-39 -63 -82 -89.5t-103 -27.5q-12 0 -15 1q-23 1 -38.5 17.5t-15.5 39.5
q0 25 18 42t43 15z" />
    <glyph glyph-name="z" unicode="z" horiz-adv-x="479" 
d="M-6 57q0 23 18 41l272 274h-152q-22 0 -38.5 16.5t-16.5 38.5q0 23 16 39.5t39 16.5h293q22 0 38 -16.5t16 -38.5t-16 -38l-277 -279h159q23 0 39.5 -16.5t16.5 -39.5q0 -22 -16.5 -38.5t-39.5 -16.5h-293q-24 0 -41 16.5t-17 40.5z" />
    <glyph glyph-name="braceleft" unicode="{" horiz-adv-x="288" 
d="M-10 -62q0 14 3 28l39 173q3 15 3 20q0 29 -20 43q-19 13 -19 39q0 15 9.5 27t23.5 16q37 10 49 63l38 171q18 78 67 119t122 41h20q17 0 29 -12.5t12 -29.5q0 -18 -12 -30.5t-29 -12.5h-37q-63 0 -80 -74l-43 -195q-18 -74 -66 -89q29 -17 29 -56q0 -21 -3 -31l-38 -171
q-3 -24 -3 -26q0 -24 15.5 -40t36.5 -16h14q18 0 30 -12.5t12 -30.5q0 -17 -12.5 -29.5t-29.5 -12.5h-21q-57 0 -98 36.5t-41 91.5z" />
    <glyph glyph-name="bar" unicode="|" horiz-adv-x="216" 
d="M86 15v637q0 17 12.5 29.5t29.5 12.5q18 0 30.5 -12.5t12.5 -29.5v-637q0 -17 -12.5 -29.5t-30.5 -12.5q-17 0 -29.5 12.5t-12.5 29.5z" />
    <glyph glyph-name="braceright" unicode="}" horiz-adv-x="288" 
d="M297 550q0 -14 -3 -28l-39 -173q-2 -18 -2 -20q0 -30 19 -43t19 -39q0 -15 -9 -27t-23 -16q-38 -11 -50 -63l-38 -171q-18 -78 -67 -119t-122 -41h-20q-17 0 -29 12.5t-12 29.5q0 18 12 30.5t29 12.5h37q63 0 80 74l44 195q17 74 65 90q-29 15 -29 55q0 15 3 31l38 171
q3 15 3 26q0 24 -15.5 40t-36.5 16h-14q-18 0 -30 12.5t-12 30.5q0 17 12.5 29.5t29.5 12.5h21q57 0 98 -36.5t41 -91.5z" />
    <glyph glyph-name="asciitilde" unicode="~" horiz-adv-x="510" 
d="M566 628q0 -8 -1 -11q-55 -205 -179 -205q-56 3 -75 29.5t-28 85.5q-6 36 -12 48.5t-22 12.5q-26 0 -51 -41t-41 -107q-3 -13 -15 -22t-26 -9q-18 0 -30 12.5t-12 29.5q0 8 1 11q53 204 179 204q56 -3 75 -29.5t28 -85.5q4 -34 11 -48t24 -14q24 0 50 42.5t42 106.5
q4 14 15 23t25 9q18 0 30 -12.5t12 -29.5z" />
    <glyph glyph-name="uni00A0" unicode="&#xa0;" horiz-adv-x="256" 
 />
    <glyph glyph-name="exclamdown" unicode="&#xa1;" horiz-adv-x="256" 
d="M156 332q-31 0 -52 22t-21 53q0 36 26.5 62t61.5 26q31 0 52.5 -22t21.5 -54q0 -35 -26.5 -61t-62.5 -26zM179 216q0 -8 -1 -10l-59 -337q-4 -26 -24 -43t-47 -17q-31 0 -52 20t-21 50q0 11 3 21l89 330q5 18 20.5 30t34.5 12q24 0 40.5 -16.5t16.5 -39.5z" />
    <glyph glyph-name="cent" unicode="&#xa2;" horiz-adv-x="499" 
d="M358 373l-61 -271q25 4 52 21q11 8 28 8q23 0 39 -15.5t16 -38.5q0 -29 -26 -47q-60 -39 -130 -42l-14 -60q-4 -15 -16 -25t-28 -10q-18 0 -31.5 14t-13.5 32q0 7 1 9l11 50q-73 20 -115 76t-42 134q-2 113 77.5 199t190.5 88l9 42q4 15 16.5 25t27.5 10q18 0 31 -14
t13 -32q0 -7 -1 -9l-7 -31q42 -12 72 -36q26 -18 26 -49q0 -24 -18 -41.5t-42 -17.5q-21 0 -37 13q-11 9 -28 18zM157 214q0 -67 55 -97l57 260q-51 -14 -81.5 -59.5t-30.5 -103.5z" />
    <glyph glyph-name="sterling" unicode="&#xa3;" horiz-adv-x="550" 
d="M561 567q0 -27 -19 -47t-46 -20q-31 0 -52 24q-29 37 -84 37q-48 0 -81 -32.5t-33 -83.5q0 -30 19 -73q1 -1 10 -22h98q17 0 29 -12t12 -29q0 -16 -12 -28t-29 -12h-88q-7 -41 -41 -84q-33 -42 -63 -58q30 11 57 11q34 0 67 -13q40 -14 65 -14q16 0 40 7q15 5 23 5
q24 0 41.5 -18t17.5 -42q0 -34 -33 -52q-41 -24 -90 -24q-45 0 -120 22q-45 14 -85 14q-29 0 -80 -22q-13 -5 -23 -5q-21 0 -35.5 14.5t-14.5 34.5q0 30 25 43q52 30 82 76q33 50 33 93q0 9 -1 12h-78q-17 0 -29 12t-12 29t12 28.5t29 11.5h52q-33 70 -33 110
q-2 88 77.5 153.5t184.5 63.5q116 0 185 -61q23 -20 23 -49z" />
    <glyph glyph-name="currency" unicode="&#xa4;" horiz-adv-x="623" 
d="M648 548q0 -27 -18 -40l-61 -50q22 -45 22 -98q0 -105 -71 -182l29 -36q11 -16 11 -34q0 -23 -15.5 -39t-38.5 -16q-27 0 -42 20l-32 41q-57 -26 -119 -26q-83 0 -148 39l-67 -54q-14 -11 -30 -11q-23 0 -38.5 15.5t-15.5 37.5q0 24 17 39l63 50q-23 44 -23 99
q0 104 71 184l-31 40q-11 14 -11 33q0 23 16 38.5t39 15.5q27 0 43 -21l32 -42q57 26 120 26q86 0 148 -41l64 52q14 12 34 12q21 0 36.5 -15t15.5 -37zM319 201q60 0 101.5 45t41.5 105q0 50 -31.5 81t-89.5 31q-61 0 -100.5 -45t-39.5 -107q0 -49 31 -79.5t87 -30.5z" />
    <glyph glyph-name="yen" unicode="&#xa5;" horiz-adv-x="645" 
d="M686 610q0 -23 -16 -42l-196 -216h131q16 0 27.5 -11.5t11.5 -27.5t-11.5 -28t-27.5 -12h-203l-18 -80h185q16 0 28 -11.5t12 -27.5t-12 -27.5t-28 -11.5h-202l-15 -67q-5 -24 -24.5 -39.5t-43.5 -15.5q-29 0 -49.5 20t-20.5 48q0 10 1 13l9 41h-188q-17 0 -28.5 11.5
t-11.5 27.5t12 27.5t28 11.5h206l17 80h-188q-16 0 -27.5 12t-11.5 28t11.5 27.5t27.5 11.5h152l-102 225q-6 15 -6 29q0 28 21 48t50 20q45 0 65 -45l101 -232l220 253q21 24 50 24q26 0 45 -19t19 -45z" />
    <glyph glyph-name="brokenbar" unicode="&#xa6;" horiz-adv-x="216" 
d="M86 406v246q0 17 12.5 29.5t29.5 12.5q18 0 30.5 -12.5t12.5 -29.5v-246q0 -17 -12.5 -29.5t-30.5 -12.5q-17 0 -29.5 12.5t-12.5 29.5zM86 15v246q0 17 12.5 29.5t29.5 12.5q18 0 30.5 -12.5t12.5 -29.5v-246q0 -17 -12.5 -29.5t-30.5 -12.5q-17 0 -29.5 12.5
t-12.5 29.5z" />
    <glyph glyph-name="section" unicode="&#xa7;" horiz-adv-x="484" 
d="M411 86q0 -71 -57 -119t-147 -48q-113 0 -196 51q-25 13 -25 43q0 21 15 36t36 15q15 0 29 -11q67 -46 140 -46q35 0 56.5 17.5t21.5 42.5q0 22 -19.5 35t-72.5 32q-45 16 -78 32q-71 36 -71 107q0 51 33 87.5t95 53.5q-73 32 -73 106q0 68 55.5 112.5t142.5 44.5
q105 0 173 -43q23 -17 23 -40q0 -20 -14 -34t-34 -14q-15 0 -26 8q-49 34 -117 34q-36 0 -57 -15t-21 -39q0 -21 20 -33.5t72 -29.5q45 -15 78 -32q73 -35 73 -106q0 -50 -31.5 -90t-83.5 -58q60 -33 60 -99zM171 296q0 -24 21 -40t66 -31q38 11 57.5 32t19.5 47
q0 44 -69 68q-46 -6 -70.5 -26.5t-24.5 -49.5z" />
    <glyph glyph-name="dieresis" unicode="&#xa8;" horiz-adv-x="423" 
d="M122 614q0 30 23 52.5t53 22.5q26 0 43 -17t17 -43q0 -30 -23 -52.5t-53 -22.5q-26 0 -43 17.5t-17 42.5zM333 614q0 30 23 52.5t53 22.5q26 0 43 -17t17 -43q0 -30 -23 -52.5t-53 -22.5q-26 0 -43 17.5t-17 42.5z" />
    <glyph glyph-name="copyright" unicode="&#xa9;" horiz-adv-x="778" 
d="M64 334q-3 139 101.5 243t242.5 102q140 2 244.5 -102t101.5 -243q3 -139 -101.5 -243.5t-244.5 -101.5q-138 -3 -242.5 101.5t-101.5 243.5zM718 334q2 125 -91.5 218t-218.5 91q-124 2 -217.5 -91t-90.5 -218q-3 -124 90.5 -218t217.5 -91q124 -3 218 91t92 218z
M201 307q-2 97 70.5 168.5t162.5 69.5q98 0 149 -65q5 -8 5 -14q0 -10 -6.5 -16.5t-15.5 -6.5q-12 0 -20 9q-36 53 -114 53q-69 2 -128 -57.5t-57 -139.5q0 -60 41 -102.5t105 -42.5q53 0 102 38q5 4 12 4q19 0 21 -20q0 -11 -9 -18q-59 -44 -127 -44q-85 0 -138 52t-53 132
z" />
    <glyph glyph-name="ordfeminine" unicode="&#xaa;" horiz-adv-x="414" 
d="M441 602q0 -7 -1 -9l-53 -239q-4 -15 -16 -25t-28 -10q-19 0 -32.5 14t-12.5 34q-39 -49 -96 -49q-55 0 -90 35.5t-35 96.5q0 82 49.5 140t119.5 58q69 0 104 -47l2 10q3 16 15.5 26t28.5 10q19 0 32 -13.5t13 -31.5zM311 425l27 122q-21 28 -69 28q-41 0 -69 -34
q-27 -33 -27 -79q0 -34 18.5 -52.5t49.5 -18.5q39 0 70 34z" />
    <glyph glyph-name="guillemotleft" unicode="&#xab;" horiz-adv-x="527" 
d="M140 77l-74 111q-15 22 -15 44q0 30 28 55l147 130q11 10 27 10q17 0 28.5 -11.5t11.5 -28.5q0 -16 -14 -30l-133 -119l72 -108q8 -13 8 -27q0 -19 -14 -33t-33 -14q-24 0 -39 21zM329 77l-74 111q-15 22 -15 44q0 29 29 55l146 130q11 10 27 10q17 0 28.5 -11.5
t11.5 -28.5t-13 -30l-133 -119l72 -108q8 -13 8 -27q0 -19 -14 -33t-33 -14q-25 0 -40 21z" />
    <glyph glyph-name="logicalnot" unicode="&#xac;" horiz-adv-x="515" 
d="M431 193q-18 0 -30 16t-8 33l33 146h-324q-16 0 -27.5 12t-11.5 28t11.5 28t27.5 12h351q27 0 42.5 -14.5t15.5 -38.5q0 -2 -2 -18l-37 -167q-6 -37 -41 -37z" />
    <glyph glyph-name="uni00AD" unicode="&#xad;" horiz-adv-x="300" 
d="M23 242q0 22 16 38t38 16h145q22 0 38 -16t16 -38t-16 -38t-38 -16h-145q-22 0 -38 16t-16 38z" />
    <glyph glyph-name="registered" unicode="&#xae;" horiz-adv-x="494" 
d="M84 465q0 88 62 150t150 62t150 -62t62 -150t-62.5 -150t-150.5 -62q-87 0 -149 62t-62 150zM476 465q0 74 -53.5 127t-127.5 53t-126.5 -53t-52.5 -127t52.5 -127t126.5 -53t127.5 53t53.5 127zM326 350l-39 89h-44l-19 -87q-3 -13 -16 -13q-8 0 -13 6t-3 15l45 208
q5 18 21 18h75q31 0 51.5 -18t20.5 -46q0 -33 -24.5 -57.5t-55.5 -24.5l35 -76q1 -1 1 -6q0 -7 -5 -13t-13 -6q-12 0 -17 11zM326 556h-57l-20 -86h65q24 0 39.5 14t15.5 35q0 37 -43 37z" />
    <glyph glyph-name="overscore" unicode="&#xaf;" horiz-adv-x="363" 
d="M87 598q0 15 11 25.5t26 10.5h275q15 0 25.5 -10.5t10.5 -25.5t-10.5 -25.5t-25.5 -10.5h-275q-15 0 -26 10.5t-11 25.5z" />
    <glyph glyph-name="degree" unicode="&#xb0;" horiz-adv-x="311" 
d="M86 541q0 56 39.5 96t94.5 40q56 0 96 -40.5t40 -95.5t-40 -94.5t-96 -39.5q-55 0 -94.5 39.5t-39.5 94.5zM156 541q0 -27 18 -46t45 -19q28 0 48 19t20 46q0 28 -19.5 47.5t-47.5 19.5q-27 0 -45.5 -19.5t-18.5 -47.5z" />
    <glyph glyph-name="plusminus" unicode="&#xb1;" horiz-adv-x="504" 
d="M313 326l-39 -178q-3 -14 -15 -23.5t-27 -9.5q-18 0 -30 12.5t-12 30.5q0 7 1 9l35 159h-138q-16 0 -28 11.5t-12 27.5t12 27.5t28 11.5h156l38 171q7 33 41 33q18 0 30 -12.5t12 -30.5q0 -7 -1 -9l-34 -152h138q17 0 28.5 -11t11.5 -27t-11.5 -28t-28.5 -12h-155z
M-23 40q0 16 11.5 27t27.5 11h381q16 0 27.5 -11t11.5 -27t-11.5 -28t-27.5 -12h-381q-16 0 -27.5 12t-11.5 28z" />
    <glyph glyph-name="uni00B2" unicode="&#xb2;" horiz-adv-x="363" 
d="M63 465q0 27 21 38q105 60 154 91q52 34 74.5 58.5t22.5 49.5q0 23 -18.5 35.5t-49.5 12.5q-45 0 -88 -25q-9 -6 -19 -6q-16 0 -27 11t-11 27q0 19 18 32q61 38 131 38q72 0 117.5 -31.5t45.5 -84.5q0 -51 -51 -99.5t-167 -113.5h133q16 0 27 -11.5t11 -26.5
q0 -17 -11 -28t-27 -11h-243q-18 0 -30.5 12.5t-12.5 31.5z" />
    <glyph glyph-name="uni00B3" unicode="&#xb3;" horiz-adv-x="377" 
d="M100 458q-17 14 -17 34q0 17 12.5 29t29.5 12q15 0 26 -9q42 -33 94 -33q32 0 49.5 14.5t17.5 38.5q0 20 -21.5 31.5t-58.5 11.5h-5q-15 0 -25 11t-10 26t10.5 26t25.5 11l43 -1q72 0 72 47q0 20 -22.5 31.5t-57.5 11.5q-43 0 -81 -21q-4 -4 -16 -4q-14 0 -24.5 10.5
t-10.5 24.5q0 20 17 29q61 38 124 38q77 0 122.5 -28.5t45.5 -78.5q0 -40 -30 -68.5t-80 -32.5q35 -7 56.5 -30t21.5 -56q0 -47 -44 -83t-114 -36q-92 0 -150 44z" />
    <glyph glyph-name="acute" unicode="&#xb4;" horiz-adv-x="251" 
d="M141 550q-13 0 -22 9.5t-9 21.5q0 16 11 26l106 93q12 9 28 9q15 0 26 -11.5t11 -26.5q0 -20 -15 -32l-115 -83q-9 -6 -21 -6z" />
    <glyph glyph-name="uni00B5" unicode="&#xb5;" horiz-adv-x="591" 
d="M42 -191q-26 0 -44.5 18t-18.5 44l2 14l126 557q5 21 22 34.5t39 13.5q27 0 44 -18t17 -45q0 -2 -2 -18l-49 -220q-3 -13 -3 -26q0 -30 19.5 -46.5t52.5 -16.5q65 0 121 56l63 286q5 21 22 34.5t39 13.5q26 0 43.5 -18t17.5 -44q0 -10 -1 -13l-59 -270q0 -2 -0.5 -5
t-1 -5t-0.5 -3.5v-2.5q0 -18 15 -24q6 -1 17 -12q18 -16 18 -43q0 -22 -14.5 -40t-35.5 -21q-6 -1 -24 -1q-105 0 -110 86q-71 -86 -155 -86q-49 0 -64 27l-36 -158q-5 -21 -22 -34.5t-38 -13.5z" />
    <glyph glyph-name="paragraph" unicode="&#xb6;" horiz-adv-x="449" 
d="M270 -70l150 675h-79l-153 -688q-6 -24 -30 -24q-14 0 -23.5 11.5t-5.5 25.5l87 393q-57 0 -97 44.5t-40 111.5q0 73 57 130.5t137 57.5h148q60 0 60 -52q0 -11 -2 -21l-150 -677q-6 -24 -30 -24q-14 0 -23.5 11.5t-5.5 25.5z" />
    <glyph glyph-name="middot" unicode="&#xb7;" horiz-adv-x="256" 
d="M136 326q30 0 51.5 -22t21.5 -53q0 -35 -26.5 -61t-61.5 -26q-31 0 -52.5 22t-21.5 52q0 37 26 62.5t63 25.5z" />
    <glyph glyph-name="cedilla" unicode="&#xb8;" horiz-adv-x="221" 
d="M-83 -144q0 12 9 20.5t20 8.5q8 0 16 -5q31 -22 68 -22q23 0 36.5 9.5t13.5 25.5q0 24 -30 24q-10 0 -21 -8q-8 -5 -17 -5q-11 0 -18.5 7.5t-7.5 17.5q0 11 4 18l39 64h62l-38 -62q13 10 31 10q25 0 42 -17.5t17 -44.5q0 -42 -32 -67.5t-81 -25.5q-55 0 -99 26
q-14 8 -14 26z" />
    <glyph glyph-name="uni00B9" unicode="&#xb9;" horiz-adv-x="280" 
d="M178 461q0 8 1 10l49 223l-56 -46q-10 -8 -24 -8q-15 0 -25.5 10.5t-10.5 25.5q0 18 13 28l140 114q14 10 30 10q20 0 34 -14t14 -34q0 -7 -1 -9l-70 -320q-4 -16 -17 -26.5t-30 -10.5q-19 0 -33 14t-14 33z" />
    <glyph glyph-name="ordmasculine" unicode="&#xba;" horiz-adv-x="405" 
d="M266 648q74 0 118 -40t44 -106q0 -77 -56.5 -130.5t-133.5 -53.5q-73 0 -117.5 40.5t-44.5 105.5q0 77 57 130.5t133 53.5zM264 572q-41 0 -67 -33t-26 -78q0 -32 19 -50.5t51 -18.5q41 0 66.5 32.5t25.5 78.5q0 32 -18.5 50.5t-50.5 18.5z" />
    <glyph glyph-name="guillemotright" unicode="&#xbb;" horiz-adv-x="527" 
d="M200 406l74 -111q15 -23 15 -44q0 -29 -29 -55l-146 -130q-11 -10 -27 -10q-17 0 -29 11.5t-12 28.5q0 16 14 30l133 119l-72 109q-8 13 -8 27q0 19 14 32.5t33 13.5q25 0 40 -21zM389 406l74 -111q15 -23 15 -44q0 -30 -28 -55l-147 -130q-11 -10 -27 -10t-28 12t-12 28
t14 30l133 119l-73 109q-8 14 -8 26q0 19 14 33t34 14q26 0 39 -21z" />
    <glyph glyph-name="onequarter" unicode="&#xbc;" horiz-adv-x="779" 
d="M144 307q0 8 1 10l49 223l-56 -46q-10 -8 -24 -8q-15 0 -25.5 10.5t-10.5 25.5q0 18 13 28l140 114q14 10 30 10q20 0 34 -14t14 -34q0 -7 -1 -9l-70 -320q-4 -16 -17 -26.5t-30 -10.5q-19 0 -33 14t-14 33zM127 -7q-12 0 -20 8t-8 21q0 12 7 19l535 623q7 10 23 10
q12 0 20.5 -8.5t8.5 -20.5q0 -13 -8 -19l-535 -623q-7 -10 -23 -10zM751 123q0 -16 -11 -26.5t-26 -10.5h-30l-12 -56q-4 -16 -16.5 -26.5t-29.5 -10.5q-20 0 -33 13.5t-13 32.5q0 8 1 10l8 37h-156q-16 0 -27 10.5t-11 26.5t10 26l198 231q22 27 58 27q32 0 53.5 -21.5
t21.5 -51.5q0 -2 -2 -18l-33 -155h13q15 0 26 -11t11 -27zM605 161l34 154l-134 -154h100z" />
    <glyph glyph-name="onehalf" unicode="&#xbd;" horiz-adv-x="819" 
d="M144 307q0 8 1 10l49 223l-56 -46q-10 -8 -24 -8q-15 0 -25.5 10.5t-10.5 25.5q0 18 13 28l140 114q14 10 30 10q20 0 34 -14t14 -34q0 -7 -1 -9l-70 -320q-4 -16 -17 -26.5t-30 -10.5q-19 0 -33 14t-14 33zM127 -7q-12 0 -20 8t-8 21q0 12 7 19l535 623q7 10 23 10
q12 0 20.5 -8.5t8.5 -20.5q0 -13 -8 -19l-535 -623q-7 -10 -23 -10zM426 44q0 27 21 38q105 60 154 91q52 34 74.5 58.5t22.5 49.5q0 23 -18.5 35.5t-49.5 12.5q-45 0 -88 -25q-9 -6 -19 -6q-16 0 -27 11t-11 27q0 18 18 32q61 38 131 38q72 0 117.5 -31.5t45.5 -84.5
q0 -51 -51 -99.5t-167 -113.5h133q16 0 27 -11.5t11 -26.5q0 -17 -11 -28t-27 -11h-243q-18 0 -30.5 12.5t-12.5 31.5z" />
    <glyph glyph-name="threequarters" unicode="&#xbe;" horiz-adv-x="859" 
d="M66 304q-17 14 -17 34q0 17 12.5 29t29.5 12q15 0 26 -9q42 -33 94 -33q32 0 49.5 14.5t17.5 38.5q0 20 -21.5 31.5t-58.5 11.5h-5q-15 0 -25 11t-10 26t10.5 26t25.5 11l43 -1q72 0 72 47q0 20 -22.5 31.5t-57.5 11.5q-43 0 -81 -21q-4 -4 -16 -4q-14 0 -24.5 10.5
t-10.5 24.5q0 20 17 29q61 38 124 38q77 0 122.5 -28.5t45.5 -78.5q0 -40 -30 -68.5t-80 -32.5q35 -7 56.5 -30t21.5 -56q0 -47 -44 -83t-114 -36q-92 0 -150 44zM207 -7q-12 0 -20 8t-8 21q0 12 7 19l535 623q7 10 23 10q12 0 20.5 -8.5t8.5 -20.5q0 -13 -8 -19l-535 -623
q-7 -10 -23 -10zM831 123q0 -16 -11 -26.5t-26 -10.5h-30l-12 -56q-4 -16 -16.5 -26.5t-29.5 -10.5q-20 0 -33 13.5t-13 32.5q0 8 1 10l8 37h-156q-16 0 -27 10.5t-11 26.5t10 26l198 231q22 27 58 27q32 0 53.5 -21.5t21.5 -51.5q0 -2 -2 -18l-33 -155h13q15 0 26 -11
t11 -27zM685 161l34 154l-134 -154h100z" />
    <glyph glyph-name="questiondown" unicode="&#xbf;" horiz-adv-x="398" 
d="M259 331q-30 0 -51.5 22t-21.5 53q0 36 26.5 62t62.5 26q31 0 52 -22t21 -53q0 -36 -26 -62t-63 -26zM294 235q8 -19 8 -34q-3 -53 -30 -81t-88 -60q-43 -23 -59.5 -38.5t-16.5 -37.5q0 -25 21 -39.5t60 -14.5q44 0 85 23q12 6 25 6q24 0 41 -17t17 -42q0 -34 -30 -50
q-73 -45 -159 -45q-90 0 -151 40q-60 41 -60 108q0 48 19 79q17 29 41 47.5t74 46.5q47 26 66.5 44t22.5 44q1 1 1 7l3 8q3 18 19.5 30.5t36.5 12.5q18 0 33.5 -11t20.5 -26z" />
    <glyph glyph-name="Agrave" unicode="&#xc0;" horiz-adv-x="678" 
d="M620 65q0 -30 -21 -51t-52 -21q-27 0 -47 17.5t-24 44.5l-8 64h-299l-52 -91q-20 -35 -61 -35q-28 0 -48.5 20.5t-20.5 48.5q0 16 11 36l313 517q38 59 105 59q45 0 79 -29.5t41 -73.5l83 -494q1 -3 1 -12zM239 242h212l-40 303zM415 731l-69 77q-12 12 -12 29t12.5 29
t28.5 12q22 0 33 -17l63 -86q8 -11 8 -21q0 -14 -10.5 -25t-24.5 -11q-16 0 -29 13z" />
    <glyph glyph-name="Aacute" unicode="&#xc1;" horiz-adv-x="678" 
d="M620 65q0 -30 -21 -51t-52 -21q-27 0 -47 17.5t-24 44.5l-8 64h-299l-52 -91q-20 -35 -61 -35q-28 0 -48.5 20.5t-20.5 48.5q0 16 11 36l313 517q38 59 105 59q45 0 79 -29.5t41 -73.5l83 -494q1 -3 1 -12zM239 242h212l-40 303zM447 717q-13 0 -22 9.5t-9 21.5
q0 16 11 26l106 93q12 9 28 9q15 0 26 -11.5t11 -26.5q0 -20 -15 -32l-115 -83q-9 -6 -21 -6z" />
    <glyph glyph-name="Acircumflex" unicode="&#xc2;" horiz-adv-x="678" 
d="M620 65q0 -30 -21 -51t-52 -21q-27 0 -47 17.5t-24 44.5l-8 64h-299l-52 -91q-20 -35 -61 -35q-28 0 -48.5 20.5t-20.5 48.5q0 16 11 36l313 517q38 59 105 59q45 0 79 -29.5t41 -73.5l83 -494q1 -3 1 -12zM239 242h212l-40 303zM513 734l-47 78l-86 -85q-10 -10 -23 -10
q-14 0 -22 9.5t-8 22.5q0 12 7 19l58 67q29 32 65 32h41q16 0 30 -8.5t19 -21.5l30 -69q3 -8 3 -15q0 -15 -11 -25.5t-25 -10.5q-20 0 -31 17z" />
    <glyph glyph-name="Atilde" unicode="&#xc3;" horiz-adv-x="678" 
d="M620 65q0 -30 -21 -51t-52 -21q-27 0 -47 17.5t-24 44.5l-8 64h-299l-52 -91q-20 -35 -61 -35q-28 0 -48.5 20.5t-20.5 48.5q0 16 11 36l313 517q38 59 105 59q45 0 79 -29.5t41 -73.5l83 -494q1 -3 1 -12zM239 242h212l-40 303zM394 789q-26 0 -39 -46q-6 -23 -31 -23
q-14 0 -23.5 9.5t-9.5 23.5q0 7 1 9q30 99 111 99q41 0 74 -39q16 -16 25 -22t22 -6q26 0 39 45q7 23 31 23q15 0 24 -9.5t9 -23.5q0 -8 -1 -10q-30 -98 -111 -98q-24 0 -39 9t-35 30q-16 17 -25 23t-22 6z" />
    <glyph glyph-name="Adieresis" unicode="&#xc4;" horiz-adv-x="678" 
d="M620 65q0 -30 -21 -51t-52 -21q-27 0 -47 17.5t-24 44.5l-8 64h-299l-52 -91q-20 -35 -61 -35q-28 0 -48.5 20.5t-20.5 48.5q0 16 11 36l313 517q38 59 105 59q45 0 79 -29.5t41 -73.5l83 -494q1 -3 1 -12zM239 242h212l-40 303zM289 781q0 30 23 52.5t53 22.5
q26 0 43 -17t17 -43q0 -30 -23 -52.5t-53 -22.5q-26 0 -43 17.5t-17 42.5zM500 781q0 30 23 52.5t53 22.5q26 0 43 -17t17 -43q0 -30 -23 -52.5t-53 -22.5q-26 0 -43 17.5t-17 42.5z" />
    <glyph glyph-name="Aring" unicode="&#xc5;" horiz-adv-x="678" 
d="M620 65q0 -30 -21 -51t-52 -21q-27 0 -47 17.5t-24 44.5l-8 64h-299l-52 -91q-20 -35 -61 -35q-28 0 -48.5 20.5t-20.5 48.5q0 16 11 36l313 517q38 59 105 59q45 0 79 -29.5t41 -73.5l83 -494q1 -3 1 -12zM239 242h212l-40 303zM473 909q43 0 69 -26.5t26 -69.5
q0 -47 -34 -81t-81 -34q-42 0 -68.5 26.5t-26.5 69.5q0 45 35 80t80 35zM468 850q-20 0 -35.5 -15t-15.5 -35q0 -19 11.5 -31t30.5 -12q20 0 35 15t15 35q0 19 -11 31t-30 12z" />
    <glyph glyph-name="AE" unicode="&#xc6;" horiz-adv-x="962" 
d="M1005 605q0 -25 -18 -42.5t-43 -17.5h-287l-32 -145h253q26 0 43.5 -18t17.5 -44q0 -25 -18 -42.5t-43 -17.5h-280l-35 -155h261q25 0 43 -18t18 -43t-18 -43.5t-43 -18.5h-345q-34 0 -52 15t-18 41q0 10 3 22l9 41h-239l-79 -102q-18 -24 -48 -24q-25 0 -43 18t-18 44
q0 21 14 38l440 530q35 44 92 44h404q26 0 43.5 -18t17.5 -44zM448 242l65 302l-235 -302h170z" />
    <glyph glyph-name="Ccedilla" unicode="&#xc7;" horiz-adv-x="664" 
d="M699 522q0 -30 -20.5 -50.5t-49.5 -20.5q-36 0 -58 29q-48 72 -146 72q-93 2 -164 -74.5t-69 -181.5q0 -80 51.5 -131t136.5 -51q69 0 129 49q18 15 41 15q27 0 46 -19t19 -46q0 -33 -26 -52q-91 -73 -217 -73q-22 0 -28 1l-25 -40q16 10 32 10q26 0 42.5 -17t16.5 -45
q0 -42 -32 -67.5t-81 -25.5q-55 0 -99 26q-14 8 -14 26q0 12 9 20.5t20 8.5q8 0 16 -5q31 -22 68 -22q23 0 36.5 9.5t13.5 25.5q0 24 -30 24q-10 0 -21 -8q-8 -5 -17 -5q-11 0 -18.5 7.5t-7.5 17.5q0 11 4 18l30 50q-107 22 -176 100q-67 77 -67 190q-3 168 113.5 280.5
t274.5 110.5q164 0 253 -112q14 -20 14 -44z" />
    <glyph glyph-name="Egrave" unicode="&#xc8;" horiz-adv-x="583" 
d="M27 60q0 11 3 23l114 517q15 67 83 67h335q25 0 43 -18t18 -44q0 -25 -18 -42.5t-43 -17.5h-288l-31 -145h253q25 0 43 -18t18 -44q0 -25 -18 -42.5t-43 -17.5h-281l-34 -155h260q25 0 43.5 -18t18.5 -43t-18 -43.5t-44 -18.5h-344q-70 0 -70 60zM385 731l-69 77
q-12 12 -12 29t12.5 29t28.5 12q22 0 33 -17l63 -86q8 -11 8 -21q0 -14 -10.5 -25t-24.5 -11q-16 0 -29 13z" />
    <glyph glyph-name="Eacute" unicode="&#xc9;" horiz-adv-x="583" 
d="M27 60q0 11 3 23l114 517q15 67 83 67h335q25 0 43 -18t18 -44q0 -25 -18 -42.5t-43 -17.5h-288l-31 -145h253q25 0 43 -18t18 -44q0 -25 -18 -42.5t-43 -17.5h-281l-34 -155h260q25 0 43.5 -18t18.5 -43t-18 -43.5t-44 -18.5h-344q-70 0 -70 60zM417 717q-13 0 -22 9.5
t-9 21.5q0 16 11 26l106 93q12 9 28 9q15 0 26 -11.5t11 -26.5q0 -20 -15 -32l-115 -83q-9 -6 -21 -6z" />
    <glyph glyph-name="Ecircumflex" unicode="&#xca;" horiz-adv-x="583" 
d="M27 60q0 11 3 23l114 517q15 67 83 67h335q25 0 43 -18t18 -44q0 -25 -18 -42.5t-43 -17.5h-288l-31 -145h253q25 0 43 -18t18 -44q0 -25 -18 -42.5t-43 -17.5h-281l-34 -155h260q25 0 43.5 -18t18.5 -43t-18 -43.5t-44 -18.5h-344q-70 0 -70 60zM483 734l-47 78l-86 -85
q-10 -10 -23 -10q-14 0 -22 9.5t-8 22.5q0 12 7 19l58 67q29 32 65 32h41q16 0 30 -8.5t19 -21.5l30 -69q3 -8 3 -15q0 -15 -11 -25.5t-25 -10.5q-20 0 -31 17z" />
    <glyph glyph-name="Edieresis" unicode="&#xcb;" horiz-adv-x="583" 
d="M27 60q0 11 3 23l114 517q15 67 83 67h335q25 0 43 -18t18 -44q0 -25 -18 -42.5t-43 -17.5h-288l-31 -145h253q25 0 43 -18t18 -44q0 -25 -18 -42.5t-43 -17.5h-281l-34 -155h260q25 0 43.5 -18t18.5 -43t-18 -43.5t-44 -18.5h-344q-70 0 -70 60zM259 781q0 30 23 52.5
t53 22.5q26 0 43 -17t17 -43q0 -30 -23 -52.5t-53 -22.5q-26 0 -43 17.5t-17 42.5zM470 781q0 30 23 52.5t53 22.5q26 0 43 -17t17 -43q0 -30 -23 -52.5t-53 -22.5q-26 0 -43 17.5t-17 42.5z" />
    <glyph glyph-name="Igrave" unicode="&#xcc;" horiz-adv-x="274" 
d="M27 62q0 2 2 16l119 542q5 23 24 38.5t44 15.5q29 0 49.5 -20t20.5 -48q0 -1 -2 -17l-119 -542q-5 -23 -24 -38.5t-44 -15.5q-29 0 -49.5 20t-20.5 49zM214 731l-69 77q-12 12 -12 29t12.5 29t28.5 12q22 0 33 -17l63 -86q8 -11 8 -21q0 -14 -10.5 -25t-24.5 -11
q-16 0 -29 13z" />
    <glyph glyph-name="Iacute" unicode="&#xcd;" horiz-adv-x="274" 
d="M27 62q0 2 2 16l119 542q5 23 24 38.5t44 15.5q29 0 49.5 -20t20.5 -48q0 -1 -2 -17l-119 -542q-5 -23 -24 -38.5t-44 -15.5q-29 0 -49.5 20t-20.5 49zM246 717q-13 0 -22 9.5t-9 21.5q0 16 11 26l106 93q12 9 28 9q15 0 26 -11.5t11 -26.5q0 -20 -15 -32l-115 -83
q-9 -6 -21 -6z" />
    <glyph glyph-name="Icircumflex" unicode="&#xce;" horiz-adv-x="274" 
d="M27 62q0 2 2 16l119 542q5 23 24 38.5t44 15.5q29 0 49.5 -20t20.5 -48q0 -1 -2 -17l-119 -542q-5 -23 -24 -38.5t-44 -15.5q-29 0 -49.5 20t-20.5 49zM312 734l-47 78l-86 -85q-10 -10 -23 -10q-14 0 -22 9.5t-8 22.5q0 12 7 19l58 67q29 32 65 32h41q16 0 30 -8.5
t19 -21.5l30 -69q3 -8 3 -15q0 -15 -11 -25.5t-25 -10.5q-20 0 -31 17z" />
    <glyph glyph-name="Idieresis" unicode="&#xcf;" horiz-adv-x="274" 
d="M27 62q0 2 2 16l119 542q5 23 24 38.5t44 15.5q29 0 49.5 -20t20.5 -48q0 -1 -2 -17l-119 -542q-5 -23 -24 -38.5t-44 -15.5q-29 0 -49.5 20t-20.5 49zM88 781q0 30 23 52.5t53 22.5q26 0 43 -17t17 -43q0 -30 -23 -52.5t-53 -22.5q-26 0 -43 17.5t-17 42.5zM299 781
q0 30 23 52.5t53 22.5q26 0 43 -17t17 -43q0 -30 -23 -52.5t-53 -22.5q-26 0 -43 17.5t-17 42.5z" />
    <glyph glyph-name="Eth" unicode="&#xd0;" horiz-adv-x="742" 
d="M731 380q1 -71 -25.5 -138t-77.5 -122t-136.5 -88t-193.5 -32h-177q-69 0 -69 60q0 11 3 23l43 193h-19q-23 0 -40 17t-17 41q0 23 17 40t40 17h44l46 209q15 67 82 67h190q114 2 203 -82t87 -205zM583 371q0 72 -48 121.5t-120 49.5h-117l-33 -151h85q23 0 39.5 -17
t16.5 -41q0 -23 -16.5 -40t-39.5 -17h-111l-33 -151h118q116 0 187.5 71t71.5 175z" />
    <glyph glyph-name="Ntilde" unicode="&#xd1;" horiz-adv-x="729" 
d="M451 47l-193 426l-93 -426q-5 -23 -24 -38.5t-44 -15.5q-29 0 -49.5 20t-20.5 49q0 2 2 16l114 520q8 33 34.5 54.5t61.5 21.5q30 0 54 -16t35 -42l185 -406l90 410q5 23 24 38.5t44 15.5q29 0 49.5 -20t20.5 -49q0 -2 -2 -16l-115 -525q-7 -30 -32 -50.5t-58 -20.5
q-27 0 -49.5 15t-33.5 39zM420 789q-26 0 -39 -46q-6 -23 -31 -23q-14 0 -23.5 9.5t-9.5 23.5q0 7 1 9q30 99 111 99q41 0 74 -39q16 -16 25 -22t22 -6q26 0 39 45q7 23 31 23q15 0 24 -9.5t9 -23.5q0 -8 -1 -10q-30 -98 -111 -98q-24 0 -39 9t-35 30q-16 17 -25 23t-22 6z
" />
    <glyph glyph-name="Ograve" unicode="&#xd2;" horiz-adv-x="765" 
d="M432 678q141 0 234 -83t93 -215q3 -161 -112 -278t-275 -114q-140 -2 -234.5 82.5t-93.5 216.5q-3 161 112 277.5t276 113.5zM423 552q-95 2 -164 -74.5t-67 -181.5q0 -82 53 -132t135 -50q94 -2 163.5 75t67.5 181q0 82 -53 132t-135 50zM457 731l-69 77q-12 12 -12 29
t12.5 29t28.5 12q22 0 33 -17l63 -86q8 -11 8 -21q0 -14 -10.5 -25t-24.5 -11q-16 0 -29 13z" />
    <glyph glyph-name="Oacute" unicode="&#xd3;" horiz-adv-x="765" 
d="M432 678q141 0 234 -83t93 -215q3 -161 -112 -278t-275 -114q-140 -2 -234.5 82.5t-93.5 216.5q-3 161 112 277.5t276 113.5zM423 552q-95 2 -164 -74.5t-67 -181.5q0 -82 53 -132t135 -50q94 -2 163.5 75t67.5 181q0 82 -53 132t-135 50zM490 717q-13 0 -22 9.5t-9 21.5
q0 16 11 26l106 93q12 9 28 9q15 0 26 -11.5t11 -26.5q0 -20 -15 -32l-115 -83q-9 -6 -21 -6z" />
    <glyph glyph-name="Ocircumflex" unicode="&#xd4;" horiz-adv-x="765" 
d="M432 678q141 0 234 -83t93 -215q3 -161 -112 -278t-275 -114q-140 -2 -234.5 82.5t-93.5 216.5q-3 161 112 277.5t276 113.5zM423 552q-95 2 -164 -74.5t-67 -181.5q0 -82 53 -132t135 -50q94 -2 163.5 75t67.5 181q0 82 -53 132t-135 50zM555 734l-47 78l-86 -85
q-10 -10 -23 -10q-14 0 -22 9.5t-8 22.5q0 12 7 19l58 67q29 32 65 32h41q16 0 30 -8.5t19 -21.5l30 -69q3 -8 3 -15q0 -15 -11 -25.5t-25 -10.5q-20 0 -31 17z" />
    <glyph glyph-name="Otilde" unicode="&#xd5;" horiz-adv-x="765" 
d="M432 678q141 0 234 -83t93 -215q3 -161 -112 -278t-275 -114q-140 -2 -234.5 82.5t-93.5 216.5q-3 161 112 277.5t276 113.5zM423 552q-95 2 -164 -74.5t-67 -181.5q0 -82 53 -132t135 -50q94 -2 163.5 75t67.5 181q0 82 -53 132t-135 50zM436 789q-26 0 -39 -46
q-6 -23 -31 -23q-14 0 -23.5 9.5t-9.5 23.5q0 7 1 9q30 99 111 99q41 0 74 -39q16 -16 25 -22t22 -6q26 0 39 45q7 23 31 23q15 0 24 -9.5t9 -23.5q0 -8 -1 -10q-30 -98 -111 -98q-24 0 -39 9t-35 30q-16 17 -25 23t-22 6z" />
    <glyph glyph-name="Odieresis" unicode="&#xd6;" horiz-adv-x="765" 
d="M432 678q141 0 234 -83t93 -215q3 -161 -112 -278t-275 -114q-140 -2 -234.5 82.5t-93.5 216.5q-3 161 112 277.5t276 113.5zM423 552q-95 2 -164 -74.5t-67 -181.5q0 -82 53 -132t135 -50q94 -2 163.5 75t67.5 181q0 82 -53 132t-135 50zM331 781q0 30 23 52.5t53 22.5
q26 0 43 -17t17 -43q0 -30 -23 -52.5t-53 -22.5q-26 0 -43 17.5t-17 42.5zM542 781q0 30 23 52.5t53 22.5q26 0 43 -17t17 -43q0 -30 -23 -52.5t-53 -22.5q-26 0 -43 17.5t-17 42.5z" />
    <glyph glyph-name="multiply" unicode="&#xd7;" horiz-adv-x="504" 
d="M264 278l-150 -123q-9 -9 -24 -9q-16 0 -27.5 11.5t-11.5 27.5q0 18 14 30l152 124l-88 113q-8 11 -8 25q0 17 11.5 28.5t28.5 11.5q20 0 32 -16l85 -111l152 123q10 9 24 9q16 0 27.5 -11.5t11.5 -27.5q0 -18 -15 -30l-151 -125l88 -113q8 -11 8 -24q0 -16 -11.5 -28
t-28.5 -12q-19 0 -32 15z" />
    <glyph glyph-name="Oslash" unicode="&#xd8;" horiz-adv-x="765" 
d="M756 660l-75 -79q78 -81 78 -201q3 -161 -112 -278t-275 -114q-117 0 -199 55l-75 -79q-14 -12 -26 -12q-13 0 -22 9t-9 21q0 14 11 25l72 76q-80 83 -80 204q-3 161 112 277.5t276 113.5q116 0 201 -57l77 82q12 12 25 12t22 -9t9 -22q0 -14 -10 -24zM224 188l312 331
q-46 33 -113 33q-95 2 -164 -74.5t-67 -181.5q0 -64 32 -108zM581 475l-312 -330q47 -31 111 -31q94 -2 163.5 75t67.5 181q0 62 -30 105z" />
    <glyph glyph-name="Ugrave" unicode="&#xd9;" horiz-adv-x="728" 
d="M71 266l77 353q5 24 24.5 39.5t44.5 15.5q30 0 50.5 -20t20.5 -49q0 -2 -2 -16l-70 -319q-4 -11 -4 -33q1 -55 38.5 -89.5t102.5 -34.5q136 0 170 157l77 349q5 24 25 39.5t45 15.5q29 0 49.5 -20t20.5 -49q0 -2 -2 -16l-71 -322q-30 -137 -105.5 -208t-208.5 -71
q-137 0 -212 62t-75 171q0 17 5 45zM440 731l-69 77q-12 12 -12 29t12.5 29t28.5 12q22 0 33 -17l63 -86q8 -11 8 -21q0 -14 -10.5 -25t-24.5 -11q-16 0 -29 13z" />
    <glyph glyph-name="Uacute" unicode="&#xda;" horiz-adv-x="728" 
d="M71 266l77 353q5 24 24.5 39.5t44.5 15.5q30 0 50.5 -20t20.5 -49q0 -2 -2 -16l-70 -319q-4 -11 -4 -33q1 -55 38.5 -89.5t102.5 -34.5q136 0 170 157l77 349q5 24 25 39.5t45 15.5q29 0 49.5 -20t20.5 -49q0 -2 -2 -16l-71 -322q-30 -137 -105.5 -208t-208.5 -71
q-137 0 -212 62t-75 171q0 17 5 45zM472 717q-13 0 -22 9.5t-9 21.5q0 16 11 26l106 93q12 9 28 9q15 0 26 -11.5t11 -26.5q0 -20 -15 -32l-115 -83q-9 -6 -21 -6z" />
    <glyph glyph-name="Ucircumflex" unicode="&#xdb;" horiz-adv-x="728" 
d="M71 266l77 353q5 24 24.5 39.5t44.5 15.5q30 0 50.5 -20t20.5 -49q0 -2 -2 -16l-70 -319q-4 -11 -4 -33q1 -55 38.5 -89.5t102.5 -34.5q136 0 170 157l77 349q5 24 25 39.5t45 15.5q29 0 49.5 -20t20.5 -49q0 -2 -2 -16l-71 -322q-30 -137 -105.5 -208t-208.5 -71
q-137 0 -212 62t-75 171q0 17 5 45zM538 734l-47 78l-86 -85q-10 -10 -23 -10q-14 0 -22 9.5t-8 22.5q0 12 7 19l58 67q29 32 65 32h41q16 0 30 -8.5t19 -21.5l30 -69q3 -8 3 -15q0 -15 -11 -25.5t-25 -10.5q-20 0 -31 17z" />
    <glyph glyph-name="Udieresis" unicode="&#xdc;" horiz-adv-x="728" 
d="M71 266l77 353q5 24 24.5 39.5t44.5 15.5q30 0 50.5 -20t20.5 -49q0 -2 -2 -16l-70 -319q-4 -11 -4 -33q1 -55 38.5 -89.5t102.5 -34.5q136 0 170 157l77 349q5 24 25 39.5t45 15.5q29 0 49.5 -20t20.5 -49q0 -2 -2 -16l-71 -322q-30 -137 -105.5 -208t-208.5 -71
q-137 0 -212 62t-75 171q0 17 5 45zM314 781q0 30 23 52.5t53 22.5q26 0 43 -17t17 -43q0 -30 -23 -52.5t-53 -22.5q-26 0 -43 17.5t-17 42.5zM525 781q0 30 23 52.5t53 22.5q26 0 43 -17t17 -43q0 -30 -23 -52.5t-53 -22.5q-26 0 -43 17.5t-17 42.5z" />
    <glyph glyph-name="Yacute" unicode="&#xdd;" horiz-adv-x="639" 
d="M666 568l-269 -295l-49 -226q-5 -23 -24 -38.5t-44 -15.5q-29 0 -49.5 20t-20.5 49q0 2 2 16l43 197l-138 302q-6 15 -6 29q0 28 20.5 48t49.5 20q46 0 66 -45l100 -231l221 252q21 24 49 24q27 0 45.5 -19t18.5 -45q0 -24 -15 -42zM429 717q-13 0 -22 9.5t-9 21.5
q0 16 11 26l106 93q12 9 28 9q15 0 26 -11.5t11 -26.5q0 -20 -15 -32l-115 -83q-9 -6 -21 -6z" />
    <glyph glyph-name="Thorn" unicode="&#xde;" horiz-adv-x="624" 
d="M626 375q0 -99 -70.5 -172t-204.5 -73h-168l-18 -83q-5 -23 -24 -38.5t-44 -15.5q-29 0 -49.5 20t-20.5 48q0 2 2 16l119 543q5 23 24.5 39t43.5 16q29 0 49.5 -20.5t20.5 -48.5q0 -2 -2 -16l-7 -31h157q83 0 137.5 -54t54.5 -130zM478 359q0 34 -24 56t-61 22h-143
l-40 -184h148q54 0 87 30.5t33 75.5z" />
    <glyph glyph-name="germandbls" unicode="&#xdf;" horiz-adv-x="585" 
d="M427 348q51 -17 80 -59t29 -96q0 -16 -5 -44q-16 -74 -77 -118q-58 -43 -138 -43q-46 0 -82 14q-16 5 -27 19t-11 31q0 23 16 39t37 16q10 0 22 -4q20 -7 41 -7q40 0 69 30.5t29 77.5q0 37 -25 61.5t-72 31.5q-17 4 -28.5 19t-11.5 34q0 20 12.5 35t32.5 18q94 9 107 79
q0 2 0.5 5t1 5t0.5 3.5v2.5q0 30 -20.5 48t-53.5 18q-91 0 -119 -124l-88 -397q-4 -22 -21 -35.5t-40 -13.5q-26 0 -44 18t-18 43q0 1 0.5 3t1 5t0.5 6l82 372q25 114 92 175t166 61q81 0 137 -45t56 -116q0 -15 -5 -40q-9 -43 -42.5 -77t-83.5 -51z" />
    <glyph glyph-name="agrave" unicode="&#xe0;" horiz-adv-x="586" 
d="M562 428q0 -10 -1 -13l-83 -374q-12 -52 -63 -52q-26 0 -45 20t-18 48q-61 -69 -142 -69q-85 0 -134.5 53.5t-49.5 146.5q-1 76 29.5 146t90 116t135.5 45q49 0 89.5 -20t63.5 -56l5 21q5 22 22 36t39 14q26 0 44 -18t18 -44zM377 158l37 168q-16 25 -46.5 40.5
t-66.5 15.5q-60 0 -101 -50t-41 -118q0 -51 30 -82t77 -31q67 0 111 57zM340 584l-69 77q-12 12 -12 29t12.5 29t28.5 12q22 0 33 -17l63 -86q8 -11 8 -21q0 -14 -10.5 -25t-24.5 -11q-16 0 -29 13z" />
    <glyph glyph-name="aacute" unicode="&#xe1;" horiz-adv-x="586" 
d="M562 428q0 -10 -1 -13l-83 -374q-12 -52 -63 -52q-26 0 -45 20t-18 48q-61 -69 -142 -69q-85 0 -134.5 53.5t-49.5 146.5q-1 76 29.5 146t90 116t135.5 45q49 0 89.5 -20t63.5 -56l5 21q5 22 22 36t39 14q26 0 44 -18t18 -44zM377 158l37 168q-16 25 -46.5 40.5
t-66.5 15.5q-60 0 -101 -50t-41 -118q0 -51 30 -82t77 -31q67 0 111 57zM372 570q-13 0 -22 9.5t-9 21.5q0 16 11 26l106 93q12 9 28 9q15 0 26 -11.5t11 -26.5q0 -20 -15 -32l-115 -83q-9 -6 -21 -6z" />
    <glyph glyph-name="acircumflex" unicode="&#xe2;" horiz-adv-x="586" 
d="M562 428q0 -10 -1 -13l-83 -374q-12 -52 -63 -52q-26 0 -45 20t-18 48q-61 -69 -142 -69q-85 0 -134.5 53.5t-49.5 146.5q-1 76 29.5 146t90 116t135.5 45q49 0 89.5 -20t63.5 -56l5 21q5 22 22 36t39 14q26 0 44 -18t18 -44zM377 158l37 168q-16 25 -46.5 40.5
t-66.5 15.5q-60 0 -101 -50t-41 -118q0 -51 30 -82t77 -31q67 0 111 57zM438 587l-47 78l-86 -85q-10 -10 -23 -10q-14 0 -22 9.5t-8 22.5q0 12 7 19l58 67q29 32 65 32h41q16 0 30 -8.5t19 -21.5l30 -69q3 -7 3 -15q0 -15 -11 -25.5t-25 -10.5q-20 0 -31 17z" />
    <glyph glyph-name="atilde" unicode="&#xe3;" horiz-adv-x="586" 
d="M562 428q0 -10 -1 -13l-83 -374q-12 -52 -63 -52q-26 0 -45 20t-18 48q-61 -69 -142 -69q-85 0 -134.5 53.5t-49.5 146.5q-1 76 29.5 146t90 116t135.5 45q49 0 89.5 -20t63.5 -56l5 21q5 22 22 36t39 14q26 0 44 -18t18 -44zM377 158l37 168q-16 25 -46.5 40.5
t-66.5 15.5q-60 0 -101 -50t-41 -118q0 -51 30 -82t77 -31q67 0 111 57zM318 642q-26 0 -39 -46q-6 -23 -31 -23q-14 0 -23.5 9.5t-9.5 23.5q0 7 1 9q30 99 111 99q41 0 74 -39q16 -16 25 -22t22 -6q26 0 39 45q7 23 31 23q15 0 24 -9.5t9 -23.5q0 -8 -1 -10
q-30 -98 -111 -98q-24 0 -39 9t-35 30q-16 17 -25 23t-22 6z" />
    <glyph glyph-name="adieresis" unicode="&#xe4;" horiz-adv-x="586" 
d="M562 428q0 -10 -1 -13l-83 -374q-12 -52 -63 -52q-26 0 -45 20t-18 48q-61 -69 -142 -69q-85 0 -134.5 53.5t-49.5 146.5q-1 76 29.5 146t90 116t135.5 45q49 0 89.5 -20t63.5 -56l5 21q5 22 22 36t39 14q26 0 44 -18t18 -44zM377 158l37 168q-16 25 -46.5 40.5
t-66.5 15.5q-60 0 -101 -50t-41 -118q0 -51 30 -82t77 -31q67 0 111 57zM213 634q0 30 23 52.5t53 22.5q26 0 43 -17t17 -43q0 -30 -23 -52.5t-53 -22.5q-26 0 -43 17.5t-17 42.5zM424 634q0 30 23 52.5t53 22.5q26 0 43 -17t17 -43q0 -30 -23 -52.5t-53 -22.5
q-26 0 -43 17.5t-17 42.5z" />
    <glyph glyph-name="aring" unicode="&#xe5;" horiz-adv-x="586" 
d="M562 428q0 -10 -1 -13l-83 -374q-12 -52 -63 -52q-26 0 -45 20t-18 48q-61 -69 -142 -69q-85 0 -134.5 53.5t-49.5 146.5q-1 76 29.5 146t90 116t135.5 45q49 0 89.5 -20t63.5 -56l5 21q5 22 22 36t39 14q26 0 44 -18t18 -44zM377 158l37 168q-16 25 -46.5 40.5
t-66.5 15.5q-60 0 -101 -50t-41 -118q0 -51 30 -82t77 -31q67 0 111 57zM398 762q43 0 69 -26.5t26 -69.5q0 -47 -34 -81t-81 -34q-42 0 -68.5 26.5t-26.5 69.5q0 45 35 80t80 35zM393 703q-20 0 -35.5 -15t-15.5 -35q0 -19 11.5 -31t30.5 -12q20 0 35 15t15 35q0 19 -11 31
t-30 12z" />
    <glyph glyph-name="ae" unicode="&#xe6;" horiz-adv-x="914" 
d="M887 288q0 -14 -1 -18q-1 -33 -22 -51t-58 -18h-287q-1 -1 -1 -12q0 -36 37 -66.5t99 -30.5q43 0 82 17q8 3 17 3q21 0 35 -14.5t14 -34.5q0 -31 -28 -45q-64 -30 -117 -30q-129 0 -170 92l-8 -38q-4 -22 -21.5 -35.5t-40.5 -13.5q-27 0 -45.5 20t-16.5 47
q-65 -72 -145 -72q-85 0 -134.5 53.5t-49.5 146.5q-1 76 29.5 146t90 116t135.5 45q49 0 89.5 -20t63.5 -56l5 22q4 22 21.5 35.5t40.5 13.5q27 0 45 -19t17 -46q67 70 147 70q85 0 131 -53t46 -154zM772 297q0 42 -29 69.5t-80 27.5q-49 0 -86 -33q-36 -31 -45 -74h239
q1 1 1 10zM377 158l37 168q-16 25 -46.5 40.5t-66.5 15.5q-60 0 -101 -50t-41 -118q0 -51 30 -82t77 -31q67 0 111 57z" />
    <glyph glyph-name="ccedilla" unicode="&#xe7;" horiz-adv-x="493" 
d="M157 214q0 -52 34 -82.5t87 -30.5q39 0 71 22q11 8 28 8q23 0 39 -15.5t16 -38.5q0 -29 -26 -47q-62 -42 -141 -42h-7l-25 -39q16 10 31 10q27 0 43 -16.5t16 -45.5q0 -42 -32 -67.5t-81 -25.5q-54 0 -98 26q-15 8 -15 26q0 12 9 20.5t21 8.5q7 0 15 -5q31 -22 69 -22
q23 0 36 9.5t13 25.5q0 24 -29 24q-11 0 -22 -8q-8 -5 -16 -5q-12 0 -19 7.5t-7 17.5q0 14 4 18l28 48q-80 17 -125.5 73.5t-45.5 139.5q-2 117 81.5 203t199.5 84q93 0 148 -45q26 -18 26 -49q0 -24 -18 -41.5t-42 -17.5q-21 0 -37 13q-31 27 -77 27q-66 0 -109 -48.5
t-43 -119.5z" />
    <glyph glyph-name="egrave" unicode="&#xe8;" horiz-adv-x="553" 
d="M307 495q95 0 156 -58t61 -155q0 -12 -1 -15q-1 -31 -22.5 -48.5t-56.5 -17.5h-289v-12q0 -37 36 -68.5t96 -31.5q45 0 89 18q7 4 17 4q19 0 33 -14.5t14 -34.5q0 -31 -28 -43q-63 -31 -134 -31q-116 0 -183 58t-67 159q-2 117 80.5 204.5t198.5 85.5zM410 287v10
q0 42 -29.5 69.5t-81.5 27.5q-49 0 -86 -33q-36 -31 -45 -74h242zM328 584l-69 77q-12 12 -12 29t12.5 29t28.5 12q22 0 33 -17l63 -86q8 -11 8 -21q0 -14 -10.5 -25t-24.5 -11q-16 0 -29 13z" />
    <glyph glyph-name="eacute" unicode="&#xe9;" horiz-adv-x="553" 
d="M307 495q95 0 156 -58t61 -155q0 -12 -1 -15q-1 -31 -22.5 -48.5t-56.5 -17.5h-289v-12q0 -37 36 -68.5t96 -31.5q45 0 89 18q7 4 17 4q19 0 33 -14.5t14 -34.5q0 -31 -28 -43q-63 -31 -134 -31q-116 0 -183 58t-67 159q-2 117 80.5 204.5t198.5 85.5zM410 287v10
q0 42 -29.5 69.5t-81.5 27.5q-49 0 -86 -33q-36 -31 -45 -74h242zM360 570q-13 0 -22 9.5t-9 21.5q0 16 11 26l106 93q12 9 28 9q15 0 26 -11.5t11 -26.5q0 -20 -15 -32l-115 -83q-9 -6 -21 -6z" />
    <glyph glyph-name="ecircumflex" unicode="&#xea;" horiz-adv-x="553" 
d="M307 495q95 0 156 -58t61 -155q0 -12 -1 -15q-1 -31 -22.5 -48.5t-56.5 -17.5h-289v-12q0 -37 36 -68.5t96 -31.5q45 0 89 18q7 4 17 4q19 0 33 -14.5t14 -34.5q0 -31 -28 -43q-63 -31 -134 -31q-116 0 -183 58t-67 159q-2 117 80.5 204.5t198.5 85.5zM410 287v10
q0 42 -29.5 69.5t-81.5 27.5q-49 0 -86 -33q-36 -31 -45 -74h242zM426 587l-47 78l-86 -85q-10 -10 -23 -10q-14 0 -22 9.5t-8 22.5q0 12 7 19l58 67q29 32 65 32h41q16 0 30 -8.5t19 -21.5l30 -69q3 -7 3 -15q0 -15 -11 -25.5t-25 -10.5q-20 0 -31 17z" />
    <glyph glyph-name="edieresis" unicode="&#xeb;" horiz-adv-x="553" 
d="M307 495q95 0 156 -58t61 -155q0 -12 -1 -15q-1 -31 -22.5 -48.5t-56.5 -17.5h-289v-12q0 -37 36 -68.5t96 -31.5q45 0 89 18q7 4 17 4q19 0 33 -14.5t14 -34.5q0 -31 -28 -43q-63 -31 -134 -31q-116 0 -183 58t-67 159q-2 117 80.5 204.5t198.5 85.5zM410 287v10
q0 42 -29.5 69.5t-81.5 27.5q-49 0 -86 -33q-36 -31 -45 -74h242zM201 634q0 30 23 52.5t53 22.5q26 0 43 -17t17 -43q0 -30 -23 -52.5t-53 -22.5q-26 0 -43 17.5t-17 42.5zM412 634q0 30 23 52.5t53 22.5q26 0 43 -17t17 -43q0 -30 -23 -52.5t-53 -22.5q-26 0 -43 17.5
t-17 42.5z" />
    <glyph glyph-name="igrave" unicode="&#xec;" horiz-adv-x="253" 
d="M23 55q0 10 1 13l82 374q4 21 21.5 34.5t40.5 13.5q26 0 43.5 -18t17.5 -44q0 -10 -1 -13l-82 -373q-5 -22 -22 -35.5t-39 -13.5q-26 0 -44 18t-18 44zM171 584l-69 77q-12 12 -12 29t12.5 29t28.5 12q22 0 33 -17l63 -86q8 -11 8 -21q0 -14 -10.5 -25t-24.5 -11
q-16 0 -29 13z" />
    <glyph glyph-name="iacute" unicode="&#xed;" horiz-adv-x="253" 
d="M23 55q0 10 1 13l82 374q4 21 21.5 34.5t40.5 13.5q26 0 43.5 -18t17.5 -44q0 -10 -1 -13l-82 -373q-5 -22 -22 -35.5t-39 -13.5q-26 0 -44 18t-18 44zM203 570q-13 0 -22 9.5t-9 21.5q0 16 11 26l106 93q12 9 28 9q15 0 26 -11.5t11 -26.5q0 -20 -15 -32l-115 -83
q-9 -6 -21 -6z" />
    <glyph glyph-name="icircumflex" unicode="&#xee;" horiz-adv-x="253" 
d="M23 55q0 10 1 13l82 374q4 21 21.5 34.5t40.5 13.5q26 0 43.5 -18t17.5 -44q0 -10 -1 -13l-82 -373q-5 -22 -22 -35.5t-39 -13.5q-26 0 -44 18t-18 44zM269 587l-47 78l-86 -85q-10 -10 -23 -10q-14 0 -22 9.5t-8 22.5q0 12 7 19l58 67q29 32 65 32h41q16 0 30 -8.5
t19 -21.5l30 -69q3 -7 3 -15q0 -15 -11 -25.5t-25 -10.5q-20 0 -31 17z" />
    <glyph glyph-name="idieresis" unicode="&#xef;" horiz-adv-x="253" 
d="M23 55q0 10 1 13l82 374q4 21 21.5 34.5t40.5 13.5q26 0 43.5 -18t17.5 -44q0 -10 -1 -13l-82 -373q-5 -22 -22 -35.5t-39 -13.5q-26 0 -44 18t-18 44zM44 634q0 30 23 52.5t53 22.5q26 0 43 -17t17 -43q0 -30 -23 -52.5t-53 -22.5q-26 0 -43 17.5t-17 42.5zM255 634
q0 30 23 52.5t53 22.5q26 0 43 -17t17 -43q0 -30 -23 -52.5t-53 -22.5q-26 0 -43 17.5t-17 42.5z" />
    <glyph glyph-name="eth" unicode="&#xf0;" horiz-adv-x="574" 
d="M551 306q0 -134 -78.5 -226t-203.5 -92q-110 0 -177 58t-67 152q-2 107 70.5 185.5t172.5 76.5q119 0 164 -109q-18 85 -118 181l-139 -41q-14 -4 -26 5t-12 24q0 10 6 18.5t15 10.5l104 31l-6 5q-23 20 -23 48q0 27 18.5 46t45.5 19q26 0 43 -16q47 -42 64 -61l87 26
q2 1 9 1q12 0 20.5 -8.5t8.5 -21.5q0 -23 -21 -28l-60 -18q103 -127 103 -266zM408 246q0 44 -31.5 72.5t-86.5 28.5q-57 0 -96 -41q-38 -41 -38 -101q0 -49 30 -76.5t85 -27.5q59 0 98 41q39 42 39 104z" />
    <glyph glyph-name="ntilde" unicode="&#xf1;" 
d="M541 372q0 -15 -5 -40l-64 -290q-4 -22 -21 -35.5t-40 -13.5q-27 0 -44.5 18t-17.5 45q0 1 2 17l49 221q3 15 3 26q0 62 -73 62q-63 0 -122 -56l-62 -284q-5 -22 -22 -35.5t-39 -13.5q-27 0 -45 18t-18 44q0 10 1 13l83 374q5 22 21.5 36.5t39.5 14.5q26 0 44.5 -18
t18.5 -43q0 -9 -1 -12q80 75 161 75q69 0 110 -33t41 -90zM314 642q-26 0 -39 -46q-6 -23 -31 -23q-14 0 -23.5 9.5t-9.5 23.5q0 7 1 9q30 99 111 99q41 0 74 -39q16 -16 25 -22t22 -6q26 0 39 45q7 23 31 23q15 0 24 -9.5t9 -23.5q0 -8 -1 -10q-30 -98 -111 -98
q-24 0 -39 9t-35 30q-16 17 -25 23t-22 6z" />
    <glyph glyph-name="ograve" unicode="&#xf2;" horiz-adv-x="574" 
d="M306 495q112 0 176 -61t64 -159q2 -114 -80.5 -201.5t-199.5 -85.5q-111 0 -175 60.5t-64 158.5q-2 114 80.5 202.5t198.5 85.5zM302 382q-61 0 -102.5 -50.5t-41.5 -117.5q0 -53 30 -83t83 -30q61 0 102 50t41 118q0 53 -30 83t-82 30zM331 584l-69 77q-12 12 -12 29
t12.5 29t28.5 12q22 0 33 -17l63 -86q8 -11 8 -21q0 -14 -10.5 -25t-24.5 -11q-16 0 -29 13z" />
    <glyph glyph-name="oacute" unicode="&#xf3;" horiz-adv-x="574" 
d="M306 495q112 0 176 -61t64 -159q2 -114 -80.5 -201.5t-199.5 -85.5q-111 0 -175 60.5t-64 158.5q-2 114 80.5 202.5t198.5 85.5zM302 382q-61 0 -102.5 -50.5t-41.5 -117.5q0 -53 30 -83t83 -30q61 0 102 50t41 118q0 53 -30 83t-82 30zM363 570q-13 0 -22 9.5t-9 21.5
q0 16 11 26l106 93q12 9 28 9q15 0 26 -11.5t11 -26.5q0 -20 -15 -32l-115 -83q-9 -6 -21 -6z" />
    <glyph glyph-name="ocircumflex" unicode="&#xf4;" horiz-adv-x="574" 
d="M306 495q112 0 176 -61t64 -159q2 -114 -80.5 -201.5t-199.5 -85.5q-111 0 -175 60.5t-64 158.5q-2 114 80.5 202.5t198.5 85.5zM302 382q-61 0 -102.5 -50.5t-41.5 -117.5q0 -53 30 -83t83 -30q61 0 102 50t41 118q0 53 -30 83t-82 30zM429 587l-47 78l-86 -85
q-10 -10 -23 -10q-14 0 -22 9.5t-8 22.5q0 12 7 19l58 67q29 32 65 32h41q16 0 30 -8.5t19 -21.5l30 -69q3 -7 3 -15q0 -15 -11 -25.5t-25 -10.5q-20 0 -31 17z" />
    <glyph glyph-name="otilde" unicode="&#xf5;" horiz-adv-x="574" 
d="M306 495q112 0 176 -61t64 -159q2 -114 -80.5 -201.5t-199.5 -85.5q-111 0 -175 60.5t-64 158.5q-2 114 80.5 202.5t198.5 85.5zM302 382q-61 0 -102.5 -50.5t-41.5 -117.5q0 -53 30 -83t83 -30q61 0 102 50t41 118q0 53 -30 83t-82 30zM310 642q-26 0 -39 -46
q-6 -23 -31 -23q-14 0 -23.5 9.5t-9.5 23.5q0 7 1 9q30 99 111 99q41 0 74 -39q16 -16 25 -22t22 -6q26 0 39 45q7 23 31 23q15 0 24 -9.5t9 -23.5q0 -8 -1 -10q-30 -98 -111 -98q-24 0 -39 9t-35 30q-16 17 -25 23t-22 6z" />
    <glyph glyph-name="odieresis" unicode="&#xf6;" horiz-adv-x="574" 
d="M306 495q112 0 176 -61t64 -159q2 -114 -80.5 -201.5t-199.5 -85.5q-111 0 -175 60.5t-64 158.5q-2 114 80.5 202.5t198.5 85.5zM302 382q-61 0 -102.5 -50.5t-41.5 -117.5q0 -53 30 -83t83 -30q61 0 102 50t41 118q0 53 -30 83t-82 30zM205 634q0 30 23 52.5t53 22.5
q26 0 43 -17t17 -43q0 -30 -23 -52.5t-53 -22.5q-26 0 -43 17.5t-17 42.5zM416 634q0 30 23 52.5t53 22.5q26 0 43 -17t17 -43q0 -30 -23 -52.5t-53 -22.5q-26 0 -43 17.5t-17 42.5z" />
    <glyph glyph-name="divide" unicode="&#xf7;" horiz-adv-x="511" 
d="M254 510q0 27 19.5 46.5t46.5 19.5q23 0 39 -16.5t16 -39.5q0 -28 -19.5 -47t-46.5 -19q-23 0 -39 16.5t-16 39.5zM43 337q0 17 12 28.5t28 11.5h387q16 0 27.5 -12t11.5 -28t-11.5 -27.5t-27.5 -11.5h-387q-17 0 -28.5 11.5t-11.5 27.5zM175 152q0 27 19.5 46.5
t46.5 19.5q23 0 39.5 -16.5t16.5 -39.5q0 -27 -20 -46.5t-47 -19.5q-23 0 -39 16.5t-16 39.5z" />
    <glyph glyph-name="oslash" unicode="&#xf8;" horiz-adv-x="574" 
d="M546 275q2 -114 -80.5 -201.5t-199.5 -85.5q-76 0 -129 28l-44 -54q-9 -10 -21 -10q-11 0 -18.5 7.5t-7.5 17.5q0 11 7 18l41 50q-67 59 -67 162q-2 114 80.5 202.5t198.5 85.5q76 0 133 -30l46 56q10 10 21 10q10 0 17 -7t7 -17q0 -11 -7 -18l-43 -53q66 -60 66 -161z
M176 145l184 224q-22 13 -58 13q-61 0 -102.5 -50.5t-41.5 -117.5q0 -42 18 -69zM414 269q0 37 -17 66l-182 -223q27 -11 56 -11q61 0 102 50t41 118z" />
    <glyph glyph-name="ugrave" unicode="&#xf9;" 
d="M556 429l-2 -14l-82 -374q-5 -22 -21.5 -36.5t-39.5 -14.5q-27 0 -45.5 18.5t-18.5 44.5q0 7 1 9q-79 -74 -160 -74q-69 0 -110 33t-41 90q0 15 5 40l64 291q5 21 22 34.5t39 13.5q27 0 44.5 -18.5t17.5 -45.5l-2 -16l-49 -221q-3 -15 -3 -27q0 -61 73 -61q63 0 122 56
l62 285q4 21 21.5 34.5t39.5 13.5q26 0 44.5 -18t18.5 -43zM334 584l-69 77q-12 12 -12 29t12.5 29t28.5 12q22 0 33 -17l63 -86q8 -11 8 -21q0 -14 -10.5 -25t-24.5 -11q-16 0 -29 13z" />
    <glyph glyph-name="uacute" unicode="&#xfa;" 
d="M556 429l-2 -14l-82 -374q-5 -22 -21.5 -36.5t-39.5 -14.5q-27 0 -45.5 18.5t-18.5 44.5q0 7 1 9q-79 -74 -160 -74q-69 0 -110 33t-41 90q0 15 5 40l64 291q5 21 22 34.5t39 13.5q27 0 44.5 -18.5t17.5 -45.5l-2 -16l-49 -221q-3 -15 -3 -27q0 -61 73 -61q63 0 122 56
l62 285q4 21 21.5 34.5t39.5 13.5q26 0 44.5 -18t18.5 -43zM366 570q-13 0 -22 9.5t-9 21.5q0 16 11 26l106 93q12 9 28 9q15 0 26 -11.5t11 -26.5q0 -20 -15 -32l-115 -83q-9 -6 -21 -6z" />
    <glyph glyph-name="ucircumflex" unicode="&#xfb;" 
d="M556 429l-2 -14l-82 -374q-5 -22 -21.5 -36.5t-39.5 -14.5q-27 0 -45.5 18.5t-18.5 44.5q0 7 1 9q-79 -74 -160 -74q-69 0 -110 33t-41 90q0 15 5 40l64 291q5 21 22 34.5t39 13.5q27 0 44.5 -18.5t17.5 -45.5l-2 -16l-49 -221q-3 -15 -3 -27q0 -61 73 -61q63 0 122 56
l62 285q4 21 21.5 34.5t39.5 13.5q26 0 44.5 -18t18.5 -43zM432 587l-47 78l-86 -85q-10 -10 -23 -10q-14 0 -22 9.5t-8 22.5q0 12 7 19l58 67q29 32 65 32h41q16 0 30 -8.5t19 -21.5l30 -69q3 -7 3 -15q0 -15 -11 -25.5t-25 -10.5q-20 0 -31 17z" />
    <glyph glyph-name="udieresis" unicode="&#xfc;" 
d="M556 429l-2 -14l-82 -374q-5 -22 -21.5 -36.5t-39.5 -14.5q-27 0 -45.5 18.5t-18.5 44.5q0 7 1 9q-79 -74 -160 -74q-69 0 -110 33t-41 90q0 15 5 40l64 291q5 21 22 34.5t39 13.5q27 0 44.5 -18.5t17.5 -45.5l-2 -16l-49 -221q-3 -15 -3 -27q0 -61 73 -61q63 0 122 56
l62 285q4 21 21.5 34.5t39.5 13.5q26 0 44.5 -18t18.5 -43zM207 634q0 30 23 52.5t53 22.5q26 0 43 -17t17 -43q0 -30 -23 -52.5t-53 -22.5q-26 0 -43 17.5t-17 42.5zM418 634q0 30 23 52.5t53 22.5q26 0 43 -17t17 -43q0 -30 -23 -52.5t-53 -22.5q-26 0 -43 17.5t-17 42.5z
" />
    <glyph glyph-name="yacute" unicode="&#xfd;" horiz-adv-x="507" 
d="M23 -81q4 -1 16 -1q37 0 60 34l30 45l-74 418q-1 3 -1 11q0 26 19 45t46 19q24 0 41.5 -15.5t21.5 -39.5l44 -288l189 315q18 28 51 28q26 0 42.5 -17t16.5 -42q0 -16 -9 -31l-300 -479q-39 -63 -82 -89.5t-103 -27.5q-12 0 -15 1q-23 1 -38.5 17.5t-15.5 39.5
q0 25 18 42t43 15zM330 570q-13 0 -22 9.5t-9 21.5q0 16 11 26l106 93q12 9 28 9q15 0 26 -11.5t11 -26.5q0 -20 -15 -32l-115 -83q-9 -6 -21 -6z" />
    <glyph glyph-name="thorn" unicode="&#xfe;" horiz-adv-x="583" 
d="M150 64l-45 -207q-5 -21 -22 -34.5t-39 -13.5q-27 0 -45 18t-18 44q0 10 1 13l164 742q4 21 21.5 34.5t39.5 13.5q27 0 44.5 -18t17.5 -45q0 -9 -1 -12l-39 -176q61 72 146 72q84 0 133.5 -53.5t49.5 -146.5q1 -75 -29 -145.5t-90 -117t-135 -44.5q-103 0 -154 76z
M318 382q-63 0 -111 -58l-37 -168q16 -25 46.5 -40t66.5 -15q61 0 101.5 49.5t40.5 118.5q0 51 -30 82t-77 31z" />
    <glyph glyph-name="ydieresis" unicode="&#xff;" horiz-adv-x="507" 
d="M23 -81q4 -1 16 -1q37 0 60 34l30 45l-74 418q-1 3 -1 11q0 26 19 45t46 19q24 0 41.5 -15.5t21.5 -39.5l44 -288l189 315q18 28 51 28q26 0 42.5 -17t16.5 -42q0 -16 -9 -31l-300 -479q-39 -63 -82 -89.5t-103 -27.5q-12 0 -15 1q-23 1 -38.5 17.5t-15.5 39.5
q0 25 18 42t43 15zM171 634q0 30 23 52.5t53 22.5q26 0 43 -17t17 -43q0 -30 -23 -52.5t-53 -22.5q-26 0 -43 17.5t-17 42.5zM382 634q0 30 23 52.5t53 22.5q26 0 43 -17t17 -43q0 -30 -23 -52.5t-53 -22.5q-26 0 -43 17.5t-17 42.5z" />
    <glyph glyph-name="Amacron" unicode="&#x100;" horiz-adv-x="678" 
d="M620 65q0 -30 -21 -51t-52 -21q-27 0 -47 17.5t-24 44.5l-8 64h-299l-52 -91q-20 -35 -61 -35q-28 0 -48.5 20.5t-20.5 48.5q0 16 11 36l313 517q38 59 105 59q45 0 79 -29.5t41 -73.5l83 -494q1 -3 1 -12zM239 242h212l-40 303zM282 765q0 15 11 25.5t26 10.5h275
q15 0 25.5 -10.5t10.5 -25.5t-10.5 -25.5t-25.5 -10.5h-275q-15 0 -26 10.5t-11 25.5z" />
    <glyph glyph-name="amacron" unicode="&#x101;" horiz-adv-x="586" 
d="M562 428q0 -10 -1 -13l-83 -374q-12 -52 -63 -52q-26 0 -45 20t-18 48q-61 -69 -142 -69q-85 0 -134.5 53.5t-49.5 146.5q-1 76 29.5 146t90 116t135.5 45q49 0 89.5 -20t63.5 -56l5 21q5 22 22 36t39 14q26 0 44 -18t18 -44zM377 158l37 168q-16 25 -46.5 40.5
t-66.5 15.5q-60 0 -101 -50t-41 -118q0 -51 30 -82t77 -31q67 0 111 57zM206 618q0 15 11 25.5t26 10.5h275q15 0 25.5 -10.5t10.5 -25.5t-10.5 -25.5t-25.5 -10.5h-275q-15 0 -26 10.5t-11 25.5z" />
    <glyph glyph-name="Abreve" unicode="&#x102;" horiz-adv-x="678" 
d="M620 65q0 -30 -21 -51t-52 -21q-27 0 -47 17.5t-24 44.5l-8 64h-299l-52 -91q-20 -35 -61 -35q-28 0 -48.5 20.5t-20.5 48.5q0 16 11 36l313 517q38 59 105 59q45 0 79 -29.5t41 -73.5l83 -494q1 -3 1 -12zM239 242h212l-40 303zM312 778q-11 11 -11 27t11.5 28t27.5 12
t30 -14q33 -39 90 -39q60 0 116 47q8 8 21 8q14 0 24 -10t10 -24q0 -15 -12 -25q-80 -68 -172 -68q-83 0 -135 58z" />
    <glyph glyph-name="abreve" unicode="&#x103;" horiz-adv-x="586" 
d="M562 428q0 -10 -1 -13l-83 -374q-12 -52 -63 -52q-26 0 -45 20t-18 48q-61 -69 -142 -69q-85 0 -134.5 53.5t-49.5 146.5q-1 76 29.5 146t90 116t135.5 45q49 0 89.5 -20t63.5 -56l5 21q5 22 22 36t39 14q26 0 44 -18t18 -44zM377 158l37 168q-16 25 -46.5 40.5
t-66.5 15.5q-60 0 -101 -50t-41 -118q0 -51 30 -82t77 -31q67 0 111 57zM237 631q-11 11 -11 27t11.5 28t27.5 12t30 -14q33 -39 90 -39q60 0 116 47q8 8 21 8q14 0 24 -10t10 -24t-12 -25q-80 -68 -172 -68q-83 0 -135 58z" />
    <glyph glyph-name="Aogonek" unicode="&#x104;" horiz-adv-x="684" 
d="M510 -83q0 -21 25 -23l9 -1q15 0 26 -10.5t11 -25.5q0 -27 -27 -35q-30 -8 -69 -8q-44 0 -71 17t-27 47q0 74 133 120q-38 14 -44 57l-8 64h-299l-52 -91q-20 -35 -61 -35q-28 0 -48.5 20.5t-20.5 48.5q0 16 11 36l313 517q38 59 105 59q45 0 79 -29.5t41 -73.5l83 -494
q1 -3 1 -12q0 -22 -12.5 -40.5t-33.5 -26.5q-64 -45 -64 -81zM239 242h212l-40 303z" />
    <glyph glyph-name="aogonek" unicode="&#x105;" horiz-adv-x="586" 
d="M562 428q0 -10 -1 -13l-83 -374q-12 -46 -55 -52q-53 -41 -53 -72q0 -21 25 -23l10 -1q15 0 26 -10.5t11 -25.5q0 -26 -27 -35q-34 -8 -69 -8q-45 0 -71.5 17t-26.5 47q0 74 134 121q-32 19 -30 58q-61 -69 -142 -69q-85 0 -134.5 53.5t-49.5 146.5q-1 76 29.5 146
t90 116t135.5 45q49 0 89.5 -20t63.5 -56l5 21q5 22 22 36t39 14q26 0 44 -18t18 -44zM377 158l37 168q-16 25 -46.5 40.5t-66.5 15.5q-60 0 -101 -50t-41 -118q0 -51 30 -82t77 -31q67 0 111 57z" />
    <glyph glyph-name="Cacute" unicode="&#x106;" horiz-adv-x="664" 
d="M432 678q164 0 253 -112q14 -20 14 -44q0 -30 -20.5 -50.5t-49.5 -20.5q-36 0 -58 29q-48 72 -146 72q-93 2 -164 -74.5t-69 -181.5q0 -80 51.5 -131t136.5 -51q69 0 129 49q18 15 41 15q27 0 46 -19t19 -46q0 -33 -26 -52q-91 -73 -217 -73q-140 -2 -235 83t-93 216
q-3 168 113.5 280.5t274.5 110.5zM485 717q-13 0 -22 9.5t-9 21.5q0 16 11 26l106 93q12 9 28 9q15 0 26 -11.5t11 -26.5q0 -20 -15 -32l-115 -83q-9 -6 -21 -6z" />
    <glyph glyph-name="cacute" unicode="&#x107;" horiz-adv-x="493" 
d="M309 495q93 0 148 -45q26 -18 26 -49q0 -24 -18 -41.5t-42 -17.5q-21 0 -37 13q-31 27 -77 27q-66 0 -109 -48.5t-43 -119.5q0 -52 34 -82.5t87 -30.5q39 0 71 22q11 8 28 8q23 0 39 -15.5t16 -38.5q0 -29 -26 -47q-62 -42 -141 -42q-107 0 -172 60.5t-65 159.5
q-2 117 81.5 203t199.5 84zM363 570q-13 0 -22 9.5t-9 21.5q0 16 11 26l106 93q12 9 28 9q15 0 26 -11.5t11 -26.5q0 -20 -15 -32l-115 -83q-9 -6 -21 -6z" />
    <glyph glyph-name="Ccircumflex" unicode="&#x108;" horiz-adv-x="664" 
d="M432 678q164 0 253 -112q14 -20 14 -44q0 -30 -20.5 -50.5t-49.5 -20.5q-36 0 -58 29q-48 72 -146 72q-93 2 -164 -74.5t-69 -181.5q0 -80 51.5 -131t136.5 -51q69 0 129 49q18 15 41 15q27 0 46 -19t19 -46q0 -33 -26 -52q-91 -73 -217 -73q-140 -2 -235 83t-93 216
q-3 168 113.5 280.5t274.5 110.5zM551 734l-47 78l-86 -85q-10 -10 -23 -10q-14 0 -22 9.5t-8 22.5q0 12 7 19l58 67q29 32 65 32h41q16 0 30 -8.5t19 -21.5l30 -69q3 -8 3 -15q0 -15 -11 -25.5t-25 -10.5q-20 0 -31 17z" />
    <glyph glyph-name="ccircumflex" unicode="&#x109;" horiz-adv-x="493" 
d="M309 495q93 0 148 -45q26 -18 26 -49q0 -24 -18 -41.5t-42 -17.5q-21 0 -37 13q-31 27 -77 27q-66 0 -109 -48.5t-43 -119.5q0 -52 34 -82.5t87 -30.5q39 0 71 22q11 8 28 8q23 0 39 -15.5t16 -38.5q0 -29 -26 -47q-62 -42 -141 -42q-107 0 -172 60.5t-65 159.5
q-2 117 81.5 203t199.5 84zM429 587l-47 78l-86 -85q-10 -10 -23 -10q-14 0 -22 9.5t-8 22.5q0 12 7 19l58 67q29 32 65 32h41q16 0 30 -8.5t19 -21.5l30 -69q3 -7 3 -15q0 -15 -11 -25.5t-25 -10.5q-20 0 -31 17z" />
    <glyph glyph-name="Cdotaccent" unicode="&#x10a;" horiz-adv-x="664" 
d="M432 678q164 0 253 -112q14 -20 14 -44q0 -30 -20.5 -50.5t-49.5 -20.5q-36 0 -58 29q-48 72 -146 72q-93 2 -164 -74.5t-69 -181.5q0 -80 51.5 -131t136.5 -51q69 0 129 49q18 15 41 15q27 0 46 -19t19 -46q0 -33 -26 -52q-91 -73 -217 -73q-140 -2 -235 83t-93 216
q-3 168 113.5 280.5t274.5 110.5zM429 780q0 30 23 53t54 23q26 0 43 -17.5t17 -43.5q0 -30 -23.5 -52.5t-53.5 -22.5q-26 0 -43 17.5t-17 42.5z" />
    <glyph glyph-name="cdotaccent" unicode="&#x10b;" horiz-adv-x="493" 
d="M309 495q93 0 148 -45q26 -18 26 -49q0 -24 -18 -41.5t-42 -17.5q-21 0 -37 13q-31 27 -77 27q-66 0 -109 -48.5t-43 -119.5q0 -52 34 -82.5t87 -30.5q39 0 71 22q11 8 28 8q23 0 39 -15.5t16 -38.5q0 -29 -26 -47q-62 -42 -141 -42q-107 0 -172 60.5t-65 159.5
q-2 117 81.5 203t199.5 84zM307 633q0 30 23 53t54 23q26 0 43 -17.5t17 -43.5q0 -30 -23.5 -52.5t-53.5 -22.5q-26 0 -43 17.5t-17 42.5z" />
    <glyph glyph-name="Ccaron" unicode="&#x10c;" horiz-adv-x="664" 
d="M432 678q164 0 253 -112q14 -20 14 -44q0 -30 -20.5 -50.5t-49.5 -20.5q-36 0 -58 29q-48 72 -146 72q-93 2 -164 -74.5t-69 -181.5q0 -80 51.5 -131t136.5 -51q69 0 129 49q18 15 41 15q27 0 46 -19t19 -46q0 -33 -26 -52q-91 -73 -217 -73q-140 -2 -235 83t-93 216
q-3 168 113.5 280.5t274.5 110.5zM446 856l47 -78l86 85q10 10 23 10q14 0 22 -9t8 -22q0 -12 -7 -19l-58 -68q-29 -32 -64 -32h-41q-16 0 -30 8.5t-20 21.5l-30 70q-3 8 -3 14q0 15 11 25.5t25 10.5q20 0 31 -17z" />
    <glyph glyph-name="ccaron" unicode="&#x10d;" horiz-adv-x="493" 
d="M309 495q93 0 148 -45q26 -18 26 -49q0 -24 -18 -41.5t-42 -17.5q-21 0 -37 13q-31 27 -77 27q-66 0 -109 -48.5t-43 -119.5q0 -52 34 -82.5t87 -30.5q39 0 71 22q11 8 28 8q23 0 39 -15.5t16 -38.5q0 -29 -26 -47q-62 -42 -141 -42q-107 0 -172 60.5t-65 159.5
q-2 117 81.5 203t199.5 84zM324 709l47 -78l86 85q10 10 23 10q14 0 22 -9t8 -22q0 -12 -7 -19l-58 -68q-29 -32 -64 -32h-41q-16 0 -30 8.5t-20 21.5l-30 70q-3 8 -3 14q0 15 11 25.5t25 10.5q20 0 31 -17z" />
    <glyph glyph-name="Dcaron" unicode="&#x10e;" horiz-adv-x="718" 
d="M27 60q0 11 3 23l114 517q15 67 83 67h190q115 2 203 -81t86 -206q0 -72 -26 -138.5t-77 -121.5t-136.5 -88t-192.5 -32h-177q-70 0 -70 60zM558 371q0 73 -47.5 122t-120.5 49h-116l-92 -417h118q115 0 186.5 71t71.5 175zM429 856l47 -78l86 85q10 10 23 10q14 0 22 -9
t8 -22q0 -12 -7 -19l-58 -68q-29 -32 -64 -32h-41q-16 0 -30 8.5t-20 21.5l-30 70q-3 8 -3 14q0 15 11 25.5t25 10.5q20 0 31 -17z" />
    <glyph glyph-name="dcaron" unicode="&#x10f;" horiz-adv-x="690" 
d="M603 611q0 -9 -1 -12l-124 -558q-5 -24 -21.5 -38t-40.5 -14q-27 0 -46.5 21.5t-15.5 48.5q-62 -71 -144 -71q-85 0 -134.5 53.5t-49.5 146.5q-1 76 29.5 146t90 116t135.5 45q48 0 89 -20t65 -56l45 207q5 21 22 34.5t39 13.5q27 0 44.5 -18t17.5 -45zM377 158l37 168
q-16 25 -46.5 40.5t-66.5 15.5q-60 0 -101 -50t-41 -118q0 -51 30 -82t77 -31q67 0 111 57zM655 458q-10 0 -17.5 7.5t-7.5 16.5q0 15 11 21q45 26 58 58h-8q-21 0 -35 13.5t-14 37.5q0 27 21.5 47.5t48.5 20.5q26 0 43.5 -18t17.5 -47q0 -41 -29 -83t-73 -69q-7 -5 -16 -5z
" />
    <glyph glyph-name="Dcroat" unicode="&#x110;" horiz-adv-x="742" 
d="M731 380q1 -71 -25.5 -138t-77.5 -122t-136.5 -88t-193.5 -32h-177q-69 0 -69 60q0 11 3 23l43 193h-19q-23 0 -40 17t-17 41q0 23 17 40t40 17h44l46 209q15 67 82 67h190q114 2 203 -82t87 -205zM583 371q0 72 -48 121.5t-120 49.5h-117l-33 -151h85q23 0 39.5 -17
t16.5 -41q0 -23 -16.5 -40t-39.5 -17h-111l-33 -151h118q116 0 187.5 71t71.5 175z" />
    <glyph glyph-name="dslash" unicode="&#x111;" horiz-adv-x="590" 
d="M652 564q0 -15 -11 -25.5t-26 -10.5h-29l-108 -487q-5 -24 -21.5 -38t-40.5 -14q-27 0 -46.5 21.5t-15.5 48.5q-62 -71 -144 -71q-85 0 -134.5 53.5t-49.5 146.5q-1 76 29.5 146t90 116t135.5 45q48 0 89 -20t65 -56l24 109h-114q-15 0 -26 10.5t-11 25.5t11 26t26 11
h130l5 25q5 21 22 34.5t39 13.5q26 0 44 -18t18 -44q0 -8 -1 -11h13q15 0 26 -11t11 -26zM377 158l37 168q-16 25 -46.5 40.5t-66.5 15.5q-60 0 -101 -50t-41 -118q0 -51 30 -82t77 -31q67 0 111 57z" />
    <glyph glyph-name="Emacron" unicode="&#x112;" horiz-adv-x="583" 
d="M27 60q0 11 3 23l114 517q15 67 83 67h335q25 0 43 -18t18 -44q0 -25 -18 -42.5t-43 -17.5h-288l-31 -145h253q25 0 43 -18t18 -44q0 -25 -18 -42.5t-43 -17.5h-281l-34 -155h260q25 0 43.5 -18t18.5 -43t-18 -43.5t-44 -18.5h-344q-70 0 -70 60zM251 765q0 15 11 25.5
t26 10.5h275q15 0 25.5 -10.5t10.5 -25.5t-10.5 -25.5t-25.5 -10.5h-275q-15 0 -26 10.5t-11 25.5z" />
    <glyph glyph-name="emacron" unicode="&#x113;" horiz-adv-x="553" 
d="M307 495q95 0 156 -58t61 -155q0 -12 -1 -15q-1 -31 -22.5 -48.5t-56.5 -17.5h-289v-12q0 -37 36 -68.5t96 -31.5q45 0 89 18q7 4 17 4q19 0 33 -14.5t14 -34.5q0 -31 -28 -43q-63 -31 -134 -31q-116 0 -183 58t-67 159q-2 117 80.5 204.5t198.5 85.5zM410 287v10
q0 42 -29.5 69.5t-81.5 27.5q-49 0 -86 -33q-36 -31 -45 -74h242zM194 618q0 15 11 25.5t26 10.5h275q15 0 25.5 -10.5t10.5 -25.5t-10.5 -25.5t-25.5 -10.5h-275q-15 0 -26 10.5t-11 25.5z" />
    <glyph glyph-name="Ebreve" unicode="&#x114;" horiz-adv-x="583" 
d="M27 60q0 11 3 23l114 517q15 67 83 67h335q25 0 43 -18t18 -44q0 -25 -18 -42.5t-43 -17.5h-288l-31 -145h253q25 0 43 -18t18 -44q0 -25 -18 -42.5t-43 -17.5h-281l-34 -155h260q25 0 43.5 -18t18.5 -43t-18 -43.5t-44 -18.5h-344q-70 0 -70 60zM282 778q-11 11 -11 27
t11.5 28t27.5 12t30 -14q33 -39 90 -39q60 0 116 47q8 8 21 8q14 0 24 -10t10 -24q0 -15 -12 -25q-80 -68 -172 -68q-83 0 -135 58z" />
    <glyph glyph-name="ebreve" unicode="&#x115;" horiz-adv-x="553" 
d="M307 495q95 0 156 -58t61 -155q0 -12 -1 -15q-1 -31 -22.5 -48.5t-56.5 -17.5h-289v-12q0 -37 36 -68.5t96 -31.5q45 0 89 18q7 4 17 4q19 0 33 -14.5t14 -34.5q0 -31 -28 -43q-63 -31 -134 -31q-116 0 -183 58t-67 159q-2 117 80.5 204.5t198.5 85.5zM410 287v10
q0 42 -29.5 69.5t-81.5 27.5q-49 0 -86 -33q-36 -31 -45 -74h242zM224 631q-11 11 -11 27t11.5 28t27.5 12t30 -14q33 -39 90 -39q60 0 116 47q8 8 21 8q14 0 24 -10t10 -24t-12 -25q-80 -68 -172 -68q-83 0 -135 58z" />
    <glyph glyph-name="Edotaccent" unicode="&#x116;" horiz-adv-x="583" 
d="M27 60q0 11 3 23l114 517q15 67 83 67h335q25 0 43 -18t18 -44q0 -25 -18 -42.5t-43 -17.5h-288l-31 -145h253q25 0 43 -18t18 -44q0 -25 -18 -42.5t-43 -17.5h-281l-34 -155h260q25 0 43.5 -18t18.5 -43t-18 -43.5t-44 -18.5h-344q-70 0 -70 60zM360 780q0 30 23 53
t54 23q26 0 43 -17.5t17 -43.5q0 -30 -23.5 -52.5t-53.5 -22.5q-26 0 -43 17.5t-17 42.5z" />
    <glyph glyph-name="edotaccent" unicode="&#x117;" horiz-adv-x="553" 
d="M307 495q95 0 156 -58t61 -155q0 -12 -1 -15q-1 -31 -22.5 -48.5t-56.5 -17.5h-289v-12q0 -37 36 -68.5t96 -31.5q45 0 89 18q7 4 17 4q19 0 33 -14.5t14 -34.5q0 -31 -28 -43q-63 -31 -134 -31q-116 0 -183 58t-67 159q-2 117 80.5 204.5t198.5 85.5zM410 287v10
q0 42 -29.5 69.5t-81.5 27.5q-49 0 -86 -33q-36 -31 -45 -74h242zM303 633q0 30 23 53t54 23q26 0 43 -17.5t17 -43.5q0 -30 -23.5 -52.5t-53.5 -22.5q-26 0 -43 17.5t-17 42.5z" />
    <glyph glyph-name="Eogonek" unicode="&#x118;" horiz-adv-x="583" 
d="M623 605q0 -25 -18 -42.5t-43 -17.5h-288l-31 -145h253q25 0 43 -18t18 -44q0 -25 -18 -42.5t-43 -17.5h-281l-34 -155h260q25 0 43.5 -18t18.5 -43q0 -24 -16 -41.5t-39 -20.5q-68 -47 -68 -83q0 -21 25 -23l10 -1q15 0 26 -10.5t11 -25.5q0 -26 -27 -35q-34 -8 -69 -8
q-45 0 -71.5 17t-26.5 47q0 75 137 122h-298q-70 0 -70 60q0 11 3 23l114 517q15 67 83 67h335q25 0 43 -18t18 -44z" />
    <glyph glyph-name="eogonek" unicode="&#x119;" horiz-adv-x="553" 
d="M308 -10q-26 -2 -30 -2q-116 0 -183 58t-67 159q-2 117 80.5 204.5t198.5 85.5q95 0 156 -59t61 -157q0 -11 -2 -19q-6 -59 -78 -59h-289v-12q0 -37 36 -68.5t96 -31.5q46 0 88 18q6 3 17 3q20 0 34.5 -14.5t14.5 -34.5q0 -26 -22 -42q-52 -34 -74 -57.5t-22 -45.5
q0 -21 24 -23h10q16 -1 26 -11t10 -25q0 -27 -27 -35q-30 -8 -69 -8q-43 0 -70 17t-27 47q0 35 29 64t79 48zM410 287v10q0 42 -29.5 69.5t-81.5 27.5q-49 0 -86 -33q-36 -31 -45 -74h242z" />
    <glyph glyph-name="Ecaron" unicode="&#x11a;" horiz-adv-x="583" 
d="M27 60q0 11 3 23l114 517q15 67 83 67h335q25 0 43 -18t18 -44q0 -25 -18 -42.5t-43 -17.5h-288l-31 -145h253q25 0 43 -18t18 -44q0 -25 -18 -42.5t-43 -17.5h-281l-34 -155h260q25 0 43.5 -18t18.5 -43t-18 -43.5t-44 -18.5h-344q-70 0 -70 60zM378 856l47 -78l86 85
q10 10 23 10q14 0 22 -9t8 -22q0 -12 -7 -19l-58 -68q-29 -32 -64 -32h-41q-16 0 -30 8.5t-20 21.5l-30 70q-3 8 -3 14q0 15 11 25.5t25 10.5q20 0 31 -17z" />
    <glyph glyph-name="ecaron" unicode="&#x11b;" horiz-adv-x="553" 
d="M307 495q95 0 156 -58t61 -155q0 -12 -1 -15q-1 -31 -22.5 -48.5t-56.5 -17.5h-289v-12q0 -37 36 -68.5t96 -31.5q45 0 89 18q7 4 17 4q19 0 33 -14.5t14 -34.5q0 -31 -28 -43q-63 -31 -134 -31q-116 0 -183 58t-67 159q-2 117 80.5 204.5t198.5 85.5zM410 287v10
q0 42 -29.5 69.5t-81.5 27.5q-49 0 -86 -33q-36 -31 -45 -74h242zM321 709l47 -78l86 85q10 10 23 10q14 0 22 -9t8 -22q0 -12 -7 -19l-58 -68q-29 -32 -64 -32h-41q-16 0 -30 8.5t-20 21.5l-30 70q-3 8 -3 14q0 15 11 25.5t25 10.5q20 0 31 -17z" />
    <glyph glyph-name="Gcircumflex" unicode="&#x11c;" horiz-adv-x="720" 
d="M686 311q0 -10 -3 -22l-28 -127q-12 -56 -45 -86q-101 -88 -238 -88q-139 -2 -234.5 82.5t-93.5 216.5q-3 166 114 280t287 111q137 0 222 -90q21 -23 21 -49q0 -28 -20 -49t-49 -21q-31 0 -52 23q-51 60 -142 60q-93 2 -164 -74.5t-69 -181.5q0 -78 51.5 -130t136.5 -52
q75 0 135 51l17 81h-109q-25 0 -42.5 18t-17.5 43t17.5 43t42.5 18h201q30 0 46 -15t16 -42zM560 734l-47 78l-86 -85q-10 -10 -23 -10q-14 0 -22 9.5t-8 22.5q0 12 7 19l58 67q29 32 65 32h41q16 0 30 -8.5t19 -21.5l30 -69q3 -8 3 -15q0 -15 -11 -25.5t-25 -10.5
q-20 0 -31 17z" />
    <glyph glyph-name="gcircumflex" unicode="&#x11d;" horiz-adv-x="585" 
d="M560 428q0 -11 -1 -14l-84 -381q-27 -125 -99 -177q-71 -52 -164 -52q-116 0 -190 48q-26 18 -26 47q0 23 16.5 39t39.5 16q16 0 30 -9q52 -37 128 -37q108 0 137 125l10 44q-60 -73 -148 -73q-82 0 -132 50t-50 146q-2 116 70 207t180 88q45 0 87 -20.5t69 -55.5l4 20
q5 22 22 36.5t39 14.5q26 0 44 -18t18 -44zM378 172l34 150q-37 60 -118 60q-58 0 -96.5 -45.5t-38.5 -111.5q0 -49 30 -78.5t80 -29.5q63 0 109 55zM438 587l-47 78l-86 -85q-10 -10 -23 -10q-14 0 -22 9.5t-8 22.5q0 12 7 19l58 67q29 32 65 32h41q16 0 30 -8.5t19 -21.5
l30 -69q3 -7 3 -15q0 -15 -11 -25.5t-25 -10.5q-20 0 -31 17z" />
    <glyph glyph-name="Gbreve" unicode="&#x11e;" horiz-adv-x="720" 
d="M686 311q0 -10 -3 -22l-28 -127q-12 -56 -45 -86q-101 -88 -238 -88q-139 -2 -234.5 82.5t-93.5 216.5q-3 166 114 280t287 111q137 0 222 -90q21 -23 21 -49q0 -28 -20 -49t-49 -21q-31 0 -52 23q-51 60 -142 60q-93 2 -164 -74.5t-69 -181.5q0 -78 51.5 -130t136.5 -52
q75 0 135 51l17 81h-109q-25 0 -42.5 18t-17.5 43t17.5 43t42.5 18h201q30 0 46 -15t16 -42zM359 778q-11 11 -11 27t11.5 28t27.5 12t30 -14q33 -39 90 -39q60 0 116 47q8 8 21 8q14 0 24 -10t10 -24q0 -15 -12 -25q-80 -68 -172 -68q-83 0 -135 58z" />
    <glyph glyph-name="gbreve" unicode="&#x11f;" horiz-adv-x="585" 
d="M560 428q0 -11 -1 -14l-84 -381q-27 -125 -99 -177q-71 -52 -164 -52q-116 0 -190 48q-26 18 -26 47q0 23 16.5 39t39.5 16q16 0 30 -9q52 -37 128 -37q108 0 137 125l10 44q-60 -73 -148 -73q-82 0 -132 50t-50 146q-2 116 70 207t180 88q45 0 87 -20.5t69 -55.5l4 20
q5 22 22 36.5t39 14.5q26 0 44 -18t18 -44zM378 172l34 150q-37 60 -118 60q-58 0 -96.5 -45.5t-38.5 -111.5q0 -49 30 -78.5t80 -29.5q63 0 109 55zM237 631q-11 11 -11 27t11.5 28t27.5 12t30 -14q33 -39 90 -39q60 0 116 47q8 8 21 8q14 0 24 -10t10 -24t-12 -25
q-80 -68 -172 -68q-83 0 -135 58z" />
    <glyph glyph-name="Gdotaccent" unicode="&#x120;" horiz-adv-x="720" 
d="M686 311q0 -10 -3 -22l-28 -127q-12 -56 -45 -86q-101 -88 -238 -88q-139 -2 -234.5 82.5t-93.5 216.5q-3 166 114 280t287 111q137 0 222 -90q21 -23 21 -49q0 -28 -20 -49t-49 -21q-31 0 -52 23q-51 60 -142 60q-93 2 -164 -74.5t-69 -181.5q0 -78 51.5 -130t136.5 -52
q75 0 135 51l17 81h-109q-25 0 -42.5 18t-17.5 43t17.5 43t42.5 18h201q30 0 46 -15t16 -42zM438 780q0 30 23 53t54 23q26 0 43 -17.5t17 -43.5q0 -30 -23.5 -52.5t-53.5 -22.5q-26 0 -43 17.5t-17 42.5z" />
    <glyph glyph-name="gdotaccent" unicode="&#x121;" horiz-adv-x="585" 
d="M560 428q0 -11 -1 -14l-84 -381q-27 -125 -99 -177q-71 -52 -164 -52q-116 0 -190 48q-26 18 -26 47q0 23 16.5 39t39.5 16q16 0 30 -9q52 -37 128 -37q108 0 137 125l10 44q-60 -73 -148 -73q-82 0 -132 50t-50 146q-2 116 70 207t180 88q45 0 87 -20.5t69 -55.5l4 20
q5 22 22 36.5t39 14.5q26 0 44 -18t18 -44zM378 172l34 150q-37 60 -118 60q-58 0 -96.5 -45.5t-38.5 -111.5q0 -49 30 -78.5t80 -29.5q63 0 109 55zM315 633q0 30 23 53t54 23q26 0 43 -17.5t17 -43.5q0 -30 -23.5 -52.5t-53.5 -22.5q-26 0 -43 17.5t-17 42.5z" />
    <glyph glyph-name="uni0122" unicode="&#x122;" horiz-adv-x="720" 
d="M686 311q0 -10 -3 -22l-28 -127q-12 -56 -45 -86q-101 -88 -238 -88q-139 -2 -234.5 82.5t-93.5 216.5q-3 166 114 280t287 111q137 0 222 -90q21 -23 21 -49q0 -28 -20 -49t-49 -21q-31 0 -52 23q-51 60 -142 60q-93 2 -164 -74.5t-69 -181.5q0 -78 51.5 -130t136.5 -52
q75 0 135 51l17 81h-109q-25 0 -42.5 18t-17.5 43t17.5 43t42.5 18h201q30 0 46 -15t16 -42zM253 -278q-10 0 -17.5 7.5t-7.5 16.5q0 15 11 21q45 26 58 58h-8q-21 0 -35 13.5t-14 37.5q0 27 21.5 47.5t48.5 20.5q26 0 43.5 -18t17.5 -47q0 -41 -29 -83t-73 -69
q-7 -5 -16 -5z" />
    <glyph glyph-name="uni0123" unicode="&#x123;" horiz-adv-x="585" 
d="M304 617q0 41 29 83.5t73 69.5q12 5 16 5q10 0 18 -7.5t8 -16.5q0 -15 -12 -21q-45 -26 -58 -58h9q21 0 34.5 -14t13.5 -37q0 -27 -21.5 -47.5t-48.5 -20.5q-26 0 -43.5 17.5t-17.5 46.5zM560 428q0 -11 -1 -14l-84 -381q-27 -125 -99 -177q-71 -52 -164 -52
q-116 0 -190 48q-26 18 -26 47q0 23 16.5 39t39.5 16q16 0 30 -9q52 -37 128 -37q108 0 137 125l10 44q-60 -73 -148 -73q-82 0 -132 50t-50 146q-2 116 70 207t180 88q45 0 87 -20.5t69 -55.5l4 20q5 22 22 36.5t39 14.5q26 0 44 -18t18 -44zM378 172l34 150
q-37 60 -118 60q-58 0 -96.5 -45.5t-38.5 -111.5q0 -49 30 -78.5t80 -29.5q63 0 109 55z" />
    <glyph glyph-name="Hcircumflex" unicode="&#x124;" horiz-adv-x="731" 
d="M485 63q0 12 1 15l45 202h-315l-51 -233q-5 -23 -24 -38.5t-44 -15.5q-29 0 -49 20.5t-20 49.5q0 12 1 15l119 542q5 23 24 38.5t44 15.5q29 0 49 -20.5t20 -49.5q0 -12 -1 -15l-40 -184h314l47 215q5 23 24.5 38.5t44.5 15.5q29 0 49 -20.5t20 -50.5q0 -11 -1 -14
l-120 -542q-5 -23 -24 -38.5t-44 -15.5q-29 0 -49 20.5t-20 49.5zM541 734l-47 78l-86 -85q-10 -10 -23 -10q-14 0 -22 9.5t-8 22.5q0 12 7 19l58 67q29 32 65 32h41q16 0 30 -8.5t19 -21.5l30 -69q3 -8 3 -15q0 -15 -11 -25.5t-25 -10.5q-20 0 -31 17z" />
    <glyph glyph-name="hcircumflex" unicode="&#x125;" horiz-adv-x="580" 
d="M349 54l2 14l48 222q5 22 5 30q0 62 -83 62q-56 0 -113 -57l-62 -283q-5 -21 -22 -35t-40 -14q-25 0 -43.5 18t-18.5 43l2 14l122 558q5 21 22 34.5t39 13.5q26 0 44.5 -18t18.5 -43l-2 -14l-39 -179q77 75 161 75q69 0 110 -33.5t41 -89.5q0 -12 -5 -40l-63 -290
q-5 -21 -22 -35t-40 -14q-26 0 -44 18t-18 43zM464 734l-47 78l-86 -85q-10 -10 -23 -10q-14 0 -22 9.5t-8 22.5q0 12 7 19l58 67q29 32 65 32h41q16 0 30 -8.5t19 -21.5l30 -69q3 -8 3 -15q0 -15 -11 -25.5t-25 -10.5q-20 0 -31 17z" />
    <glyph glyph-name="Hbar" unicode="&#x126;" horiz-adv-x="744" 
d="M806 537q0 -15 -10.5 -25.5t-25.5 -10.5h-41l-100 -454q-6 -24 -25 -39t-44 -15q-29 0 -49 21t-20 50q0 11 1 14l45 202h-315l-50 -233q-6 -24 -25 -39t-44 -15q-29 0 -49 21t-20 50q0 11 1 14l93 423h-27q-14 0 -25 10.5t-11 25.5t11 26t25 11h43l10 46q6 24 25 39
t43 15q30 0 50 -20.5t20 -50.5q0 -11 -1 -14l-3 -15h314l10 46q5 23 24 38.5t44 15.5q29 0 49 -20.5t20 -50.5q0 -11 -1 -14l-3 -15h25q15 0 25.5 -11t10.5 -26zM565 405l21 96h-315l-21 -96h315z" />
    <glyph glyph-name="hbar" unicode="&#x127;" horiz-adv-x="582" 
d="M543 372q0 -12 -5 -40l-64 -290q-5 -21 -22 -35t-39 -14q-26 0 -44.5 18t-18.5 43l2 14l48 222q5 22 5 30q0 62 -82 62q-57 0 -114 -57l-62 -283q-4 -21 -21.5 -35t-39.5 -14q-26 0 -44.5 18t-18.5 43l2 14l101 460h-18q-15 0 -26 10.5t-11 25.5t11 26t26 11h34l6 25
q5 21 22 34.5t39 13.5q26 0 44 -17.5t18 -42.5q0 -10 -1 -13h108q15 0 25.5 -11t10.5 -26t-10.5 -25.5t-25.5 -10.5h-124l-24 -108q80 75 161 75q70 0 111 -33.5t41 -89.5z" />
    <glyph glyph-name="Itilde" unicode="&#x128;" horiz-adv-x="274" 
d="M27 62q0 2 2 16l119 542q5 23 24 38.5t44 15.5q29 0 49.5 -20t20.5 -48q0 -1 -2 -17l-119 -542q-5 -23 -24 -38.5t-44 -15.5q-29 0 -49.5 20t-20.5 49zM193 789q-26 0 -39 -46q-6 -23 -31 -23q-14 0 -23.5 9.5t-9.5 23.5q0 7 1 9q30 99 111 99q41 0 74 -39q16 -16 25 -22
t22 -6q26 0 39 45q7 23 31 23q15 0 24 -9.5t9 -23.5q0 -8 -1 -10q-30 -98 -111 -98q-24 0 -39 9t-35 30q-16 17 -25 23t-22 6z" />
    <glyph glyph-name="itilde" unicode="&#x129;" horiz-adv-x="253" 
d="M23 55q0 10 1 13l82 374q4 21 21.5 34.5t40.5 13.5q26 0 43.5 -18t17.5 -44q0 -10 -1 -13l-82 -373q-5 -22 -22 -35.5t-39 -13.5q-26 0 -44 18t-18 44zM149 642q-26 0 -39 -46q-6 -23 -31 -23q-14 0 -23.5 9.5t-9.5 23.5q0 7 1 9q30 99 111 99q41 0 74 -39q16 -16 25 -22
t22 -6q26 0 39 45q7 23 31 23q15 0 24 -9.5t9 -23.5q0 -8 -1 -10q-30 -98 -111 -98q-24 0 -39 9t-35 30q-16 17 -25 23t-22 6z" />
    <glyph glyph-name="Imacron" unicode="&#x12a;" horiz-adv-x="274" 
d="M27 62q0 2 2 16l119 542q5 23 24 38.5t44 15.5q29 0 49.5 -20t20.5 -48q0 -1 -2 -17l-119 -542q-5 -23 -24 -38.5t-44 -15.5q-29 0 -49.5 20t-20.5 49zM81 765q0 15 11 25.5t26 10.5h275q15 0 25.5 -10.5t10.5 -25.5t-10.5 -25.5t-25.5 -10.5h-275q-15 0 -26 10.5
t-11 25.5z" />
    <glyph glyph-name="imacron" unicode="&#x12b;" horiz-adv-x="253" 
d="M23 55q0 10 1 13l82 374q4 21 21.5 34.5t40.5 13.5q26 0 43.5 -18t17.5 -44q0 -10 -1 -13l-82 -373q-5 -22 -22 -35.5t-39 -13.5q-26 0 -44 18t-18 44zM37 618q0 15 11 25.5t26 10.5h275q15 0 25.5 -10.5t10.5 -25.5t-10.5 -25.5t-25.5 -10.5h-275q-15 0 -26 10.5
t-11 25.5z" />
    <glyph glyph-name="Ibreve" unicode="&#x12c;" horiz-adv-x="274" 
d="M27 62q0 2 2 16l119 542q5 23 24 38.5t44 15.5q29 0 49.5 -20t20.5 -48q0 -1 -2 -17l-119 -542q-5 -23 -24 -38.5t-44 -15.5q-29 0 -49.5 20t-20.5 49zM111 778q-11 11 -11 27t11.5 28t27.5 12t30 -14q33 -39 90 -39q60 0 116 47q8 8 21 8q14 0 24 -10t10 -24
q0 -15 -12 -25q-80 -68 -172 -68q-83 0 -135 58z" />
    <glyph glyph-name="ibreve" unicode="&#x12d;" horiz-adv-x="253" 
d="M23 55q0 10 1 13l82 374q4 21 21.5 34.5t40.5 13.5q26 0 43.5 -18t17.5 -44q0 -10 -1 -13l-82 -373q-5 -22 -22 -35.5t-39 -13.5q-26 0 -44 18t-18 44zM67 631q-11 11 -11 27t11.5 28t27.5 12t30 -14q33 -39 90 -39q60 0 116 47q8 8 21 8q14 0 24 -10t10 -24t-12 -25
q-80 -68 -172 -68q-83 0 -135 58z" />
    <glyph glyph-name="Iogonek" unicode="&#x12e;" horiz-adv-x="274" 
d="M286 606q0 -1 -2 -17l-119 -542q-8 -39 -48 -51q-62 -44 -62 -79q0 -21 25 -23l10 -1q14 0 25 -10.5t11 -25.5q0 -26 -26 -35q-34 -8 -69 -8q-45 0 -71.5 17t-26.5 47q0 74 135 121q-41 19 -41 63q0 2 2 16l119 542q5 23 24 38.5t44 15.5q29 0 49.5 -20t20.5 -48z" />
    <glyph glyph-name="iogonek" unicode="&#x12f;" horiz-adv-x="253" 
d="M291 652q0 -37 -26.5 -62t-58.5 -25q-30 0 -49.5 19t-19.5 46q0 38 25.5 62.5t59.5 24.5q30 0 49.5 -19t19.5 -46zM230 429l-2 -14l-82 -373q-4 -18 -19 -32t-34 -17q-59 -44 -59 -76q0 -21 26 -23l9 -1q15 0 26 -10.5t11 -25.5q0 -27 -27 -35q-30 -8 -69 -8
q-44 0 -71 17t-27 47q0 76 140 123h1q-30 17 -30 53q0 11 1 14l82 374q4 21 21.5 34.5t40.5 13.5q26 0 44 -18t18 -43z" />
    <glyph glyph-name="Idot" unicode="&#x130;" horiz-adv-x="274" 
d="M27 62q0 2 2 16l119 542q5 23 24 38.5t44 15.5q29 0 49.5 -20t20.5 -48q0 -1 -2 -17l-119 -542q-5 -23 -24 -38.5t-44 -15.5q-29 0 -49.5 20t-20.5 49zM190 780q0 30 23 53t54 23q26 0 43 -17.5t17 -43.5q0 -30 -23.5 -52.5t-53.5 -22.5q-26 0 -43 17.5t-17 42.5z" />
    <glyph glyph-name="dotlessi" unicode="&#x131;" horiz-adv-x="253" 
d="M23 55q0 10 1 13l82 374q4 21 21.5 34.5t40.5 13.5q26 0 43.5 -18t17.5 -44q0 -10 -1 -13l-82 -373q-5 -22 -22 -35.5t-39 -13.5q-26 0 -44 18t-18 44z" />
    <glyph glyph-name="IJ" unicode="&#x132;" horiz-adv-x="760" 
d="M27 62q0 2 2 16l119 542q5 23 24 38.5t44 15.5q29 0 49.5 -20t20.5 -48q0 -1 -2 -17l-119 -542q-5 -23 -24 -38.5t-44 -15.5q-29 0 -49.5 20t-20.5 49zM262 80q0 27 19 45.5t45 18.5q19 0 32 -8q32 -22 71 -22q93 0 118 107l87 399q5 23 24 38.5t44 15.5q29 0 49.5 -20
t20.5 -49q0 -2 -2 -16l-81 -370q-26 -119 -86.5 -175t-163.5 -56q-82 0 -143 37q-34 20 -34 55z" />
    <glyph glyph-name="ij" unicode="&#x133;" horiz-adv-x="505" 
d="M222 717q30 0 49.5 -19t19.5 -46q0 -37 -26.5 -62t-58.5 -25q-30 0 -49.5 19t-19.5 46q0 38 25.5 62.5t59.5 24.5zM22 54l2 14l82 374q4 21 21.5 34.5t40.5 13.5q26 0 44 -18t18 -43l-2 -14l-82 -373q-5 -22 -22 -35.5t-39 -13.5q-26 0 -44.5 18t-18.5 43zM390 630
q0 38 25.5 62.5t59.5 24.5q30 0 49.5 -19t19.5 -46q0 -37 -26.5 -62t-58.5 -25q-30 0 -49.5 19t-19.5 46zM128 -143q0 21 14 36.5t35 17.5h9q56 3 72 76l101 455q4 21 21.5 34.5t39.5 13.5q26 0 43.5 -17.5t17.5 -43.5q0 -11 -1 -14l-95 -428q-39 -183 -186 -183
q-16 0 -20 1q-22 2 -36.5 16.5t-14.5 35.5z" />
    <glyph glyph-name="Jcircumflex" unicode="&#x134;" horiz-adv-x="486" 
d="M-12 80q0 27 19 45.5t45 18.5q19 0 32 -8q32 -22 71 -22q93 0 118 107l87 399q5 23 24 38.5t44 15.5q29 0 49.5 -20t20.5 -49q0 -2 -2 -16l-81 -370q-26 -119 -86.5 -175t-163.5 -56q-82 0 -143 37q-34 20 -34 55zM528 751l-47 78l-86 -85q-10 -10 -23 -10q-14 0 -22 9.5
t-8 22.5q0 12 7 19l58 67q29 32 65 32h41q16 0 30 -8.5t19 -21.5l30 -69q3 -7 3 -15q0 -15 -11 -25.5t-25 -10.5q-20 0 -31 17z" />
    <glyph glyph-name="jcircumflex" unicode="&#x135;" horiz-adv-x="253" 
d="M-125 -143q0 22 14.5 37.5t34.5 16.5h9q56 3 72 76l101 455q4 21 21.5 34.5t39.5 13.5q26 0 43.5 -17.5t17.5 -43.5q0 -11 -1 -14l-95 -428q-39 -183 -186 -183q-16 0 -20 1q-22 2 -36.5 16.5t-14.5 35.5zM269 587l-47 78l-86 -85q-10 -10 -23 -10q-14 0 -22 9.5t-8 22.5
q0 12 7 19l58 67q29 32 65 32h41q16 0 30 -8.5t19 -21.5l30 -69q3 -7 3 -15q0 -15 -11 -25.5t-25 -10.5q-20 0 -31 17z" />
    <glyph glyph-name="uni0136" unicode="&#x136;" horiz-adv-x="630" 
d="M647 611q0 -29 -19 -45l-248 -212l169 -254q9 -14 9 -36q0 -29 -21 -50t-51 -21q-39 0 -63 39l-153 242l-70 -70l-35 -157q-5 -23 -24 -38.5t-44 -15.5q-29 0 -49.5 20t-20.5 49q0 2 2 16l119 542q5 23 24 38.5t44 15.5q29 0 49.5 -20t20.5 -48q0 -1 -2 -17l-46 -210
l302 277q20 18 45 18q26 0 44 -18.5t18 -44.5zM191 -278q-10 0 -17.5 7.5t-7.5 16.5q0 15 11 21q45 26 58 58h-8q-21 0 -35 13.5t-14 37.5q0 27 21.5 47.5t48.5 20.5q26 0 43.5 -18t17.5 -47q0 -41 -29 -83t-73 -69q-7 -5 -16 -5z" />
    <glyph glyph-name="uni0137" unicode="&#x137;" horiz-adv-x="535" 
d="M531 435q0 -26 -20 -41l-167 -132l112 -169q11 -17 11 -34q0 -27 -21 -46.5t-49 -19.5q-35 0 -61 41l-96 154l-77 -65l-18 -81q-5 -21 -22 -35t-39 -14q-26 0 -44 18t-18 44q0 10 1 13l123 558q4 21 21.5 34.5t39.5 13.5q26 0 44.5 -18t18.5 -43l-2 -14l-72 -326l242 201
q16 16 38 16q23 0 39 -16t16 -39zM136 -278q-10 0 -17.5 7.5t-7.5 16.5q0 15 11 21q45 26 58 58h-8q-22 0 -35.5 13.5t-13.5 37.5q0 27 21.5 47.5t48.5 20.5q26 0 43.5 -18t17.5 -47q0 -41 -29 -83t-73 -69q-7 -5 -16 -5z" />
    <glyph glyph-name="kgreenlandic" unicode="&#x138;" horiz-adv-x="535" 
d="M531 435q0 -26 -20 -41l-167 -132l112 -169q11 -17 11 -34q0 -27 -21 -46.5t-49 -19.5q-35 0 -61 41l-96 154l-77 -65l-18 -81q-4 -22 -21 -35.5t-40 -13.5q-26 0 -44 18t-18 44q0 10 1 13l83 374q4 21 21.5 34.5t39.5 13.5q26 0 44 -17.5t18 -43.5q0 -1 -2 -15l-31 -141
l242 201q16 16 38 16q23 0 39 -16t16 -39z" />
    <glyph glyph-name="Lacute" unicode="&#x139;" horiz-adv-x="520" 
d="M27 60q0 11 3 23l118 537q5 23 24 38.5t44 15.5q29 0 49.5 -20t20.5 -48q0 -1 -2 -17l-102 -464h211q26 0 44.5 -18.5t18.5 -43.5q0 -26 -18.5 -44.5t-44.5 -18.5h-296q-70 0 -70 60zM245 717q-13 0 -22 9.5t-9 21.5q0 16 11 26l106 93q12 9 28 9q15 0 26 -11.5t11 -26.5
q0 -20 -15 -32l-115 -83q-9 -6 -21 -6z" />
    <glyph glyph-name="lacute" unicode="&#x13a;" horiz-adv-x="253" 
d="M22 55q0 10 1 13l123 558q4 21 21.5 34.5t40.5 13.5q26 0 44 -18t18 -43l-2 -14l-122 -557q-5 -22 -22.5 -35.5t-39.5 -13.5q-26 0 -44 18.5t-18 43.5zM236 717q-13 0 -22 9.5t-9 21.5q0 16 11 26l106 93q12 9 28 9q15 0 26 -11.5t11 -26.5q0 -20 -15 -32l-115 -83
q-9 -6 -21 -6z" />
    <glyph glyph-name="uni013B" unicode="&#x13b;" horiz-adv-x="520" 
d="M27 60q0 11 3 23l118 537q5 23 24 38.5t44 15.5q29 0 49.5 -20t20.5 -48q0 -1 -2 -17l-102 -464h211q26 0 44.5 -18.5t18.5 -43.5q0 -26 -18.5 -44.5t-44.5 -18.5h-296q-70 0 -70 60zM146 -278q-10 0 -17.5 7.5t-7.5 16.5q0 15 11 21q45 26 58 58h-8q-22 0 -35.5 13.5
t-13.5 37.5q0 27 21.5 47.5t48.5 20.5q26 0 43.5 -18t17.5 -47q0 -41 -29 -83t-73 -69q-7 -5 -16 -5z" />
    <glyph glyph-name="uni013C" unicode="&#x13c;" horiz-adv-x="253" 
d="M22 55q0 10 1 13l123 558q4 21 21.5 34.5t40.5 13.5q26 0 44 -18t18 -43l-2 -14l-122 -557q-5 -22 -22.5 -35.5t-39.5 -13.5q-26 0 -44 18.5t-18 43.5zM-6 -278q-10 0 -17.5 7.5t-7.5 16.5q0 15 11 21q45 26 58 58h-8q-22 0 -35.5 13.5t-13.5 37.5q0 27 21.5 47.5
t48.5 20.5q26 0 43.5 -18t17.5 -47q0 -41 -29 -83t-73 -69q-7 -5 -16 -5z" />
    <glyph glyph-name="Lcaron" unicode="&#x13d;" horiz-adv-x="523" 
d="M27 60q0 11 3 23l118 537q5 23 24 38.5t44 15.5q29 0 49.5 -20t20.5 -48q0 -1 -2 -17l-102 -464h211q26 0 44.5 -18.5t18.5 -43.5q0 -26 -18.5 -44.5t-44.5 -18.5h-296q-70 0 -70 60zM381 459q-10 0 -17.5 7.5t-7.5 16.5q0 15 11 21q45 26 58 58h-8q-21 0 -35 14t-14 37
q0 27 21.5 47.5t48.5 20.5q26 0 43.5 -18t17.5 -47q0 -41 -29 -83t-73 -69q-7 -5 -16 -5z" />
    <glyph glyph-name="lcaron" unicode="&#x13e;" horiz-adv-x="354" 
d="M22 55q0 10 1 13l123 558q4 21 21.5 34.5t40.5 13.5q26 0 44 -18t18 -43l-2 -14l-122 -557q-5 -22 -22.5 -35.5t-39.5 -13.5q-26 0 -44 18.5t-18 43.5zM333 459q-10 0 -17.5 7.5t-7.5 16.5q0 15 11 21q45 26 58 58h-8q-21 0 -35 14t-14 37q0 27 21.5 47.5t48.5 20.5
q26 0 43.5 -18t17.5 -47q0 -41 -29 -83t-73 -69q-7 -5 -16 -5z" />
    <glyph glyph-name="Ldot" unicode="&#x13f;" horiz-adv-x="542" 
d="M27 60q0 11 3 23l118 537q5 23 24 38.5t44 15.5q29 0 49.5 -20t20.5 -48q0 -1 -2 -17l-102 -464h211q26 0 44.5 -18.5t18.5 -43.5q0 -26 -18.5 -44.5t-44.5 -18.5h-296q-70 0 -70 60zM437 423q30 0 51.5 -22t21.5 -53q0 -35 -26.5 -61t-61.5 -26q-31 0 -52.5 22t-21.5 52
q0 37 26 62.5t63 25.5z" />
    <glyph glyph-name="ldot" unicode="&#x140;" horiz-adv-x="384" 
d="M22 55q0 10 1 13l123 558q4 21 21.5 34.5t40.5 13.5q26 0 44 -18t18 -43l-2 -14l-122 -557q-5 -22 -22.5 -35.5t-39.5 -13.5q-26 0 -44 18.5t-18 43.5zM326 326q30 0 51.5 -22t21.5 -53q0 -35 -26.5 -61t-61.5 -26q-31 0 -52.5 22t-21.5 52q0 37 26 62.5t63 25.5z" />
    <glyph glyph-name="Lslash" unicode="&#x141;" horiz-adv-x="542" 
d="M475 63q0 -26 -18.5 -44.5t-44.5 -18.5h-296q-69 0 -69 60q0 11 3 23l33 150l-2 -1q-8 -5 -20 -5q-19 0 -33 13t-14 33q0 28 25 41l70 35l59 271q5 23 24 38.5t44 15.5q29 0 49.5 -20t20.5 -49q0 -2 -2 -16l-35 -158l8 4q10 5 21 5q19 0 32.5 -13t13.5 -33q0 -28 -25 -41
l-76 -39l-42 -189h211q26 0 44.5 -18.5t18.5 -43.5z" />
    <glyph glyph-name="lslash" unicode="&#x142;" horiz-adv-x="308" 
d="M304 437q15 0 25.5 -11t10.5 -25q0 -22 -20 -33l-85 -43l-62 -283q-4 -22 -21 -35.5t-40 -13.5q-26 0 -44.5 18t-18.5 43l2 14l40 183l-31 -16q-7 -4 -16 -4q-15 0 -26 11t-11 25q0 22 20 34l85 43l62 282q5 21 22 34.5t39 13.5q26 0 44.5 -18t18.5 -43l-2 -14l-40 -182
l31 16q7 4 17 4z" />
    <glyph glyph-name="Nacute" unicode="&#x143;" horiz-adv-x="729" 
d="M451 47l-193 426l-93 -426q-5 -23 -24 -38.5t-44 -15.5q-29 0 -49.5 20t-20.5 49q0 2 2 16l114 520q8 33 34.5 54.5t61.5 21.5q30 0 54 -16t35 -42l185 -406l90 410q5 23 24 38.5t44 15.5q29 0 49.5 -20t20.5 -49q0 -2 -2 -16l-115 -525q-7 -30 -32 -50.5t-58 -20.5
q-27 0 -49.5 15t-33.5 39zM473 717q-13 0 -22 9.5t-9 21.5q0 16 11 26l106 93q12 9 28 9q15 0 26 -11.5t11 -26.5q0 -20 -15 -32l-115 -83q-9 -6 -21 -6z" />
    <glyph glyph-name="nacute" unicode="&#x144;" 
d="M541 372q0 -15 -5 -40l-64 -290q-4 -22 -21 -35.5t-40 -13.5q-27 0 -44.5 18t-17.5 45q0 1 2 17l49 221q3 15 3 26q0 62 -73 62q-63 0 -122 -56l-62 -284q-5 -22 -22 -35.5t-39 -13.5q-27 0 -45 18t-18 44q0 10 1 13l83 374q5 22 21.5 36.5t39.5 14.5q26 0 44.5 -18
t18.5 -43q0 -9 -1 -12q80 75 161 75q69 0 110 -33t41 -90zM367 570q-13 0 -22 9.5t-9 21.5q0 16 11 26l106 93q12 9 28 9q15 0 26 -11.5t11 -26.5q0 -20 -15 -32l-115 -83q-9 -6 -21 -6z" />
    <glyph glyph-name="uni0145" unicode="&#x145;" horiz-adv-x="729" 
d="M451 47l-193 426l-93 -426q-5 -23 -24 -38.5t-44 -15.5q-29 0 -49.5 20t-20.5 49q0 2 2 16l114 520q8 33 34.5 54.5t61.5 21.5q30 0 54 -16t35 -42l185 -406l90 410q5 23 24 38.5t44 15.5q29 0 49.5 -20t20.5 -49q0 -2 -2 -16l-115 -525q-7 -30 -32 -50.5t-58 -20.5
q-27 0 -49.5 15t-33.5 39zM232 -278q-10 0 -17.5 7.5t-7.5 16.5q0 15 11 21q45 26 58 58h-8q-22 0 -35.5 13.5t-13.5 37.5q0 27 21.5 47.5t48.5 20.5q26 0 43.5 -18t17.5 -47q0 -41 -29 -83t-73 -69q-7 -5 -16 -5z" />
    <glyph glyph-name="uni0146" unicode="&#x146;" 
d="M541 372q0 -15 -5 -40l-64 -290q-4 -22 -21 -35.5t-40 -13.5q-27 0 -44.5 18t-17.5 45q0 1 2 17l49 221q3 15 3 26q0 62 -73 62q-63 0 -122 -56l-62 -284q-5 -22 -22 -35.5t-39 -13.5q-27 0 -45 18t-18 44q0 10 1 13l83 374q5 22 21.5 36.5t39.5 14.5q26 0 44.5 -18
t18.5 -43q0 -9 -1 -12q80 75 161 75q69 0 110 -33t41 -90zM157 -278q-10 0 -17.5 7.5t-7.5 16.5q0 15 11 21q45 26 58 58h-8q-21 0 -35 13.5t-14 37.5q0 27 21.5 47.5t48.5 20.5q26 0 43.5 -18t17.5 -47q0 -41 -29 -83t-73 -69q-7 -5 -16 -5z" />
    <glyph glyph-name="Ncaron" unicode="&#x147;" horiz-adv-x="729" 
d="M451 47l-193 426l-93 -426q-5 -23 -24 -38.5t-44 -15.5q-29 0 -49.5 20t-20.5 49q0 2 2 16l114 520q8 33 34.5 54.5t61.5 21.5q30 0 54 -16t35 -42l185 -406l90 410q5 23 24 38.5t44 15.5q29 0 49.5 -20t20.5 -49q0 -2 -2 -16l-115 -525q-7 -30 -32 -50.5t-58 -20.5
q-27 0 -49.5 15t-33.5 39zM434 856l47 -78l86 85q10 10 23 10q14 0 22 -9t8 -22q0 -12 -7 -19l-58 -68q-29 -32 -64 -32h-41q-16 0 -30 8.5t-20 21.5l-30 70q-3 8 -3 14q0 15 11 25.5t25 10.5q20 0 31 -17z" />
    <glyph glyph-name="ncaron" unicode="&#x148;" 
d="M541 372q0 -15 -5 -40l-64 -290q-4 -22 -21 -35.5t-40 -13.5q-27 0 -44.5 18t-17.5 45q0 1 2 17l49 221q3 15 3 26q0 62 -73 62q-63 0 -122 -56l-62 -284q-5 -22 -22 -35.5t-39 -13.5q-27 0 -45 18t-18 44q0 10 1 13l83 374q5 22 21.5 36.5t39.5 14.5q26 0 44.5 -18
t18.5 -43q0 -9 -1 -12q80 75 161 75q69 0 110 -33t41 -90zM328 709l47 -78l86 85q10 10 23 10q14 0 22 -9t8 -22q0 -12 -7 -19l-58 -68q-29 -32 -64 -32h-41q-16 0 -30 8.5t-20 21.5l-30 70q-3 8 -3 14q0 15 11 25.5t25 10.5q20 0 31 -17z" />
    <glyph glyph-name="napostrophe" unicode="&#x149;" 
d="M541 372q0 -15 -5 -40l-64 -290q-4 -22 -21 -35.5t-40 -13.5q-27 0 -44.5 18t-17.5 45q0 1 2 17l49 221q3 15 3 26q0 62 -73 62q-63 0 -122 -56l-62 -284q-5 -22 -22 -35.5t-39 -13.5q-27 0 -45 18t-18 44q0 10 1 13l83 374q5 22 21.5 36.5t39.5 14.5q26 0 44.5 -18
t18.5 -43q0 -9 -1 -12q80 75 161 75q69 0 110 -33t41 -90zM154 543q-10 0 -17.5 7.5t-7.5 16.5q0 15 11 21q45 26 58 58h-8q-22 0 -35.5 14t-13.5 37q0 27 21.5 47.5t48.5 20.5q26 0 43.5 -18t17.5 -47q0 -41 -29 -83t-73 -69q-7 -5 -16 -5z" />
    <glyph glyph-name="Eng" unicode="&#x14a;" horiz-adv-x="729" 
d="M740 604q0 -12 -1 -15l-123 -555q-27 -118 -88.5 -174t-161.5 -56q-86 0 -147 40q-30 16 -30 49q0 24 17 41.5t41 17.5q18 0 32 -10q32 -25 75 -25q86 0 113 92l-209 464l-93 -426q-5 -23 -24 -38.5t-44 -15.5q-29 0 -49 20.5t-20 49.5q0 12 1 15l114 520q8 33 34.5 54.5
t61.5 21.5q30 0 54 -16t35 -42l185 -406l90 410q5 23 24 38.5t44 15.5q29 0 49 -20.5t20 -49.5z" />
    <glyph glyph-name="eng" unicode="&#x14b;" 
d="M541 372q0 -15 -5 -40l-77 -345q-39 -183 -186 -183q-15 0 -20 1q-22 2 -36.5 16.5t-14.5 35.5t14 36.5t35 17.5h9q56 3 72 76l68 307q3 13 3 25q0 63 -73 63q-63 0 -122 -56l-62 -284q-5 -22 -22 -35.5t-39 -13.5q-27 0 -45 18t-18 44q0 10 1 13l83 374q5 22 21.5 36.5
t39.5 14.5q26 0 44.5 -18t18.5 -43q0 -9 -1 -12q80 75 161 75q69 0 110 -33t41 -90z" />
    <glyph glyph-name="Omacron" unicode="&#x14c;" horiz-adv-x="765" 
d="M432 678q141 0 234 -83t93 -215q3 -161 -112 -278t-275 -114q-140 -2 -234.5 82.5t-93.5 216.5q-3 161 112 277.5t276 113.5zM423 552q-95 2 -164 -74.5t-67 -181.5q0 -82 53 -132t135 -50q94 -2 163.5 75t67.5 181q0 82 -53 132t-135 50zM324 765q0 15 11 25.5t26 10.5
h275q15 0 25.5 -10.5t10.5 -25.5t-10.5 -25.5t-25.5 -10.5h-275q-15 0 -26 10.5t-11 25.5z" />
    <glyph glyph-name="omacron" unicode="&#x14d;" horiz-adv-x="574" 
d="M306 495q112 0 176 -61t64 -159q2 -114 -80.5 -201.5t-199.5 -85.5q-111 0 -175 60.5t-64 158.5q-2 114 80.5 202.5t198.5 85.5zM302 382q-61 0 -102.5 -50.5t-41.5 -117.5q0 -53 30 -83t83 -30q61 0 102 50t41 118q0 53 -30 83t-82 30zM198 618q0 15 11 25.5t26 10.5
h275q15 0 25.5 -10.5t10.5 -25.5t-10.5 -25.5t-25.5 -10.5h-275q-15 0 -26 10.5t-11 25.5z" />
    <glyph glyph-name="Obreve" unicode="&#x14e;" horiz-adv-x="765" 
d="M432 678q141 0 234 -83t93 -215q3 -161 -112 -278t-275 -114q-140 -2 -234.5 82.5t-93.5 216.5q-3 161 112 277.5t276 113.5zM423 552q-95 2 -164 -74.5t-67 -181.5q0 -82 53 -132t135 -50q94 -2 163.5 75t67.5 181q0 82 -53 132t-135 50zM354 778q-11 11 -11 27t11.5 28
t27.5 12t30 -14q33 -39 90 -39q60 0 116 47q8 8 21 8q14 0 24 -10t10 -24q0 -15 -12 -25q-80 -68 -172 -68q-83 0 -135 58z" />
    <glyph glyph-name="obreve" unicode="&#x14f;" horiz-adv-x="574" 
d="M306 495q112 0 176 -61t64 -159q2 -114 -80.5 -201.5t-199.5 -85.5q-111 0 -175 60.5t-64 158.5q-2 114 80.5 202.5t198.5 85.5zM302 382q-61 0 -102.5 -50.5t-41.5 -117.5q0 -53 30 -83t83 -30q61 0 102 50t41 118q0 53 -30 83t-82 30zM228 631q-11 11 -11 27t11.5 28
t27.5 12t30 -14q33 -39 90 -39q60 0 116 47q8 8 21 8q14 0 24 -10t10 -24t-12 -25q-80 -68 -172 -68q-83 0 -135 58z" />
    <glyph glyph-name="Ohungarumlaut" unicode="&#x150;" horiz-adv-x="765" 
d="M432 678q141 0 234 -83t93 -215q3 -161 -112 -278t-275 -114q-140 -2 -234.5 82.5t-93.5 216.5q-3 161 112 277.5t276 113.5zM423 552q-95 2 -164 -74.5t-67 -181.5q0 -82 53 -132t135 -50q94 -2 163.5 75t67.5 181q0 82 -53 132t-135 50zM401 747q0 11 6 18l80 96
q10 13 28 13q15 0 25.5 -10.5t10.5 -25.5t-11 -26l-87 -86q-11 -9 -23 -9t-20.5 8.5t-8.5 21.5zM550 747q0 11 6 18l80 96q10 13 28 13q15 0 25.5 -10.5t10.5 -25.5t-11 -26l-87 -86q-10 -9 -23 -9q-12 0 -20.5 8.5t-8.5 21.5z" />
    <glyph glyph-name="ohungarumlaut" unicode="&#x151;" horiz-adv-x="574" 
d="M306 495q112 0 176 -61t64 -159q2 -114 -80.5 -201.5t-199.5 -85.5q-111 0 -175 60.5t-64 158.5q-2 114 80.5 202.5t198.5 85.5zM302 382q-61 0 -102.5 -50.5t-41.5 -117.5q0 -53 30 -83t83 -30q61 0 102 50t41 118q0 53 -30 83t-82 30zM274 600q0 10 6 18l80 96
q10 13 28 13q15 0 25.5 -10.5t10.5 -25.5t-11 -26l-87 -86q-11 -9 -23 -9t-20.5 8.5t-8.5 21.5zM423 600q0 10 6 18l80 96q10 13 28 13q15 0 25.5 -10.5t10.5 -25.5t-11 -26l-87 -86q-11 -9 -23 -9t-20.5 8.5t-8.5 21.5z" />
    <glyph glyph-name="OE" unicode="&#x152;" horiz-adv-x="1084" 
d="M1127 605q0 -25 -18 -42.5t-44 -17.5h-287l-31 -145h253q26 0 43.5 -17.5t17.5 -43.5q0 -25 -17.5 -43t-43.5 -18h-280l-35 -155h261q25 0 42.5 -18t17.5 -43q0 -26 -17.5 -44t-42.5 -18h-346q-71 0 -71 56q0 1 2 17v1q-75 -86 -207 -86q-117 -2 -199.5 84.5t-80.5 214.5
q-2 109 50.5 200.5t140 141t187.5 48.5q154 0 219 -113l9 43q12 60 80 60h335q26 0 44 -18t18 -44zM564 219l44 201q-16 62 -63 96.5t-114 34.5q-102 0 -170.5 -74.5t-68.5 -180.5q0 -82 50.5 -132t130.5 -50q57 0 108 28t83 77z" />
    <glyph glyph-name="oe" unicode="&#x153;" horiz-adv-x="931" 
d="M540 201l-1 -12q0 -39 36.5 -69.5t94.5 -30.5q40 0 86 18q6 3 17 3q20 0 34.5 -14.5t14.5 -33.5q0 -30 -29 -44q-61 -30 -133 -30q-74 0 -126 33t-72 74q-31 -35 -55 -54q-61 -53 -143 -53q-108 0 -172 58q-65 59 -65 161q-2 112 79 201.5t198 86.5q69 0 118 -34
q49 -33 69 -74q47 54 91.5 81t106.5 27q92 0 153.5 -57.5t61.5 -158.5q0 -14 -1 -19q-8 -59 -79 -59h-284zM791 297q0 42 -29 69.5t-80 27.5q-48 0 -85.5 -34t-44.5 -73h238q1 2 1 10zM158 214q0 -53 29.5 -83t81.5 -30q59 0 100 50t41 118q0 55 -30 84t-80 29
q-59 0 -100.5 -49t-41.5 -119z" />
    <glyph glyph-name="Racute" unicode="&#x154;" horiz-adv-x="643" 
d="M471 249l79 -152q8 -18 8 -32q0 -28 -21.5 -50t-51.5 -22q-44 0 -67 44l-95 202h-117l-41 -192q-5 -23 -24 -38.5t-44 -15.5q-29 0 -49.5 20t-20.5 48q0 2 2 16l115 523q15 67 83 67h217q85 0 145.5 -52.5t60.5 -135.5q0 -86 -51 -149q-49 -63 -128 -81zM501 465
q0 35 -24.5 57.5t-60.5 22.5h-142l-40 -184h148q54 0 86.5 29t32.5 75zM432 717q-13 0 -22 9.5t-9 21.5q0 16 11 26l106 93q12 9 28 9q15 0 26 -11.5t11 -26.5q0 -20 -15 -32l-115 -83q-9 -6 -21 -6z" />
    <glyph glyph-name="racute" unicode="&#x155;" horiz-adv-x="360" 
d="M392 436q0 -27 -17.5 -45t-42.5 -17h-9q-64 0 -118 -58l-59 -274q-5 -21 -22 -35t-39 -14q-27 0 -45 18t-18 44q0 10 1 13l83 371q5 24 21.5 38t40.5 14q27 0 44 -21t15 -49q51 70 110 70q55 0 55 -55zM279 570q-13 0 -22 9.5t-9 21.5q0 16 11 26l106 93q12 9 28 9
q15 0 26 -11.5t11 -26.5q0 -20 -15 -32l-115 -83q-9 -6 -21 -6z" />
    <glyph glyph-name="uni0156" unicode="&#x156;" horiz-adv-x="643" 
d="M471 249l79 -152q8 -18 8 -32q0 -28 -21.5 -50t-51.5 -22q-44 0 -67 44l-95 202h-117l-41 -192q-5 -23 -24 -38.5t-44 -15.5q-29 0 -49.5 20t-20.5 48q0 2 2 16l115 523q15 67 83 67h217q85 0 145.5 -52.5t60.5 -135.5q0 -86 -51 -149q-49 -63 -128 -81zM501 465
q0 35 -24.5 57.5t-60.5 22.5h-142l-40 -184h148q54 0 86.5 29t32.5 75zM191 -278q-10 0 -17.5 7.5t-7.5 16.5q0 15 11 21q45 26 58 58h-8q-21 0 -35 13.5t-14 37.5q0 27 21.5 47.5t48.5 20.5q26 0 43.5 -18t17.5 -47q0 -41 -29 -83t-73 -69q-7 -5 -16 -5z" />
    <glyph glyph-name="uni0157" unicode="&#x157;" horiz-adv-x="360" 
d="M392 436q0 -27 -17.5 -45t-42.5 -17h-9q-64 0 -118 -58l-59 -274q-5 -21 -22 -35t-39 -14q-27 0 -45 18t-18 44q0 10 1 13l83 371q5 24 21.5 38t40.5 14q27 0 44 -21t15 -49q51 70 110 70q55 0 55 -55zM-3 -278q-10 0 -17.5 7.5t-7.5 16.5q0 15 11 21q45 26 58 58h-8
q-21 0 -35 13.5t-14 37.5q0 27 21.5 47.5t48.5 20.5q26 0 43.5 -18t17.5 -47q0 -41 -29 -83t-73 -69q-7 -5 -16 -5z" />
    <glyph glyph-name="Rcaron" unicode="&#x158;" horiz-adv-x="643" 
d="M471 249l79 -152q8 -18 8 -32q0 -28 -21.5 -50t-51.5 -22q-44 0 -67 44l-95 202h-117l-41 -192q-5 -23 -24 -38.5t-44 -15.5q-29 0 -49.5 20t-20.5 48q0 2 2 16l115 523q15 67 83 67h217q85 0 145.5 -52.5t60.5 -135.5q0 -86 -51 -149q-49 -63 -128 -81zM501 465
q0 35 -24.5 57.5t-60.5 22.5h-142l-40 -184h148q54 0 86.5 29t32.5 75zM393 856l47 -78l86 85q10 10 23 10q14 0 22 -9t8 -22q0 -12 -7 -19l-58 -68q-29 -32 -64 -32h-41q-16 0 -30 8.5t-20 21.5l-30 70q-3 8 -3 14q0 15 11 25.5t25 10.5q20 0 31 -17z" />
    <glyph glyph-name="rcaron" unicode="&#x159;" horiz-adv-x="360" 
d="M392 436q0 -27 -17.5 -45t-42.5 -17h-9q-64 0 -118 -58l-59 -274q-5 -21 -22 -35t-39 -14q-27 0 -45 18t-18 44q0 10 1 13l83 371q5 24 21.5 38t40.5 14q27 0 44 -21t15 -49q51 70 110 70q55 0 55 -55zM240 709l47 -78l86 85q10 10 23 10q14 0 22 -9t8 -22q0 -12 -7 -19
l-58 -68q-29 -32 -64 -32h-41q-16 0 -30 8.5t-20 21.5l-30 70q-3 8 -3 14q0 15 11 25.5t25 10.5q20 0 31 -17z" />
    <glyph glyph-name="Sacute" unicode="&#x15a;" horiz-adv-x="600" 
d="M18 122q0 28 19.5 47.5t47.5 19.5q24 0 41 -14q82 -63 186 -63q47 0 73.5 22.5t26.5 54.5q0 26 -26 43.5t-88 40.5q-65 23 -106 43q-103 53 -103 153q0 82 73 145t187 63q122 0 214 -64q30 -21 30 -55q0 -28 -19.5 -47.5t-46.5 -19.5q-22 0 -39 13q-73 51 -157 51
q-40 0 -66.5 -20.5t-26.5 -49.5q0 -23 25 -39.5t89 -39.5q61 -22 106 -45q105 -53 105 -150q0 -93 -72 -158t-190 -65q-154 0 -256 80q-27 20 -27 54zM402 717q-13 0 -22 9.5t-9 21.5q0 16 11 26l106 93q12 9 28 9q15 0 26 -11.5t11 -26.5q0 -20 -15 -32l-115 -83
q-9 -6 -21 -6z" />
    <glyph glyph-name="sacute" unicode="&#x15b;" horiz-adv-x="477" 
d="M8 87q0 23 16 38.5t38 15.5q18 0 31 -9q67 -47 138 -47q31 0 50.5 14.5t19.5 36.5q0 19 -20 31.5t-69 28.5q-78 26 -115.5 54t-40.5 82q0 68 54 115.5t145 47.5q93 0 166 -49q25 -15 25 -42q0 -21 -15 -36t-37 -15q-16 0 -28 9q-57 36 -113 36q-32 0 -51 -13t-19 -34
q0 -15 19.5 -27t63.5 -27q48 -15 81 -30q81 -37 81 -110q0 -72 -57 -120.5t-152 -48.5q-107 0 -186 54q-25 15 -25 45zM313 570q-13 0 -22 9.5t-9 21.5q0 16 11 26l106 93q12 9 28 9q15 0 26 -11.5t11 -26.5q0 -20 -15 -32l-115 -83q-9 -6 -21 -6z" />
    <glyph glyph-name="Scircumflex" unicode="&#x15c;" horiz-adv-x="600" 
d="M18 122q0 28 19.5 47.5t47.5 19.5q24 0 41 -14q82 -63 186 -63q47 0 73.5 22.5t26.5 54.5q0 26 -26 43.5t-88 40.5q-65 23 -106 43q-103 53 -103 153q0 82 73 145t187 63q122 0 214 -64q30 -21 30 -55q0 -28 -19.5 -47.5t-46.5 -19.5q-22 0 -39 13q-73 51 -157 51
q-40 0 -66.5 -20.5t-26.5 -49.5q0 -23 25 -39.5t89 -39.5q61 -22 106 -45q105 -53 105 -150q0 -93 -72 -158t-190 -65q-154 0 -256 80q-27 20 -27 54zM468 734l-47 78l-86 -85q-10 -10 -23 -10q-14 0 -22 9.5t-8 22.5q0 12 7 19l58 67q29 32 65 32h41q16 0 30 -8.5t19 -21.5
l30 -69q3 -8 3 -15q0 -15 -11 -25.5t-25 -10.5q-20 0 -31 17z" />
    <glyph glyph-name="scircumflex" unicode="&#x15d;" horiz-adv-x="477" 
d="M8 87q0 23 16 38.5t38 15.5q18 0 31 -9q67 -47 138 -47q31 0 50.5 14.5t19.5 36.5q0 19 -20 31.5t-69 28.5q-78 26 -115.5 54t-40.5 82q0 68 54 115.5t145 47.5q93 0 166 -49q25 -15 25 -42q0 -21 -15 -36t-37 -15q-16 0 -28 9q-57 36 -113 36q-32 0 -51 -13t-19 -34
q0 -15 19.5 -27t63.5 -27q48 -15 81 -30q81 -37 81 -110q0 -72 -57 -120.5t-152 -48.5q-107 0 -186 54q-25 15 -25 45zM379 587l-47 78l-86 -85q-10 -10 -23 -10q-14 0 -22 9.5t-8 22.5q0 12 7 19l58 67q29 32 65 32h41q16 0 30 -8.5t19 -21.5l30 -69q3 -7 3 -15
q0 -15 -11 -25.5t-25 -10.5q-20 0 -31 17z" />
    <glyph glyph-name="uni015E" unicode="&#x15e;" horiz-adv-x="600" 
d="M238 485q0 -23 25 -39.5t89 -39.5q61 -22 106 -45q105 -53 105 -150q0 -93 -72 -158t-190 -65q-29 0 -37 1l-25 -40q16 10 32 10q26 0 42.5 -17t16.5 -45q0 -42 -32 -67.5t-81 -25.5q-55 0 -99 26q-14 8 -14 26q0 12 9 20.5t20 8.5q8 0 16 -5q31 -22 68 -22
q23 0 36.5 9.5t13.5 25.5q0 24 -30 24q-10 0 -21 -8q-8 -5 -17 -5q-12 0 -19 7.5t-7 17.5q0 11 4 18l31 50q-97 20 -163 71q-27 20 -27 54q0 28 19.5 47.5t47.5 19.5q24 0 41 -14q82 -63 186 -63q47 0 73.5 22.5t26.5 54.5q0 26 -26 43.5t-88 40.5q-65 23 -106 43
q-103 53 -103 153q0 82 73 145t187 63q122 0 214 -64q30 -21 30 -55q0 -28 -19.5 -47.5t-46.5 -19.5q-22 0 -39 13q-73 51 -157 51q-40 0 -66.5 -20.5t-26.5 -49.5z" />
    <glyph glyph-name="uni015F" unicode="&#x15f;" horiz-adv-x="477" 
d="M183 351q0 -15 19.5 -27t63.5 -27q48 -15 81 -30q81 -37 81 -110q0 -72 -57 -120.5t-152 -48.5h-13l-25 -39q16 10 31 10q27 0 43.5 -16.5t16.5 -45.5q0 -42 -32 -67.5t-81 -25.5q-55 0 -99 26q-14 8 -14 26q0 12 9 20.5t20 8.5q8 0 16 -5q31 -22 68 -22q23 0 36.5 9.5
t13.5 25.5q0 24 -30 24q-10 0 -21 -8q-8 -5 -17 -5q-12 0 -19 7.5t-7 17.5q0 11 4 18l29 48q-61 12 -115 47q-25 15 -25 45q0 23 16 38.5t38 15.5q18 0 31 -9q67 -47 138 -47q31 0 50.5 14.5t19.5 36.5q0 19 -20 31.5t-69 28.5q-78 26 -115.5 54t-40.5 82q0 68 54 115.5
t145 47.5q93 0 166 -49q25 -15 25 -42q0 -21 -15 -36t-37 -15q-16 0 -28 9q-57 36 -113 36q-32 0 -51 -13t-19 -34z" />
    <glyph glyph-name="Scaron" unicode="&#x160;" horiz-adv-x="600" 
d="M18 122q0 28 19.5 47.5t47.5 19.5q24 0 41 -14q82 -63 186 -63q47 0 73.5 22.5t26.5 54.5q0 26 -26 43.5t-88 40.5q-65 23 -106 43q-103 53 -103 153q0 82 73 145t187 63q122 0 214 -64q30 -21 30 -55q0 -28 -19.5 -47.5t-46.5 -19.5q-22 0 -39 13q-73 51 -157 51
q-40 0 -66.5 -20.5t-26.5 -49.5q0 -23 25 -39.5t89 -39.5q61 -22 106 -45q105 -53 105 -150q0 -93 -72 -158t-190 -65q-154 0 -256 80q-27 20 -27 54zM363 856l47 -78l86 85q10 10 23 10q14 0 22 -9t8 -22q0 -12 -7 -19l-58 -68q-29 -32 -64 -32h-41q-16 0 -30 8.5t-20 21.5
l-30 70q-3 8 -3 14q0 15 11 25.5t25 10.5q20 0 31 -17z" />
    <glyph glyph-name="scaron" unicode="&#x161;" horiz-adv-x="477" 
d="M8 87q0 23 16 38.5t38 15.5q18 0 31 -9q67 -47 138 -47q31 0 50.5 14.5t19.5 36.5q0 19 -20 31.5t-69 28.5q-78 26 -115.5 54t-40.5 82q0 68 54 115.5t145 47.5q93 0 166 -49q25 -15 25 -42q0 -21 -15 -36t-37 -15q-16 0 -28 9q-57 36 -113 36q-32 0 -51 -13t-19 -34
q0 -15 19.5 -27t63.5 -27q48 -15 81 -30q81 -37 81 -110q0 -72 -57 -120.5t-152 -48.5q-107 0 -186 54q-25 15 -25 45zM274 709l47 -78l86 85q10 10 23 10q14 0 22 -9t8 -22q0 -12 -7 -19l-58 -68q-29 -32 -64 -32h-41q-16 0 -30 8.5t-20 21.5l-30 70q-3 8 -3 14
q0 15 11 25.5t25 10.5q20 0 31 -17z" />
    <glyph glyph-name="uni0162" unicode="&#x162;" horiz-adv-x="582" 
d="M184 61q0 1 2 17l102 464h-127q-26 0 -44.5 18.5t-18.5 44.5q0 25 18.5 43.5t44.5 18.5h419q26 0 44 -18t18 -44t-18 -44.5t-44 -18.5h-150l-108 -495q-5 -23 -24 -38.5t-44 -15.5q-29 0 -49.5 20t-20.5 48zM159 -278q-10 0 -17.5 7.5t-7.5 16.5q0 15 11 21q45 26 58 58
h-8q-21 0 -35 13.5t-14 37.5q0 27 21.5 47.5t48.5 20.5q26 0 43.5 -18t17.5 -47q0 -41 -29 -83t-73 -69q-7 -5 -16 -5z" />
    <glyph glyph-name="uni0163" unicode="&#x163;" horiz-adv-x="338" 
d="M361 428q0 -23 -16 -39t-39 -16h-61l-47 -214q-3 -11 -3 -19q0 -38 42 -39q6 0 8 -1q17 0 31 -15t14 -35q0 -45 -45 -56q-21 -6 -45 -6q-66 0 -103.5 26.5t-37.5 76.5q0 20 4 35l55 247h-18q-24 0 -40 15.5t-16 39.5q0 23 16 39t39 16h43l20 91q4 21 21 34.5t39 13.5
q26 0 45 -18t19 -43l-2 -14l-14 -64h36q23 0 39 -16t16 -39zM32 -278q-10 0 -17.5 7.5t-7.5 16.5q0 15 11 21q45 26 58 58h-8q-22 0 -35.5 13.5t-13.5 37.5q0 27 21.5 47.5t48.5 20.5q26 0 43.5 -18t17.5 -47q0 -41 -29 -83t-73 -69q-7 -5 -16 -5z" />
    <glyph glyph-name="Tcaron" unicode="&#x164;" horiz-adv-x="582" 
d="M184 61q0 1 2 17l102 464h-127q-26 0 -44.5 18.5t-18.5 44.5q0 25 18.5 43.5t44.5 18.5h419q26 0 44 -18t18 -44t-18 -44.5t-44 -18.5h-150l-108 -495q-5 -23 -24 -38.5t-44 -15.5q-29 0 -49.5 20t-20.5 48zM361 856l47 -78l86 85q10 10 23 10q14 0 22 -9t8 -22
q0 -12 -7 -19l-58 -68q-29 -32 -64 -32h-41q-16 0 -30 8.5t-20 21.5l-30 70q-3 8 -3 14q0 15 11 25.5t25 10.5q20 0 31 -17z" />
    <glyph glyph-name="tcaron" unicode="&#x165;" horiz-adv-x="369" 
d="M361 428q0 -23 -16 -39t-39 -16h-61l-47 -214q-3 -11 -3 -19q0 -38 42 -39q6 0 8 -1q17 0 31 -15t14 -35q0 -45 -45 -56q-21 -6 -45 -6q-66 0 -103.5 26.5t-37.5 76.5q0 20 4 35l55 247h-18q-24 0 -40 15.5t-16 39.5q0 23 16 39t39 16h43l20 91q4 21 21 34.5t39 13.5
q26 0 45 -18t19 -43l-2 -14l-14 -64h36q23 0 39 -16t16 -39zM372 543q-10 0 -17.5 7.5t-7.5 16.5q0 15 11 21q45 26 58 58h-8q-22 0 -35.5 14t-13.5 37q0 27 21.5 47.5t48.5 20.5q26 0 43.5 -18t17.5 -47q0 -41 -29 -83t-73 -69q-7 -5 -16 -5z" />
    <glyph glyph-name="Tbar" unicode="&#x166;" horiz-adv-x="582" 
d="M642 605q0 -26 -18 -44.5t-44 -18.5h-150l-45 -207h92q15 0 26 -10.5t11 -25.5t-11 -25.5t-26 -10.5h-108l-47 -216q-5 -23 -24 -38.5t-44 -15.5q-29 0 -49.5 20t-20.5 48q0 1 2 17l41 185h-98q-15 0 -26 10.5t-11 25.5t11 25.5t26 10.5h113l46 207h-127
q-26 0 -44.5 18.5t-18.5 44.5q0 25 18.5 43.5t44.5 18.5h419q26 0 44 -18t18 -44z" />
    <glyph glyph-name="tbar" unicode="&#x167;" horiz-adv-x="338" 
d="M361 428q0 -23 -16 -39t-39 -16h-61l-20 -91h29q15 0 26 -11t11 -26q0 -14 -11 -25t-26 -11h-45l-11 -50q-3 -11 -3 -19q0 -38 42 -39q6 0 8 -1q17 0 31 -15t14 -35q0 -45 -45 -56q-21 -6 -45 -6q-66 0 -103.5 26.5t-37.5 76.5q0 20 4 35l18 83h-42q-15 0 -25.5 11
t-10.5 25q0 15 10.5 26t25.5 11h58l21 91h-18q-24 0 -40 15.5t-16 39.5q0 23 16 39t39 16h43l20 91q4 21 21 34.5t39 13.5q26 0 45 -18t19 -43l-2 -14l-14 -64h36q23 0 39 -16t16 -39z" />
    <glyph glyph-name="Utilde" unicode="&#x168;" horiz-adv-x="728" 
d="M71 266l77 353q5 24 24.5 39.5t44.5 15.5q30 0 50.5 -20t20.5 -49q0 -2 -2 -16l-70 -319q-4 -11 -4 -33q1 -55 38.5 -89.5t102.5 -34.5q136 0 170 157l77 349q5 24 25 39.5t45 15.5q29 0 49.5 -20t20.5 -49q0 -2 -2 -16l-71 -322q-30 -137 -105.5 -208t-208.5 -71
q-137 0 -212 62t-75 171q0 17 5 45zM419 789q-26 0 -39 -46q-6 -23 -31 -23q-14 0 -23.5 9.5t-9.5 23.5q0 7 1 9q30 99 111 99q41 0 74 -39q16 -16 25 -22t22 -6q26 0 39 45q7 23 31 23q15 0 24 -9.5t9 -23.5q0 -8 -1 -10q-30 -98 -111 -98q-24 0 -39 9t-35 30
q-16 17 -25 23t-22 6z" />
    <glyph glyph-name="utilde" unicode="&#x169;" 
d="M556 429l-2 -14l-82 -374q-5 -22 -21.5 -36.5t-39.5 -14.5q-27 0 -45.5 18.5t-18.5 44.5q0 7 1 9q-79 -74 -160 -74q-69 0 -110 33t-41 90q0 15 5 40l64 291q5 21 22 34.5t39 13.5q27 0 44.5 -18.5t17.5 -45.5l-2 -16l-49 -221q-3 -15 -3 -27q0 -61 73 -61q63 0 122 56
l62 285q4 21 21.5 34.5t39.5 13.5q26 0 44.5 -18t18.5 -43zM312 642q-26 0 -39 -46q-6 -23 -31 -23q-14 0 -23.5 9.5t-9.5 23.5q0 7 1 9q30 99 111 99q41 0 74 -39q16 -16 25 -22t22 -6q26 0 39 45q7 23 31 23q15 0 24 -9.5t9 -23.5q0 -8 -1 -10q-30 -98 -111 -98
q-24 0 -39 9t-35 30q-16 17 -25 23t-22 6z" />
    <glyph glyph-name="Umacron" unicode="&#x16a;" horiz-adv-x="728" 
d="M71 266l77 353q5 24 24.5 39.5t44.5 15.5q30 0 50.5 -20t20.5 -49q0 -2 -2 -16l-70 -319q-4 -11 -4 -33q1 -55 38.5 -89.5t102.5 -34.5q136 0 170 157l77 349q5 24 25 39.5t45 15.5q29 0 49.5 -20t20.5 -49q0 -2 -2 -16l-71 -322q-30 -137 -105.5 -208t-208.5 -71
q-137 0 -212 62t-75 171q0 17 5 45zM307 765q0 15 11 25.5t26 10.5h275q15 0 25.5 -10.5t10.5 -25.5t-10.5 -25.5t-25.5 -10.5h-275q-15 0 -26 10.5t-11 25.5z" />
    <glyph glyph-name="umacron" unicode="&#x16b;" 
d="M556 429l-2 -14l-82 -374q-5 -22 -21.5 -36.5t-39.5 -14.5q-27 0 -45.5 18.5t-18.5 44.5q0 7 1 9q-79 -74 -160 -74q-69 0 -110 33t-41 90q0 15 5 40l64 291q5 21 22 34.5t39 13.5q27 0 44.5 -18.5t17.5 -45.5l-2 -16l-49 -221q-3 -15 -3 -27q0 -61 73 -61q63 0 122 56
l62 285q4 21 21.5 34.5t39.5 13.5q26 0 44.5 -18t18.5 -43zM200 618q0 15 11 25.5t26 10.5h275q15 0 25.5 -10.5t10.5 -25.5t-10.5 -25.5t-25.5 -10.5h-275q-15 0 -26 10.5t-11 25.5z" />
    <glyph glyph-name="Ubreve" unicode="&#x16c;" horiz-adv-x="728" 
d="M71 266l77 353q5 24 24.5 39.5t44.5 15.5q30 0 50.5 -20t20.5 -49q0 -2 -2 -16l-70 -319q-4 -11 -4 -33q1 -55 38.5 -89.5t102.5 -34.5q136 0 170 157l77 349q5 24 25 39.5t45 15.5q29 0 49.5 -20t20.5 -49q0 -2 -2 -16l-71 -322q-30 -137 -105.5 -208t-208.5 -71
q-137 0 -212 62t-75 171q0 17 5 45zM337 778q-11 11 -11 27t11.5 28t27.5 12t30 -14q33 -39 90 -39q60 0 116 47q8 8 21 8q14 0 24 -10t10 -24q0 -15 -12 -25q-80 -68 -172 -68q-83 0 -135 58z" />
    <glyph glyph-name="ubreve" unicode="&#x16d;" 
d="M556 429l-2 -14l-82 -374q-5 -22 -21.5 -36.5t-39.5 -14.5q-27 0 -45.5 18.5t-18.5 44.5q0 7 1 9q-79 -74 -160 -74q-69 0 -110 33t-41 90q0 15 5 40l64 291q5 21 22 34.5t39 13.5q27 0 44.5 -18.5t17.5 -45.5l-2 -16l-49 -221q-3 -15 -3 -27q0 -61 73 -61q63 0 122 56
l62 285q4 21 21.5 34.5t39.5 13.5q26 0 44.5 -18t18.5 -43zM231 631q-11 11 -11 27t11.5 28t27.5 12t30 -14q33 -39 90 -39q60 0 116 47q8 8 21 8q14 0 24 -10t10 -24t-12 -25q-80 -68 -172 -68q-83 0 -135 58z" />
    <glyph glyph-name="Uring" unicode="&#x16e;" horiz-adv-x="728" 
d="M71 266l77 353q5 24 24.5 39.5t44.5 15.5q30 0 50.5 -20t20.5 -49q0 -2 -2 -16l-70 -319q-4 -11 -4 -33q1 -55 38.5 -89.5t102.5 -34.5q136 0 170 157l77 349q5 24 25 39.5t45 15.5q29 0 49.5 -20t20.5 -49q0 -2 -2 -16l-71 -322q-30 -137 -105.5 -208t-208.5 -71
q-137 0 -212 62t-75 171q0 17 5 45zM498 909q43 0 69 -26.5t26 -69.5q0 -47 -34 -81t-81 -34q-42 0 -68.5 26.5t-26.5 69.5q0 45 35 80t80 35zM493 850q-20 0 -35.5 -15t-15.5 -35q0 -19 11.5 -31t30.5 -12q20 0 35 15t15 35q0 19 -11 31t-30 12z" />
    <glyph glyph-name="uring" unicode="&#x16f;" 
d="M556 429l-2 -14l-82 -374q-5 -22 -21.5 -36.5t-39.5 -14.5q-27 0 -45.5 18.5t-18.5 44.5q0 7 1 9q-79 -74 -160 -74q-69 0 -110 33t-41 90q0 15 5 40l64 291q5 21 22 34.5t39 13.5q27 0 44.5 -18.5t17.5 -45.5l-2 -16l-49 -221q-3 -15 -3 -27q0 -61 73 -61q63 0 122 56
l62 285q4 21 21.5 34.5t39.5 13.5q26 0 44.5 -18t18.5 -43zM392 762q43 0 69 -26.5t26 -69.5q0 -47 -34 -81t-81 -34q-42 0 -68.5 26.5t-26.5 69.5q0 45 35 80t80 35zM387 703q-20 0 -35.5 -15t-15.5 -35q0 -19 11.5 -31t30.5 -12q20 0 35 15t15 35q0 19 -11 31t-30 12z" />
    <glyph glyph-name="Uhungarumlaut" unicode="&#x170;" horiz-adv-x="728" 
d="M71 266l77 353q5 24 24.5 39.5t44.5 15.5q30 0 50.5 -20t20.5 -49q0 -2 -2 -16l-70 -319q-4 -11 -4 -33q1 -55 38.5 -89.5t102.5 -34.5q136 0 170 157l77 349q5 24 25 39.5t45 15.5q29 0 49.5 -20t20.5 -49q0 -2 -2 -16l-71 -322q-30 -137 -105.5 -208t-208.5 -71
q-137 0 -212 62t-75 171q0 17 5 45zM383 747q0 11 6 18l80 96q10 13 28 13q15 0 25.5 -10.5t10.5 -25.5t-11 -26l-87 -86q-11 -9 -23 -9t-20.5 8.5t-8.5 21.5zM532 747q0 11 6 18l80 96q10 13 28 13q15 0 25.5 -10.5t10.5 -25.5t-11 -26l-87 -86q-10 -9 -23 -9
q-12 0 -20.5 8.5t-8.5 21.5z" />
    <glyph glyph-name="uhungarumlaut" unicode="&#x171;" 
d="M556 429l-2 -14l-82 -374q-5 -22 -21.5 -36.5t-39.5 -14.5q-27 0 -45.5 18.5t-18.5 44.5q0 7 1 9q-79 -74 -160 -74q-69 0 -110 33t-41 90q0 15 5 40l64 291q5 21 22 34.5t39 13.5q27 0 44.5 -18.5t17.5 -45.5l-2 -16l-49 -221q-3 -15 -3 -27q0 -61 73 -61q63 0 122 56
l62 285q4 21 21.5 34.5t39.5 13.5q26 0 44.5 -18t18.5 -43zM277 600q0 10 6 18l80 96q10 13 28 13q15 0 25.5 -10.5t10.5 -25.5t-11 -26l-87 -86q-11 -9 -23 -9t-20.5 8.5t-8.5 21.5zM426 600q0 10 6 18l80 96q10 13 28 13q15 0 25.5 -10.5t10.5 -25.5t-11 -26l-87 -86
q-11 -9 -23 -9t-20.5 8.5t-8.5 21.5z" />
    <glyph glyph-name="Uogonek" unicode="&#x172;" horiz-adv-x="728" 
d="M377 -107h7q15 1 26.5 -10t11.5 -26q0 -27 -27 -35q-34 -8 -69 -8q-43 0 -70.5 17t-27.5 48q0 35 31.5 64.5t83.5 44.5h-11q-122 5 -194 65q-72 61 -72 168q0 17 5 45l77 353q5 24 24.5 39.5t44.5 15.5q30 0 50 -20.5t20 -50.5q0 -11 -1 -14l-70 -319q-4 -11 -4 -33
q1 -55 38.5 -89.5t102.5 -34.5q137 0 170 157l77 349q5 24 25 39.5t45 15.5q29 0 49 -20.5t20 -50.5q0 -11 -1 -14l-71 -322q-48 -215 -202 -263q-114 -36 -114 -87q0 -10 7.5 -16.5t18.5 -7.5z" />
    <glyph glyph-name="uogonek" unicode="&#x173;" 
d="M556 429l-2 -14l-82 -374q-12 -45 -52 -50q-55 -42 -55 -74q0 -21 25 -23l9 -1q15 0 26 -10.5t11 -25.5q0 -27 -27 -35q-30 -8 -69 -8q-44 0 -70.5 17t-26.5 47q0 74 135 121q-31 20 -31 54l1 9q-79 -74 -160 -74q-69 0 -110 33t-41 90q0 15 5 40l64 291q5 21 22 34.5
t39 13.5q27 0 44.5 -18.5t17.5 -45.5l-2 -16l-49 -221q-3 -15 -3 -27q0 -61 73 -61q63 0 122 56l62 285q4 21 21.5 34.5t39.5 13.5q26 0 44.5 -18t18.5 -43z" />
    <glyph glyph-name="Wcircumflex" unicode="&#x174;" horiz-adv-x="912" 
d="M516 83l-13 375l-196 -411q-11 -24 -34 -39t-50 -15q-37 0 -64 25.5t-29 62.5l-34 512q-2 33 20.5 57t54.5 24q31 0 53.5 -22t23.5 -53l9 -414l218 451q18 38 61 38q27 0 46.5 -18.5t20.5 -45.5l18 -425l207 447q8 19 26 30.5t39 11.5q31 0 51.5 -21t20.5 -50
q0 -17 -8 -33l-265 -526q-26 -51 -83 -51q-37 0 -64 26t-29 64zM629 734l-47 78l-86 -85q-10 -10 -23 -10q-14 0 -22 9.5t-8 22.5q0 12 7 19l58 67q29 32 65 32h41q16 0 30 -8.5t19 -21.5l30 -69q3 -8 3 -15q0 -15 -11 -25.5t-25 -10.5q-20 0 -31 17z" />
    <glyph glyph-name="wcircumflex" unicode="&#x175;" horiz-adv-x="763" 
d="M422 72l-24 257l-153 -290q-25 -46 -77 -46q-34 0 -58.5 23t-26.5 56l-29 350q-2 26 16.5 47t45.5 21q25 0 43 -17t19 -42l16 -273l162 294q20 38 64 38q28 0 48.5 -19t23.5 -46l27 -267l149 299q18 33 54 33q26 0 43 -17t17 -42q0 -15 -7 -28l-190 -364q-25 -46 -77 -46
q-34 0 -59 23t-27 56zM515 587l-47 78l-86 -85q-10 -10 -23 -10q-14 0 -22 9.5t-8 22.5q0 12 7 19l58 67q29 32 65 32h41q16 0 30 -8.5t19 -21.5l30 -69q3 -7 3 -15q0 -15 -11 -25.5t-25 -10.5q-20 0 -31 17z" />
    <glyph glyph-name="Ycircumflex" unicode="&#x176;" horiz-adv-x="639" 
d="M666 568l-269 -295l-49 -226q-5 -23 -24 -38.5t-44 -15.5q-29 0 -49.5 20t-20.5 49q0 2 2 16l43 197l-138 302q-6 15 -6 29q0 28 20.5 48t49.5 20q46 0 66 -45l100 -231l221 252q21 24 49 24q27 0 45.5 -19t18.5 -45q0 -24 -15 -42zM495 734l-47 78l-86 -85
q-10 -10 -23 -10q-14 0 -22 9.5t-8 22.5q0 12 7 19l58 67q29 32 65 32h41q16 0 30 -8.5t19 -21.5l30 -69q3 -8 3 -15q0 -15 -11 -25.5t-25 -10.5q-20 0 -31 17z" />
    <glyph glyph-name="ycircumflex" unicode="&#x177;" horiz-adv-x="507" 
d="M23 -81q4 -1 16 -1q37 0 60 34l30 45l-74 418q-1 3 -1 11q0 26 19 45t46 19q24 0 41.5 -15.5t21.5 -39.5l44 -288l189 315q18 28 51 28q26 0 42.5 -17t16.5 -42q0 -16 -9 -31l-300 -479q-39 -63 -82 -89.5t-103 -27.5q-12 0 -15 1q-23 1 -38.5 17.5t-15.5 39.5
q0 25 18 42t43 15zM395 587l-47 78l-86 -85q-10 -10 -23 -10q-14 0 -22 9.5t-8 22.5q0 12 7 19l58 67q29 32 65 32h41q16 0 30 -8.5t19 -21.5l30 -69q3 -7 3 -15q0 -15 -11 -25.5t-25 -10.5q-20 0 -31 17z" />
    <glyph glyph-name="Ydieresis" unicode="&#x178;" horiz-adv-x="639" 
d="M666 568l-269 -295l-49 -226q-5 -23 -24 -38.5t-44 -15.5q-29 0 -49.5 20t-20.5 49q0 2 2 16l43 197l-138 302q-6 15 -6 29q0 28 20.5 48t49.5 20q46 0 66 -45l100 -231l221 252q21 24 49 24q27 0 45.5 -19t18.5 -45q0 -24 -15 -42zM270 781q0 30 23 52.5t53 22.5
q26 0 43 -17t17 -43q0 -30 -23 -52.5t-53 -22.5q-26 0 -43 17.5t-17 42.5zM481 781q0 30 23 52.5t53 22.5q26 0 43 -17t17 -43q0 -30 -23 -52.5t-53 -22.5q-26 0 -43 17.5t-17 42.5z" />
    <glyph glyph-name="Zacute" unicode="&#x179;" horiz-adv-x="592" 
d="M-3 70q0 28 20 48l397 424h-236q-26 0 -44.5 18.5t-18.5 43.5q0 26 18.5 44.5t44.5 18.5h379q29 0 49.5 -20.5t20.5 -49.5t-19 -49l-399 -423h245q26 0 44 -18.5t18 -44.5q0 -25 -18 -43.5t-44 -18.5h-386q-29 0 -50 20.5t-21 49.5zM405 717q-13 0 -22 9.5t-9 21.5
q0 16 11 26l106 93q12 9 28 9q15 0 26 -11.5t11 -26.5q0 -20 -15 -32l-115 -83q-9 -6 -21 -6z" />
    <glyph glyph-name="zacute" unicode="&#x17a;" horiz-adv-x="479" 
d="M-6 57q0 23 18 41l272 274h-152q-22 0 -38.5 16.5t-16.5 38.5q0 23 16 39.5t39 16.5h293q22 0 38 -16.5t16 -38.5t-16 -38l-277 -279h159q23 0 39.5 -16.5t16.5 -39.5q0 -22 -16.5 -38.5t-39.5 -16.5h-293q-24 0 -41 16.5t-17 40.5zM317 570q-13 0 -22 9.5t-9 21.5
q0 16 11 26l106 93q12 9 28 9q15 0 26 -11.5t11 -26.5q0 -20 -15 -32l-115 -83q-9 -6 -21 -6z" />
    <glyph glyph-name="Zdotaccent" unicode="&#x17b;" horiz-adv-x="592" 
d="M-3 70q0 28 20 48l397 424h-236q-26 0 -44.5 18.5t-18.5 43.5q0 26 18.5 44.5t44.5 18.5h379q29 0 49.5 -20.5t20.5 -49.5t-19 -49l-399 -423h245q26 0 44 -18.5t18 -44.5q0 -25 -18 -43.5t-44 -18.5h-386q-29 0 -50 20.5t-21 49.5zM349 780q0 30 23 53t54 23
q26 0 43 -17.5t17 -43.5q0 -30 -23.5 -52.5t-53.5 -22.5q-26 0 -43 17.5t-17 42.5z" />
    <glyph glyph-name="zdotaccent" unicode="&#x17c;" horiz-adv-x="479" 
d="M-6 57q0 23 18 41l272 274h-152q-22 0 -38.5 16.5t-16.5 38.5q0 23 16 39.5t39 16.5h293q22 0 38 -16.5t16 -38.5t-16 -38l-277 -279h159q23 0 39.5 -16.5t16.5 -39.5q0 -22 -16.5 -38.5t-39.5 -16.5h-293q-24 0 -41 16.5t-17 40.5zM261 633q0 30 23 53t54 23
q26 0 43 -17.5t17 -43.5q0 -30 -23.5 -52.5t-53.5 -22.5q-26 0 -43 17.5t-17 42.5z" />
    <glyph glyph-name="Zcaron" unicode="&#x17d;" horiz-adv-x="592" 
d="M-3 70q0 28 20 48l397 424h-236q-26 0 -44.5 18.5t-18.5 43.5q0 26 18.5 44.5t44.5 18.5h379q29 0 49.5 -20.5t20.5 -49.5t-19 -49l-399 -423h245q26 0 44 -18.5t18 -44.5q0 -25 -18 -43.5t-44 -18.5h-386q-29 0 -50 20.5t-21 49.5zM366 856l47 -78l86 85q10 10 23 10
q14 0 22 -9t8 -22q0 -12 -7 -19l-58 -68q-29 -32 -64 -32h-41q-16 0 -30 8.5t-20 21.5l-30 70q-3 8 -3 14q0 15 11 25.5t25 10.5q20 0 31 -17z" />
    <glyph glyph-name="zcaron" unicode="&#x17e;" horiz-adv-x="479" 
d="M-6 57q0 23 18 41l272 274h-152q-22 0 -38.5 16.5t-16.5 38.5q0 23 16 39.5t39 16.5h293q22 0 38 -16.5t16 -38.5t-16 -38l-277 -279h159q23 0 39.5 -16.5t16.5 -39.5q0 -22 -16.5 -38.5t-39.5 -16.5h-293q-24 0 -41 16.5t-17 40.5zM278 709l47 -78l86 85q10 10 23 10
q14 0 22 -9t8 -22q0 -12 -7 -19l-58 -68q-29 -32 -64 -32h-41q-16 0 -30 8.5t-20 21.5l-30 70q-3 8 -3 14q0 15 11 25.5t25 10.5q20 0 31 -17z" />
    <glyph glyph-name="longs" unicode="&#x17f;" horiz-adv-x="327" 
d="M427 623q0 -20 -14.5 -34.5t-34.5 -14.5q-8 0 -10 1q-18 2 -21 2q-53 0 -70 -68l-103 -467q-4 -22 -21 -35.5t-40 -13.5q-26 0 -43.5 18t-17.5 44q0 10 1 13l67 304h-18q-23 0 -39.5 16t-16.5 39t16.5 39.5t39.5 16.5h42l6 26q39 168 181 168q33 0 58 -7q17 -4 27.5 -17
t10.5 -30z" />
    <glyph glyph-name="uni018F" unicode="&#x18f;" horiz-adv-x="744" 
d="M738 379q3 -168 -113.5 -280.5t-274.5 -110.5q-135 -2 -226 86.5t-83 230.5q1 35 22 53.5t57 18.5h464h6q-3 77 -54 126t-134 49q-69 0 -129 -49q-18 -15 -41 -15q-27 0 -46 19t-19 46q0 33 26 52q91 73 217 73q140 2 235 -83t93 -216zM567 258h-383q7 -60 56 -103
q49 -41 117 -41q67 0 124 39.5t86 104.5z" />
    <glyph glyph-name="uni0192" unicode="&#x192;" horiz-adv-x="454" 
d="M492 606q0 -25 -17.5 -42t-42.5 -17q-11 0 -14 1q-9 4 -22 4q-27 0 -45.5 -17.5t-25.5 -49.5l-30 -135h64q23 0 39.5 -16.5t16.5 -39.5t-16.5 -39.5t-39.5 -16.5h-89l-78 -350q-5 -24 -24.5 -40t-44.5 -16q-30 0 -50 20.5t-20 50.5q0 12 1 15l71 320h-5q-23 0 -39.5 17
t-16.5 40q0 22 16.5 38.5t39.5 16.5h29l37 166q16 76 62 118.5t116 42.5q50 0 92 -18q36 -19 36 -53z" />
    <glyph glyph-name="uni019D" unicode="&#x19d;" horiz-adv-x="729" 
d="M671 674q29 0 49 -20.5t20 -49.5q0 -12 -1 -15l-115 -525q-7 -30 -32 -50.5t-58 -20.5q-27 0 -49.5 15t-33.5 39l-193 426l-96 -441q-26 -118 -86.5 -173t-163.5 -55q-20 0 -25 1q-24 2 -41 19.5t-17 41.5q0 26 19.5 44.5t45.5 16.5h7q94 0 118 107l124 564
q8 33 34.5 54.5t61.5 21.5q30 0 54 -16t35 -42l185 -406l90 410q5 23 24 38.5t44 15.5z" />
    <glyph glyph-name="Ohorn" unicode="&#x1a0;" horiz-adv-x="765" 
d="M716 537q43 -70 43 -157q3 -161 -112 -278t-275 -114q-140 -2 -234.5 82.5t-93.5 216.5q-3 161 112 277.5t276 113.5q79 0 146 -27.5t111 -77.5q50 28 62 60h-7q-19 0 -31 12.5t-12 33.5q0 24 19 42t43 18q23 0 38.5 -16t15.5 -42q0 -40 -28.5 -80.5t-72.5 -63.5z
M611 370q0 82 -53 132t-135 50q-95 2 -164 -74.5t-67 -181.5q0 -82 53 -132t135 -50q94 -2 163.5 75t67.5 181z" />
    <glyph glyph-name="ohorn" unicode="&#x1a1;" horiz-adv-x="574" 
d="M505 407q41 -56 41 -132q2 -114 -80.5 -201.5t-199.5 -85.5q-111 0 -175 60.5t-64 158.5q-2 114 80.5 202.5t198.5 85.5q104 0 168 -54q48 26 60 59q-1 -1 -7 -1q-19 0 -31.5 12.5t-12.5 33.5q0 25 19 43t44 18q23 0 38.5 -16t15.5 -42q0 -39 -26.5 -78t-68.5 -63z
M414 269q0 53 -30 83t-82 30q-61 0 -102.5 -50.5t-41.5 -117.5q0 -53 30 -83t83 -30q61 0 102 50t41 118z" />
    <glyph glyph-name="Uhorn" unicode="&#x1af;" horiz-adv-x="728" 
d="M736 579l-69 -312q-30 -137 -105.5 -208t-208.5 -71q-137 0 -212 62t-75 171q0 17 5 45l77 353q5 24 24.5 39.5t44.5 15.5q30 0 50 -20.5t20 -50.5q0 -11 -1 -14l-70 -319q-4 -11 -4 -33q1 -55 38.5 -89.5t102.5 -34.5q136 0 170 157l77 349q5 24 25 39.5t45 15.5
q47 0 66 -48q62 32 75 68q-1 -1 -8 -1q-18 0 -30.5 13t-12.5 34q0 25 18.5 42.5t43.5 17.5q24 0 39.5 -16t15.5 -42q0 -50 -39.5 -94t-101.5 -69z" />
    <glyph glyph-name="uhorn" unicode="&#x1b0;" 
d="M553 409l-81 -368q-5 -22 -21.5 -36.5t-39.5 -14.5q-27 0 -45.5 18.5t-18.5 44.5q0 7 1 9q-79 -74 -160 -74q-69 0 -110 33t-41 90q0 15 5 40l64 291q5 21 22 34.5t39 13.5q27 0 44.5 -18.5t17.5 -45.5l-2 -16l-49 -221q-3 -15 -3 -27q0 -61 73 -61q63 0 122 56l62 285
q4 21 21.5 34.5t39.5 13.5q38 0 56 -33q42 27 52 55h-7q-18 0 -31 13t-13 33q0 24 19 42.5t43 18.5t39.5 -16t15.5 -43q0 -44 -31 -83.5t-83 -67.5z" />
    <glyph glyph-name="Gcaron" unicode="&#x1e6;" horiz-adv-x="720" 
d="M686 311q0 -10 -3 -22l-28 -127q-12 -56 -45 -86q-101 -88 -238 -88q-139 -2 -234.5 82.5t-93.5 216.5q-3 166 114 280t287 111q137 0 222 -90q21 -23 21 -49q0 -28 -20 -49t-49 -21q-31 0 -52 23q-51 60 -142 60q-93 2 -164 -74.5t-69 -181.5q0 -78 51.5 -130t136.5 -52
q75 0 135 51l17 81h-109q-25 0 -42.5 18t-17.5 43t17.5 43t42.5 18h201q30 0 46 -15t16 -42zM455 856l47 -78l86 85q10 10 23 10q14 0 22 -9t8 -22q0 -12 -7 -19l-58 -68q-29 -32 -64 -32h-41q-16 0 -30 8.5t-20 21.5l-30 70q-3 8 -3 14q0 15 11 25.5t25 10.5q20 0 31 -17z
" />
    <glyph glyph-name="gcaron" unicode="&#x1e7;" horiz-adv-x="585" 
d="M560 428q0 -11 -1 -14l-84 -381q-27 -125 -99 -177q-71 -52 -164 -52q-116 0 -190 48q-26 18 -26 47q0 23 16.5 39t39.5 16q16 0 30 -9q52 -37 128 -37q108 0 137 125l10 44q-60 -73 -148 -73q-82 0 -132 50t-50 146q-2 116 70 207t180 88q45 0 87 -20.5t69 -55.5l4 20
q5 22 22 36.5t39 14.5q26 0 44 -18t18 -44zM378 172l34 150q-37 60 -118 60q-58 0 -96.5 -45.5t-38.5 -111.5q0 -49 30 -78.5t80 -29.5q63 0 109 55zM333 709l47 -78l86 85q10 10 23 10q14 0 22 -9t8 -22q0 -12 -7 -19l-58 -68q-29 -32 -64 -32h-41q-16 0 -30 8.5t-20 21.5
l-30 70q-3 8 -3 14q0 15 11 25.5t25 10.5q20 0 31 -17z" />
    <glyph glyph-name="uni01EA" unicode="&#x1ea;" horiz-adv-x="765" 
d="M403 -83q0 -21 26 -23l9 -1q15 0 26 -10.5t11 -25.5q0 -27 -27 -35q-30 -8 -69 -8q-44 0 -71 17t-27 47q0 67 106 110h-15q-140 -2 -234.5 82.5t-93.5 216.5q-3 161 112 277.5t276 113.5q141 0 234 -83t93 -215q0 -137 -80.5 -242t-207.5 -138q-68 -47 -68 -83zM380 114
q94 -2 163.5 75t67.5 181q0 82 -53 132t-135 50q-95 2 -164 -74.5t-67 -181.5q0 -82 53 -132t135 -50z" />
    <glyph glyph-name="uni01EB" unicode="&#x1eb;" horiz-adv-x="574" 
d="M282 -83q0 -21 25 -23l10 -1q15 0 26 -10.5t11 -25.5q0 -26 -27 -35q-34 -8 -69 -8q-45 0 -71.5 17t-26.5 47q0 66 105 110q-111 0 -174.5 60.5t-63.5 158.5q-2 114 80.5 202.5t198.5 85.5q112 0 176 -61t64 -159q0 -92 -54 -169t-141 -105q-69 -47 -69 -84zM271 101
q61 0 102 50t41 118q0 53 -30 83t-82 30q-61 0 -102.5 -50.5t-41.5 -117.5q0 -53 30 -83t83 -30z" />
    <glyph glyph-name="Aringacute" unicode="&#x1fa;" horiz-adv-x="678" 
d="M620 65q0 -30 -21 -51t-52 -21q-27 0 -47 17.5t-24 44.5l-8 64h-299l-52 -91q-20 -35 -61 -35q-28 0 -48.5 20.5t-20.5 48.5q0 16 11 36l313 517q38 59 105 59q45 0 79 -29.5t41 -73.5l83 -494q1 -3 1 -12zM239 242h212l-40 303zM473 909q43 0 69 -26.5t26 -69.5
q0 -47 -34 -81t-81 -34q-42 0 -68.5 26.5t-26.5 69.5q0 45 35 80t80 35zM468 850q-20 0 -35.5 -15t-15.5 -35q0 -19 11.5 -31t30.5 -12q20 0 35 15t15 35q0 19 -11 31t-30 12zM494 929q-13 0 -22 9.5t-9 21.5q0 16 11 26l106 93q12 9 28 9q15 0 26 -11.5t11 -26.5
q0 -20 -15 -32l-115 -83q-9 -6 -21 -6z" />
    <glyph glyph-name="aringacute" unicode="&#x1fb;" horiz-adv-x="586" 
d="M562 428q0 -10 -1 -13l-83 -374q-12 -52 -63 -52q-26 0 -45 20t-18 48q-61 -69 -142 -69q-85 0 -134.5 53.5t-49.5 146.5q-1 76 29.5 146t90 116t135.5 45q49 0 89.5 -20t63.5 -56l5 21q5 22 22 36t39 14q26 0 44 -18t18 -44zM377 158l37 168q-16 25 -46.5 40.5
t-66.5 15.5q-60 0 -101 -50t-41 -118q0 -51 30 -82t77 -31q67 0 111 57zM398 762q43 0 69 -26.5t26 -69.5q0 -47 -34 -81t-81 -34q-42 0 -68.5 26.5t-26.5 69.5q0 45 35 80t80 35zM393 703q-20 0 -35.5 -15t-15.5 -35q0 -19 11.5 -31t30.5 -12q20 0 35 15t15 35q0 19 -11 31
t-30 12zM419 782q-13 0 -22 9.5t-9 21.5q0 16 11 26l106 93q12 9 28 9q15 0 26 -11.5t11 -26.5q0 -20 -15 -32l-115 -83q-9 -6 -21 -6z" />
    <glyph glyph-name="AEacute" unicode="&#x1fc;" horiz-adv-x="962" 
d="M1005 605q0 -25 -18 -42.5t-43 -17.5h-287l-32 -145h253q26 0 43.5 -18t17.5 -44q0 -25 -18 -42.5t-43 -17.5h-280l-35 -155h261q25 0 43 -18t18 -43t-18 -43.5t-43 -18.5h-345q-34 0 -52 15t-18 41q0 10 3 22l9 41h-239l-79 -102q-18 -24 -48 -24q-25 0 -43 18t-18 44
q0 21 14 38l440 530q35 44 92 44h404q26 0 43.5 -18t17.5 -44zM448 242l65 302l-235 -302h170zM627 717q-13 0 -22 9.5t-9 21.5q0 16 11 26l106 93q12 9 28 9q15 0 26 -11.5t11 -26.5q0 -20 -15 -32l-115 -83q-9 -6 -21 -6z" />
    <glyph glyph-name="aeacute" unicode="&#x1fd;" horiz-adv-x="914" 
d="M887 288q0 -14 -1 -18q-1 -33 -22 -51t-58 -18h-287q-1 -1 -1 -12q0 -36 37 -66.5t99 -30.5q43 0 82 17q8 3 17 3q21 0 35 -14.5t14 -34.5q0 -31 -28 -45q-64 -30 -117 -30q-129 0 -170 92l-8 -38q-4 -22 -21.5 -35.5t-40.5 -13.5q-27 0 -45.5 20t-16.5 47
q-65 -72 -145 -72q-85 0 -134.5 53.5t-49.5 146.5q-1 76 29.5 146t90 116t135.5 45q49 0 89.5 -20t63.5 -56l5 22q4 22 21.5 35.5t40.5 13.5q27 0 45 -19t17 -46q67 70 147 70q85 0 131 -53t46 -154zM772 297q0 42 -29 69.5t-80 27.5q-49 0 -86 -33q-36 -31 -45 -74h239
q1 1 1 10zM377 158l37 168q-16 25 -46.5 40.5t-66.5 15.5q-60 0 -101 -50t-41 -118q0 -51 30 -82t77 -31q67 0 111 57zM538 570q-13 0 -22 9.5t-9 21.5q0 16 11 26l106 93q12 9 28 9q15 0 26 -11.5t11 -26.5q0 -20 -15 -32l-115 -83q-9 -6 -21 -6z" />
    <glyph glyph-name="Oslashacute" unicode="&#x1fe;" horiz-adv-x="765" 
d="M756 660l-75 -79q78 -81 78 -201q3 -161 -112 -278t-275 -114q-117 0 -199 55l-75 -79q-14 -12 -26 -12q-13 0 -22 9t-9 21q0 14 11 25l72 76q-80 83 -80 204q-3 161 112 277.5t276 113.5q116 0 201 -57l77 82q12 12 25 12t22 -9t9 -22q0 -14 -10 -24zM224 188l312 331
q-46 33 -113 33q-95 2 -164 -74.5t-67 -181.5q0 -64 32 -108zM581 475l-312 -330q47 -31 111 -31q94 -2 163.5 75t67.5 181q0 62 -30 105zM490 717q-13 0 -22 9.5t-9 21.5q0 16 11 26l106 93q12 9 28 9q15 0 26 -11.5t11 -26.5q0 -20 -15 -32l-115 -83q-9 -6 -21 -6z" />
    <glyph glyph-name="oslashacute" unicode="&#x1ff;" horiz-adv-x="574" 
d="M546 275q2 -114 -80.5 -201.5t-199.5 -85.5q-76 0 -129 28l-44 -54q-9 -10 -21 -10q-11 0 -18.5 7.5t-7.5 17.5q0 11 7 18l41 50q-67 59 -67 162q-2 114 80.5 202.5t198.5 85.5q76 0 133 -30l46 56q10 10 21 10q10 0 17 -7t7 -17q0 -11 -7 -18l-43 -53q66 -60 66 -161z
M176 145l184 224q-22 13 -58 13q-61 0 -102.5 -50.5t-41.5 -117.5q0 -42 18 -69zM414 269q0 37 -17 66l-182 -223q27 -11 56 -11q61 0 102 50t41 118zM363 570q-13 0 -22 9.5t-9 21.5q0 16 11 26l106 93q12 9 28 9q15 0 26 -11.5t11 -26.5q0 -20 -15 -32l-115 -83
q-9 -6 -21 -6z" />
    <glyph glyph-name="uni0218" unicode="&#x218;" horiz-adv-x="600" 
d="M18 122q0 28 19.5 47.5t47.5 19.5q24 0 41 -14q82 -63 186 -63q47 0 73.5 22.5t26.5 54.5q0 26 -26 43.5t-88 40.5q-65 23 -106 43q-103 53 -103 153q0 82 73 145t187 63q122 0 214 -64q30 -21 30 -55q0 -28 -19.5 -47.5t-46.5 -19.5q-22 0 -39 13q-73 51 -157 51
q-40 0 -66.5 -20.5t-26.5 -49.5q0 -23 25 -39.5t89 -39.5q61 -22 106 -45q105 -53 105 -150q0 -93 -72 -158t-190 -65q-154 0 -256 80q-27 20 -27 54zM161 -278q-10 0 -17.5 7.5t-7.5 16.5q0 15 11 21q45 26 58 58h-8q-21 0 -35 13.5t-14 37.5q0 27 21.5 47.5t48.5 20.5
q26 0 43.5 -18t17.5 -47q0 -41 -29 -83t-73 -69q-7 -5 -16 -5z" />
    <glyph glyph-name="uni0219" unicode="&#x219;" horiz-adv-x="477" 
d="M8 87q0 23 16 38.5t38 15.5q18 0 31 -9q67 -47 138 -47q31 0 50.5 14.5t19.5 36.5q0 19 -20 31.5t-69 28.5q-78 26 -115.5 54t-40.5 82q0 68 54 115.5t145 47.5q93 0 166 -49q25 -15 25 -42q0 -21 -15 -36t-37 -15q-16 0 -28 9q-57 36 -113 36q-32 0 -51 -13t-19 -34
q0 -15 19.5 -27t63.5 -27q48 -15 81 -30q81 -37 81 -110q0 -72 -57 -120.5t-152 -48.5q-107 0 -186 54q-25 15 -25 45zM103 -278q-10 0 -17.5 7.5t-7.5 16.5q0 15 11 21q45 26 58 58h-8q-21 0 -35 13.5t-14 37.5q0 27 21.5 47.5t48.5 20.5q26 0 43.5 -18t17.5 -47
q0 -41 -29 -83t-73 -69q-7 -5 -16 -5z" />
    <glyph glyph-name="uni021A" unicode="&#x21a;" horiz-adv-x="582" 
d="M184 61q0 1 2 17l102 464h-127q-26 0 -44.5 18.5t-18.5 44.5q0 25 18.5 43.5t44.5 18.5h419q26 0 44 -18t18 -44t-18 -44.5t-44 -18.5h-150l-108 -495q-5 -23 -24 -38.5t-44 -15.5q-29 0 -49.5 20t-20.5 48zM159 -278q-10 0 -17.5 7.5t-7.5 16.5q0 15 11 21q45 26 58 58
h-8q-21 0 -35 13.5t-14 37.5q0 27 21.5 47.5t48.5 20.5q26 0 43.5 -18t17.5 -47q0 -41 -29 -83t-73 -69q-7 -5 -16 -5z" />
    <glyph glyph-name="uni021B" unicode="&#x21b;" horiz-adv-x="338" 
d="M361 428q0 -23 -16 -39t-39 -16h-61l-47 -214q-3 -11 -3 -19q0 -38 42 -39q6 0 8 -1q17 0 31 -15t14 -35q0 -45 -45 -56q-21 -6 -45 -6q-66 0 -103.5 26.5t-37.5 76.5q0 20 4 35l55 247h-18q-24 0 -40 15.5t-16 39.5q0 23 16 39t39 16h43l20 91q4 21 21 34.5t39 13.5
q26 0 45 -18t19 -43l-2 -14l-14 -64h36q23 0 39 -16t16 -39zM32 -278q-10 0 -17.5 7.5t-7.5 16.5q0 15 11 21q45 26 58 58h-8q-22 0 -35.5 13.5t-13.5 37.5q0 27 21.5 47.5t48.5 20.5q26 0 43.5 -18t17.5 -47q0 -41 -29 -83t-73 -69q-7 -5 -16 -5z" />
    <glyph glyph-name="uni0232" unicode="&#x232;" horiz-adv-x="639" 
d="M666 568l-269 -295l-49 -226q-5 -23 -24 -38.5t-44 -15.5q-29 0 -49.5 20t-20.5 49q0 2 2 16l43 197l-138 302q-6 15 -6 29q0 28 20.5 48t49.5 20q46 0 66 -45l100 -231l221 252q21 24 49 24q27 0 45.5 -19t18.5 -45q0 -24 -15 -42zM263 765q0 15 11 25.5t26 10.5h275
q15 0 25.5 -10.5t10.5 -25.5t-10.5 -25.5t-25.5 -10.5h-275q-15 0 -26 10.5t-11 25.5z" />
    <glyph glyph-name="uni0233" unicode="&#x233;" horiz-adv-x="507" 
d="M23 -81q4 -1 16 -1q37 0 60 34l30 45l-74 418q-1 3 -1 11q0 26 19 45t46 19q24 0 41.5 -15.5t21.5 -39.5l44 -288l189 315q18 28 51 28q26 0 42.5 -17t16.5 -42q0 -16 -9 -31l-300 -479q-39 -63 -82 -89.5t-103 -27.5q-12 0 -15 1q-23 1 -38.5 17.5t-15.5 39.5
q0 25 18 42t43 15zM164 618q0 15 11 25.5t26 10.5h275q15 0 25.5 -10.5t10.5 -25.5t-10.5 -25.5t-25.5 -10.5h-275q-15 0 -26 10.5t-11 25.5z" />
    <glyph glyph-name="uni0237" unicode="&#x237;" horiz-adv-x="253" 
d="M-125 -143q0 22 14.5 37.5t34.5 16.5h9q56 3 72 76l101 455q4 21 21.5 34.5t39.5 13.5q26 0 43.5 -17.5t17.5 -43.5q0 -11 -1 -14l-95 -428q-39 -183 -186 -183q-16 0 -20 1q-22 2 -36.5 16.5t-14.5 35.5z" />
    <glyph glyph-name="uni0259" unicode="&#x259;" horiz-adv-x="553" 
d="M245 -12q-95 0 -155.5 57.5t-61.5 155.5q0 12 1 15q1 31 22.5 48.5t56.5 17.5h289l1 13q0 37 -36.5 68t-96.5 31q-45 0 -89 -18q-8 -3 -16 -3q-20 0 -34 14t-14 34q0 31 28 43q63 31 135 31q115 0 182 -58q68 -59 68 -159q2 -117 -81 -204.5t-199 -85.5zM142 186
q0 -42 29.5 -69.5t81.5 -27.5q48 0 85 32t46 75h-241q-1 -1 -1 -10z" />
    <glyph glyph-name="uni0272" unicode="&#x272;" 
d="M540 371q0 -22 -4 -39l-64 -290q-4 -22 -21 -35.5t-40 -13.5q-27 0 -44.5 18t-17.5 45q0 1 2 17l49 221q3 15 3 26q0 62 -73 62q-63 0 -122 -56l-76 -339q-39 -183 -186 -183q-16 0 -20 1q-22 2 -36.5 16.5t-14.5 35.5t14.5 36.5t35.5 17.5l11 1q52 3 69 75l101 455
q5 22 22 36.5t39 14.5q26 0 44.5 -18t18.5 -43q0 -9 -1 -12q80 75 161 75q70 0 110 -32.5t40 -91.5z" />
    <glyph glyph-name="uni02B0" unicode="&#x2b0;" horiz-adv-x="411" 
d="M293 364q0 8 1 10l30 138l2 18q0 40 -51 40q-36 0 -73 -37l-39 -179q-4 -15 -16.5 -25t-28.5 -10q-19 0 -32 13.5t-13 32.5q0 7 1 9l79 358q4 15 16.5 25t28.5 10q19 0 32 -13.5t13 -31.5q0 -7 -1 -9l-25 -113q48 48 105 48q49 0 76.5 -22t27.5 -61q0 -9 -4 -30l-41 -181
q-3 -15 -15.5 -25t-27.5 -10q-19 0 -32 13.5t-13 31.5z" />
    <glyph glyph-name="uni02BC" unicode="&#x2bc;" horiz-adv-x="255" 
d="M144 398q-13 0 -22.5 9.5t-9.5 22.5q0 16 15 27q53 33 69 69h-10q-27 0 -44.5 17.5t-17.5 47.5q0 35 27 60q29 26 62 26t55.5 -22.5t22.5 -59.5q0 -51 -36 -103.5t-94 -88.5q-5 -5 -17 -5z" />
    <glyph glyph-name="circumflex" unicode="&#x2c6;" horiz-adv-x="300" 
d="M286 567l-47 78l-86 -85q-10 -10 -23 -10q-14 0 -22 9.5t-8 22.5q0 12 7 19l58 67q29 32 65 32h41q16 0 30 -8.5t19 -21.5l30 -69q3 -7 3 -15q0 -15 -11 -25.5t-25 -10.5q-20 0 -31 17z" />
    <glyph glyph-name="caron" unicode="&#x2c7;" horiz-adv-x="300" 
d="M184 689l47 -78l86 85q10 10 23 10q14 0 22 -9t8 -22q0 -12 -7 -19l-58 -68q-29 -32 -64 -32h-41q-16 0 -30 8.5t-20 21.5l-30 70q-3 8 -3 14q0 15 11 25.5t25 10.5q20 0 31 -17z" />
    <glyph glyph-name="uni02C9" unicode="&#x2c9;" horiz-adv-x="363" 
d="M93 627q0 15 11 26t25 11h275q15 0 25.5 -11t10.5 -26t-10.5 -25.5t-25.5 -10.5h-275q-14 0 -25 10.5t-11 25.5z" />
    <glyph glyph-name="uni02CB" unicode="&#x2cb;" horiz-adv-x="251" 
d="M226 564l-69 77q-12 12 -12 29t12.5 29t28.5 12q22 0 33 -17l63 -86q8 -11 8 -21q0 -14 -10.5 -25t-24.5 -11q-16 0 -29 13z" />
    <glyph glyph-name="breve" unicode="&#x2d8;" horiz-adv-x="351" 
d="M110 611q-11 11 -11 27t11.5 28t27.5 12t30 -14q33 -39 90 -39q60 0 116 47q8 8 21 8q14 0 24 -10t10 -24t-12 -25q-80 -68 -172 -68q-83 0 -135 58z" />
    <glyph glyph-name="dotaccent" unicode="&#x2d9;" horiz-adv-x="161" 
d="M96 613q0 30 23 53t54 23q26 0 43 -17.5t17 -43.5q0 -30 -23.5 -52.5t-53.5 -22.5q-26 0 -43 17.5t-17 42.5z" />
    <glyph glyph-name="ring" unicode="&#x2da;" horiz-adv-x="252" 
d="M223 742q43 0 69 -26.5t26 -69.5q0 -47 -34 -81t-81 -34q-42 0 -68.5 26.5t-26.5 69.5q0 45 35 80t80 35zM218 683q-20 0 -35.5 -15t-15.5 -35q0 -19 11.5 -31t30.5 -12q20 0 35 15t15 35q0 19 -11 31t-30 12z" />
    <glyph glyph-name="ogonek" unicode="&#x2db;" horiz-adv-x="221" 
d="M96 -178q-30 -8 -69 -8q-44 0 -71 17t-27 47q0 76 141 123q63 21 64 12q1 -2 -5 -6q-77 -51 -77 -90q0 -21 25 -23l9 -1q15 0 26 -10.5t11 -25.5q0 -27 -27 -35z" />
    <glyph glyph-name="tilde" unicode="&#x2dc;" horiz-adv-x="327" 
d="M182 622q-26 0 -39 -46q-6 -23 -31 -23q-14 0 -23.5 9.5t-9.5 23.5q0 7 1 9q30 99 111 99q41 0 74 -39q16 -16 25 -22t22 -6q26 0 39 45q7 23 31 23q15 0 24 -9.5t9 -23.5q0 -8 -1 -10q-30 -98 -111 -98q-24 0 -39 9t-35 30q-16 17 -25 23t-22 6z" />
    <glyph glyph-name="hungarumlaut" unicode="&#x2dd;" horiz-adv-x="338" 
d="M95 580q0 10 6 18l80 96q10 13 28 13q15 0 25.5 -10.5t10.5 -25.5t-11 -26l-87 -86q-11 -9 -23 -9t-20.5 8.5t-8.5 21.5zM244 580q0 10 6 18l80 96q10 13 28 13q15 0 25.5 -10.5t10.5 -25.5t-11 -26l-87 -86q-11 -9 -23 -9t-20.5 8.5t-8.5 21.5z" />
    <glyph glyph-name="gravecomb" unicode="&#x300;" horiz-adv-x="0" 
d="M-25 564l-69 77q-12 12 -12 29t12.5 29t28.5 12q22 0 33 -17l63 -86q8 -11 8 -21q0 -14 -10.5 -25t-24.5 -11q-16 0 -29 13z" />
    <glyph glyph-name="acutecomb" unicode="&#x301;" horiz-adv-x="0" 
d="M-110 550q-13 0 -22 9.5t-9 21.5q0 16 11 26l106 93q12 9 28 9q15 0 26 -11.5t11 -26.5q0 -20 -15 -32l-115 -83q-9 -6 -21 -6z" />
    <glyph glyph-name="uni0302" unicode="&#x302;" horiz-adv-x="0" 
d="M-14 567l-47 78l-86 -85q-10 -10 -23 -10q-14 0 -22 9.5t-8 22.5q0 12 7 19l58 67q29 32 65 32h41q16 0 30 -8.5t19 -21.5l30 -69q3 -7 3 -15q0 -15 -11 -25.5t-25 -10.5q-20 0 -31 17z" />
    <glyph glyph-name="tildecomb" unicode="&#x303;" horiz-adv-x="0" 
d="M-145 622q-26 0 -39 -46q-6 -23 -31 -23q-14 0 -23.5 9.5t-9.5 23.5q0 7 1 9q30 99 111 99q41 0 74 -39q16 -16 25 -22t22 -6q26 0 39 45q7 23 31 23q15 0 24 -9.5t9 -23.5q0 -8 -1 -10q-30 -98 -111 -98q-24 0 -39 9t-35 30q-16 17 -25 23t-22 6z" />
    <glyph glyph-name="uni0304" unicode="&#x304;" horiz-adv-x="0" 
d="M-276 598q0 15 11 25.5t26 10.5h275q15 0 25.5 -10.5t10.5 -25.5t-10.5 -25.5t-25.5 -10.5h-275q-15 0 -26 10.5t-11 25.5z" />
    <glyph glyph-name="uni0306" unicode="&#x306;" horiz-adv-x="0" 
d="M-241 611q-11 11 -11 27t11.5 28t27.5 12t30 -14q33 -39 90 -39q60 0 116 47q8 8 21 8q14 0 24 -10t10 -24t-12 -25q-80 -68 -172 -68q-83 0 -135 58z" />
    <glyph glyph-name="uni0307" unicode="&#x307;" horiz-adv-x="0" 
d="M-65 613q0 30 23 53t54 23q26 0 43 -17.5t17 -43.5q0 -30 -23.5 -52.5t-53.5 -22.5q-26 0 -43 17.5t-17 42.5z" />
    <glyph glyph-name="uni0308" unicode="&#x308;" horiz-adv-x="0" 
d="M-301 614q0 30 23 52.5t53 22.5q26 0 43 -17t17 -43q0 -30 -23 -52.5t-53 -22.5q-26 0 -43 17.5t-17 42.5zM-90 614q0 30 23 52.5t53 22.5q26 0 43 -17t17 -43q0 -30 -23 -52.5t-53 -22.5q-26 0 -43 17.5t-17 42.5z" />
    <glyph glyph-name="uni0309" unicode="&#x309;" horiz-adv-x="0" 
d="M6 581q0 5 4 12q8 19 8 34t-10.5 24.5t-25.5 9.5q-20 0 -37 -20q-7 -10 -22 -10q-12 0 -20 8t-8 20t7 19q35 38 87 38q40 0 68 -22t28 -58q0 -31 -23 -71q-7 -14 -26 -14q-12 0 -21 8.5t-9 21.5z" />
    <glyph glyph-name="uni030A" unicode="&#x30a;" horiz-adv-x="0" 
d="M-29 742q43 0 69 -26.5t26 -69.5q0 -47 -34 -81t-81 -34q-42 0 -68.5 26.5t-26.5 69.5q0 45 35 80t80 35zM-34 683q-20 0 -35.5 -15t-15.5 -35q0 -19 11.5 -31t30.5 -12q20 0 35 15t15 35q0 19 -11 31t-30 12z" />
    <glyph glyph-name="uni030B" unicode="&#x30b;" horiz-adv-x="0" 
d="M-243 580q0 10 6 18l80 96q10 13 28 13q15 0 25.5 -10.5t10.5 -25.5t-11 -26l-87 -86q-10 -9 -23 -9q-12 0 -20.5 8.5t-8.5 21.5zM-94 580q0 10 6 18l80 96q10 13 28 13q15 0 25.5 -10.5t10.5 -25.5t-11 -26l-87 -86q-10 -9 -23 -9q-12 0 -20.5 8.5t-8.5 21.5z" />
    <glyph glyph-name="uni030C" unicode="&#x30c;" horiz-adv-x="0" 
d="M-116 689l47 -78l86 85q10 10 23 10q14 0 22 -9t8 -22q0 -12 -7 -19l-58 -68q-29 -32 -64 -32h-41q-16 0 -30 8.5t-20 21.5l-30 70q-3 8 -3 14q0 15 11 25.5t25 10.5q20 0 31 -17z" />
    <glyph glyph-name="dotbelowcomb" unicode="&#x323;" horiz-adv-x="0" 
d="M-229 -127q0 30 23 53t53 23q26 0 43.5 -17.5t17.5 -43.5q0 -30 -23.5 -52.5t-53.5 -22.5q-26 0 -43 17t-17 43z" />
    <glyph glyph-name="uni0326" unicode="&#x326;" horiz-adv-x="0" 
d="M-260 -278q-10 0 -17.5 7.5t-7.5 16.5q0 15 11 21q45 26 58 58h-8q-22 0 -35.5 13.5t-13.5 37.5q0 27 21.5 47.5t48.5 20.5q26 0 43.5 -18t17.5 -47q0 -41 -29 -83t-73 -69q-7 -5 -16 -5z" />
    <glyph glyph-name="uni0327" unicode="&#x327;" horiz-adv-x="0" 
d="M-304 -144q0 12 9 20.5t20 8.5q8 0 16 -5q31 -22 68 -22q23 0 36.5 9.5t13.5 25.5q0 24 -30 24q-10 0 -21 -8q-8 -5 -17 -5q-11 0 -18.5 7.5t-7.5 17.5q0 11 4 18l39 64h62l-38 -62q13 10 31 10q25 0 42 -17.5t17 -44.5q0 -42 -32 -67.5t-81 -25.5q-55 0 -99 26
q-14 8 -14 26z" />
    <glyph glyph-name="uni0328" unicode="&#x328;" horiz-adv-x="0" 
d="M-125 -178q-30 -8 -69 -8q-44 0 -71 17t-27 47q0 76 141 123q63 21 64 12q1 -2 -5 -6q-77 -51 -77 -90q0 -21 25 -23l9 -1q15 0 26 -10.5t11 -25.5q0 -27 -27 -35z" />
    <glyph glyph-name="uni037E" unicode="&#x37e;" horiz-adv-x="256" 
d="M171 490q31 0 52.5 -21.5t21.5 -52.5q0 -36 -26.5 -62t-62.5 -26q-31 0 -52 22t-21 53q0 36 26 61.5t62 25.5zM28 -128q-13 0 -22.5 9t-9.5 23q0 16 15 27q53 33 69 69h-11q-27 0 -44 17.5t-17 47.5q0 35 27 60q28 26 61 26q34 0 56 -22t22 -60q0 -51 -35.5 -104
t-93.5 -89q-4 -4 -17 -4z" />
    <glyph glyph-name="tonos" unicode="&#x384;" horiz-adv-x="144" 
d="M88 585q0 7 1 9l51 157q13 31 42 31q18 0 31 -13.5t13 -30.5q0 -13 -5 -21l-80 -144q-9 -16 -25 -16q-12 0 -20 8.5t-8 19.5z" />
    <glyph glyph-name="dieresistonos" unicode="&#x385;" horiz-adv-x="453" 
d="M261 585q0 7 1 9l50 157q13 31 42 31q19 0 32 -13t13 -31q0 -10 -6 -21l-80 -144q-9 -16 -24 -16q-12 0 -20 8.5t-8 19.5zM92 614q0 30 23.5 52.5t53.5 22.5q26 0 43 -17t17 -43q0 -30 -23.5 -52.5t-53.5 -22.5q-25 0 -42.5 17.5t-17.5 42.5zM392 614q0 30 23 52.5
t53 22.5q26 0 43 -17t17 -43q0 -30 -23 -52.5t-53 -22.5q-26 0 -43 17t-17 43z" />
    <glyph glyph-name="Alphatonos" unicode="&#x386;" horiz-adv-x="678" 
d="M620 65q0 -30 -21 -51t-52 -21q-27 0 -47 17.5t-24 44.5l-8 64h-299l-52 -91q-20 -35 -61 -35q-28 0 -48.5 20.5t-20.5 48.5q0 16 11 36l313 517q38 59 105 59q45 0 79 -29.5t41 -73.5l83 -494q1 -3 1 -12zM239 242h212l-40 303zM95 483q0 7 1 9l51 157q13 31 42 31
q18 0 31 -13.5t13 -30.5q0 -13 -5 -21l-80 -144q-9 -16 -25 -16q-12 0 -20 8.5t-8 19.5z" />
    <glyph glyph-name="Epsilontonos" unicode="&#x388;" horiz-adv-x="643" 
d="M87 60q0 11 3 23l114 517q15 67 83 67h335q25 0 43 -18t18 -44q0 -25 -18 -42.5t-43 -17.5h-288l-31 -145h253q25 0 43 -18t18 -44q0 -25 -18 -42.5t-43 -17.5h-281l-34 -155h260q25 0 43.5 -18t18.5 -43t-18 -43.5t-44 -18.5h-344q-70 0 -70 60zM35 483q0 7 1 9l51 157
q13 31 42 31q18 0 31 -13.5t13 -30.5q0 -13 -5 -21l-80 -144q-9 -16 -25 -16q-12 0 -20 8.5t-8 19.5z" />
    <glyph glyph-name="Etatonos" unicode="&#x389;" horiz-adv-x="792" 
d="M545 63q0 12 1 15l45 202h-315l-51 -233q-5 -23 -24 -38.5t-44 -15.5q-29 0 -49 20.5t-20 49.5q0 12 1 15l119 542q5 23 24 38.5t44 15.5q29 0 49 -20.5t20 -49.5q0 -12 -1 -15l-40 -184h314l47 215q5 23 24.5 38.5t44.5 15.5q29 0 49 -20.5t20 -50.5q0 -11 -1 -14
l-120 -542q-5 -23 -24 -38.5t-44 -15.5q-29 0 -49 20.5t-20 49.5zM35 483q0 7 1 9l51 157q13 31 42 31q18 0 31 -13.5t13 -30.5q0 -13 -5 -21l-80 -144q-9 -16 -25 -16q-12 0 -20 8.5t-8 19.5z" />
    <glyph glyph-name="Iotatonos" unicode="&#x38a;" horiz-adv-x="335" 
d="M87 62q0 2 2 16l119 542q5 23 24 38.5t44 15.5q29 0 49.5 -20t20.5 -48q0 -1 -2 -17l-119 -542q-5 -23 -24 -38.5t-44 -15.5q-29 0 -49.5 20t-20.5 49zM35 483q0 7 1 9l51 157q13 31 42 31q18 0 31 -13.5t13 -30.5q0 -13 -5 -21l-80 -144q-9 -16 -25 -16q-12 0 -20 8.5
t-8 19.5z" />
    <glyph glyph-name="Omicrontonos" unicode="&#x38c;" horiz-adv-x="815" 
d="M482 678q141 0 234 -83t93 -215q3 -161 -112 -278t-275 -114q-140 -2 -234.5 82.5t-93.5 216.5q-3 161 112 277.5t276 113.5zM473 552q-95 2 -164 -74.5t-67 -181.5q0 -82 53 -132t135 -50q94 -2 163.5 75t67.5 181q0 82 -53 132t-135 50zM34 483q0 7 1 9l51 157
q13 31 42 31q18 0 31 -13.5t13 -30.5q0 -13 -5 -21l-80 -144q-9 -16 -25 -16q-12 0 -20 8.5t-8 19.5z" />
    <glyph glyph-name="Upsilontonos" unicode="&#x38e;" horiz-adv-x="730" 
d="M751 568l-269 -295l-49 -226q-5 -23 -24 -38.5t-44 -15.5q-29 0 -49.5 20t-20.5 49q0 2 2 16l43 197l-138 302q-6 15 -6 29q0 28 20.5 48t49.5 20q46 0 66 -45l100 -231l221 252q21 24 49 24q27 0 45.5 -19t18.5 -45q0 -24 -15 -42zM34 483q0 7 1 9l51 157q13 31 42 31
q18 0 31 -13.5t13 -30.5q0 -13 -5 -21l-80 -144q-9 -16 -25 -16q-12 0 -20 8.5t-8 19.5z" />
    <glyph glyph-name="Omegatonos" unicode="&#x38f;" horiz-adv-x="823" 
d="M736 63q0 -26 -18.5 -44.5t-44.5 -18.5h-145q-29 0 -50 20.5t-21 49.5q0 22 13 40t33 26q75 26 119 90t44 146t-49 130.5t-135 48.5q-99 2 -166 -75.5t-65 -177.5q0 -93 68 -149q29 -27 29 -65q0 -35 -25 -59.5t-60 -24.5h-138q-26 0 -44 18.5t-18 44.5t18.5 44t43.5 18
h95q-107 82 -107 217q-1 62 25 122t73 108.5t119.5 77.5t157.5 28q144 0 238 -76t94 -202q0 -98 -54 -168q-53 -69 -126 -107h33q26 0 44.5 -18.5t18.5 -43.5zM34 483q0 7 1 9l51 157q13 31 42 31q18 0 31 -13.5t13 -30.5q0 -13 -5 -21l-80 -144q-9 -16 -25 -16
q-12 0 -20 8.5t-8 19.5z" />
    <glyph glyph-name="iotadieresistonos" unicode="&#x390;" horiz-adv-x="265" 
d="M34 120l74 322q5 21 22 34.5t38 13.5q26 0 44.5 -18.5t18.5 -43.5l-2 -14l-62 -269q0 -2 -0.5 -5t-1 -5t-0.5 -3.5v-2.5q0 -18 15 -24q6 -1 17 -12q18 -17 18 -43q0 -22 -14.5 -40t-35.5 -21q-6 -1 -26 -1q-110 0 -110 91q0 13 5 41zM186 605q0 7 1 9l50 157q13 31 42 31
q19 0 32 -13t13 -31q0 -10 -6 -21l-80 -144q-9 -16 -24 -16q-12 0 -20 8.5t-8 19.5zM17 634q0 30 23.5 52.5t53.5 22.5q26 0 43 -17t17 -43q0 -30 -23.5 -52.5t-53.5 -22.5q-25 0 -42.5 17.5t-17.5 42.5zM317 634q0 30 23 52.5t53 22.5q26 0 43 -17t17 -43q0 -30 -23 -52.5
t-53 -22.5q-26 0 -43 17t-17 43z" />
    <glyph glyph-name="Alpha" unicode="&#x391;" horiz-adv-x="678" 
d="M620 65q0 -30 -21 -51t-52 -21q-27 0 -47 17.5t-24 44.5l-8 64h-299l-52 -91q-20 -35 -61 -35q-28 0 -48.5 20.5t-20.5 48.5q0 16 11 36l313 517q38 59 105 59q45 0 79 -29.5t41 -73.5l83 -494q1 -3 1 -12zM239 242h212l-40 303z" />
    <glyph glyph-name="Beta" unicode="&#x392;" horiz-adv-x="663" 
d="M27 60q0 11 3 23l114 517q15 67 83 67h256q82 0 131.5 -46.5t49.5 -113.5q0 -66 -45.5 -117t-106.5 -57q44 -12 70 -49.5t26 -85.5q0 -81 -59.5 -139.5t-172.5 -58.5h-279q-70 0 -70 60zM443 546h-168l-33 -147h179q45 0 68 24t23 60q0 27 -19.5 45t-49.5 18zM392 278
h-177l-34 -157h183q46 0 74 25.5t28 63.5q0 30 -20.5 49t-53.5 19z" />
    <glyph glyph-name="Gamma" unicode="&#x393;" horiz-adv-x="559" 
d="M28 63q0 12 1 15l115 522q15 67 83 67h333q26 0 44 -18.5t18 -44.5q0 -25 -18 -43.5t-44 -18.5h-286l-109 -495q-5 -23 -24 -38.5t-44 -15.5q-29 0 -49 20.5t-20 49.5z" />
    <glyph glyph-name="uni0394" unicode="&#x394;" horiz-adv-x="684" 
d="M-18 48q0 17 14 43l318 524q38 59 105 59q45 0 79 -29.5t41 -73.5l82 -490q1 -4 1 -18q0 -63 -70 -63h-504q-31 0 -48.5 13t-17.5 35zM411 525l-234 -400h291z" />
    <glyph glyph-name="Epsilon" unicode="&#x395;" horiz-adv-x="583" 
d="M27 60q0 11 3 23l114 517q15 67 83 67h335q25 0 43 -18t18 -44q0 -25 -18 -42.5t-43 -17.5h-288l-31 -145h253q25 0 43 -18t18 -44q0 -25 -18 -42.5t-43 -17.5h-281l-34 -155h260q25 0 43.5 -18t18.5 -43t-18 -43.5t-44 -18.5h-344q-70 0 -70 60z" />
    <glyph glyph-name="Zeta" unicode="&#x396;" horiz-adv-x="592" 
d="M-3 70q0 28 20 48l397 424h-236q-26 0 -44.5 18.5t-18.5 43.5q0 26 18.5 44.5t44.5 18.5h379q29 0 49.5 -20.5t20.5 -49.5t-19 -49l-399 -423h245q26 0 44 -18.5t18 -44.5q0 -25 -18 -43.5t-44 -18.5h-386q-29 0 -50 20.5t-21 49.5z" />
    <glyph glyph-name="Eta" unicode="&#x397;" horiz-adv-x="731" 
d="M485 63q0 12 1 15l45 202h-315l-51 -233q-5 -23 -24 -38.5t-44 -15.5q-29 0 -49 20.5t-20 49.5q0 12 1 15l119 542q5 23 24 38.5t44 15.5q29 0 49 -20.5t20 -49.5q0 -12 -1 -15l-40 -184h314l47 215q5 23 24.5 38.5t44.5 15.5q29 0 49 -20.5t20 -50.5q0 -11 -1 -14
l-120 -542q-5 -23 -24 -38.5t-44 -15.5q-29 0 -49 20.5t-20 49.5z" />
    <glyph glyph-name="Theta" unicode="&#x398;" horiz-adv-x="765" 
d="M432 678q141 0 234 -83t93 -215q3 -161 -112 -278t-275 -114q-140 -2 -234.5 82.5t-93.5 216.5q-3 161 112 277.5t276 113.5zM423 552q-95 2 -164 -74.5t-67 -181.5q0 -82 53 -132t135 -50q94 -2 163.5 75t67.5 181q0 82 -53 132t-135 50zM238 339q0 25 18.5 43.5
t44.5 18.5h199q26 0 44 -18t18 -44t-18 -44.5t-44 -18.5h-199q-26 0 -44.5 18.5t-18.5 44.5z" />
    <glyph glyph-name="Iota" unicode="&#x399;" horiz-adv-x="274" 
d="M27 62q0 2 2 16l119 542q5 23 24 38.5t44 15.5q29 0 49.5 -20t20.5 -48q0 -1 -2 -17l-119 -542q-5 -23 -24 -38.5t-44 -15.5q-29 0 -49.5 20t-20.5 49z" />
    <glyph glyph-name="Kappa" unicode="&#x39a;" horiz-adv-x="630" 
d="M647 611q0 -29 -19 -45l-248 -212l169 -254q9 -14 9 -36q0 -29 -21 -50t-51 -21q-39 0 -63 39l-153 242l-70 -70l-35 -157q-5 -23 -24 -38.5t-44 -15.5q-29 0 -49.5 20t-20.5 49q0 2 2 16l119 542q5 23 24 38.5t44 15.5q29 0 49.5 -20t20.5 -48q0 -1 -2 -17l-46 -210
l302 277q20 18 45 18q26 0 44 -18.5t18 -44.5z" />
    <glyph glyph-name="Lambda" unicode="&#x39b;" horiz-adv-x="684" 
d="M472 59l-61 466l-284 -496q-19 -36 -63 -36q-30 0 -51 21.5t-21 51.5q0 20 10 36l312 513q38 59 105 59q45 0 79 -29.5t41 -73.5l82 -491q1 -3 1 -12q0 -30 -22 -52.5t-53 -22.5q-29 0 -50 19t-25 47z" />
    <glyph glyph-name="Mu" unicode="&#x39c;" horiz-adv-x="855" 
d="M608 64q0 11 1 14l90 410l-288 -476q-12 -19 -34 -19q-15 0 -26 9.5t-14 23.5l-76 462l-96 -441q-5 -23 -24 -38.5t-44 -15.5q-29 0 -49.5 20t-20.5 48q0 2 2 16l112 507q8 39 39.5 64.5t72.5 25.5q43 0 75 -28t38 -69l55 -334l227 377q33 54 97 54q48 0 79.5 -32.5
t31.5 -80.5q0 -1 -2 -23l-109 -491q-5 -23 -24 -38.5t-44 -15.5q-29 0 -49 21t-20 50z" />
    <glyph glyph-name="Nu" unicode="&#x39d;" horiz-adv-x="729" 
d="M451 47l-193 426l-93 -426q-5 -23 -24 -38.5t-44 -15.5q-29 0 -49.5 20t-20.5 49q0 2 2 16l114 520q8 33 34.5 54.5t61.5 21.5q30 0 54 -16t35 -42l185 -406l90 410q5 23 24 38.5t44 15.5q29 0 49.5 -20t20.5 -49q0 -2 -2 -16l-115 -525q-7 -30 -32 -50.5t-58 -20.5
q-27 0 -49.5 15t-33.5 39z" />
    <glyph glyph-name="Xi" unicode="&#x39e;" horiz-adv-x="626" 
d="M122 605q0 26 18 44t43 18h422q25 0 43 -18t18 -44q0 -25 -18 -42.5t-43 -17.5h-422q-25 0 -43 17.5t-18 42.5zM70 339q0 25 17.5 43t42.5 18h409q26 0 43.5 -17.5t17.5 -43.5q0 -25 -17.5 -43t-43.5 -18h-409q-25 0 -42.5 18t-17.5 43zM2 61q0 26 18.5 44t43.5 18h421
q26 0 44 -18t18 -44q0 -25 -18.5 -43t-43.5 -18h-421q-25 0 -43.5 18t-18.5 43z" />
    <glyph glyph-name="Omicron" unicode="&#x39f;" horiz-adv-x="765" 
d="M432 678q141 0 234 -83t93 -215q3 -161 -112 -278t-275 -114q-140 -2 -234.5 82.5t-93.5 216.5q-3 161 112 277.5t276 113.5zM423 552q-95 2 -164 -74.5t-67 -181.5q0 -82 53 -132t135 -50q94 -2 163.5 75t67.5 181q0 82 -53 132t-135 50z" />
    <glyph glyph-name="Pi" unicode="&#x3a0;" horiz-adv-x="731" 
d="M485 63q0 12 1 15l102 464h-314l-109 -495q-5 -23 -24 -38.5t-44 -15.5q-29 0 -49 20.5t-20 49.5q0 12 1 15l115 522q15 67 83 67h447q69 0 69 -60q0 -11 -3 -23l-118 -537q-5 -23 -24 -38.5t-44 -15.5q-29 0 -49 20.5t-20 49.5z" />
    <glyph glyph-name="Rho" unicode="&#x3a1;" horiz-adv-x="624" 
d="M27 62q0 2 2 16l115 522q15 67 83 67h220q91 0 147 -53t56 -132q0 -43 -16 -85t-47.5 -79.5t-87 -60t-125.5 -21.5h-168l-41 -189q-5 -23 -24 -38.5t-44 -15.5q-29 0 -49.5 20t-20.5 49zM501 468q0 33 -23 55t-61 22h-143l-40 -184h147q54 0 87 30.5t33 76.5z" />
    <glyph glyph-name="Sigma" unicode="&#x3a3;" horiz-adv-x="571" 
d="M207 125h225q26 0 44.5 -18.5t18.5 -43.5q0 -26 -18.5 -44.5t-44.5 -18.5h-332q-35 0 -60 25t-25 60q0 38 31 64l237 204l-137 179q-19 23 -19 52q0 34 25 58.5t59 24.5h341q26 0 44 -18.5t18 -44.5q0 -25 -18 -43.5t-44 -18.5h-255l112 -148q20 -26 20 -49
q0 -31 -32 -57z" />
    <glyph glyph-name="Tau" unicode="&#x3a4;" horiz-adv-x="582" 
d="M184 61q0 1 2 17l102 464h-127q-26 0 -44.5 18.5t-18.5 44.5q0 25 18.5 43.5t44.5 18.5h419q26 0 44 -18t18 -44t-18 -44.5t-44 -18.5h-150l-108 -495q-5 -23 -24 -38.5t-44 -15.5q-29 0 -49.5 20t-20.5 48z" />
    <glyph glyph-name="Upsilon" unicode="&#x3a5;" horiz-adv-x="639" 
d="M666 568l-269 -295l-49 -226q-5 -23 -24 -38.5t-44 -15.5q-29 0 -49.5 20t-20.5 49q0 2 2 16l43 197l-138 302q-6 15 -6 29q0 28 20.5 48t49.5 20q46 0 66 -45l100 -231l221 252q21 24 49 24q27 0 45.5 -19t18.5 -45q0 -24 -15 -42z" />
    <glyph glyph-name="Phi" unicode="&#x3a6;" horiz-adv-x="855" 
d="M460 65l-4 -18q-5 -24 -24 -39t-44 -15q-31 0 -51.5 23t-17.5 53q-270 30 -270 240q0 120 109 201.5t280 90.5l4 19q5 24 24 39t44 15q31 0 52 -23t17 -54q270 -29 270 -241q0 -120 -109 -201t-280 -90zM346 194l63 278q-100 -10 -155.5 -53t-55.5 -110q0 -46 38 -76
t110 -39zM700 357q0 46 -38.5 76.5t-109.5 38.5l-63 -278q101 10 156 53t55 110z" />
    <glyph glyph-name="Chi" unicode="&#x3a7;" horiz-adv-x="656" 
d="M685 608q0 -27 -17 -44l-230 -230l142 -237q10 -16 10 -35q0 -28 -22 -48.5t-52 -20.5q-39 0 -64 40l-126 208l-226 -226q-19 -22 -49 -22q-27 0 -46.5 19t-19.5 47q0 27 18 44l248 248l-132 220q-9 13 -9 33q0 28 22 49t51 21q39 0 65 -41l114 -192l207 210q23 23 50 23
q28 0 47 -19t19 -47z" />
    <glyph glyph-name="Psi" unicode="&#x3a8;" horiz-adv-x="866" 
d="M812 674q29 0 49.5 -21t20.5 -49q0 -2 -2 -16l-47 -209q-23 -103 -118 -173.5t-235 -79.5l-18 -79q-5 -24 -24 -39t-44 -15q-30 0 -50 20t-20 49q0 2 2 16l12 52q-239 29 -239 216q0 43 10 80l44 193q5 24 24.5 39.5t43.5 15.5q31 0 51 -20t20 -49q0 -2 -2 -16l-40 -176
q-6 -25 -6 -46q0 -45 31.5 -73.5t91.5 -37.5l83 365q5 23 24 38t44 15q29 0 49 -21t20 -49q0 -1 -2 -15l-76 -333q76 11 123.5 50t61.5 101l48 212q5 24 25 39.5t45 15.5z" />
    <glyph glyph-name="uni03A9" unicode="&#x3a9;" horiz-adv-x="765" 
d="M679 63q0 -26 -18.5 -44.5t-44.5 -18.5h-145q-29 0 -50 20.5t-21 49.5q0 22 13 40t33 26q75 26 119 90t44 146t-49 130.5t-135 48.5q-99 2 -166 -75.5t-65 -177.5q0 -93 68 -149q29 -27 29 -65q0 -35 -25 -59.5t-60 -24.5h-138q-26 0 -44 18.5t-18 44.5t18.5 44t43.5 18
h95q-107 82 -107 217q-1 62 25 122t73 108.5t119.5 77.5t157.5 28q144 0 238 -76t94 -202q0 -98 -54 -168q-53 -69 -126 -107h33q26 0 44.5 -18.5t18.5 -43.5z" />
    <glyph glyph-name="Iotadieresis" unicode="&#x3aa;" horiz-adv-x="274" 
d="M27 62q0 2 2 16l119 542q5 23 24 38.5t44 15.5q29 0 49.5 -20t20.5 -48q0 -1 -2 -17l-119 -542q-5 -23 -24 -38.5t-44 -15.5q-29 0 -49.5 20t-20.5 49zM88 781q0 30 23 52.5t53 22.5q26 0 43 -17t17 -43q0 -30 -23 -52.5t-53 -22.5q-26 0 -43 17.5t-17 42.5zM299 781
q0 30 23 52.5t53 22.5q26 0 43 -17t17 -43q0 -30 -23 -52.5t-53 -22.5q-26 0 -43 17.5t-17 42.5z" />
    <glyph glyph-name="Upsilondieresis" unicode="&#x3ab;" horiz-adv-x="639" 
d="M666 568l-269 -295l-49 -226q-5 -23 -24 -38.5t-44 -15.5q-29 0 -49.5 20t-20.5 49q0 2 2 16l43 197l-138 302q-6 15 -6 29q0 28 20.5 48t49.5 20q46 0 66 -45l100 -231l221 252q21 24 49 24q27 0 45.5 -19t18.5 -45q0 -24 -15 -42zM270 781q0 30 23 52.5t53 22.5
q26 0 43 -17t17 -43q0 -30 -23 -52.5t-53 -22.5q-26 0 -43 17.5t-17 42.5zM481 781q0 30 23 52.5t53 22.5q26 0 43 -17t17 -43q0 -30 -23 -52.5t-53 -22.5q-26 0 -43 17.5t-17 42.5z" />
    <glyph glyph-name="alphatonos" unicode="&#x3ac;" horiz-adv-x="600" 
d="M561 415l-60 -270q0 -2 -0.5 -5t-1 -5t-0.5 -3.5v-2.5q0 -18 15 -24q6 -1 17 -12q18 -16 18 -43q0 -22 -14.5 -40t-35.5 -21q-6 -1 -25 -1q-103 0 -108 86q-73 -86 -156 -86q-85 0 -134.5 53.5t-49.5 146.5q-1 76 29.5 146t90 116t135.5 45q49 0 89.5 -20t63.5 -56l5 21
q5 22 22 36t39 14q26 0 44 -18.5t18 -43.5q0 -10 -1 -13zM377 158l37 168q-16 25 -46.5 40.5t-66.5 15.5q-60 0 -101 -50t-41 -118q0 -51 30 -82t77 -31q63 0 111 57zM351 605q0 7 1 9l51 157q13 31 42 31q18 0 31 -13.5t13 -30.5q0 -13 -5 -21l-80 -144q-9 -16 -25 -16
q-12 0 -20 8.5t-8 19.5z" />
    <glyph glyph-name="epsilontonos" unicode="&#x3ad;" horiz-adv-x="489" 
d="M5 131q0 55 46 89t112 34q-43 11 -69.5 40.5t-26.5 67.5q0 52 49 92t160 40q106 0 185 -62q20 -15 20 -40q0 -22 -15 -37.5t-37 -15.5q-19 0 -32 13q-53 42 -123 42q-36 0 -59 -15t-23 -39q0 -49 82 -50h30q19 0 32.5 -13.5t13.5 -32.5t-13.5 -33t-32.5 -14h-69
q-95 0 -95 -50q0 -25 27 -42t70 -17q61 0 114 25q15 5 20 5q21 0 36 -15t15 -36q0 -31 -28 -45q-67 -34 -157 -34q-106 0 -169 41.5t-63 101.5zM318 605q0 7 1 9l51 157q13 31 42 31q18 0 31 -13.5t13 -30.5q0 -13 -5 -21l-80 -144q-9 -16 -25 -16q-12 0 -20 8.5t-8 19.5z
" />
    <glyph glyph-name="etatonos" unicode="&#x3ae;" 
d="M541 372q0 -12 -5 -40l-106 -475q-5 -21 -22 -34.5t-39 -13.5q-26 0 -43.5 18t-17.5 44q0 11 1 14l91 408q4 16 4 27q0 62 -83 62q-55 0 -113 -56l-62 -284q-5 -22 -22 -35.5t-39 -13.5q-27 0 -45 18.5t-18 44.5q0 9 1 12l83 374q5 22 21.5 36.5t39.5 14.5q26 0 44 -18.5
t18 -44.5q0 -10 -1 -13q74 78 162 78q69 0 110 -33.5t41 -89.5zM345 605q0 7 1 9l51 157q13 31 42 31q18 0 31 -13.5t13 -30.5q0 -13 -5 -21l-80 -144q-9 -16 -25 -16q-12 0 -20 8.5t-8 19.5z" />
    <glyph glyph-name="iotatonos" unicode="&#x3af;" horiz-adv-x="265" 
d="M34 120l74 322q5 21 22 34.5t38 13.5q26 0 44.5 -18.5t18.5 -43.5l-2 -14l-62 -269q0 -2 -0.5 -5t-1 -5t-0.5 -3.5v-2.5q0 -18 15 -24q6 -1 17 -12q18 -17 18 -43q0 -22 -14.5 -40t-35.5 -21q-6 -1 -26 -1q-110 0 -110 91q0 13 5 41zM182 605q0 7 1 9l51 157q13 31 42 31
q18 0 31 -13.5t13 -30.5q0 -13 -5 -21l-80 -144q-9 -16 -25 -16q-12 0 -20 8.5t-8 19.5z" />
    <glyph glyph-name="upsilondieresistonos" unicode="&#x3b0;" horiz-adv-x="577" 
d="M60 229l49 213q5 21 22.5 34.5t38.5 13.5q26 0 44 -17.5t18 -43.5q0 -1 -2 -15l-44 -194q-5 -25 -5 -38q0 -39 21.5 -60t62.5 -21q71 0 118 66t47 160q0 43 -12 83q-1 3 -1 15q0 27 18.5 45.5t45.5 18.5q25 0 42.5 -13.5t21.5 -36.5q13 -42 13 -102q2 -147 -83.5 -249.5
t-214.5 -99.5q-100 0 -154 47.5t-54 129.5q0 27 8 64zM349 605q0 7 1 9l50 157q13 31 42 31q19 0 32 -13t13 -31q0 -10 -6 -21l-80 -144q-9 -16 -24 -16q-12 0 -20 8.5t-8 19.5zM180 634q0 30 23.5 52.5t53.5 22.5q26 0 43 -17t17 -43q0 -30 -23.5 -52.5t-53.5 -22.5
q-25 0 -42.5 17.5t-17.5 42.5zM480 634q0 30 23 52.5t53 22.5q26 0 43 -17t17 -43q0 -30 -23 -52.5t-53 -22.5q-26 0 -43 17t-17 43z" />
    <glyph glyph-name="alpha" unicode="&#x3b1;" horiz-adv-x="600" 
d="M561 415l-60 -270q0 -2 -0.5 -5t-1 -5t-0.5 -3.5v-2.5q0 -18 15 -24q6 -1 17 -12q18 -16 18 -43q0 -22 -14.5 -40t-35.5 -21q-6 -1 -25 -1q-103 0 -108 86q-73 -86 -156 -86q-85 0 -134.5 53.5t-49.5 146.5q-1 76 29.5 146t90 116t135.5 45q49 0 89.5 -20t63.5 -56l5 21
q5 22 22 36t39 14q26 0 44 -18.5t18 -43.5q0 -10 -1 -13zM377 158l37 168q-16 25 -46.5 40.5t-66.5 15.5q-60 0 -101 -50t-41 -118q0 -51 30 -82t77 -31q63 0 111 57z" />
    <glyph glyph-name="beta" unicode="&#x3b2;" horiz-adv-x="586" 
d="M150 61l-46 -204q-5 -21 -22.5 -34.5t-38.5 -13.5q-26 0 -44.5 18t-18.5 44l2 14l128 563q17 76 64 129.5t104 76.5t119 23q97 0 151 -40.5t54 -114.5q0 -67 -54.5 -117t-125.5 -61q55 -10 88 -45t33 -95q2 -89 -72 -153.5t-163 -62.5q-106 0 -158 73zM415 210
q0 32 -22.5 50.5t-59.5 20.5q-24 3 -36.5 18.5t-12.5 36.5q0 25 16.5 41.5t40.5 17.5q55 1 89 28t34 72q0 32 -23.5 50t-64.5 18q-49 0 -87.5 -31.5t-50.5 -83.5l-67 -294q31 -53 110 -53q60 0 97 30.5t37 78.5z" />
    <glyph glyph-name="gamma" unicode="&#x3b3;" horiz-adv-x="513" 
d="M530 429q0 -12 -4 -19q-39 -110 -107 -216q-72 -111 -152 -189l-34 -148q-5 -21 -22 -35t-38 -14q-25 0 -44 18.5t-19 43.5q0 8 1 11l11 46q20 92 20 183q0 160 -57 293q-5 13 -5 23q0 25 19 44.5t45 19.5q43 0 58 -39q54 -119 54 -254q0 -26 -3 -50q47 53 90 135
q46 84 68 164q5 19 21 31.5t37 12.5q26 0 43.5 -18t17.5 -43z" />
    <glyph glyph-name="delta" unicode="&#x3b4;" horiz-adv-x="574" 
d="M547 261q2 -105 -83 -190.5t-205 -82.5q-113 0 -174 56.5t-61 149.5q0 76 48 138q49 63 121 94q-42 34 -42 90q0 67 65.5 115t163.5 48q80 0 138 -33q30 -16 30 -48q0 -23 -16.5 -39t-39.5 -16q-13 0 -27 8q-43 27 -101 27q-38 0 -62.5 -15.5t-24.5 -36.5q0 -15 17 -26
t61 -27q54 -19 95 -41q97 -52 97 -171zM421 248q-3 51 -30.5 74.5t-95.5 52.5q-62 -23 -99 -68.5t-37 -96.5q0 -49 29.5 -79t84.5 -30q61 0 104.5 44t43.5 103z" />
    <glyph glyph-name="epsilon" unicode="&#x3b5;" horiz-adv-x="489" 
d="M5 131q0 55 46 89t112 34q-43 11 -69.5 40.5t-26.5 67.5q0 52 49 92t160 40q106 0 185 -62q20 -15 20 -40q0 -22 -15 -37.5t-37 -15.5q-19 0 -32 13q-53 42 -123 42q-36 0 -59 -15t-23 -39q0 -49 82 -50h30q19 0 32.5 -13.5t13.5 -32.5t-13.5 -33t-32.5 -14h-69
q-95 0 -95 -50q0 -25 27 -42t70 -17q61 0 114 25q15 5 20 5q21 0 36 -15t15 -36q0 -31 -28 -45q-67 -34 -157 -34q-106 0 -169 41.5t-63 101.5z" />
    <glyph glyph-name="zeta" unicode="&#x3b6;" horiz-adv-x="486" 
d="M19 166q0 113 91 214q90 102 244 176h-171q-23 0 -39.5 16.5t-16.5 38.5q0 23 16.5 39.5t39.5 16.5h300q23 0 39 -16t16 -39q0 -34 -31 -49q-151 -74 -253 -173q-99 -98 -99 -196q0 -44 31.5 -62.5t95.5 -18.5q67 0 97.5 -19.5t30.5 -60.5q0 -63 -79 -173
q-17 -24 -45 -24q-23 0 -39 16t-16 39q0 17 9 30q29 44 29 62q0 17 -29 17q-105 0 -163 43t-58 123z" />
    <glyph glyph-name="eta" unicode="&#x3b7;" 
d="M541 372q0 -12 -5 -40l-106 -475q-5 -21 -22 -34.5t-39 -13.5q-26 0 -43.5 18t-17.5 44q0 11 1 14l91 408q4 16 4 27q0 62 -83 62q-55 0 -113 -56l-62 -284q-5 -22 -22 -35.5t-39 -13.5q-27 0 -45 18.5t-18 44.5q0 9 1 12l83 374q5 22 21.5 36.5t39.5 14.5q26 0 44 -18.5
t18 -44.5q0 -10 -1 -13q74 78 162 78q69 0 110 -33.5t41 -89.5z" />
    <glyph glyph-name="theta" unicode="&#x3b8;" horiz-adv-x="574" 
d="M579 409q1 -107 -39 -204.5t-113.5 -158t-160.5 -58.5q-104 0 -164.5 71.5t-60.5 197.5q-1 107 39 204.5t114 158t161 58.5q103 0 163.5 -71.5t60.5 -197.5zM194 391h253q2 34 2 38q0 65 -25.5 101t-75.5 36q-48 0 -88.5 -48t-65.5 -127zM425 279h-254q-2 -38 -2 -42
q0 -64 26 -100t77 -36q50 0 90 51q41 51 63 127z" />
    <glyph glyph-name="iota" unicode="&#x3b9;" horiz-adv-x="265" 
d="M34 120l74 322q5 21 22 34.5t38 13.5q26 0 44.5 -18.5t18.5 -43.5l-2 -14l-62 -269q0 -2 -0.5 -5t-1 -5t-0.5 -3.5v-2.5q0 -18 15 -24q6 -1 17 -12q18 -17 18 -43q0 -22 -14.5 -40t-35.5 -21q-6 -1 -26 -1q-110 0 -110 91q0 13 5 41z" />
    <glyph glyph-name="kappa" unicode="&#x3ba;" horiz-adv-x="535" 
d="M531 435q0 -26 -20 -41l-167 -132l112 -169q11 -17 11 -34q0 -27 -21 -46.5t-49 -19.5q-35 0 -61 41l-96 154l-77 -65l-18 -81q-4 -22 -21 -35.5t-40 -13.5q-26 0 -44 18t-18 44q0 10 1 13l83 374q4 21 21.5 34.5t39.5 13.5q26 0 44 -17.5t18 -43.5q0 -1 -2 -15l-31 -141
l242 201q16 16 38 16q23 0 39 -16t16 -39z" />
    <glyph glyph-name="lambda" unicode="&#x3bb;" horiz-adv-x="513" 
d="M366 561l87 -493q1 -3 1 -11q0 -26 -19 -45t-46 -19q-24 0 -42 16t-21 39l-44 288l-189 -314q-17 -29 -51 -29q-26 0 -42.5 17.5t-16.5 41.5q0 18 9 31l255 405l-8 41q-8 32 -41 35l-20 4q-19 3 -31 17.5t-12 35.5q0 22 14 37t36 18q12 2 24 2q71 -2 108.5 -28.5
t48.5 -88.5z" />
    <glyph glyph-name="uni03BC" unicode="&#x3bc;" horiz-adv-x="591" 
d="M42 -191q-26 0 -44.5 18t-18.5 44l2 14l126 557q5 21 22 34.5t39 13.5q27 0 44 -18t17 -45q0 -2 -2 -18l-49 -220q-3 -13 -3 -26q0 -30 19.5 -46.5t52.5 -16.5q65 0 121 56l63 286q5 21 22 34.5t39 13.5q26 0 43.5 -18t17.5 -44q0 -10 -1 -13l-59 -270q0 -2 -0.5 -5
t-1 -5t-0.5 -3.5v-2.5q0 -18 15 -24q6 -1 17 -12q18 -16 18 -43q0 -22 -14.5 -40t-35.5 -21q-6 -1 -24 -1q-105 0 -110 86q-71 -86 -155 -86q-49 0 -64 27l-36 -158q-5 -21 -22 -34.5t-38 -13.5z" />
    <glyph glyph-name="nu" unicode="&#x3bd;" horiz-adv-x="513" 
d="M121 75l-59 339q-1 3 -1 11q0 27 19 46t47 19q25 0 43.5 -16t21.5 -41l45 -306q125 139 174 319q5 20 21 32t37 12q26 0 43.5 -18t17.5 -42q0 -13 -4 -20q-69 -200 -233 -384q-30 -33 -74 -33q-37 0 -64.5 23.5t-33.5 58.5z" />
    <glyph glyph-name="xi" unicode="&#x3be;" horiz-adv-x="486" 
d="M534 611q0 -22 -16.5 -38.5t-39.5 -16.5h-153q-43 -11 -71.5 -39t-28.5 -60q0 -30 27.5 -47t75.5 -17h85q22 0 38 -16t16 -38q0 -23 -16 -39t-38 -16h-108q-71 0 -112.5 -28.5t-41.5 -79.5q0 -63 131 -63q67 0 97.5 -19.5t30.5 -60.5q0 -63 -79 -174q-17 -23 -45 -23
q-23 0 -39 16t-16 38q0 16 9 30q29 47 29 63q0 17 -26 17q-232 0 -232 143q0 66 44 111t116 64q-39 7 -63 32.5t-24 66.5q0 43 37 81q37 40 90 58h-22q-23 0 -40 16t-17 39t16 39.5t39 16.5h291q23 0 39.5 -16.5t16.5 -39.5z" />
    <glyph glyph-name="omicron" unicode="&#x3bf;" horiz-adv-x="574" 
d="M306 495q112 0 176 -61t64 -159q2 -114 -80.5 -201.5t-199.5 -85.5q-111 0 -175 60.5t-64 158.5q-2 114 80.5 202.5t198.5 85.5zM302 382q-61 0 -102.5 -50.5t-41.5 -117.5q0 -53 30 -83t83 -30q61 0 102 50t41 118q0 53 -30 83t-82 30z" />
    <glyph glyph-name="pi" unicode="&#x3c0;" horiz-adv-x="631" 
d="M672 427q0 -23 -16.5 -39t-39.5 -16h-42l-76 -331q-5 -21 -22 -34.5t-38 -13.5q-26 0 -44.5 18t-18.5 44q0 1 0.5 3t1 5t0.5 6l69 303h-200l-75 -331q-5 -21 -22 -34.5t-38 -13.5q-26 0 -44.5 18t-18.5 44q0 1 0.5 3t1 5t0.5 6l69 303h-17q-23 0 -39.5 16.5t-16.5 38.5
q0 23 16.5 39.5t39.5 16.5h514q23 0 39.5 -16.5t16.5 -39.5z" />
    <glyph glyph-name="rho" unicode="&#x3c1;" horiz-adv-x="583" 
d="M150 64l-46 -207q-5 -21 -22.5 -34.5t-38.5 -13.5q-26 0 -44.5 18t-18.5 44l2 14l81 357q25 118 100 185.5t185 67.5q97 0 153.5 -59t56.5 -154q1 -69 -29 -136.5t-90.5 -113.5t-134.5 -44q-48 0 -89 20t-65 56zM329 382q-53 0 -89 -38t-51 -102l-19 -86q16 -25 46.5 -40
t66.5 -15q61 0 101.5 49.5t40.5 118.5q0 50 -26 81.5t-70 31.5z" />
    <glyph glyph-name="uni03C2" unicode="&#x3c2;" horiz-adv-x="492" 
d="M309 495q93 0 148 -45q26 -18 26 -49q0 -24 -18 -41.5t-42 -17.5q-21 0 -37 13q-31 27 -77 27q-66 0 -109 -48.5t-43 -119.5q0 -53 35.5 -77t112.5 -24q53 0 82 -21t29 -62q0 -60 -78 -171q-14 -24 -45 -24q-22 0 -38.5 16t-16.5 39q0 14 9 30q31 44 31 63q0 17 -29 17
q-93 0 -157 56t-64 152q-2 117 81.5 203t199.5 84z" />
    <glyph glyph-name="sigma" unicode="&#x3c3;" horiz-adv-x="574" 
d="M27 207q-2 113 89 195t221 81h210q23 0 39.5 -16.5t16.5 -40.5q0 -23 -16.5 -39.5t-39.5 -16.5h-52q39 -39 39 -110q2 -107 -76.5 -190.5t-191.5 -81.5q-111 0 -175 60.5t-64 158.5zM371 370h-48q-72 0 -118 -46t-46 -110q0 -53 29.5 -83t82.5 -30q60 0 101.5 49.5
t41.5 114.5q0 76 -43 105z" />
    <glyph glyph-name="tau" unicode="&#x3c4;" horiz-adv-x="482" 
d="M510 427q0 -23 -16.5 -39t-39.5 -16h-119l-47 -213q-3 -11 -3 -19q0 -38 42 -39q7 0 8 -1q17 0 31 -15t14 -35q0 -45 -45 -56q-19 -6 -45 -6q-140 0 -140 105q0 15 3 32l54 247h-93q-23 0 -39.5 16.5t-16.5 38.5q0 23 16.5 39.5t39.5 16.5h340q23 0 39.5 -16.5
t16.5 -39.5z" />
    <glyph glyph-name="upsilon" unicode="&#x3c5;" horiz-adv-x="577" 
d="M60 229l49 213q5 21 22.5 34.5t38.5 13.5q26 0 44 -17.5t18 -43.5q0 -1 -2 -15l-44 -194q-5 -25 -5 -38q0 -39 21.5 -60t62.5 -21q71 0 118 66t47 160q0 43 -12 83q-1 3 -1 15q0 27 18.5 45.5t45.5 18.5q25 0 42.5 -13.5t21.5 -36.5q13 -42 13 -102q2 -147 -83.5 -249.5
t-214.5 -99.5q-100 0 -154 47.5t-54 129.5q0 27 8 64z" />
    <glyph glyph-name="phi" unicode="&#x3c6;" horiz-adv-x="706" 
d="M361 -12l-28 -131q-4 -21 -21.5 -34.5t-39.5 -13.5q-26 0 -44.5 18t-18.5 43l2 14l25 111q-83 9 -145 70.5t-62 148.5q0 184 169 260q12 5 23 5q24 0 40.5 -16t16.5 -40q0 -31 -30 -50q-88 -45 -88 -149q0 -48 28.5 -79.5t71.5 -36.5l73 331q5 26 26 40.5t51 14.5
q115 0 191 -66t76 -160q0 -122 -79.5 -201t-236.5 -79zM545 257q0 49 -28.5 78.5t-72.5 35.5l-58 -270q75 0 117 42t42 114z" />
    <glyph glyph-name="chi" unicode="&#x3c7;" horiz-adv-x="504" 
d="M520 429q0 -23 -16 -42l-199 -237l101 -255q5 -15 5 -24q0 -26 -20 -44t-47 -18q-44 0 -63 49l-70 187l-171 -212q-20 -24 -47 -24q-26 0 -43.5 18t-17.5 43q0 22 16 41l214 257l-94 234q-5 12 -5 26q0 26 19.5 44t46.5 18q45 0 64 -50l64 -168l155 193q19 25 48 25
q24 0 42 -18t18 -43z" />
    <glyph glyph-name="psi" unicode="&#x3c8;" horiz-adv-x="739" 
d="M653 490q28 0 45 -18t17 -46q0 -1 -2 -17l-41 -186q-24 -109 -98 -172t-195 -63l-28 -131q-5 -21 -22 -34.5t-39 -13.5q-26 0 -44 18t-18 44q0 10 1 13l25 111q-86 12 -141 63q-55 52 -55 129q0 28 10 75l39 180q5 20 22.5 34t39.5 14q27 0 44 -18t17 -45q0 -2 -2 -18
l-32 -152q-9 -40 -9 -59q0 -34 23.5 -58t67.5 -32l113 518q5 21 22 34.5t39 13.5q26 0 44.5 -18t18.5 -43l-2 -14l-109 -498q114 0 145 139l44 201q5 21 22 35t38 14z" />
    <glyph glyph-name="omega" unicode="&#x3c9;" horiz-adv-x="782" 
d="M373 125q-65 -137 -184 -137q-77 0 -120 54q-43 55 -43 141q0 77 38.5 156t104.5 138q15 15 38 15t40 -16.5t17 -40.5q0 -18 -14 -37q-44 -47 -68.5 -102.5t-24.5 -104.5q0 -39 17.5 -64.5t47.5 -25.5q73 0 106 141l17 79q5 22 21.5 36t39.5 14q26 0 44.5 -18.5
t18.5 -43.5q0 -10 -1 -13l-12 -54q-8 -37 -8 -61q0 -80 65 -80q48 0 81.5 61.5t33.5 135.5q0 55 -22 109q-3 10 -3 23q0 26 18 44t44 18q39 0 57 -37q33 -71 33 -153q1 -77 -30.5 -150t-89 -119.5t-122.5 -44.5q-123 0 -140 137z" />
    <glyph glyph-name="iotadieresis" unicode="&#x3ca;" horiz-adv-x="265" 
d="M34 120l74 322q5 21 22 34.5t38 13.5q26 0 44.5 -18.5t18.5 -43.5l-2 -14l-62 -269q0 -2 -0.5 -5t-1 -5t-0.5 -3.5v-2.5q0 -18 15 -24q6 -1 17 -12q18 -17 18 -43q0 -22 -14.5 -40t-35.5 -21q-6 -1 -26 -1q-110 0 -110 91q0 13 5 41zM45 634q0 30 23 52.5t53 22.5
q26 0 43 -17t17 -43q0 -30 -23 -52.5t-53 -22.5q-26 0 -43 17.5t-17 42.5zM256 634q0 30 23 52.5t53 22.5q26 0 43 -17t17 -43q0 -30 -23 -52.5t-53 -22.5q-26 0 -43 17.5t-17 42.5z" />
    <glyph glyph-name="upsilondieresis" unicode="&#x3cb;" horiz-adv-x="577" 
d="M60 229l49 213q5 21 22.5 34.5t38.5 13.5q26 0 44 -17.5t18 -43.5q0 -1 -2 -15l-44 -194q-5 -25 -5 -38q0 -39 21.5 -60t62.5 -21q71 0 118 66t47 160q0 43 -12 83q-1 3 -1 15q0 27 18.5 45.5t45.5 18.5q25 0 42.5 -13.5t21.5 -36.5q13 -42 13 -102q2 -147 -83.5 -249.5
t-214.5 -99.5q-100 0 -154 47.5t-54 129.5q0 27 8 64zM208 634q0 30 23 52.5t53 22.5q26 0 43 -17t17 -43q0 -30 -23 -52.5t-53 -22.5q-26 0 -43 17.5t-17 42.5zM419 634q0 30 23 52.5t53 22.5q26 0 43 -17t17 -43q0 -30 -23 -52.5t-53 -22.5q-26 0 -43 17.5t-17 42.5z" />
    <glyph glyph-name="omicrontonos" unicode="&#x3cc;" horiz-adv-x="574" 
d="M306 495q112 0 176 -61t64 -159q2 -114 -80.5 -201.5t-199.5 -85.5q-111 0 -175 60.5t-64 158.5q-2 114 80.5 202.5t198.5 85.5zM302 382q-61 0 -102.5 -50.5t-41.5 -117.5q0 -53 30 -83t83 -30q61 0 102 50t41 118q0 53 -30 83t-82 30zM341 605q0 7 1 9l51 157
q13 31 42 31q18 0 31 -13.5t13 -30.5q0 -13 -5 -21l-80 -144q-9 -16 -25 -16q-12 0 -20 8.5t-8 19.5z" />
    <glyph glyph-name="upsilontonos" unicode="&#x3cd;" horiz-adv-x="577" 
d="M60 229l49 213q5 21 22.5 34.5t38.5 13.5q26 0 44 -17.5t18 -43.5q0 -1 -2 -15l-44 -194q-5 -25 -5 -38q0 -39 21.5 -60t62.5 -21q71 0 118 66t47 160q0 43 -12 83q-1 3 -1 15q0 27 18.5 45.5t45.5 18.5q25 0 42.5 -13.5t21.5 -36.5q13 -42 13 -102q2 -147 -83.5 -249.5
t-214.5 -99.5q-100 0 -154 47.5t-54 129.5q0 27 8 64zM345 605q0 7 1 9l51 157q13 31 42 31q18 0 31 -13.5t13 -30.5q0 -13 -5 -21l-80 -144q-9 -16 -25 -16q-12 0 -20 8.5t-8 19.5z" />
    <glyph glyph-name="omegatonos" unicode="&#x3ce;" horiz-adv-x="782" 
d="M373 125q-65 -137 -184 -137q-77 0 -120 54q-43 55 -43 141q0 77 38.5 156t104.5 138q15 15 38 15t40 -16.5t17 -40.5q0 -18 -14 -37q-44 -47 -68.5 -102.5t-24.5 -104.5q0 -39 17.5 -64.5t47.5 -25.5q73 0 106 141l17 79q5 22 21.5 36t39.5 14q26 0 44.5 -18.5
t18.5 -43.5q0 -10 -1 -13l-12 -54q-8 -37 -8 -61q0 -80 65 -80q48 0 81.5 61.5t33.5 135.5q0 55 -22 109q-3 10 -3 23q0 26 18 44t44 18q39 0 57 -37q33 -71 33 -153q1 -77 -30.5 -150t-89 -119.5t-122.5 -44.5q-123 0 -140 137zM438 605q0 7 1 9l51 157q13 31 42 31
q18 0 31 -13.5t13 -30.5q0 -13 -5 -21l-80 -144q-9 -16 -25 -16q-12 0 -20 8.5t-8 19.5z" />
    <glyph glyph-name="uni0401" unicode="&#x401;" horiz-adv-x="583" 
d="M27 60q0 11 3 23l114 517q15 67 83 67h335q25 0 43 -18t18 -44q0 -25 -18 -42.5t-43 -17.5h-288l-31 -145h253q25 0 43 -18t18 -44q0 -25 -18 -42.5t-43 -17.5h-281l-34 -155h260q25 0 43.5 -18t18.5 -43t-18 -43.5t-44 -18.5h-344q-70 0 -70 60zM259 781q0 30 23 52.5
t53 22.5q26 0 43 -17t17 -43q0 -30 -23 -52.5t-53 -22.5q-26 0 -43 17.5t-17 42.5zM470 781q0 30 23 52.5t53 22.5q26 0 43 -17t17 -43q0 -30 -23 -52.5t-53 -22.5q-26 0 -43 17.5t-17 42.5z" />
    <glyph glyph-name="uni0402" unicode="&#x402;" horiz-adv-x="776" 
d="M456 50q0 23 15 40t37 20q75 10 92 86l2 8q3 12 3 24q0 39 -29.5 60.5t-85.5 21.5t-119 -25l-52 -238q-5 -23 -24 -38.5t-44 -15.5q-29 0 -49.5 20t-20.5 48q0 2 2 16l102 465h-125q-26 0 -44.5 18.5t-18.5 43.5q0 26 18.5 44.5t44.5 18.5h419q26 0 44.5 -18.5
t18.5 -44.5q0 -25 -18.5 -43.5t-44.5 -18.5h-151l-33 -145q73 38 156 38q96 0 148 -49.5t52 -129.5q0 -25 -6 -52l-2 -10q-19 -94 -90 -150q-29 -24 -68 -39.5t-69 -15.5q-24 0 -42 18t-18 43z" />
    <glyph glyph-name="uni0403" unicode="&#x403;" horiz-adv-x="559" 
d="M28 63q0 12 1 15l115 522q15 67 83 67h333q26 0 44 -18.5t18 -44.5q0 -25 -18 -43.5t-44 -18.5h-286l-109 -495q-5 -23 -24 -38.5t-44 -15.5q-29 0 -49 20.5t-20 49.5zM440 717q-15 0 -26 11t-11 27q0 14 13 27l95 82q11 9 27 9q17 0 29.5 -12t12.5 -29q0 -21 -16 -34
l-101 -74q-11 -7 -23 -7z" />
    <glyph glyph-name="uni0404" unicode="&#x404;" horiz-adv-x="687" 
d="M700 522q0 -30 -20.5 -50.5t-50.5 -20.5q-36 0 -58 29q-48 72 -146 72q-69 0 -127 -41t-86 -110h250q25 0 43 -18t18 -44t-18 -44.5t-43 -18.5h-269q7 -73 57.5 -117.5t129.5 -44.5q69 0 129 49q18 15 41 15q27 0 46 -19t19 -46q0 -33 -26 -52q-91 -73 -217 -73
q-140 -2 -235 83t-93 216q-3 168 113.5 280.5t274.5 110.5q164 0 253 -112q15 -21 15 -44z" />
    <glyph glyph-name="uni0405" unicode="&#x405;" horiz-adv-x="600" 
d="M18 122q0 28 19.5 47.5t47.5 19.5q24 0 41 -14q82 -63 186 -63q47 0 73.5 22.5t26.5 54.5q0 26 -26 43.5t-88 40.5q-65 23 -106 43q-103 53 -103 153q0 82 73 145t187 63q122 0 214 -64q30 -21 30 -55q0 -28 -19.5 -47.5t-46.5 -19.5q-22 0 -39 13q-73 51 -157 51
q-40 0 -66.5 -20.5t-26.5 -49.5q0 -23 25 -39.5t89 -39.5q61 -22 106 -45q105 -53 105 -150q0 -93 -72 -158t-190 -65q-154 0 -256 80q-27 20 -27 54z" />
    <glyph glyph-name="uni0406" unicode="&#x406;" horiz-adv-x="274" 
d="M27 62q0 2 2 16l119 542q5 23 24 38.5t44 15.5q29 0 49.5 -20t20.5 -48q0 -1 -2 -17l-119 -542q-5 -23 -24 -38.5t-44 -15.5q-29 0 -49.5 20t-20.5 49z" />
    <glyph glyph-name="uni0407" unicode="&#x407;" horiz-adv-x="274" 
d="M27 62q0 2 2 16l119 542q5 23 24 38.5t44 15.5q29 0 49.5 -20t20.5 -48q0 -1 -2 -17l-119 -542q-5 -23 -24 -38.5t-44 -15.5q-29 0 -49.5 20t-20.5 49zM88 781q0 30 23 52.5t53 22.5q26 0 43 -17t17 -43q0 -30 -23 -52.5t-53 -22.5q-26 0 -43 17.5t-17 42.5zM299 781
q0 30 23 52.5t53 22.5q26 0 43 -17t17 -43q0 -30 -23 -52.5t-53 -22.5q-26 0 -43 17.5t-17 42.5z" />
    <glyph glyph-name="uni0408" unicode="&#x408;" horiz-adv-x="486" 
d="M-12 80q0 27 19 45.5t45 18.5q19 0 32 -8q32 -22 71 -22q93 0 118 107l87 399q5 23 24 38.5t44 15.5q29 0 49.5 -20t20.5 -49q0 -2 -2 -16l-81 -370q-26 -119 -86.5 -175t-163.5 -56q-82 0 -143 37q-34 20 -34 55z" />
    <glyph glyph-name="uni0409" unicode="&#x409;" horiz-adv-x="1081" 
d="M779 0h-225q-70 0 -70 60q0 11 3 23l101 459h-212l-28 -93q-66 -226 -135 -329q-67 -103 -148 -129q-9 -3 -22 -3q-27 0 -46.5 19t-19.5 47q0 23 14 40.5t35 22.5q50 13 97 90q47 78 101 260l41 137q19 63 85 63h323q69 0 69 -60q0 -11 -3 -23l-34 -154h152q89 0 143 -53
t54 -132q0 -43 -15.5 -84.5t-47 -78.5t-87 -60t-125.5 -22zM678 305l-40 -180h147q53 0 87 30t34 75q0 32 -23 53.5t-60 21.5h-145z" />
    <glyph glyph-name="uni040A" unicode="&#x40a;" horiz-adv-x="1081" 
d="M484 60q0 11 3 23l44 205h-314l-52 -240q-5 -24 -24.5 -39.5t-43.5 -15.5q-29 0 -49.5 20t-20.5 49q0 1 2 15l118 543q5 23 24 38.5t44 15.5q30 0 50 -19.5t20 -48.5l-2 -16l-39 -177h315l45 207q5 23 24 38.5t44 15.5q29 0 50 -20.5t21 -49.5q0 -1 -2 -15l-39 -176h160
q86 0 138 -51t52 -127q0 -41 -15 -81t-45.5 -75.5t-83.5 -57.5t-121 -21h-233q-70 0 -70 60zM674 288l-36 -163h158q48 0 78.5 26.5t30.5 68.5q0 30 -21 49t-55 19h-155z" />
    <glyph glyph-name="uni040B" unicode="&#x40b;" horiz-adv-x="807" 
d="M603 225q0 85 -113 85q-56 0 -119 -25l-52 -238q-5 -23 -24 -38.5t-44 -15.5q-29 0 -49.5 20t-20.5 48q0 2 2 16l102 465h-125q-26 0 -44.5 18.5t-18.5 43.5q0 26 18.5 44.5t44.5 18.5h419q26 0 44.5 -18.5t18.5 -44.5q0 -25 -18.5 -43.5t-44.5 -18.5h-151l-33 -145
q73 38 156 38q93 0 146 -46t53 -131q0 -27 -8 -70l-31 -141q-5 -23 -24 -38.5t-44 -15.5q-29 0 -49.5 20t-20.5 49q0 1 2 15l24 111q4 15 4 37z" />
    </font>
</defs>
</svg>
