<?xml version="1.0" standalone="no"?>
<!DOCTYPE svg PUBLIC "-//W3C//DTD SVG 1.1//EN" "http://www.w3.org/Graphics/SVG/1.1/DTD/svg11.dtd" >
<svg xmlns="http://www.w3.org/2000/svg" xmlns:xlink="http://www.w3.org/1999/xlink" version="1.1">
<metadata>
Created by FontForge 20170731 at Tue Dec 25 03:00:00 2018
 By Aleksey,,,
Copyright (c) 2018 by Mark Simonson. All rights reserved.
</metadata>
<defs>
<font id="ProximaSoft-ExtraBoldIt" horiz-adv-x="589" >
  <font-face 
    font-family="Proxima Soft ExtraBold"
    font-weight="800"
    font-style="italic"
    font-stretch="normal"
    units-per-em="1000"
    panose-1="2 0 5 6 3 0 0 2 0 4"
    ascent="790"
    descent="-210"
    x-height="483"
    cap-height="667"
    bbox="-316 -369 1231 1095"
    underline-thickness="104"
    underline-position="-444"
    slope="-12.5"
    unicode-range="U+000D-FB04"
  />
<missing-glyph horiz-adv-x="471" 
d="M80 -28v718q0 62 62 62h227q62 0 62 -62v-718q0 -62 -62 -62h-227q-62 0 -62 62zM399 722h-288v-782h288v782z" />
    <glyph glyph-name="f_f_j" unicode="ffj" horiz-adv-x="964" 
d="M301 509l-6 -26h24q28 0 47.5 -19.5t19.5 -47.5q0 -27 -19.5 -47t-47.5 -20h-54l-65 -299q-5 -25 -26 -42t-47 -17q-32 0 -53.5 22t-21.5 54q0 13 1 16l58 266h-4q-28 0 -47.5 19t-19.5 48q0 28 19.5 47.5t47.5 19.5h34l6 26q18 77 69 122.5t125 45.5q32 0 56 -6
q20 -4 33 -19t13 -36q0 -24 -17 -41t-40 -17q-8 0 -10 1q-3 1 -15 1q-48 0 -60 -51zM650 509l-6 -26h24q28 0 47.5 -19.5t19.5 -47.5q0 -27 -19.5 -47t-47.5 -20h-54l-65 -299q-5 -25 -26 -42t-47 -17q-32 0 -53.5 22t-21.5 54q0 13 1 16l58 266h-4q-28 0 -47.5 19t-19.5 48
q0 28 19.5 47.5t47.5 19.5h34l6 26q18 77 69 122.5t125 45.5q32 0 56 -6q20 -4 33 -19t13 -36q0 -24 -17 -41t-40 -17q-8 0 -10 1q-3 1 -15 1q-48 0 -60 -51zM829 627q0 45 31 73t69 28q33 0 56 -22t23 -53q0 -45 -31 -73t-68 -28q-35 0 -57.5 22t-22.5 53zM573 -133
q0 24 15.5 42.5t36.5 21.5l10 2q51 5 65 71l96 429q6 26 26.5 42.5t46.5 16.5q33 0 53.5 -21t20.5 -54q0 -13 -1 -17l-88 -396q-21 -99 -69.5 -149.5t-132.5 -50.5q-11 0 -14 1q-27 1 -46 18.5t-19 43.5z" />
    <glyph glyph-name="f_j" unicode="fj" horiz-adv-x="615" 
d="M301 509l-6 -26h24q28 0 47.5 -19.5t19.5 -47.5q0 -27 -19.5 -47t-47.5 -20h-54l-65 -299q-5 -25 -26 -42t-47 -17q-32 0 -53.5 22t-21.5 54q0 13 1 16l58 266h-4q-28 0 -47.5 19t-19.5 48q0 28 19.5 47.5t47.5 19.5h34l6 26q18 77 69 122.5t125 45.5q32 0 56 -6
q20 -4 33 -19t13 -36q0 -24 -17 -41t-40 -17q-8 0 -10 1q-3 1 -15 1q-48 0 -60 -51zM480 627q0 45 31 73t69 28q33 0 56 -22t23 -53q0 -45 -31 -73t-68 -28q-35 0 -57.5 22t-22.5 53zM224 -133q0 24 15.5 42.5t36.5 21.5l10 2q51 5 65 71l96 429q6 26 26.5 42.5t46.5 16.5
q33 0 53.5 -21t20.5 -54q0 -13 -1 -17l-88 -396q-21 -99 -69.5 -149.5t-132.5 -50.5q-11 0 -14 1q-27 1 -46 18.5t-19 43.5z" />
    <glyph glyph-name="f_f" unicode="ff" horiz-adv-x="698" 
d="M301 509l-6 -26h24q28 0 47.5 -19.5t19.5 -47.5q0 -27 -19.5 -47t-47.5 -20h-54l-65 -299q-5 -25 -26 -42t-47 -17q-32 0 -53.5 22t-21.5 54q0 13 1 16l58 266h-4q-28 0 -47.5 19t-19.5 48q0 28 19.5 47.5t47.5 19.5h34l6 26q18 77 69 122.5t125 45.5q32 0 56 -6
q20 -4 33 -19t13 -36q0 -24 -17 -41t-40 -17q-8 0 -10 1q-3 1 -15 1q-48 0 -60 -51zM650 509l-6 -26h24q28 0 47.5 -19.5t19.5 -47.5q0 -27 -19.5 -47t-47.5 -20h-54l-65 -299q-5 -25 -26 -42t-47 -17q-32 0 -53.5 22t-21.5 54q0 13 1 16l58 266h-4q-28 0 -47.5 19t-19.5 48
q0 28 19.5 47.5t47.5 19.5h34l6 26q18 77 69 122.5t125 45.5q32 0 56 -6q20 -4 33 -19t13 -36q0 -24 -17 -41t-40 -17q-8 0 -10 1q-3 1 -15 1q-48 0 -60 -51z" />
    <glyph glyph-name="fi" unicode="fi" horiz-adv-x="615" 
d="M301 509l-6 -26h24q28 0 47.5 -19.5t19.5 -47.5q0 -27 -19.5 -47t-47.5 -20h-54l-65 -299q-5 -25 -26 -42t-47 -17q-32 0 -53.5 22t-21.5 54q0 13 1 16l58 266h-4q-28 0 -47.5 19t-19.5 48q0 28 19.5 47.5t47.5 19.5h34l6 26q18 77 69 122.5t125 45.5q32 0 56 -6
q20 -4 33 -19t13 -36q0 -24 -17 -41t-40 -17q-8 0 -10 1q-3 1 -15 1q-48 0 -60 -51zM580 728q33 0 56 -22t23 -53q0 -45 -31 -73t-68 -28q-35 0 -57.5 22t-22.5 53q0 45 31 73t69 28zM368 65q0 2 2 18l77 350q6 26 26.5 42.5t47.5 16.5q31 0 53 -21.5t22 -52.5q0 -2 -2 -18
l-78 -350q-5 -26 -25.5 -42.5t-47.5 -16.5q-32 0 -53.5 21.5t-21.5 52.5z" />
    <glyph glyph-name="fl" unicode="fl" horiz-adv-x="615" 
d="M301 509l-6 -26h24q28 0 47.5 -19.5t19.5 -47.5q0 -27 -19.5 -47t-47.5 -20h-54l-65 -299q-5 -25 -26 -42t-47 -17q-32 0 -53.5 22t-21.5 54q0 13 1 16l58 266h-4q-28 0 -47.5 19t-19.5 48q0 28 19.5 47.5t47.5 19.5h34l6 26q18 77 69 122.5t125 45.5q32 0 56 -6
q20 -4 33 -19t13 -36q0 -24 -17 -41t-40 -17q-8 0 -10 1q-3 1 -15 1q-48 0 -60 -51zM367 66q0 1 2 17l118 534q6 26 26.5 42.5t47.5 16.5q31 0 53 -22t22 -53q0 -1 -2 -17l-118 -534q-5 -26 -25.5 -42.5t-47.5 -16.5q-31 0 -53.5 22t-22.5 53z" />
    <glyph glyph-name="f_f_i" unicode="ffi" horiz-adv-x="964" 
d="M301 509l-6 -26h24q28 0 47.5 -19.5t19.5 -47.5q0 -27 -19.5 -47t-47.5 -20h-54l-65 -299q-5 -25 -26 -42t-47 -17q-32 0 -53.5 22t-21.5 54q0 13 1 16l58 266h-4q-28 0 -47.5 19t-19.5 48q0 28 19.5 47.5t47.5 19.5h34l6 26q18 77 69 122.5t125 45.5q32 0 56 -6
q20 -4 33 -19t13 -36q0 -24 -17 -41t-40 -17q-8 0 -10 1q-3 1 -15 1q-48 0 -60 -51zM650 509l-6 -26h24q28 0 47.5 -19.5t19.5 -47.5q0 -27 -19.5 -47t-47.5 -20h-54l-65 -299q-5 -25 -26 -42t-47 -17q-32 0 -53.5 22t-21.5 54q0 13 1 16l58 266h-4q-28 0 -47.5 19t-19.5 48
q0 28 19.5 47.5t47.5 19.5h34l6 26q18 77 69 122.5t125 45.5q32 0 56 -6q20 -4 33 -19t13 -36q0 -24 -17 -41t-40 -17q-8 0 -10 1q-3 1 -15 1q-48 0 -60 -51zM929 728q33 0 56 -22t23 -53q0 -45 -31 -73t-68 -28q-35 0 -57.5 22t-22.5 53q0 45 31 73t69 28zM717 65q0 2 2 18
l77 350q6 26 26.5 42.5t47.5 16.5q31 0 53 -21.5t22 -52.5q0 -2 -2 -18l-78 -350q-5 -26 -25.5 -42.5t-47.5 -16.5q-32 0 -53.5 21.5t-21.5 52.5z" />
    <glyph glyph-name="f_f_l" unicode="ffl" horiz-adv-x="964" 
d="M301 509l-6 -26h24q28 0 47.5 -19.5t19.5 -47.5q0 -27 -19.5 -47t-47.5 -20h-54l-65 -299q-5 -25 -26 -42t-47 -17q-32 0 -53.5 22t-21.5 54q0 13 1 16l58 266h-4q-28 0 -47.5 19t-19.5 48q0 28 19.5 47.5t47.5 19.5h34l6 26q18 77 69 122.5t125 45.5q32 0 56 -6
q20 -4 33 -19t13 -36q0 -24 -17 -41t-40 -17q-8 0 -10 1q-3 1 -15 1q-48 0 -60 -51zM650 509l-6 -26h24q28 0 47.5 -19.5t19.5 -47.5q0 -27 -19.5 -47t-47.5 -20h-54l-65 -299q-5 -25 -26 -42t-47 -17q-32 0 -53.5 22t-21.5 54q0 13 1 16l58 266h-4q-28 0 -47.5 19t-19.5 48
q0 28 19.5 47.5t47.5 19.5h34l6 26q18 77 69 122.5t125 45.5q32 0 56 -6q20 -4 33 -19t13 -36q0 -24 -17 -41t-40 -17q-8 0 -10 1q-3 1 -15 1q-48 0 -60 -51zM716 66q0 1 2 17l118 534q6 26 26.5 42.5t47.5 16.5q31 0 53 -22t22 -53q0 -1 -2 -17l-118 -534
q-5 -26 -25.5 -42.5t-47.5 -16.5q-31 0 -53.5 22t-22.5 53z" />
    <glyph glyph-name="f_b" unicode="fb" horiz-adv-x="940" 
d="M301 509l-6 -26h24q28 0 47.5 -19.5t19.5 -47.5q0 -27 -19.5 -47t-47.5 -20h-54l-65 -299q-5 -25 -26 -42t-47 -17q-32 0 -53.5 22t-21.5 54q0 13 1 16l58 266h-4q-28 0 -47.5 19t-19.5 48q0 28 19.5 47.5t47.5 19.5h34l6 26q18 77 69 122.5t125 45.5q32 0 56 -6
q20 -4 33 -19t13 -36q0 -24 -17 -41t-40 -17q-8 0 -10 1q-3 1 -15 1q-48 0 -60 -51zM919 294q0 -54 -17.5 -108.5t-49 -99.5t-81 -72t-107.5 -26q-99 0 -147 70v-2q-6 -28 -27 -46.5t-47 -18.5q-31 0 -53 22t-22 54q0 12 1 15l118 535q6 26 26.5 42.5t46.5 16.5
q32 0 53.5 -22t21.5 -55q0 -12 -1 -15l-35 -157q59 68 138 68q84 0 133 -53.5t49 -147.5zM760 262q0 42 -27 69.5t-67 27.5q-50 0 -92 -45l-32 -146q33 -44 96 -44q53 0 87 40q35 41 35 98z" />
    <glyph glyph-name="f_h" unicode="fh" horiz-adv-x="943" 
d="M301 509l-6 -26h24q28 0 47.5 -19.5t19.5 -47.5q0 -27 -19.5 -47t-47.5 -20h-54l-65 -299q-5 -25 -26 -42t-47 -17q-32 0 -53.5 22t-21.5 54q0 13 1 16l58 266h-4q-28 0 -47.5 19t-19.5 48q0 28 19.5 47.5t47.5 19.5h34l6 26q18 77 69 122.5t125 45.5q32 0 56 -6
q20 -4 33 -19t13 -36q0 -24 -17 -41t-40 -17q-8 0 -10 1q-3 1 -15 1q-48 0 -60 -51zM695 64q0 2 2 18l41 192q5 25 5 32q0 53 -73 53q-49 0 -96 -47l-57 -262q-5 -25 -26 -42t-48 -17q-31 0 -53 22t-22 53q0 1 2 17l118 534q5 26 25.5 42.5t47.5 16.5q32 0 53.5 -21.5
t21.5 -52.5q0 -2 -2 -18l-36 -160q78 71 157 71q71 0 113 -34t42 -91q0 -12 -5 -40l-61 -280q-6 -25 -26.5 -42t-47.5 -17q-31 0 -53 21t-22 52z" />
    <glyph glyph-name="f_k" unicode="fk" horiz-adv-x="895" 
d="M301 509l-6 -26h24q28 0 47.5 -19.5t19.5 -47.5q0 -27 -19.5 -47t-47.5 -20h-54l-65 -299q-5 -25 -26 -42t-47 -17q-32 0 -53.5 22t-21.5 54q0 13 1 16l58 266h-4q-28 0 -47.5 19t-19.5 48q0 28 19.5 47.5t47.5 19.5h34l6 26q18 77 69 122.5t125 45.5q32 0 56 -6
q20 -4 33 -19t13 -36q0 -24 -17 -41t-40 -17q-8 0 -10 1q-3 1 -15 1q-48 0 -60 -51zM891 425q0 -32 -26 -52l-142 -113l95 -147q14 -23 14 -42q0 -32 -25 -56t-58 -24q-45 0 -76 54l-75 125l-68 -56l-14 -63q-6 -27 -26 -43.5t-47 -16.5q-31 0 -53.5 22t-22.5 53q0 1 2 17
l118 534q6 26 26.5 42.5t46.5 16.5q32 0 54 -21.5t22 -53.5q0 -1 -2 -17l-64 -287l204 173q23 22 49 22q28 0 48 -19.5t20 -47.5z" />
    <glyph glyph-name=".notdef" horiz-adv-x="471" 
d="M80 -28v718q0 62 62 62h227q62 0 62 -62v-718q0 -62 -62 -62h-227q-62 0 -62 62zM399 722h-288v-782h288v782z" />
    <glyph glyph-name=".null" horiz-adv-x="0" 
 />
    <glyph glyph-name="nonmarkingreturn" horiz-adv-x="333" 
 />
    <glyph glyph-name="CR" unicode="&#xd;" horiz-adv-x="0" 
 />
    <glyph glyph-name="space" unicode=" " horiz-adv-x="256" 
 />
    <glyph glyph-name="exclam" unicode="!" horiz-adv-x="270" 
d="M74 293q0 9 1 12l50 299q4 31 28 51.5t56 20.5q36 0 60.5 -24.5t24.5 -59.5q0 -13 -3 -25l-80 -291q-6 -23 -24.5 -37.5t-42.5 -14.5q-29 0 -49.5 20t-20.5 49zM108 176q35 0 60 -25.5t25 -61.5q0 -41 -31 -71q-32 -30 -72 -30q-36 0 -61 25.5t-25 60.5q0 42 31 72t73 30
z" />
    <glyph glyph-name="quotedbl" unicode="&#x22;" horiz-adv-x="438" 
d="M111 402l3 182q1 40 28 66.5t65 26.5q29 0 50 -21t21 -52q0 -15 -8 -33l-79 -184q-15 -32 -42 -32q-18 0 -28 13t-10 34zM312 402l3 182q0 40 26.5 66.5t65.5 26.5q29 0 50 -21t21 -52q0 -15 -8 -33l-79 -184q-15 -32 -42 -32q-18 0 -28 13t-9 34z" />
    <glyph glyph-name="numbersign" unicode="#" horiz-adv-x="632" 
d="M654 454q0 -19 -14 -33t-33 -14h-77l-83 -148h27q20 0 33.5 -14t13.5 -34t-13.5 -33.5t-33.5 -13.5h-79l-82 -147q-13 -26 -42 -26q-21 0 -35.5 14t-14.5 34q0 11 7 24l56 101h-86l-82 -147q-13 -26 -42 -26q-20 0 -34.5 14t-14.5 34q0 14 7 24l56 101h-22
q-20 0 -34 13.5t-14 34.5q0 19 14 33t34 14h75l82 148h-24q-19 0 -33 14t-14 33q0 20 14 33.5t33 13.5h76l83 149q13 26 42 26q21 0 35 -14t14 -34q0 -14 -7 -24l-57 -103h86l83 149q13 26 42 26q21 0 35.5 -14t14.5 -33q0 -12 -7 -25l-57 -103h25q19 0 33 -13.5t14 -33.5z
M337 259l82 148h-86l-83 -148h87z" />
    <glyph glyph-name="dollar" unicode="$" horiz-adv-x="625" 
d="M261 481q0 -19 22.5 -33.5t76.5 -33.5q96 -31 159 -77q62 -44 62 -124q0 -93 -73 -158.5t-189 -66.5l-13 -55q-4 -18 -19 -30t-34 -12q-22 0 -38 16.5t-16 38.5q0 9 1 12l9 40q-89 18 -157 65q-36 26 -36 65q0 33 23.5 56.5t55.5 23.5q27 0 46 -15q85 -58 182 -58
q37 0 57.5 16t20.5 39q0 21 -22.5 36t-76.5 34q-69 24 -109 44q-110 57 -110 163q0 81 75 145.5t195 64.5h7l13 57q4 19 19 31t34 12q22 0 38 -16.5t16 -39.5q0 -8 -1 -11l-11 -49q55 -16 98 -43q38 -24 38 -67q0 -32 -23 -55t-55 -23q-23 0 -42 13q-70 46 -151 46
q-32 0 -52 -14.5t-20 -36.5z" />
    <glyph glyph-name="percent" unicode="%" horiz-adv-x="771" 
d="M267 677q70 0 118 -38.5t48 -101.5q0 -84 -55 -139t-134 -55q-69 0 -117 38.5t-48 101.5q0 84 55 139t133 55zM107 24q0 13 8 21l532 619q11 12 25 12t23.5 -9.5t9.5 -23.5q0 -11 -8 -22l-533 -618q-9 -12 -24 -12q-13 0 -23 10t-10 23zM264 585q-34 0 -56.5 -25.5
t-22.5 -66.5q0 -26 17.5 -42t45.5 -16q34 0 56 25.5t22 66.5q0 25 -17.5 41.5t-44.5 16.5zM565 322q69 0 117.5 -39t48.5 -101q0 -84 -55 -139t-134 -55q-69 0 -117 38.5t-48 101.5q0 84 55 139t133 55zM562 230q-34 0 -56.5 -25.5t-22.5 -66.5q0 -25 17.5 -41.5t45.5 -16.5
q33 0 55.5 25.5t22.5 66.5q0 25 -17.5 41.5t-44.5 16.5z" />
    <glyph glyph-name="ampersand" unicode="&#x26;" horiz-adv-x="649" 
d="M517 134l14 -14q24 -24 24 -54q0 -31 -22 -53t-54 -22q-29 0 -51 19l-31 29q-89 -51 -174 -51q-105 0 -164 45t-59 135q0 88 51 138q53 51 138 82q-15 51 -15 99q0 81 61 135.5t151 54.5q78 0 133 -38q55 -37 55 -105q0 -56 -28 -91q-26 -34 -65.5 -54.5t-111.5 -43.5
q7 -16 30 -56q18 -32 42 -65q18 20 52 65q19 25 50 25q26 0 43 -18t17 -43q0 -21 -14 -38q-25 -33 -72 -81zM335 433q53 16 78.5 36t25.5 50q0 23 -12.5 36t-34.5 13q-27 0 -46 -21.5t-19 -58.5q0 -23 8 -55zM320 127q-24 29 -50 74q-20 33 -44 86q-59 -38 -59 -100
q0 -37 23 -58.5t59 -21.5q33 0 71 20z" />
    <glyph glyph-name="quotesingle" unicode="'" horiz-adv-x="239" 
d="M111 402l3 182q1 40 28 66.5t65 26.5q29 0 50 -21t21 -52q0 -15 -8 -33l-79 -184q-15 -32 -42 -32q-18 0 -28 13t-10 34z" />
    <glyph glyph-name="parenleft" unicode="(" horiz-adv-x="322" 
d="M75 -140q-52 111 -52 255q0 143 64 284q65 144 176 252q16 16 43 16t45 -18.5t18 -43.5q0 -22 -13 -38q-173 -224 -173 -491q0 -76 26 -166q3 -11 3 -20q0 -30 -21 -50.5t-51 -20.5q-21 0 -39 11.5t-26 29.5z" />
    <glyph glyph-name="parenright" unicode=")" horiz-adv-x="322" 
d="M245 626q53 -114 53 -255q0 -140 -65 -284q-65 -143 -177 -252q-15 -16 -42 -16q-26 0 -44.5 19t-18.5 44q0 21 13 37q173 221 173 490q0 79 -25 167q-3 12 -3 22q0 29 21 49t50 20q21 0 39 -11.5t26 -29.5z" />
    <glyph glyph-name="asterisk" unicode="*" horiz-adv-x="357" 
d="M174 390l21 76l-78 -35q-6 -3 -13 -3q-13 0 -23 9.5t-10 24.5q0 24 21 30l84 31l-58 40q-15 11 -15 30q0 15 10.5 25.5t24.5 10.5q12 0 25 -9l55 -48l16 86q1 12 11 20t23 8q14 0 24 -10.5t10 -24.5q0 -7 -1 -9l-21 -77l77 36q6 3 13 3q14 0 24 -10t10 -24q0 -24 -20 -31
l-83 -30l57 -39q15 -12 15 -31q0 -15 -10.5 -25.5t-25.5 -10.5t-25 9l-56 47l-13 -84q-2 -12 -12 -20.5t-23 -8.5q-16 0 -27 14t-7 30z" />
    <glyph glyph-name="plus" unicode="+" horiz-adv-x="507" 
d="M315 291l-37 -168q-4 -16 -18 -27t-31 -11q-21 0 -35 14.5t-14 34.5q0 8 1 11l32 146h-125q-19 0 -33 13.5t-14 32.5t14 32.5t33 13.5h146l35 161q4 17 17.5 27.5t30.5 10.5q21 0 35.5 -14.5t14.5 -34.5q0 -8 -1 -11l-31 -139h125q20 0 33.5 -13t13.5 -32t-13.5 -33
t-33.5 -14h-145z" />
    <glyph glyph-name="comma" unicode="," horiz-adv-x="270" 
d="M35 -133q-16 0 -26 10.5t-10 26.5q0 19 17 31q55 35 71 68q-2 -1 -12 -1q-31 0 -51 20t-20 55q0 41 31 69q31 30 72 30q38 0 64 -25t26 -68q0 -57 -39 -114t-103 -97q-12 -5 -20 -5z" />
    <glyph glyph-name="hyphen" unicode="-" horiz-adv-x="300" 
d="M22 242q0 26 19.5 45.5t45.5 19.5h126q26 0 45 -19.5t19 -45.5t-19 -45t-45 -19h-126q-26 0 -45.5 19t-19.5 45z" />
    <glyph glyph-name="period" unicode="." horiz-adv-x="270" 
d="M108 176q35 0 60 -25.5t25 -61.5q0 -41 -31 -71q-32 -30 -72 -30q-36 0 -61 25.5t-25 60.5q0 42 31 72t73 30z" />
    <glyph glyph-name="slash" unicode="/" horiz-adv-x="346" 
d="M-31 21q0 12 6 24l348 625q14 26 43 26q22 0 36.5 -14.5t14.5 -34.5q0 -12 -7 -25l-348 -625q-15 -26 -44 -26q-21 0 -35 14.5t-14 35.5z" />
    <glyph glyph-name="zero" unicode="0" horiz-adv-x="624" 
d="M376 677q113 0 181.5 -71.5t68.5 -200.5q2 -110 -42.5 -206.5t-123.5 -154.5t-173 -56q-114 0 -182.5 72t-68.5 201q-1 110 43 206.5t123.5 154t173.5 55.5zM359 525q-44 2 -79.5 -41.5t-54 -106t-17.5 -123.5q0 -114 95 -114q44 -2 79.5 41.5t53.5 106.5t17 125
q0 112 -94 112z" />
    <glyph glyph-name="one" unicode="1" horiz-adv-x="440" 
d="M173 77q0 1 2 17l77 353l-91 -76q-17 -14 -40 -14q-26 0 -44.5 18.5t-18.5 44.5q0 28 23 49l230 187q26 20 56 20q37 0 61.5 -26t24.5 -64q0 -13 -1 -17l-113 -512q-6 -29 -29 -47.5t-53 -18.5q-35 0 -59.5 25t-24.5 61z" />
    <glyph glyph-name="two" unicode="2" horiz-adv-x="594" 
d="M-9 95q0 59 52 85q169 91 226 124q79 47 116 84.5t37 72.5q0 30 -30 48t-78 18q-60 0 -114 -27q-14 -8 -31 -8q-30 0 -51 21.5t-21 51.5q0 45 39 64q88 48 192 48q115 0 194.5 -55.5t79.5 -148.5q0 -89 -80.5 -168.5t-245.5 -154.5h173q31 0 53 -22t22 -53t-22 -53
t-53 -22h-363q-39 0 -67 27.5t-28 67.5z" />
    <glyph glyph-name="three" unicode="3" 
d="M24 69q-30 23 -30 60q0 31 22 54t55 23q28 0 45 -14q74 -57 162 -57q46 0 72 20.5t26 51.5q0 57 -108 57h-7q-30 0 -51.5 21.5t-21.5 51.5t22 51.5t52 20.5h44q116 0 116 59q0 28 -32.5 45.5t-87.5 17.5t-112 -26q-17 -5 -27 -5q-28 0 -48 20t-20 48q0 42 37 60
q88 49 187 49q130 0 205.5 -47t75.5 -130q0 -59 -55 -106t-125 -56q126 -32 126 -148q0 -86 -78.5 -144t-188.5 -58q-157 0 -255 81z" />
    <glyph glyph-name="four" unicode="4" horiz-adv-x="610" 
d="M585 197q0 -31 -22.5 -53t-53.5 -22h-29l-14 -64q-6 -29 -31 -48t-59 -19q-31 0 -55 22.5t-24 52.5q0 11 1 14l9 42h-179q-46 0 -81 30q-34 30 -34 71q0 38 27 71l277 330q44 52 109 52q59 0 100 -42q40 -40 40 -102q0 -14 -2 -28l-51 -231q30 0 51 -22.5t21 -53.5z
M341 273l54 244l-207 -244h153z" />
    <glyph glyph-name="five" unicode="5" horiz-adv-x="603" 
d="M27 118q0 32 22 55.5t55 23.5q26 0 45 -15q61 -47 142 -47q49 0 77.5 24.5t28.5 61.5q0 35 -30.5 55.5t-81.5 20.5q-48 0 -88 -25q-18 -12 -44 -12q-35 0 -58 24t-23 60q0 12 1 16l49 227q18 80 100 80h321q30 0 51.5 -21.5t21.5 -51.5q0 -29 -21.5 -50.5t-51.5 -21.5
h-269l-29 -131q55 40 133 40q88 0 144 -50.5t56 -137.5q2 -105 -80.5 -181t-206.5 -74q-139 0 -231 68q-33 22 -33 62z" />
    <glyph glyph-name="six" unicode="6" horiz-adv-x="621" 
d="M413 677q91 0 163 -39q42 -22 42 -67q0 -32 -21.5 -55t-54.5 -23q-19 0 -36 10q-46 27 -102 27q-57 0 -102 -35.5t-67 -89.5q-9 -22 -11 -32q27 28 71.5 45t92.5 17q92 0 154.5 -51t62.5 -134q3 -105 -85 -184.5t-202 -77.5q-130 0 -204 70t-74 195q-2 177 103 301.5
t270 122.5zM307 303q-57 0 -97 -34q-2 -10 -2 -30q0 -45 32 -74.5t80 -29.5q45 0 75 25.5t30 64.5q0 35 -33.5 56.5t-84.5 21.5z" />
    <glyph glyph-name="seven" unicode="7" horiz-adv-x="560" 
d="M123 73q0 24 14 46l260 398h-232q-31 0 -53 22t-22 53t22 53t53 22h392q30 0 50.5 -20.5t20.5 -50.5q0 -21 -11 -38l-341 -529q-26 -38 -70 -38q-35 0 -59 24.5t-24 57.5z" />
    <glyph glyph-name="eight" unicode="8" horiz-adv-x="624" 
d="M190 361q-43 21 -68.5 55.5t-25.5 75.5q0 89 81 137t194 48q114 0 195.5 -45.5t81.5 -128.5q0 -63 -45 -110.5t-120 -64.5q104 -58 104 -148q0 -87 -85 -139.5t-203 -52.5q-121 0 -203 46q-83 47 -83 137q0 63 46.5 114.5t130.5 75.5zM362 534q-40 0 -66.5 -17.5
t-26.5 -44.5q0 -23 23.5 -41.5t58.5 -25.5q50 2 81 21t31 46t-29 44.5t-72 17.5zM321 273q-55 -2 -90.5 -23.5t-35.5 -54.5q0 -30 29.5 -47t80.5 -17q46 0 76.5 18.5t30.5 48.5q0 26 -24.5 46t-66.5 29z" />
    <glyph glyph-name="nine" unicode="9" horiz-adv-x="622" 
d="M246 -11q-92 0 -162 39q-43 20 -43 67q0 32 21.5 54.5t54.5 22.5q21 0 36 -9q47 -27 103 -27t101 35.5t67 89.5q8 20 11 32q-28 -28 -72.5 -45.5t-91.5 -17.5q-92 0 -154.5 51t-62.5 135q-3 105 85 184.5t202 77.5q130 0 204 -70t74 -195q2 -177 -103 -302t-270 -122z
M352 362q56 0 97 34q2 10 2 31q0 45 -32 74.5t-80 29.5q-45 0 -75 -25.5t-30 -64.5q0 -35 34 -57t84 -22z" />
    <glyph glyph-name="colon" unicode=":" horiz-adv-x="270" 
d="M176 491q36 0 61 -25.5t25 -61.5q0 -42 -30.5 -72t-72.5 -30q-36 0 -61 25.5t-25 61.5q0 41 31 71q31 31 72 31zM108 176q35 0 60 -25.5t25 -61.5q0 -41 -31 -71q-32 -30 -72 -30q-36 0 -61 25.5t-25 60.5q0 42 31 72t73 30z" />
    <glyph glyph-name="semicolon" unicode=";" horiz-adv-x="270" 
d="M176 491q36 0 61 -25.5t25 -61.5q0 -42 -30.5 -72t-72.5 -30q-36 0 -61 25.5t-25 61.5q0 41 31 71q31 31 72 31zM35 -133q-16 0 -26 10.5t-10 26.5q0 19 17 31q55 35 71 68q-2 -1 -12 -1q-31 0 -51 20t-20 55q0 41 31 69q31 30 72 30q38 0 64 -25t26 -68q0 -57 -39 -114
t-103 -97q-12 -5 -20 -5z" />
    <glyph glyph-name="less" unicode="&#x3c;" horiz-adv-x="507" 
d="M40 328q0 24 14 44.5t36 28.5l387 150q9 3 18 3q20 0 34 -14t14 -34q0 -33 -32 -45l-359 -132l283 -121q32 -13 32 -48q0 -22 -15.5 -36.5t-37.5 -14.5q-14 0 -21 4l-307 144q-46 20 -46 71z" />
    <glyph glyph-name="equal" unicode="=" horiz-adv-x="507" 
d="M61 427q0 19 13.5 32.5t32.5 13.5h373q19 0 32.5 -13.5t13.5 -32.5t-13.5 -32.5t-32.5 -13.5h-373q-19 0 -32.5 13.5t-13.5 32.5zM20 241q0 19 13.5 32.5t32.5 13.5h373q19 0 32.5 -13.5t13.5 -32.5t-13.5 -32.5t-32.5 -13.5h-373q-19 0 -32.5 13.5t-13.5 32.5z" />
    <glyph glyph-name="greater" unicode="&#x3e;" horiz-adv-x="507" 
d="M51 116q-20 0 -34 14t-14 34q0 33 32 45l360 129l-283 123q-14 6 -23 19.5t-9 29.5q0 22 15 36.5t37 14.5q14 0 21 -4l308 -144q20 -9 32.5 -28.5t12.5 -42.5q0 -24 -14 -44.5t-36 -29.5l-388 -149q-7 -3 -17 -3z" />
    <glyph glyph-name="question" unicode="?" horiz-adv-x="453" 
d="M159 254q-13 22 -13 45q0 47 27.5 76.5t86.5 60.5q35 18 46.5 28.5t11.5 25.5q0 37 -62 37q-32 0 -63 -15q-12 -5 -26 -5q-29 0 -49.5 21t-20.5 50q0 45 41 64q70 35 145 35q92 0 154.5 -40t62.5 -108q-2 -68 -31.5 -101.5t-95.5 -69.5q-40 -22 -58 -38t-23 -39
q-2 -9 -4 -11q-1 -5 -4 -11q-18 -39 -63 -39q-21 0 -38 9.5t-24 24.5zM200 176q35 0 60 -25.5t25 -61.5q0 -41 -31 -71q-30 -30 -72 -30q-35 0 -60 25.5t-25 60.5q0 42 30.5 72t72.5 30z" />
    <glyph glyph-name="at" unicode="@" horiz-adv-x="783" 
d="M637 410l-33 -159q-2 -18 -2 -23q0 -41 32 -41q34 0 60.5 40.5t26.5 109.5q0 117 -74.5 188t-198.5 71q-89 2 -171.5 -47.5t-132 -131.5t-47.5 -170q0 -118 80 -197t200 -79q97 0 167 46q4 3 11 3q8 0 14 -5.5t6 -13.5q0 -11 -9 -17q-93 -54 -194 -54q-132 -2 -225.5 91
t-91.5 223q-3 100 54 193t150.5 148t192.5 53q139 0 227 -87t88 -214q2 -114 -65.5 -184t-144.5 -68q-82 0 -101 70l-1 7q-55 -77 -137 -77q-71 0 -113.5 47.5t-42.5 123.5q-2 93 68 168.5t154 72.5q86 0 124 -61q6 26 23 41.5t42 15.5q29 0 47.5 -18t18.5 -47q0 -2 -2 -18z
M467 245l22 106q-23 40 -70 40q-50 0 -83.5 -37t-33.5 -86q0 -35 19.5 -55.5t53.5 -20.5q51 0 92 53z" />
    <glyph glyph-name="A" unicode="A" horiz-adv-x="684" 
d="M634 78q0 -36 -25 -61.5t-61 -25.5q-34 0 -58.5 22.5t-28.5 55.5l-4 40h-273l-41 -74q-24 -44 -73 -44q-34 0 -59 24.5t-25 58.5q0 22 12 43l291 487q21 33 54.5 52.5t71.5 19.5q55 0 96 -36q42 -36 50 -89l72 -460q1 -3 1 -13zM264 254h177l-30 268z" />
    <glyph glyph-name="B" unicode="B" horiz-adv-x="680" 
d="M25 74q0 12 3 27l107 486q18 80 100 80h265q87 0 137.5 -48t50.5 -115q0 -64 -46 -115.5t-105 -56.5q44 -12 69.5 -49.5t25.5 -83.5q0 -81 -60 -140t-175 -59h-289q-40 0 -61.5 19.5t-21.5 54.5zM450 524h-156l-26 -115h164q36 0 54 18.5t18 47.5q0 21 -15 35t-39 14z
M403 267h-166l-28 -124h170q36 0 58.5 19.5t22.5 49.5q0 24 -15.5 39.5t-41.5 15.5z" />
    <glyph glyph-name="C" unicode="C" horiz-adv-x="665" 
d="M430 678q167 0 257 -111q19 -23 19 -54q0 -35 -25.5 -60t-60.5 -25q-43 0 -68 35q-45 63 -130 63q-86 0 -146.5 -66t-60.5 -158q0 -69 47 -115.5t122 -46.5q58 0 114 43q21 18 49 18q33 0 56 -22.5t23 -55.5q0 -38 -32 -62q-96 -73 -220 -73q-142 -2 -241 84t-97 219
q-2 110 52.5 200.5t145.5 139.5t196 47z" />
    <glyph glyph-name="D" unicode="D" horiz-adv-x="727" 
d="M25 74q0 12 3 27l107 486q18 80 100 80h193q115 2 207 -81.5t89 -205.5q0 -71 -25.5 -137.5t-77 -122t-138.5 -88.5t-198 -32h-177q-40 0 -61.5 19.5t-21.5 54.5zM546 368q0 62 -42.5 105.5t-106.5 43.5h-105l-81 -367h106q102 0 165.5 63t63.5 155z" />
    <glyph glyph-name="E" unicode="E" 
d="M25 74q0 12 3 27l107 486q18 80 100 80h325q30 0 51.5 -21.5t21.5 -51.5q0 -29 -21.5 -50.5t-51.5 -21.5h-267l-24 -111h228q30 0 51 -21.5t21 -51.5t-21 -51.5t-51 -21.5h-260l-27 -120h235q30 0 51.5 -21t21.5 -51t-21.5 -51.5t-51.5 -21.5h-337q-40 0 -61.5 19.5
t-21.5 54.5z" />
    <glyph glyph-name="F" unicode="F" horiz-adv-x="582" 
d="M24 76q0 2 2 18l109 493q18 80 100 80h325q30 0 51.5 -21.5t21.5 -51.5q0 -29 -21.5 -50.5t-51.5 -21.5h-267l-24 -111h228q30 0 51 -21.5t21 -51.5t-21 -51.5t-51 -21.5h-260l-46 -208q-6 -29 -29 -47.5t-53 -18.5q-35 0 -60 25t-25 60z" />
    <glyph glyph-name="G" unicode="G" horiz-adv-x="723" 
d="M694 314q0 -14 -3 -27l-23 -104q-18 -77 -54 -108q-101 -87 -240 -87q-141 -2 -241 83.5t-97 219.5q-2 164 116 276.5t295 110.5q129 0 212 -78q28 -25 28 -63q0 -34 -24 -59t-59 -25q-36 0 -58 24q-49 49 -124 49q-85 0 -146 -65.5t-61 -158.5q0 -68 46.5 -115
t122.5 -47q63 0 115 40l11 56h-71q-29 0 -50.5 21t-21.5 51q0 28 21.5 50t50.5 22h189q32 0 49 -17.5t17 -48.5z" />
    <glyph glyph-name="H" unicode="H" horiz-adv-x="741" 
d="M474 77q0 1 2 17l38 174h-277l-46 -211q-6 -29 -29 -47.5t-54 -18.5q-36 0 -59.5 25t-23.5 62q0 12 1 16l114 516q7 29 29.5 47.5t52.5 18.5q36 0 60 -25t24 -62q0 -12 -1 -16l-35 -155h277l42 192q7 29 30 47.5t53 18.5q36 0 59.5 -25t23.5 -62q0 -12 -1 -16l-114 -516
q-6 -29 -29 -47.5t-53 -18.5q-35 0 -59.5 25t-24.5 61z" />
    <glyph glyph-name="I" unicode="I" horiz-adv-x="292" 
d="M24 76q0 2 2 18l114 516q7 29 29.5 47.5t52.5 18.5q36 0 60.5 -24.5t24.5 -59.5q0 -1 -2 -19l-114 -516q-6 -29 -29 -47.5t-53 -18.5q-35 0 -60 25t-25 60z" />
    <glyph glyph-name="J" unicode="J" horiz-adv-x="492" 
d="M-9 85q0 32 22.5 54.5t54.5 22.5q19 0 32 -7q28 -15 55 -15q83 0 102 91l83 379q7 29 29.5 47.5t52.5 18.5q36 0 60.5 -24.5t24.5 -59.5q0 -1 -2 -19l-77 -344q-27 -125 -89 -183t-171 -58q-72 0 -129 27q-21 8 -34.5 27t-13.5 43z" />
    <glyph glyph-name="K" unicode="K" horiz-adv-x="641" 
d="M664 600q0 -34 -23 -54l-225 -191l155 -235q10 -14 10 -41q0 -37 -25.5 -62.5t-61.5 -25.5q-48 0 -79 51l-131 216l-63 -63l-30 -138q-6 -29 -29 -47.5t-53 -18.5q-35 0 -60 25t-25 60q0 2 2 18l114 516q7 29 29.5 47.5t52.5 18.5q36 0 60.5 -24.5t24.5 -59.5
q0 -1 -2 -19l-37 -168l266 247q25 24 55 24q31 0 53 -22.5t22 -53.5z" />
    <glyph glyph-name="L" unicode="L" horiz-adv-x="523" 
d="M25 73q0 12 3 27l112 510q7 29 30 47.5t53 18.5q35 0 59.5 -24.5t24.5 -59.5q0 -1 -2 -19l-94 -423h183q31 0 53 -22t22 -53t-22 -53t-53 -22h-286q-40 0 -61.5 19t-21.5 54z" />
    <glyph glyph-name="M" unicode="M" horiz-adv-x="877" 
d="M610 77q0 1 2 17l77 350l-257 -429q-14 -24 -43 -24q-18 0 -31.5 12t-16.5 30l-65 411l-85 -387q-6 -29 -29 -47.5t-54 -18.5q-35 0 -59.5 24.5t-24.5 59.5q0 1 2 19l105 473q10 47 47.5 78t86.5 31q53 0 90 -34q40 -35 47 -84l41 -263l188 315q40 66 115 66
q56 0 95 -39.5t39 -95.5q0 -13 -3 -28l-101 -456q-6 -29 -29 -47.5t-53 -18.5q-35 0 -59.5 25t-24.5 61z" />
    <glyph glyph-name="N" unicode="N" horiz-adv-x="740" 
d="M435 57l-164 367l-80 -367q-6 -29 -29 -47.5t-54 -18.5q-35 0 -59.5 24.5t-24.5 59.5q0 1 2 19l108 489q9 40 41.5 66.5t74.5 26.5q35 0 64 -19t44 -52l153 -343l76 348q7 29 29.5 47.5t52.5 18.5q36 0 60.5 -24.5t24.5 -59.5q0 -1 -2 -19l-109 -495q-8 -37 -38 -62
t-69 -25q-33 0 -60.5 18t-40.5 48z" />
    <glyph glyph-name="O" unicode="O" horiz-adv-x="766" 
d="M430 678q143 2 241.5 -83.5t96.5 -217.5q3 -160 -113 -276t-281 -113q-145 0 -241.5 85t-96.5 218q-3 159 113 274.5t281 112.5zM420 526q-86 0 -145.5 -65.5t-59.5 -158.5q0 -72 47 -117t122 -45q86 0 145.5 65.5t59.5 158.5q0 72 -47 117t-122 45z" />
    <glyph glyph-name="P" unicode="P" horiz-adv-x="643" 
d="M24 75q0 1 2 19l109 493q18 80 100 80h230q92 0 149.5 -55t57.5 -136q0 -44 -15.5 -87t-48 -82.5t-90 -63t-132.5 -22.5h-159l-36 -164q-6 -29 -29 -47.5t-54 -18.5q-35 0 -59.5 24.5t-24.5 59.5zM494 458q0 29 -20 46.5t-53 17.5h-128l-33 -150h133q46 0 73.5 24
t27.5 62z" />
    <glyph glyph-name="Q" unicode="Q" horiz-adv-x="766" 
d="M619 69q10 -19 10 -38q0 -42 -38 -63q-20 -11 -41 -11q-39 0 -61 37l-5 8q-56 -14 -110 -14q-145 0 -241.5 85t-96.5 218q-3 159 113 274.5t281 112.5q143 2 241.5 -83.5t96.5 -217.5q0 -92 -39.5 -173t-109.5 -135zM400 141l-10 17q-13 22 -13 45q0 43 40 63
q19 10 39 10q41 0 60 -34l19 -31q54 62 54 153q0 72 -47 117t-122 45q-86 0 -145.5 -65.5t-59.5 -158.5q0 -72 47 -117t122 -45q13 0 16 1z" />
    <glyph glyph-name="R" unicode="R" horiz-adv-x="661" 
d="M505 239l65 -118q11 -20 11 -41q0 -36 -25.5 -62.5t-62.5 -26.5q-55 0 -80 51l-87 184h-98l-37 -169q-6 -29 -29 -47.5t-54 -18.5q-35 0 -59.5 24t-24.5 59q0 2 2 20l109 493q18 80 100 80h222q90 0 153 -54.5t63 -140.5q0 -84 -48 -148q-46 -62 -120 -85zM293 522
l-33 -150h133q47 0 74 22.5t27 60.5q0 30 -21 48.5t-52 18.5h-128z" />
    <glyph glyph-name="S" unicode="S" horiz-adv-x="606" 
d="M14 128q0 33 23.5 56.5t55.5 23.5q27 0 46 -15q84 -58 181 -58q38 0 58.5 16t20.5 39q0 21 -23 36t-77 34q-69 24 -109 44q-110 57 -110 163q0 81 75 145.5t195 64.5q119 0 214 -59q38 -25 38 -67q0 -32 -23 -55t-55 -23q-23 0 -42 13q-70 46 -152 46q-32 0 -52 -14.5
t-20 -36.5q0 -19 22.5 -33.5t76.5 -33.5q98 -32 160 -77q62 -44 62 -124q0 -95 -75 -160t-196 -65q-151 0 -259 75q-35 25 -35 65z" />
    <glyph glyph-name="T" unicode="T" 
d="M178 75q0 1 2 19l93 423h-107q-31 0 -53 22t-22 53t22 53t53 22h410q31 0 53 -22t22 -53t-22 -53t-53 -22h-130l-101 -460q-7 -29 -30 -47.5t-53 -18.5q-35 0 -59.5 24.5t-24.5 59.5z" />
    <glyph glyph-name="U" unicode="U" horiz-adv-x="739" 
d="M65 270l75 339q7 29 30.5 48t53.5 19q36 0 60 -24t24 -59q0 -11 -2 -21l-65 -298q-3 -7 -3 -28q1 -47 33.5 -77.5t88.5 -30.5q119 0 150 136l74 335q7 29 30.5 48t53.5 19q36 0 60 -24t24 -59q0 -11 -2 -21l-66 -301q-31 -139 -108.5 -211t-215.5 -72q-144 0 -222 63.5
t-78 174.5q0 16 5 44z" />
    <glyph glyph-name="V" unicode="V" horiz-adv-x="684" 
d="M162 116l-72 455q-1 3 -1 13q0 37 26.5 64.5t64.5 27.5q35 0 61 -24t29 -57l50 -409l251 445q25 45 75 45q38 0 62.5 -25t24.5 -62q0 -25 -12 -45l-287 -481q-20 -33 -54 -52.5t-73 -19.5q-55 0 -96 36q-42 37 -49 89z" />
    <glyph glyph-name="W" unicode="W" horiz-adv-x="923" 
d="M507 101l-7 317l-168 -361q-13 -30 -40.5 -48t-61.5 -18q-44 0 -77 30q-33 33 -34 75l-32 482q-3 40 24 69t67 29q38 0 65 -27t26 -65l3 -362l195 409q20 45 72 45q32 0 55 -22.5t24 -54.5l14 -377l179 401q10 23 32 38t47 15q37 0 62 -26t25 -62q0 -20 -9 -39l-251 -497
q-15 -28 -41 -44.5t-58 -16.5q-46 0 -78 32t-33 78z" />
    <glyph glyph-name="X" unicode="X" horiz-adv-x="650" 
d="M684 596q0 -33 -20 -53l-212 -210l132 -217q12 -21 12 -41q0 -34 -28 -59q-26 -25 -62 -25q-49 0 -79 51l-109 177l-198 -200q-28 -28 -60 -28q-34 0 -57 23.5t-23 56.5q0 32 20 52l230 228l-122 200q-12 19 -12 39q0 33 27 59.5t63 26.5q48 0 80 -52l97 -162l179 184
q30 30 62 30q33 0 56.5 -23.5t23.5 -56.5z" />
    <glyph glyph-name="Y" unicode="Y" horiz-adv-x="642" 
d="M677 549l-265 -280l-46 -212q-6 -29 -29 -47.5t-53 -18.5q-35 0 -59.5 24t-24.5 59q0 10 2 20l39 177l-137 288q-8 21 -8 34q0 34 25.5 58.5t61.5 24.5q53 0 79 -57l91 -202l205 229q26 30 61 30q32 0 54.5 -22.5t22.5 -54.5q0 -30 -19 -50z" />
    <glyph glyph-name="Z" unicode="Z" horiz-adv-x="596" 
d="M-4 84q0 34 24 58l354 375h-191q-31 0 -53 22t-22 53t22 53t53 22h365q34 0 59 -25t25 -59q0 -32 -23 -58l-356 -375h199q31 0 53 -22t22 -53t-22 -53t-53 -22h-372q-34 0 -59 25t-25 59z" />
    <glyph glyph-name="bracketleft" unicode="[" horiz-adv-x="298" 
d="M-32 -133q0 10 1 13l167 752q5 21 21.5 33.5t35.5 12.5h133q20 0 34.5 -14.5t14.5 -35.5q0 -20 -14.5 -34.5t-34.5 -14.5h-93l-148 -670h71q20 0 34 -14.5t14 -34.5q0 -21 -14 -35.5t-34 -14.5h-131q-24 0 -40.5 16.5t-16.5 40.5z" />
    <glyph glyph-name="backslash" unicode="\" horiz-adv-x="346" 
d="M157 696q21 0 36.5 -14t17.5 -34l70 -617q2 -23 -14 -41.5t-40 -18.5q-21 0 -36.5 14t-16.5 34l-70 617q-2 23 14 41.5t39 18.5z" />
    <glyph glyph-name="bracketright" unicode="]" horiz-adv-x="298" 
d="M-76 -140q0 20 14 34.5t34 14.5h94l148 670h-71q-20 0 -34.5 14.5t-14.5 34.5q0 21 14.5 35.5t34.5 14.5h130q25 0 41.5 -17t16.5 -40q0 -3 -2 -13l-167 -752q-4 -20 -20.5 -33t-36.5 -13h-133q-20 0 -34 14.5t-14 35.5z" />
    <glyph glyph-name="asciicircum" unicode="^" horiz-adv-x="445" 
d="M335 366l-37 198l-136 -217q-12 -23 -41 -23q-19 0 -33 14t-14 34q0 16 8 27l162 242q23 35 64 35q27 0 48.5 -17.5t26.5 -43.5l51 -230q1 -3 1 -11q0 -20 -14.5 -35t-35.5 -15q-19 0 -33 12t-17 30z" />
    <glyph glyph-name="underscore" unicode="_" horiz-adv-x="564" 
d="M-84 -90q0 21 14.5 35.5t34.5 14.5h486q20 0 34.5 -14.5t14.5 -35.5q0 -20 -14.5 -34.5t-34.5 -14.5h-486q-20 0 -34.5 14.5t-14.5 34.5z" />
    <glyph glyph-name="grave" unicode="`" horiz-adv-x="263" 
d="M224 565l-64 73q-12 14 -12 32t14.5 32t32.5 14q26 0 39 -20l56 -83q8 -11 8 -21q0 -17 -12 -29t-29 -12q-21 0 -33 14z" />
    <glyph glyph-name="a" unicode="a" horiz-adv-x="591" 
d="M571 415q0 -12 -1 -15l-78 -350q-15 -66 -80 -66q-27 0 -49.5 20t-26.5 48q-58 -64 -135 -64q-84 0 -132.5 53t-48.5 147q-1 74 28.5 144t89.5 117.5t136 45.5q99 0 147 -70l1 5q6 27 26.5 44.5t47.5 17.5q32 0 53.5 -22.5t21.5 -54.5zM364 169l33 146q-33 44 -96 44
q-53 0 -88 -41q-34 -40 -34 -98q0 -42 27 -69t67 -27q52 0 91 45z" />
    <glyph glyph-name="b" unicode="b" horiz-adv-x="591" 
d="M570 294q0 -54 -17.5 -108.5t-49 -99.5t-81 -72t-107.5 -26q-99 0 -147 70v-2q-6 -28 -27 -46.5t-47 -18.5q-31 0 -53 22t-22 54q0 12 1 15l118 535q6 26 26.5 42.5t46.5 16.5q32 0 53.5 -22t21.5 -55q0 -12 -1 -15l-35 -157q59 68 138 68q84 0 133 -53.5t49 -147.5z
M411 262q0 42 -27 69.5t-67 27.5q-50 0 -92 -45l-32 -146q33 -44 96 -44q53 0 87 40q35 41 35 98z" />
    <glyph glyph-name="c" unicode="c" horiz-adv-x="487" 
d="M307 495q84 0 140 -36q35 -22 35 -62q0 -30 -21 -51t-51 -21q-23 0 -40 13q-27 21 -64 21q-55 0 -93 -41q-36 -40 -36 -99q0 -43 29.5 -69t75.5 -26q29 0 57 16q13 8 31 8q27 0 46.5 -19.5t19.5 -46.5q0 -37 -34 -57q-61 -37 -135 -37q-112 0 -179 61.5t-67 160.5
q-2 116 83 201.5t203 83.5z" />
    <glyph glyph-name="d" unicode="d" horiz-adv-x="591" 
d="M611 600q0 -12 -1 -16l-118 -534q-15 -66 -76 -66q-30 0 -52.5 21.5t-23.5 50.5q-61 -68 -139 -68q-84 0 -132.5 53t-48.5 147q-1 74 28.5 144t89.5 117.5t136 45.5q98 0 147 -69l42 191q6 26 26.5 42.5t47.5 16.5q32 0 53 -22t21 -54zM364 169l33 146q-33 44 -96 44
q-53 0 -88 -41q-34 -40 -34 -98q0 -42 27 -69t67 -27q52 0 91 45z" />
    <glyph glyph-name="e" unicode="e" horiz-adv-x="548" 
d="M304 495q94 0 157.5 -57t64.5 -155v-12q-1 -34 -27 -56t-68 -22h-257v-6q0 -25 33 -52.5t83 -27.5q37 0 76 13q8 3 17 3q24 0 40.5 -17t16.5 -40q0 -41 -37 -54q-61 -24 -125 -24q-118 0 -187.5 58.5t-69.5 160.5q-2 116 81.5 203t201.5 85zM390 300q0 30 -25 53t-68 23
q-39 0 -70 -25t-38 -58h200q1 1 1 7z" />
    <glyph glyph-name="f" unicode="f" horiz-adv-x="349" 
d="M301 509l-6 -26h24q28 0 47.5 -19.5t19.5 -47.5q0 -27 -19.5 -47t-47.5 -20h-54l-65 -299q-5 -25 -26 -42t-47 -17q-32 0 -53.5 22t-21.5 54q0 13 1 16l58 266h-4q-28 0 -47.5 19t-19.5 48q0 28 19.5 47.5t47.5 19.5h34l6 26q18 77 69 122.5t125 45.5q32 0 56 -6
q20 -4 33 -19t13 -36q0 -24 -17 -41t-40 -17q-8 0 -10 1q-3 1 -15 1q-48 0 -60 -51z" />
    <glyph glyph-name="g" unicode="g" horiz-adv-x="590" 
d="M569 415q0 -12 -1 -15l-80 -357q-28 -133 -105 -186t-171 -53q-112 0 -186 43q-34 19 -34 58q0 27 19.5 46.5t46.5 19.5q19 0 34 -9q52 -32 117 -32q99 0 126 113l8 35q-57 -70 -140 -70q-82 0 -132.5 50t-50.5 145q-2 114 70 204t181 88q42 0 82.5 -18.5t66.5 -51.5v2
q6 28 26.5 46.5t47.5 18.5q32 0 53.5 -22t21.5 -55zM367 189l27 121q-31 49 -102 49q-49 0 -81 -35t-32 -91q0 -39 27 -64t70 -25q51 0 91 45z" />
    <glyph glyph-name="h" unicode="h" horiz-adv-x="594" 
d="M346 64q0 2 2 18l41 192q5 25 5 32q0 53 -73 53q-49 0 -96 -47l-57 -262q-5 -25 -26 -42t-48 -17q-31 0 -53 22t-22 53q0 1 2 17l118 534q5 26 25.5 42.5t47.5 16.5q32 0 53.5 -21.5t21.5 -52.5q0 -2 -2 -18l-36 -160q78 71 157 71q71 0 113 -34t42 -91q0 -12 -5 -40
l-61 -280q-6 -25 -26.5 -42t-47.5 -17q-31 0 -53 21t-22 52z" />
    <glyph glyph-name="i" unicode="i" horiz-adv-x="266" 
d="M231 728q33 0 56 -22t23 -53q0 -45 -31 -73t-68 -28q-35 0 -57.5 22t-22.5 53q0 45 31 73t69 28zM19 65q0 2 2 18l77 350q6 26 26.5 42.5t47.5 16.5q31 0 53 -21.5t22 -52.5q0 -2 -2 -18l-78 -350q-5 -26 -25.5 -42.5t-47.5 -16.5q-32 0 -53.5 21.5t-21.5 52.5z" />
    <glyph glyph-name="j" unicode="j" horiz-adv-x="266" 
d="M131 627q0 45 31 73t69 28q33 0 56 -22t23 -53q0 -45 -31 -73t-68 -28q-35 0 -57.5 22t-22.5 53zM-125 -133q0 24 15.5 42.5t36.5 21.5l10 2q51 5 65 71l96 429q6 26 26.5 42.5t46.5 16.5q33 0 53.5 -21t20.5 -54q0 -13 -1 -17l-88 -396q-21 -99 -69.5 -149.5
t-132.5 -50.5q-11 0 -14 1q-27 1 -46 18.5t-19 43.5z" />
    <glyph glyph-name="k" unicode="k" horiz-adv-x="546" 
d="M542 425q0 -32 -26 -52l-142 -113l95 -147q14 -23 14 -42q0 -32 -25 -56t-58 -24q-44 0 -76 54l-75 125l-68 -56l-14 -63q-6 -27 -26 -43.5t-47 -16.5q-31 0 -53.5 22t-22.5 53q0 1 2 17l118 534q6 26 26.5 42.5t46.5 16.5q32 0 54 -21.5t22 -53.5q0 -1 -2 -17l-64 -287
l204 173q23 22 49 22q28 0 48 -19.5t20 -47.5z" />
    <glyph glyph-name="l" unicode="l" horiz-adv-x="266" 
d="M18 66q0 1 2 17l118 534q6 26 26.5 42.5t47.5 16.5q31 0 53 -22t22 -53q0 -1 -2 -17l-118 -534q-5 -26 -25.5 -42.5t-47.5 -16.5q-31 0 -53.5 22t-22.5 53z" />
    <glyph glyph-name="m" unicode="m" horiz-adv-x="875" 
d="M843 368q0 -13 -5 -38l-62 -280q-6 -26 -26.5 -42.5t-47.5 -16.5q-33 0 -54 22t-21 56q0 11 3 23l44 197q2 16 2 17q0 24 -17.5 38.5t-45.5 14.5q-44 0 -84 -47l-58 -262q-6 -26 -26.5 -42.5t-47.5 -16.5q-33 0 -53 21t-20 55q0 13 3 27l43 195q2 18 2 19q0 51 -63 51
q-43 0 -84 -47l-58 -262q-5 -26 -25.5 -42.5t-47.5 -16.5q-32 0 -54 21.5t-22 52.5q0 2 2 18l78 350q6 28 26 46.5t47 18.5q32 0 54 -23t21 -55q38 38 70.5 56.5t77.5 18.5q60 0 100 -33t40 -57v-1q73 91 165 91q63 0 103.5 -35t40.5 -92z" />
    <glyph glyph-name="n" unicode="n" horiz-adv-x="593" 
d="M561 369q0 -14 -5 -39l-62 -280q-6 -26 -26.5 -42.5t-46.5 -16.5q-33 0 -54 22t-21 56q0 12 3 24l42 191q3 12 3 22q0 53 -66 53q-56 0 -103 -47l-58 -262q-5 -26 -25.5 -42.5t-47.5 -16.5q-32 0 -54 21.5t-22 52.5q0 2 2 18l78 350q6 28 26 46.5t47 18.5q32 0 54.5 -22
t22.5 -53q41 36 76.5 54t81.5 18q71 0 113 -33.5t42 -92.5z" />
    <glyph glyph-name="o" unicode="o" horiz-adv-x="576" 
d="M304 495q117 0 183 -62t66 -161q2 -113 -81.5 -199.5t-202.5 -84.5q-116 0 -182.5 62.5t-66.5 159.5q-2 113 81.5 200t202.5 85zM299 359q-53 0 -87 -41.5t-34 -99.5q0 -44 26 -69t71 -25q52 0 86.5 42t34.5 99q0 44 -26 69t-71 25z" />
    <glyph glyph-name="p" unicode="p" 
d="M570 294q0 -54 -17.5 -108.5t-49 -99.5t-81 -72t-107.5 -26q-97 0 -147 69l-42 -191q-5 -26 -25.5 -42.5t-47.5 -16.5q-32 0 -54 21.5t-22 53.5q0 1 2 17l119 534q6 30 26 48t47 18q31 0 55 -20.5t25 -49.5q60 66 137 66q84 0 133 -53.5t49 -147.5zM411 262
q0 42 -27 69.5t-67 27.5q-50 0 -92 -45l-32 -146q33 -44 96 -44q53 0 87 40q35 41 35 98z" />
    <glyph glyph-name="q" unicode="q" 
d="M571 418q0 -2 -2 -18l-118 -534q-6 -26 -26.5 -42.5t-47.5 -16.5q-31 0 -52.5 21.5t-21.5 52.5q0 2 2 18l34 157q-59 -68 -138 -68q-84 0 -132.5 53t-48.5 147q-1 74 28.5 144t89.5 117.5t136 45.5q99 0 147 -70l1 5q6 26 27 44t47 18q32 0 53.5 -21.5t21.5 -52.5z
M364 169l33 146q-33 44 -96 44q-53 0 -88 -41q-34 -40 -34 -98q0 -42 27 -69t67 -27q52 0 91 45z" />
    <glyph glyph-name="r" unicode="r" horiz-adv-x="375" 
d="M407 426q0 -33 -20.5 -54.5t-51.5 -21.5h-8q-60 0 -105 -47l-55 -253q-5 -25 -25.5 -42t-47.5 -17q-32 0 -54 21.5t-22 52.5q0 2 2 18l77 345q6 30 26 47.5t50 17.5t49 -20t21 -51q40 71 101 71q28 0 45.5 -18.5t17.5 -48.5z" />
    <glyph glyph-name="s" unicode="s" horiz-adv-x="484" 
d="M5 92q0 26 18.5 44t44.5 18q20 0 33 -9q68 -45 138 -45q23 0 37 10.5t14 26.5q0 25 -80 50q-82 26 -121 56t-39 82q0 70 57 120t150 50q92 0 167 -45q30 -17 30 -50q0 -25 -17 -42.5t-42 -17.5q-13 0 -30 9q-54 33 -108 33t-54 -34q0 -22 73 -44q46 -14 83 -30
q85 -38 85 -112q0 -75 -60 -124.5t-159 -49.5q-103 0 -188 51q-32 19 -32 53z" />
    <glyph glyph-name="t" unicode="t" horiz-adv-x="360" 
d="M385 417q0 -28 -19.5 -47.5t-47.5 -19.5h-53l-38 -170q-2 -16 -2 -17q0 -36 33 -38q3 0 6 -0.5t4.5 -1t2.5 -0.5q17 -2 30.5 -19t13.5 -38q0 -61 -64 -74q-13 -4 -38 -4q-71 0 -112 30t-41 84q0 20 4 35l47 213h-4q-28 0 -48 19t-20 48q0 27 19.5 46.5t46.5 19.5h36
l18 82q5 25 26 42t47 17q32 0 54 -22t22 -53q0 -1 -2 -17l-11 -49h23q28 0 47.5 -19.5t19.5 -46.5z" />
    <glyph glyph-name="u" unicode="u" horiz-adv-x="592" 
d="M573 418q0 -2 -2 -18l-78 -350q-6 -28 -26 -46.5t-46 -18.5q-32 0 -55 22t-23 53q-39 -36 -75.5 -54t-82.5 -18q-70 0 -112 33.5t-42 92.5q0 22 4 39l62 280q6 26 26.5 42.5t47.5 16.5q33 0 53.5 -21.5t20.5 -55.5q0 -13 -3 -25l-42 -190q-2 -10 -2 -21q0 -55 65 -55
q54 0 104 47l57 262q6 26 26.5 42.5t46.5 16.5q32 0 54 -21.5t22 -52.5z" />
    <glyph glyph-name="v" unicode="v" horiz-adv-x="498" 
d="M524 420q0 -17 -11 -37l-211 -338q-33 -54 -96 -54q-41 0 -71.5 27t-38.5 67l-57 317q-1 3 -1 13q0 32 22.5 54.5t54.5 22.5q29 0 50.5 -19.5t25.5 -48.5l34 -250l166 282q19 36 61 36q30 0 51 -21t21 -51z" />
    <glyph glyph-name="w" unicode="w" horiz-adv-x="774" 
d="M413 88l-18 211l-131 -251q-13 -26 -38 -41.5t-55 -15.5q-41 0 -71 28t-33 69l-24 323q-2 32 20 56.5t54 24.5q30 0 52 -21.5t24 -51.5l10 -232l140 259q25 46 78 46q34 0 59 -23t28 -57l22 -225l127 263q8 19 26 30.5t40 11.5q29 0 50.5 -22t21.5 -50q0 -16 -9 -33
l-175 -339q-13 -26 -38 -41.5t-55 -15.5q-42 0 -72 28.5t-33 68.5z" />
    <glyph glyph-name="x" unicode="x" horiz-adv-x="486" 
d="M499 421q0 -28 -27 -52l-138 -126l87 -135q15 -24 15 -45q0 -30 -22.5 -51t-52.5 -21q-41 0 -69 48l-65 108l-134 -132q-24 -24 -50 -24q-27 0 -46.5 19.5t-19.5 45.5q0 35 28 60l145 136l-78 124q-14 22 -14 44q0 30 23 51t53 21q42 0 70 -48l57 -95l120 119
q24 24 50 24q29 0 48.5 -20t19.5 -51z" />
    <glyph glyph-name="y" unicode="y" horiz-adv-x="511" 
d="M31 -59h12q36 0 54 26l20 31l-70 404q-1 3 -1 13q0 32 22.5 54.5t55.5 22.5q29 0 50.5 -19.5t25.5 -48.5l33 -247l163 279q19 36 61 36q30 0 50.5 -21.5t20.5 -49.5q0 -21 -10 -37l-280 -453q-42 -69 -88.5 -97.5t-112.5 -29.5h-11q-28 1 -47.5 21t-19.5 48
q0 29 21.5 49.5t50.5 18.5z" />
    <glyph glyph-name="z" unicode="z" horiz-adv-x="483" 
d="M-9 68q0 28 21 49l238 232h-115q-27 0 -47 20t-20 47q0 28 20 47.5t47 19.5h287q26 0 45.5 -19t19.5 -46q0 -26 -20 -46l-244 -239h123q28 0 47.5 -19.5t19.5 -47.5q0 -27 -19.5 -46.5t-47.5 -19.5h-287q-28 0 -48 20t-20 48z" />
    <glyph glyph-name="braceleft" unicode="{" horiz-adv-x="302" 
d="M-8 -51q0 13 3 26l34 157q4 15 4 23q0 28 -19 40q-21 18 -21 45q0 40 37 51q38 9 48 60l35 155q18 85 71.5 128.5t133.5 43.5h12q20 0 34.5 -14.5t14.5 -35.5q0 -20 -14.5 -34.5t-34.5 -14.5h-31q-62 0 -78 -73l-41 -183q-15 -76 -65 -90q29 -17 29 -57q0 -12 -3 -28
l-33 -151q-6 -30 -6 -33q0 -24 14 -39.5t35 -15.5h8q20 0 34.5 -15t14.5 -34q0 -21 -14.5 -35.5t-34.5 -14.5h-15q-63 0 -107.5 40t-44.5 99z" />
    <glyph glyph-name="bar" unicode="|" horiz-adv-x="219" 
d="M80 21v625q0 20 14.5 35t35.5 15q20 0 34.5 -15t14.5 -35v-625q0 -20 -14.5 -35t-34.5 -15q-21 0 -35.5 15t-14.5 35z" />
    <glyph glyph-name="braceright" unicode="}" horiz-adv-x="302" 
d="M309 539q0 -13 -3 -26l-34 -157q-4 -15 -4 -23q0 -28 19 -40q21 -18 21 -45q0 -40 -37 -51q-37 -9 -48 -60l-34 -155q-20 -85 -73 -128.5t-133 -43.5h-12q-20 0 -34.5 14.5t-14.5 35.5q0 20 14.5 34.5t34.5 14.5h31q62 0 78 73l41 183q15 76 65 90q-29 17 -29 57
q0 12 3 28l33 151q6 30 6 33q0 24 -14 39.5t-35 15.5h-8q-20 0 -34.5 15t-14.5 34q0 21 14.5 35.5t34.5 14.5h15q63 0 107.5 -40t44.5 -99z" />
    <glyph glyph-name="asciitilde" unicode="~" horiz-adv-x="514" 
d="M569 621q0 -3 -2 -13q-55 -201 -182 -201q-60 0 -80.5 29.5t-25.5 86.5q-4 30 -9.5 41.5t-17.5 11.5q-21 0 -43 -38.5t-37 -97.5q-5 -16 -19 -27t-29 -11q-21 0 -35.5 14.5t-14.5 35.5q0 3 2 13q54 202 182 202q61 -3 80.5 -30.5t26.5 -86.5q3 -31 8 -42t18 -11
q21 0 44 39t38 98q4 16 17 26t30 10q21 0 35 -14.5t14 -34.5z" />
    <glyph glyph-name="uni00A0" unicode="&#xa0;" horiz-adv-x="256" 
 />
    <glyph glyph-name="exclamdown" unicode="&#xa1;" horiz-adv-x="270" 
d="M159 307q-36 0 -61 25.5t-25 60.5q0 42 30.5 72t72.5 30q36 0 61 -25.5t25 -61.5q0 -41 -31 -71t-72 -30zM192 189q0 -9 -1 -12l-50 -298q-4 -31 -27.5 -51.5t-55.5 -20.5q-37 0 -61.5 24t-24.5 60q0 11 3 25l80 291q6 22 24.5 37t42.5 15q29 0 49.5 -20.5t20.5 -49.5z
" />
    <glyph glyph-name="cent" unicode="&#xa2;" horiz-adv-x="500" 
d="M177 219q0 -43 29.5 -69t75.5 -26q29 0 57 16q13 8 31 8q27 0 46.5 -19.5t19.5 -46.5q0 -37 -34 -57q-54 -32 -115 -36l-13 -56q-5 -18 -19.5 -30t-32.5 -12q-22 0 -37 16t-15 38q0 9 1 12l9 42q-74 22 -116.5 78t-42.5 133q-2 112 77.5 196.5t191.5 88.5l8 37
q4 18 18.5 30t33.5 12q22 0 37.5 -16.5t15.5 -38.5q0 -8 -1 -11l-6 -26q29 -8 51 -23q35 -22 35 -62q0 -30 -21 -51t-51 -21q-23 0 -40 13q-27 21 -64 21q-55 0 -93 -41q-36 -40 -36 -99z" />
    <glyph glyph-name="sterling" unicode="&#xa3;" horiz-adv-x="565" 
d="M276 439q0 -24 13 -59l2 -6t2 -5.5t1 -3.5h88q19 0 33 -14t14 -34t-14 -34t-33 -14h-84q-14 -42 -44 -77q-30 -37 -55 -49q30 12 59 12q27 0 59 -11q44 -11 56 -11q19 0 38 8q11 4 26 4q30 0 50 -21.5t20 -51.5q0 -48 -44 -66q-35 -18 -82 -18q-57 0 -118 18
q-50 15 -86 15q-27 0 -71 -18q-21 -8 -32 -8q-25 0 -42 17.5t-17 42.5q0 32 27 51q43 26 70.5 71t27.5 86v6h-60q-19 0 -33 14t-14 34t14 34t33 14h33q-24 54 -24 95q-2 89 80 154t192 63q114 0 181 -52q33 -24 33 -63q0 -33 -22 -56t-56 -23q-35 0 -58 26q-26 29 -70 29
q-40 0 -66.5 -28.5t-26.5 -70.5z" />
    <glyph glyph-name="currency" unicode="&#xa4;" horiz-adv-x="635" 
d="M654 542q0 -30 -21 -48l-49 -40q20 -45 20 -94q0 -103 -69 -180l22 -27q14 -17 14 -40q0 -27 -19 -46t-45 -19q-31 0 -51 23l-27 35q-51 -21 -110 -21q-82 0 -143 34l-60 -49q-15 -12 -36 -12q-26 0 -44.5 18t-18.5 44q0 28 21 46l51 42q-21 45 -21 96q0 107 68 181
l-24 31q-13 16 -13 39q0 27 19 45.5t46 18.5q33 0 52 -25l26 -34q56 21 112 21q82 0 145 -36l55 45q16 13 39 13q25 0 43 -18t18 -43zM327 220q53 0 87 37q35 38 35 91q0 44 -27.5 70.5t-77.5 26.5q-52 0 -87 -39q-33 -37 -33 -92q0 -42 27 -68t76 -26z" />
    <glyph glyph-name="yen" unicode="&#xa5;" horiz-adv-x="655" 
d="M703 599q0 -31 -18 -50l-177 -188h101q19 0 32.5 -13.5t13.5 -31.5q0 -20 -13.5 -33.5t-32.5 -13.5h-189l-15 -66h168q19 0 33 -13.5t14 -32.5t-14 -32.5t-33 -13.5h-188l-11 -53q-6 -28 -29.5 -47.5t-53.5 -19.5q-33 0 -58.5 23t-25.5 56q0 12 1 15l5 26h-171
q-19 0 -32 13.5t-13 32.5t13 32.5t32 13.5h191l15 66h-170q-19 0 -32.5 13.5t-13.5 32.5t13.5 32.5t32.5 13.5h127l-94 198q-8 21 -8 34q0 34 25.5 58.5t61.5 24.5q55 0 79 -57l91 -203l206 230q26 30 60 30q32 0 54.5 -22.5t22.5 -54.5z" />
    <glyph glyph-name="brokenbar" unicode="&#xa6;" horiz-adv-x="219" 
d="M80 413v232q0 20 14.5 35t35.5 15q20 0 34.5 -15t14.5 -35v-232q0 -20 -14.5 -35t-34.5 -15q-21 0 -35.5 15t-14.5 35zM80 22v233q0 20 14.5 35t35.5 15q20 0 34.5 -15t14.5 -35v-233q0 -20 -14.5 -35t-34.5 -15q-21 0 -35.5 15t-14.5 35z" />
    <glyph glyph-name="section" unicode="&#xa7;" horiz-adv-x="492" 
d="M427 91q0 -74 -60.5 -123t-153.5 -49q-113 0 -197 48q-31 18 -31 52q0 25 17.5 42t41.5 17q19 0 33 -10q63 -44 136 -44q26 0 43.5 12.5t17.5 30.5q0 19 -18.5 31t-66.5 27q-42 14 -78 31q-73 37 -73 110q0 104 118 144q-64 32 -64 104t59 117.5t149 45.5q102 0 170 -38
q30 -17 30 -49q0 -24 -16.5 -40.5t-39.5 -16.5q-14 0 -28 8q-48 30 -110 30q-30 0 -46 -11t-16 -30q0 -17 18.5 -28t63.5 -25q48 -15 79 -30q77 -36 77 -109q0 -48 -31.5 -89.5t-80.5 -59.5q57 -35 57 -98zM192 296q0 -39 70 -60q29 8 45 26.5t16 40.5q0 42 -57 58
q-36 -6 -55 -23t-19 -42z" />
    <glyph glyph-name="dieresis" unicode="&#xa8;" horiz-adv-x="428" 
d="M112 611q0 35 27 60q27 27 62 27q29 0 49 -20t20 -50q0 -34 -27 -61q-28 -26 -62 -26q-29 0 -49 20t-20 50zM325 611q0 35 27 60q27 27 62 27q30 0 50 -20t20 -50q0 -34 -27 -61q-28 -26 -62 -26q-29 0 -49.5 20t-20.5 50z" />
    <glyph glyph-name="copyright" unicode="&#xa9;" horiz-adv-x="778" 
d="M64 334q-3 139 101.5 243t242.5 102q140 2 244.5 -102t101.5 -243q3 -139 -101.5 -243.5t-244.5 -101.5q-138 -3 -242.5 101.5t-101.5 243.5zM715 334q2 123 -90.5 215.5t-216.5 90.5q-123 2 -215 -90.5t-90 -215.5q-2 -123 90 -215.5t215 -90.5q124 -2 216.5 90.5
t90.5 215.5zM203 307q-2 97 69.5 168t162.5 69q98 0 148 -63q7 -7 7 -17t-7.5 -17t-17.5 -7q-13 0 -21 9q-37 52 -112 52q-69 0 -124 -56.5t-55 -135.5q0 -59 39.5 -100.5t102.5 -41.5q53 0 99 38q7 4 14 4q21 0 23 -21q0 -13 -9 -19q-60 -45 -128 -45q-85 0 -138 51.5
t-53 131.5z" />
    <glyph glyph-name="ordfeminine" unicode="&#xaa;" horiz-adv-x="415" 
d="M446 594q0 -8 -1 -10l-50 -226q-4 -18 -18.5 -29.5t-33.5 -11.5q-21 0 -37 14t-17 35q-38 -48 -93 -48q-53 0 -88 35.5t-35 96.5q0 83 49 140.5t118 57.5t100 -43q4 19 18.5 31.5t34.5 12.5q23 0 38 -16.5t15 -38.5zM301 430l25 111q-19 21 -56 21q-35 0 -59.5 -29
t-24.5 -69q0 -29 16 -44t43 -15q31 0 56 25z" />
    <glyph glyph-name="guillemotleft" unicode="&#xab;" horiz-adv-x="571" 
d="M138 80l-67 99q-16 25 -16 50q0 38 32 64l138 123q13 13 32 13q20 0 33.5 -13.5t13.5 -33.5q0 -21 -15 -36l-121 -108l64 -96q9 -15 9 -31q0 -24 -16 -40.5t-40 -16.5q-30 0 -47 26zM350 80l-66 99q-16 25 -16 50q0 39 31 64l139 123q13 13 31 13q20 0 34 -14t14 -33
q0 -20 -16 -36l-121 -108l64 -96q9 -15 9 -31q0 -24 -16 -40.5t-40 -16.5q-29 0 -47 26z" />
    <glyph glyph-name="logicalnot" unicode="&#xac;" horiz-adv-x="521" 
d="M427 186q-20 0 -34 19t-10 38l30 138h-306q-19 0 -32.5 13.5t-13.5 31.5q0 19 13.5 33t32.5 14h347q27 0 43.5 -15.5t16.5 -40.5q0 -1 -2 -17l-36 -166q-12 -48 -49 -48z" />
    <glyph glyph-name="uni00AD" unicode="&#xad;" horiz-adv-x="300" 
d="M22 242q0 26 19.5 45.5t45.5 19.5h126q26 0 45 -19.5t19 -45.5t-19 -45t-45 -19h-126q-26 0 -45.5 19t-19.5 45z" />
    <glyph glyph-name="registered" unicode="&#xae;" horiz-adv-x="494" 
d="M84 465q0 88 62 150t150 62t150 -62t62 -150t-62.5 -150t-150.5 -62q-87 0 -149 62t-62 150zM474 465q0 74 -52.5 126t-126.5 52t-126 -52t-52 -126t52.5 -126.5t125.5 -52.5q74 0 126.5 52.5t52.5 126.5zM325 350l-39 89h-42l-19 -86q-2 -15 -17 -15q-9 0 -14 7t-3 16
l45 207q5 18 23 18h75q32 0 52 -18.5t20 -45.5q0 -33 -24.5 -57.5t-55.5 -24.5l34 -75l2 -8q0 -19 -19 -19q-12 0 -18 12zM326 556h-56l-19 -86h63q24 0 39 14.5t15 35.5q0 36 -42 36z" />
    <glyph glyph-name="overscore" unicode="&#xaf;" horiz-adv-x="363" 
d="M79 598q0 18 13 30.5t30 12.5h279q17 0 30 -12.5t13 -30.5q0 -17 -13 -29.5t-30 -12.5h-279q-17 0 -30 12.5t-13 29.5z" />
    <glyph glyph-name="degree" unicode="&#xb0;" horiz-adv-x="321" 
d="M83 535q0 58 41.5 100t99.5 42q59 0 101 -41.5t42 -100.5t-42 -100.5t-101 -41.5q-58 0 -99.5 42t-41.5 100zM163 535q0 -26 17.5 -44t42.5 -18q26 0 45 18.5t19 43.5q0 26 -18.5 44.5t-44.5 18.5q-25 0 -43 -18.5t-18 -44.5z" />
    <glyph glyph-name="plusminus" unicode="&#xb1;" horiz-adv-x="507" 
d="M322 327l-37 -168q-4 -17 -17.5 -28t-31.5 -11q-20 0 -34.5 14.5t-14.5 34.5q0 8 1 11l33 147h-126q-19 0 -32.5 13.5t-13.5 31.5q0 19 13.5 33t32.5 14h146l36 160q4 17 17.5 28t30.5 11q20 0 35 -14.5t15 -34.5q0 -8 -1 -11l-32 -139h126q19 0 32.5 -13.5t13.5 -32.5
t-13.5 -32.5t-32.5 -13.5h-146zM-23 46q0 19 13.5 32.5t32.5 13.5h373q19 0 32.5 -13.5t13.5 -32.5t-13.5 -32.5t-32.5 -13.5h-373q-19 0 -32.5 13.5t-13.5 32.5z" />
    <glyph glyph-name="uni00B2" unicode="&#xb2;" horiz-adv-x="375" 
d="M65 471q0 30 24 43q105 59 155 91q48 30 66.5 50t18.5 41q0 19 -16 30t-43 11q-41 0 -85 -23q-9 -6 -21 -6q-18 0 -31 13t-13 32q0 27 23 39q62 35 132 35q76 0 123.5 -33t47.5 -87q0 -48 -46.5 -93t-152.5 -103h112q19 0 32 -13t13 -32t-13 -32t-32 -13h-244
q-21 0 -35.5 14.5t-14.5 35.5z" />
    <glyph glyph-name="uni00B3" unicode="&#xb3;" horiz-adv-x="382" 
d="M104 454q-23 14 -23 42q0 20 14.5 34t34.5 14q18 0 30 -9q38 -31 89 -31q27 0 41.5 11.5t14.5 29.5q0 16 -19.5 25t-52.5 9h-4q-18 0 -29.5 13t-11.5 31t13 31t32 12h39q62 0 62 36q0 17 -20.5 26t-52.5 9q-40 0 -76 -18q-7 -4 -17 -4q-17 0 -29 12.5t-12 29.5
q0 23 20 35q65 35 126 35q82 0 129.5 -29t47.5 -80q0 -40 -29 -67.5t-81 -31.5q78 -20 78 -87q0 -47 -45 -82.5t-118 -35.5q-92 0 -151 40z" />
    <glyph glyph-name="acute" unicode="&#xb4;" horiz-adv-x="263" 
d="M156 550q-15 0 -26.5 11.5t-11.5 26.5q0 19 14 30l94 86q14 12 32 12q17 0 30.5 -14t13.5 -33q0 -23 -18 -36l-103 -75q-11 -8 -25 -8z" />
    <glyph glyph-name="uni00B5" unicode="&#xb5;" horiz-adv-x="606" 
d="M52 -193q-32 0 -54 22t-22 54l2 16l122 534q6 25 26.5 42t46.5 17q33 0 53.5 -21.5t20.5 -55.5q0 -13 -3 -25l-42 -190q-3 -12 -3 -22q0 -26 18 -40t46 -14q56 0 103 47l57 262q5 25 26 42t48 17q31 0 52.5 -22t21.5 -54q0 -13 -1 -16l-52 -238l-2 -12q0 -14 12 -21
q10 -7 18 -15q18 -22 18 -49t-17.5 -49t-43.5 -26q-14 -2 -27 -2q-113 0 -123 87q-28 -40 -67 -63.5t-79 -23.5q-36 0 -51 17l-31 -139q-6 -25 -26.5 -42t-46.5 -17z" />
    <glyph glyph-name="paragraph" unicode="&#xb6;" horiz-adv-x="449" 
d="M274 -67l147 663h-73l-150 -676q-3 -12 -13 -20.5t-22 -8.5q-16 0 -26.5 13t-7.5 29l87 390q-57 0 -97 44.5t-40 111.5q0 73 57 130.5t137 57.5h154q31 0 48.5 -15t17.5 -42q0 -10 -3 -22l-148 -668q-7 -29 -34 -29q-17 0 -27.5 13t-6.5 29z" />
    <glyph glyph-name="middot" unicode="&#xb7;" horiz-adv-x="270" 
d="M143 340q36 0 60.5 -25.5t24.5 -61.5q0 -42 -31 -72q-30 -30 -71 -30q-36 0 -61 25.5t-25 61.5q0 41 31 71q31 31 72 31z" />
    <glyph glyph-name="cedilla" unicode="&#xb8;" horiz-adv-x="229" 
d="M-82 -144q0 14 10 23.5t23 9.5q9 0 17 -5q32 -21 67 -21q44 0 44 30q0 20 -26 20q-7 0 -18 -6q-7 -4 -16 -4q-13 0 -22 8.5t-9 20.5q0 14 4 18l36 61h72l-39 -60q16 10 30 10q27 0 43.5 -17.5t16.5 -46.5q0 -42 -33 -68.5t-83 -26.5q-57 0 -100 25q-17 11 -17 29z" />
    <glyph glyph-name="uni00B9" unicode="&#xb9;" horiz-adv-x="298" 
d="M188 468q0 9 1 12l42 192l-54 -44q-12 -9 -27 -9q-18 0 -30.5 13t-12.5 30q0 21 16 33l152 122q16 13 35 13q24 0 40 -16.5t16 -39.5q0 -9 -1 -12l-67 -306q-5 -19 -20 -31.5t-35 -12.5q-23 0 -39 16.5t-16 39.5z" />
    <glyph glyph-name="ordmasculine" unicode="&#xba;" horiz-adv-x="405" 
d="M267 648q76 0 122 -41t46 -107q0 -76 -58.5 -129t-135.5 -53q-76 0 -122 41t-46 106q0 77 58 130t136 53zM264 559q-37 0 -57.5 -28t-20.5 -69q0 -27 15.5 -42t42.5 -15q37 0 57.5 28t20.5 69q0 27 -15.5 42t-42.5 15z" />
    <glyph glyph-name="guillemotright" unicode="&#xbb;" horiz-adv-x="571" 
d="M223 403l66 -99q16 -25 16 -50q0 -39 -31 -64l-139 -123q-13 -13 -31 -13q-20 0 -34 14t-14 33q0 20 16 36l121 108l-64 96q-9 15 -9 31q0 24 16 40.5t40 16.5q29 0 47 -26zM435 403l67 -99q16 -25 16 -50q0 -38 -32 -64l-138 -123q-13 -13 -32 -13q-20 0 -34 14t-14 33
q0 20 16 36l121 108l-64 96q-9 15 -9 31q0 24 16 40.5t40 16.5q29 0 47 -26z" />
    <glyph glyph-name="onequarter" unicode="&#xbc;" horiz-adv-x="811" 
d="M154 314q0 9 1 12l42 192l-54 -44q-12 -9 -27 -9q-18 0 -30.5 13t-12.5 30q0 21 16 33l152 122q16 13 35 13q24 0 40 -16.5t16 -39.5q0 -9 -1 -12l-67 -306q-5 -19 -20 -31.5t-35 -12.5q-23 0 -39 16.5t-16 39.5zM145 -9q-14 0 -23.5 10t-9.5 24q0 10 8 21l532 618
q10 12 25 12q14 0 23.5 -10t9.5 -24q0 -10 -8 -21l-532 -618q-9 -12 -25 -12zM787 123q0 -19 -13.5 -32t-31.5 -13h-23l-9 -43q-4 -18 -19.5 -31t-34.5 -13q-24 0 -40 16.5t-16 39.5q0 8 1 11l5 20h-149q-18 0 -31.5 13t-13.5 31t13 31l186 223q26 33 69 33q38 0 64 -25.5
t26 -62.5q0 -11 -2 -21l-29 -133h3q18 0 31.5 -13t13.5 -31zM626 167l29 134l-113 -134h84z" />
    <glyph glyph-name="onehalf" unicode="&#xbd;" horiz-adv-x="851" 
d="M154 314q0 9 1 12l42 192l-54 -44q-12 -9 -27 -9q-18 0 -30.5 13t-12.5 30q0 21 16 33l152 122q16 13 35 13q24 0 40 -16.5t16 -39.5q0 -9 -1 -12l-67 -306q-5 -19 -20 -31.5t-35 -12.5q-23 0 -39 16.5t-16 39.5zM145 -9q-14 0 -23.5 10t-9.5 24q0 10 8 21l532 618
q10 12 25 12q14 0 23.5 -10t9.5 -24q0 -10 -8 -21l-532 -618q-9 -12 -25 -12zM448 50q0 30 24 43q105 59 155 91q48 30 66.5 50t18.5 41q0 19 -16 30t-43 11q-41 0 -85 -23q-9 -6 -21 -6q-18 0 -31 13t-13 32q0 27 23 39q62 35 132 35q76 0 123.5 -33t47.5 -87
q0 -48 -46.5 -93t-152.5 -103h112q19 0 32 -13t13 -32t-13 -32t-32 -13h-244q-21 0 -35.5 14.5t-14.5 35.5z" />
    <glyph glyph-name="threequarters" unicode="&#xbe;" horiz-adv-x="887" 
d="M70 300q-23 14 -23 42q0 20 14.5 34t34.5 14q18 0 30 -9q38 -31 89 -31q27 0 41.5 11.5t14.5 29.5q0 16 -19.5 25t-52.5 9h-4q-18 0 -29.5 13t-11.5 31t13 31t32 12h39q62 0 62 36q0 17 -20.5 26t-52.5 9q-40 0 -76 -18q-7 -4 -17 -4q-17 0 -29 12.5t-12 29.5q0 23 20 35
q65 35 126 35q82 0 129.5 -29t47.5 -80q0 -40 -29 -67.5t-81 -31.5q78 -20 78 -87q0 -47 -45 -82.5t-118 -35.5q-92 0 -151 40zM220 -9q-14 0 -23.5 10t-9.5 24q0 10 8 21l532 618q11 12 25 12t23.5 -10t9.5 -24q0 -10 -8 -21l-532 -618q-9 -12 -25 -12zM863 123
q0 -19 -13.5 -32t-31.5 -13h-23l-9 -43q-4 -18 -19.5 -31t-34.5 -13q-24 0 -40 16.5t-16 39.5q0 8 1 11l5 20h-149q-18 0 -31.5 13t-13.5 31t13 31l186 223q26 33 69 33q38 0 64 -25.5t26 -62.5q0 -11 -2 -21l-29 -133h3q18 0 31.5 -13t13.5 -31zM702 167l29 134l-113 -134
h84z" />
    <glyph glyph-name="questiondown" unicode="&#xbf;" horiz-adv-x="399" 
d="M252 306q-36 0 -60.5 25.5t-24.5 61.5q0 41 30 71q31 30 72 30q36 0 61 -25.5t25 -60.5q0 -42 -30.5 -72t-72.5 -30zM292 228q14 -23 14 -45q0 -47 -28 -76.5t-87 -60.5q-34 -19 -45.5 -29t-11.5 -25q0 -37 62 -37q31 0 62 16q9 4 26 4q29 0 49.5 -21t20.5 -50
q0 -46 -40 -64q-70 -35 -145 -35q-92 0 -154.5 40t-62.5 108q2 68 31.5 101.5t95.5 69.5q40 22 57.5 38.5t22.5 38.5l4 11q3 8 5 11q7 18 24.5 28.5t38.5 10.5q20 0 37.5 -10t23.5 -24z" />
    <glyph glyph-name="Agrave" unicode="&#xc0;" horiz-adv-x="684" 
d="M634 78q0 -36 -25 -61.5t-61 -25.5q-34 0 -58.5 22.5t-28.5 55.5l-4 40h-273l-41 -74q-24 -44 -73 -44q-34 0 -59 24.5t-25 58.5q0 22 12 43l291 487q21 33 54.5 52.5t71.5 19.5q55 0 96 -36q42 -36 50 -89l72 -460q1 -3 1 -13zM264 254h177l-30 268zM413 732l-64 73
q-12 14 -12 32t14.5 32t32.5 14q26 0 39 -20l56 -83q8 -11 8 -21q0 -17 -12 -29t-29 -12q-21 0 -33 14z" />
    <glyph glyph-name="Aacute" unicode="&#xc1;" horiz-adv-x="684" 
d="M634 78q0 -36 -25 -61.5t-61 -25.5q-34 0 -58.5 22.5t-28.5 55.5l-4 40h-273l-41 -74q-24 -44 -73 -44q-34 0 -59 24.5t-25 58.5q0 22 12 43l291 487q21 33 54.5 52.5t71.5 19.5q55 0 96 -36q42 -36 50 -89l72 -460q1 -3 1 -13zM264 254h177l-30 268zM454 717
q-15 0 -26.5 11.5t-11.5 26.5q0 19 14 30l94 86q14 12 32 12q17 0 30.5 -14t13.5 -33q0 -23 -18 -36l-103 -75q-11 -8 -25 -8z" />
    <glyph glyph-name="Acircumflex" unicode="&#xc2;" horiz-adv-x="684" 
d="M634 78q0 -36 -25 -61.5t-61 -25.5q-34 0 -58.5 22.5t-28.5 55.5l-4 40h-273l-41 -74q-24 -44 -73 -44q-34 0 -59 24.5t-25 58.5q0 22 12 43l291 487q21 33 54.5 52.5t71.5 19.5q55 0 96 -36q42 -36 50 -89l72 -460q1 -3 1 -13zM264 254h177l-30 268zM509 737l-42 67
l-76 -74q-14 -13 -29 -13t-25 10.5t-10 25.5q0 13 8 23l46 54q31 37 75 37h48q44 0 59 -36l24 -55q3 -7 3 -16q0 -17 -13 -30t-31 -13q-25 0 -37 20z" />
    <glyph glyph-name="Atilde" unicode="&#xc3;" horiz-adv-x="684" 
d="M634 78q0 -36 -25 -61.5t-61 -25.5q-34 0 -58.5 22.5t-28.5 55.5l-4 40h-273l-41 -74q-24 -44 -73 -44q-34 0 -59 24.5t-25 58.5q0 22 12 43l291 487q21 33 54.5 52.5t71.5 19.5q55 0 96 -36q42 -36 50 -89l72 -460q1 -3 1 -13zM264 254h177l-30 268zM396 776
q-19 0 -30 -32q-9 -26 -37 -26q-16 0 -27 11.5t-11 27.5q0 1 2 11q15 48 41.5 70.5t70.5 22.5q40 0 78 -32q27 -23 44 -23q20 0 31 32q9 26 36 26q17 0 27.5 -10.5t10.5 -27.5q0 -2 -2 -12q-15 -48 -41.5 -70.5t-70.5 -22.5q-24 0 -39.5 7t-38.5 25q-24 23 -44 23z" />
    <glyph glyph-name="Adieresis" unicode="&#xc4;" horiz-adv-x="684" 
d="M634 78q0 -36 -25 -61.5t-61 -25.5q-34 0 -58.5 22.5t-28.5 55.5l-4 40h-273l-41 -74q-24 -44 -73 -44q-34 0 -59 24.5t-25 58.5q0 22 12 43l291 487q21 33 54.5 52.5t71.5 19.5q55 0 96 -36q42 -36 50 -89l72 -460q1 -3 1 -13zM264 254h177l-30 268zM279 778q0 34 27 60
q27 27 62 27q29 0 49 -20t20 -50q0 -34 -27 -61q-28 -26 -62 -26q-29 0 -49 20t-20 50zM492 778q0 34 27 60q27 27 62 27q30 0 50 -20t20 -50q0 -34 -27 -61q-28 -26 -62 -26q-29 0 -49.5 20t-20.5 50z" />
    <glyph glyph-name="Aring" unicode="&#xc5;" horiz-adv-x="684" 
d="M634 78q0 -36 -25 -61.5t-61 -25.5q-34 0 -58.5 22.5t-28.5 55.5l-4 40h-273l-41 -74q-24 -44 -73 -44q-34 0 -59 24.5t-25 58.5q0 22 12 43l291 487q21 33 54.5 52.5t71.5 19.5q55 0 96 -36q42 -36 50 -89l72 -460q1 -3 1 -13zM264 254h177l-30 268zM476 909
q44 0 71.5 -27.5t27.5 -71.5q0 -47 -36 -82.5t-83 -35.5q-44 0 -71.5 27.5t-27.5 71.5q0 47 36 82.5t83 35.5zM469 841q-17 0 -30 -13t-13 -30q0 -16 10 -26.5t27 -10.5t30 12.5t13 30.5q0 17 -10.5 27t-26.5 10z" />
    <glyph glyph-name="AE" unicode="&#xc6;" horiz-adv-x="966" 
d="M941 522h-267l-24 -111h228q29 0 50.5 -21.5t21.5 -51.5t-21.5 -51.5t-50.5 -21.5h-261l-26 -120h235q30 0 51.5 -21t21.5 -51t-21.5 -51.5t-51.5 -21.5h-337q-85 0 -85 64q0 11 3 25l4 20h-221l-66 -88q-23 -30 -59 -30q-31 0 -52.5 22t-21.5 53q0 23 17 46l412 502
q42 53 111 53h410q30 0 51.5 -21.5t21.5 -51.5q0 -29 -21.5 -50.5t-51.5 -21.5zM299 254h144l58 268z" />
    <glyph glyph-name="Ccedilla" unicode="&#xc7;" horiz-adv-x="665" 
d="M215 302q0 -69 47 -115.5t122 -46.5q58 0 114 43q21 18 49 18q33 0 56 -22.5t23 -55.5q0 -38 -32 -62q-96 -73 -220 -73q-21 0 -27 1l-25 -38q16 10 30 10q27 0 43.5 -17.5t16.5 -46.5q0 -42 -33 -68.5t-83 -26.5q-57 0 -100 25q-17 11 -17 29q0 14 10 23.5t23 9.5
q9 0 17 -5q32 -21 67 -21q44 0 44 30q0 20 -26 20q-8 0 -18 -6q-7 -4 -16 -4q-13 0 -22 8.5t-9 20.5q0 14 4 18l28 48q-111 26 -178 102q-67 77 -67 191q-2 110 52.5 200.5t145.5 139.5t196 47q167 0 257 -111q19 -23 19 -54q0 -35 -25.5 -60t-60.5 -25q-43 0 -68 35
q-45 63 -130 63q-86 0 -146.5 -66t-60.5 -158z" />
    <glyph glyph-name="Egrave" unicode="&#xc8;" 
d="M25 74q0 12 3 27l107 486q18 80 100 80h325q30 0 51.5 -21.5t21.5 -51.5q0 -29 -21.5 -50.5t-51.5 -21.5h-267l-24 -111h228q30 0 51 -21.5t21 -51.5t-21 -51.5t-51 -21.5h-260l-27 -120h235q30 0 51.5 -21t21.5 -51t-21.5 -51.5t-51.5 -21.5h-337q-40 0 -61.5 19.5
t-21.5 54.5zM382 732l-64 73q-12 14 -12 32t14.5 32t32.5 14q26 0 39 -20l56 -83q8 -11 8 -21q0 -17 -12 -29t-29 -12q-21 0 -33 14z" />
    <glyph glyph-name="Eacute" unicode="&#xc9;" 
d="M25 74q0 12 3 27l107 486q18 80 100 80h325q30 0 51.5 -21.5t21.5 -51.5q0 -29 -21.5 -50.5t-51.5 -21.5h-267l-24 -111h228q30 0 51 -21.5t21 -51.5t-21 -51.5t-51 -21.5h-260l-27 -120h235q30 0 51.5 -21t21.5 -51t-21.5 -51.5t-51.5 -21.5h-337q-40 0 -61.5 19.5
t-21.5 54.5zM424 717q-15 0 -26.5 11.5t-11.5 26.5q0 19 14 30l94 86q14 12 32 12q17 0 30.5 -14t13.5 -33q0 -23 -18 -36l-103 -75q-11 -8 -25 -8z" />
    <glyph glyph-name="Ecircumflex" unicode="&#xca;" 
d="M25 74q0 12 3 27l107 486q18 80 100 80h325q30 0 51.5 -21.5t21.5 -51.5q0 -29 -21.5 -50.5t-51.5 -21.5h-267l-24 -111h228q30 0 51 -21.5t21 -51.5t-21 -51.5t-51 -21.5h-260l-27 -120h235q30 0 51.5 -21t21.5 -51t-21.5 -51.5t-51.5 -21.5h-337q-40 0 -61.5 19.5
t-21.5 54.5zM478 737l-42 67l-76 -74q-14 -13 -29 -13t-25 10.5t-10 25.5q0 13 8 23l46 54q31 37 75 37h48q44 0 59 -36l24 -55q3 -7 3 -16q0 -17 -13 -30t-31 -13q-25 0 -37 20z" />
    <glyph glyph-name="Edieresis" unicode="&#xcb;" 
d="M25 74q0 12 3 27l107 486q18 80 100 80h325q30 0 51.5 -21.5t21.5 -51.5q0 -29 -21.5 -50.5t-51.5 -21.5h-267l-24 -111h228q30 0 51 -21.5t21 -51.5t-21 -51.5t-51 -21.5h-260l-27 -120h235q30 0 51.5 -21t21.5 -51t-21.5 -51.5t-51.5 -21.5h-337q-40 0 -61.5 19.5
t-21.5 54.5zM249 778q0 34 27 60q27 27 62 27q29 0 49 -20t20 -50q0 -34 -27 -61q-28 -26 -62 -26q-29 0 -49 20t-20 50zM462 778q0 34 27 60q27 27 62 27q30 0 50 -20t20 -50q0 -34 -27 -61q-28 -26 -62 -26q-29 0 -49.5 20t-20.5 50z" />
    <glyph glyph-name="Igrave" unicode="&#xcc;" horiz-adv-x="292" 
d="M24 76q0 2 2 18l114 516q7 29 29.5 47.5t52.5 18.5q36 0 60.5 -24.5t24.5 -59.5q0 -1 -2 -19l-114 -516q-6 -29 -29 -47.5t-53 -18.5q-35 0 -60 25t-25 60zM218 732l-64 73q-12 13 -12 32q0 18 14.5 32t32.5 14q26 0 39 -20l56 -83q8 -11 8 -21q0 -17 -12 -29t-29 -12
q-21 0 -33 14z" />
    <glyph glyph-name="Iacute" unicode="&#xcd;" horiz-adv-x="292" 
d="M24 76q0 2 2 18l114 516q7 29 29.5 47.5t52.5 18.5q36 0 60.5 -24.5t24.5 -59.5q0 -1 -2 -19l-114 -516q-6 -29 -29 -47.5t-53 -18.5q-35 0 -60 25t-25 60zM259 717q-15 0 -26.5 11.5t-11.5 26.5q0 19 14 30l94 86q13 12 32 12q17 0 30.5 -14t13.5 -33q0 -23 -18 -36
l-103 -75q-11 -8 -25 -8z" />
    <glyph glyph-name="Icircumflex" unicode="&#xce;" horiz-adv-x="292" 
d="M24 76q0 2 2 18l114 516q7 29 29.5 47.5t52.5 18.5q36 0 60.5 -24.5t24.5 -59.5q0 -1 -2 -19l-114 -516q-6 -29 -29 -47.5t-53 -18.5q-35 0 -60 25t-25 60zM314 737l-42 67l-76 -74q-14 -13 -29 -13t-25 10.5t-10 25.5q0 13 8 23l46 54q31 37 75 37h48q44 0 59 -36
l24 -55q3 -7 3 -16q0 -17 -13 -30t-31 -13q-25 0 -37 20z" />
    <glyph glyph-name="Idieresis" unicode="&#xcf;" horiz-adv-x="292" 
d="M24 76q0 2 2 18l114 516q7 29 29.5 47.5t52.5 18.5q36 0 60.5 -24.5t24.5 -59.5q0 -1 -2 -19l-114 -516q-6 -29 -29 -47.5t-53 -18.5q-35 0 -60 25t-25 60zM84 778q0 34 27 60q27 27 62 27q29 0 49 -20t20 -50q0 -34 -27 -61q-28 -26 -62 -26q-29 0 -49 20t-20 50z
M297 778q0 34 27 60q27 27 62 27q30 0 50 -20t20 -50q0 -34 -27 -61q-28 -26 -62 -26q-29 0 -49.5 20t-20.5 50z" />
    <glyph glyph-name="Eth" unicode="&#xd0;" horiz-adv-x="750" 
d="M747 380q0 -71 -25.5 -137.5t-77 -122t-138.5 -88.5t-198 -32h-177q-40 0 -61.5 19t-21.5 53q0 14 3 29l36 164q-27 1 -47 21t-20 47q0 28 20.5 48.5t48.5 20.5h28l41 185q18 80 100 80h193q115 2 207 -81.5t89 -205.5zM568 368q0 63 -42 106t-107 43h-104l-25 -115h61
q28 0 48.5 -20.5t20.5 -48.5t-20.5 -48t-48.5 -20h-92l-25 -115h106q102 0 165 63t63 155z" />
    <glyph glyph-name="Ntilde" unicode="&#xd1;" horiz-adv-x="740" 
d="M435 57l-164 367l-80 -367q-6 -29 -29 -47.5t-54 -18.5q-35 0 -59.5 24.5t-24.5 59.5q0 1 2 19l108 489q9 40 41.5 66.5t74.5 26.5q35 0 64 -19t44 -52l153 -343l76 348q7 29 29.5 47.5t52.5 18.5q36 0 60.5 -24.5t24.5 -59.5q0 -1 -2 -19l-109 -495q-8 -37 -38 -62
t-69 -25q-33 0 -60.5 18t-40.5 48zM424 776q-19 0 -30 -32q-9 -26 -37 -26q-16 0 -27 11.5t-11 27.5q0 1 2 11q15 48 41.5 70.5t70.5 22.5q40 0 78 -32q27 -23 44 -23q20 0 31 32q9 26 36 26q17 0 27.5 -10.5t10.5 -27.5q0 -2 -2 -12q-15 -48 -41.5 -70.5t-70.5 -22.5
q-24 0 -39.5 7t-38.5 25q-24 23 -44 23z" />
    <glyph glyph-name="Ograve" unicode="&#xd2;" horiz-adv-x="766" 
d="M430 678q143 2 241.5 -83.5t96.5 -217.5q3 -160 -113 -276t-281 -113q-145 0 -241.5 85t-96.5 218q-3 159 113 274.5t281 112.5zM420 526q-86 0 -145.5 -65.5t-59.5 -158.5q0 -72 47 -117t122 -45q86 0 145.5 65.5t59.5 158.5q0 72 -47 117t-122 45zM453 732l-64 73
q-12 14 -12 32t14.5 32t32.5 14q26 0 39 -20l56 -83q8 -11 8 -21q0 -17 -12 -29t-29 -12q-21 0 -33 14z" />
    <glyph glyph-name="Oacute" unicode="&#xd3;" horiz-adv-x="766" 
d="M430 678q143 2 241.5 -83.5t96.5 -217.5q3 -160 -113 -276t-281 -113q-145 0 -241.5 85t-96.5 218q-3 159 113 274.5t281 112.5zM420 526q-86 0 -145.5 -65.5t-59.5 -158.5q0 -72 47 -117t122 -45q86 0 145.5 65.5t59.5 158.5q0 72 -47 117t-122 45zM494 717
q-15 0 -26.5 11.5t-11.5 26.5q0 19 14 30l94 86q14 12 32 12q17 0 30.5 -14t13.5 -33q0 -23 -18 -36l-103 -75q-11 -8 -25 -8z" />
    <glyph glyph-name="Ocircumflex" unicode="&#xd4;" horiz-adv-x="766" 
d="M430 678q143 2 241.5 -83.5t96.5 -217.5q3 -160 -113 -276t-281 -113q-145 0 -241.5 85t-96.5 218q-3 159 113 274.5t281 112.5zM420 526q-86 0 -145.5 -65.5t-59.5 -158.5q0 -72 47 -117t122 -45q86 0 145.5 65.5t59.5 158.5q0 72 -47 117t-122 45zM549 737l-42 67
l-76 -74q-14 -13 -29 -13t-25 10.5t-10 25.5q0 13 8 23l46 54q31 37 75 37h48q44 0 59 -36l24 -55q3 -7 3 -16q0 -17 -13 -30t-31 -13q-25 0 -37 20z" />
    <glyph glyph-name="Otilde" unicode="&#xd5;" horiz-adv-x="766" 
d="M430 678q143 2 241.5 -83.5t96.5 -217.5q3 -160 -113 -276t-281 -113q-145 0 -241.5 85t-96.5 218q-3 159 113 274.5t281 112.5zM420 526q-86 0 -145.5 -65.5t-59.5 -158.5q0 -72 47 -117t122 -45q86 0 145.5 65.5t59.5 158.5q0 72 -47 117t-122 45zM436 776
q-19 0 -30 -32q-9 -26 -37 -26q-16 0 -27 11.5t-11 27.5q0 1 2 11q15 48 41.5 70.5t70.5 22.5q40 0 78 -32q27 -23 44 -23q20 0 31 32q9 26 36 26q17 0 27.5 -10.5t10.5 -27.5q0 -2 -2 -12q-15 -48 -41.5 -70.5t-70.5 -22.5q-24 0 -39.5 7t-38.5 25q-24 23 -44 23z" />
    <glyph glyph-name="Odieresis" unicode="&#xd6;" horiz-adv-x="766" 
d="M430 678q143 2 241.5 -83.5t96.5 -217.5q3 -160 -113 -276t-281 -113q-145 0 -241.5 85t-96.5 218q-3 159 113 274.5t281 112.5zM420 526q-86 0 -145.5 -65.5t-59.5 -158.5q0 -72 47 -117t122 -45q86 0 145.5 65.5t59.5 158.5q0 72 -47 117t-122 45zM320 778q0 34 27 60
q27 27 62 27q29 0 49 -20t20 -50q0 -34 -27 -61q-28 -26 -62 -26q-29 0 -49 20t-20 50zM533 778q0 34 27 60q27 27 62 27q30 0 50 -20t20 -50q0 -34 -27 -61q-28 -26 -62 -26q-29 0 -49.5 20t-20.5 50z" />
    <glyph glyph-name="multiply" unicode="&#xd7;" horiz-adv-x="507" 
d="M265 268l-142 -116q-10 -10 -29 -10t-32.5 13t-13.5 32q0 21 17 35l145 118l-83 104q-9 12 -9 30q0 19 14 33t33 14q21 0 37 -19l79 -102l143 116q13 10 28 10q19 0 32.5 -13t13.5 -32q0 -20 -17 -35l-143 -118l81 -105q10 -13 10 -29q0 -19 -13.5 -32.5t-33.5 -13.5
q-24 0 -37 18z" />
    <glyph glyph-name="Oslash" unicode="&#xd8;" horiz-adv-x="766" 
d="M768 377q3 -160 -113 -276t-281 -113q-110 0 -196 50l-68 -72q-14 -14 -30 -14t-27 11t-11 27t12 28l64 68q-82 82 -82 205q-3 159 113 274.5t281 112.5q115 0 198 -52l71 75q14 14 29 14q16 0 27 -11t11 -27t-12 -28l-66 -70q80 -82 80 -202zM239 214l273 289
q-41 23 -92 23q-86 0 -145.5 -65.5t-59.5 -158.5q0 -50 24 -88zM589 364q0 49 -22 86l-273 -289q42 -21 90 -21q86 0 145.5 65.5t59.5 158.5z" />
    <glyph glyph-name="Ugrave" unicode="&#xd9;" horiz-adv-x="739" 
d="M65 270l75 339q7 29 30.5 48t53.5 19q36 0 60 -24t24 -59q0 -11 -2 -21l-65 -298q-3 -7 -3 -28q1 -47 33.5 -77.5t88.5 -30.5q119 0 150 136l74 335q7 29 30.5 48t53.5 19q36 0 60 -24t24 -59q0 -11 -2 -21l-66 -301q-31 -139 -108.5 -211t-215.5 -72q-144 0 -222 63.5
t-78 174.5q0 16 5 44zM440 732l-64 73q-12 14 -12 32t14.5 32t32.5 14q26 0 39 -20l56 -83q8 -11 8 -21q0 -17 -12 -29t-29 -12q-21 0 -33 14z" />
    <glyph glyph-name="Uacute" unicode="&#xda;" horiz-adv-x="739" 
d="M65 270l75 339q7 29 30.5 48t53.5 19q36 0 60 -24t24 -59q0 -11 -2 -21l-65 -298q-3 -7 -3 -28q1 -47 33.5 -77.5t88.5 -30.5q119 0 150 136l74 335q7 29 30.5 48t53.5 19q36 0 60 -24t24 -59q0 -11 -2 -21l-66 -301q-31 -139 -108.5 -211t-215.5 -72q-144 0 -222 63.5
t-78 174.5q0 16 5 44zM481 717q-15 0 -26.5 11.5t-11.5 26.5q0 19 14 30l94 86q13 12 32 12q17 0 30.5 -14t13.5 -33q0 -23 -18 -36l-103 -75q-11 -8 -25 -8z" />
    <glyph glyph-name="Ucircumflex" unicode="&#xdb;" horiz-adv-x="739" 
d="M65 270l75 339q7 29 30.5 48t53.5 19q36 0 60 -24t24 -59q0 -11 -2 -21l-65 -298q-3 -7 -3 -28q1 -47 33.5 -77.5t88.5 -30.5q119 0 150 136l74 335q7 29 30.5 48t53.5 19q36 0 60 -24t24 -59q0 -11 -2 -21l-66 -301q-31 -139 -108.5 -211t-215.5 -72q-144 0 -222 63.5
t-78 174.5q0 16 5 44zM536 737l-42 67l-76 -74q-14 -13 -29 -13t-25 10.5t-10 25.5q0 13 8 23l46 54q31 37 75 37h48q44 0 59 -36l24 -55q3 -7 3 -16q0 -17 -13 -30t-31 -13q-25 0 -37 20z" />
    <glyph glyph-name="Udieresis" unicode="&#xdc;" horiz-adv-x="739" 
d="M65 270l75 339q7 29 30.5 48t53.5 19q36 0 60 -24t24 -59q0 -11 -2 -21l-65 -298q-3 -7 -3 -28q1 -47 33.5 -77.5t88.5 -30.5q119 0 150 136l74 335q7 29 30.5 48t53.5 19q36 0 60 -24t24 -59q0 -11 -2 -21l-66 -301q-31 -139 -108.5 -211t-215.5 -72q-144 0 -222 63.5
t-78 174.5q0 16 5 44zM306 778q0 34 27 60q27 27 62 27q29 0 49 -20t20 -50q0 -34 -27 -61q-28 -26 -62 -26q-29 0 -49 20t-20 50zM519 778q0 34 27 60q27 27 62 27q30 0 50 -20t20 -50q0 -34 -27 -61q-28 -26 -62 -26q-29 0 -49.5 20t-20.5 50z" />
    <glyph glyph-name="Yacute" unicode="&#xdd;" horiz-adv-x="642" 
d="M677 549l-265 -280l-46 -212q-6 -29 -29 -47.5t-53 -18.5q-35 0 -59.5 24t-24.5 59q0 10 2 20l39 177l-137 288q-8 21 -8 34q0 34 25.5 58.5t61.5 24.5q53 0 79 -57l91 -202l205 229q26 30 61 30q32 0 54.5 -22.5t22.5 -54.5q0 -30 -19 -50zM434 717q-15 0 -26.5 11.5
t-11.5 26.5q0 19 14 30l94 86q14 12 32 12q17 0 30.5 -14t13.5 -33q0 -23 -18 -36l-103 -75q-11 -8 -25 -8z" />
    <glyph glyph-name="Thorn" unicode="&#xde;" horiz-adv-x="643" 
d="M650 374q1 -100 -73 -176.5t-211 -75.5h-161l-14 -65q-6 -29 -29 -47.5t-54 -18.5q-35 0 -59.5 24t-24.5 59q0 2 2 20l114 516q7 28 30 47t53 19q35 0 59.5 -24t24.5 -59q0 -3 -2 -19l-2 -9h143q92 0 148 -55.5t56 -135.5zM471 355q0 28 -19.5 46.5t-51.5 18.5h-129
l-34 -153h136q44 0 71 25t27 63z" />
    <glyph glyph-name="germandbls" unicode="&#xdf;" 
d="M446 343q48 -18 74 -58t26 -92q0 -17 -5 -45q-16 -73 -77 -117q-58 -43 -137 -43q-35 0 -66 9q-21 5 -35 22t-14 40q0 27 18 45.5t43 18.5q3 0 18.5 -2.5t25.5 -2.5q33 0 55 24t22 63q0 58 -67 74q-19 6 -31.5 23.5t-12.5 39.5q0 24 14.5 42t37.5 23q64 10 77 64
q1 3 1 13q0 25 -17.5 41t-43.5 16q-36 0 -61 -25t-35 -72l-88 -393q-6 -26 -26 -42.5t-47 -16.5q-32 0 -53.5 21.5t-21.5 52.5q0 2 2 18l80 362q24 109 92.5 170t171.5 61q84 0 143 -47.5t59 -121.5q0 -22 -4 -39q-9 -41 -40 -74.5t-78 -51.5z" />
    <glyph glyph-name="agrave" unicode="&#xe0;" horiz-adv-x="591" 
d="M571 415q0 -12 -1 -15l-78 -350q-15 -66 -80 -66q-27 0 -49.5 20t-26.5 48q-58 -64 -135 -64q-84 0 -132.5 53t-48.5 147q-1 74 28.5 144t89.5 117.5t136 45.5q99 0 147 -70l1 5q6 27 26.5 44.5t47.5 17.5q32 0 53.5 -22.5t21.5 -54.5zM364 169l33 146q-33 44 -96 44
q-53 0 -88 -41q-34 -40 -34 -98q0 -42 27 -69t67 -27q52 0 91 45zM337 585l-64 73q-12 13 -12 32q0 18 14.5 32t32.5 14q26 0 39 -20l56 -83q8 -11 8 -21q0 -17 -12 -29t-29 -12q-21 0 -33 14z" />
    <glyph glyph-name="aacute" unicode="&#xe1;" horiz-adv-x="591" 
d="M571 415q0 -12 -1 -15l-78 -350q-15 -66 -80 -66q-27 0 -49.5 20t-26.5 48q-58 -64 -135 -64q-84 0 -132.5 53t-48.5 147q-1 74 28.5 144t89.5 117.5t136 45.5q99 0 147 -70l1 5q6 27 26.5 44.5t47.5 17.5q32 0 53.5 -22.5t21.5 -54.5zM364 169l33 146q-33 44 -96 44
q-53 0 -88 -41q-34 -40 -34 -98q0 -42 27 -69t67 -27q52 0 91 45zM379 570q-15 0 -26.5 11.5t-11.5 26.5q0 19 14 30l94 86q13 12 32 12q17 0 30.5 -14t13.5 -33q0 -23 -18 -36l-103 -75q-11 -8 -25 -8z" />
    <glyph glyph-name="acircumflex" unicode="&#xe2;" horiz-adv-x="591" 
d="M571 415q0 -12 -1 -15l-78 -350q-15 -66 -80 -66q-27 0 -49.5 20t-26.5 48q-58 -64 -135 -64q-84 0 -132.5 53t-48.5 147q-1 74 28.5 144t89.5 117.5t136 45.5q99 0 147 -70l1 5q6 27 26.5 44.5t47.5 17.5q32 0 53.5 -22.5t21.5 -54.5zM364 169l33 146q-33 44 -96 44
q-53 0 -88 -41q-34 -40 -34 -98q0 -42 27 -69t67 -27q52 0 91 45zM433 590l-42 67l-76 -74q-14 -13 -29 -13t-25 10.5t-10 25.5q0 13 8 23l46 54q31 37 75 37h48q44 0 59 -36l24 -55q3 -7 3 -16q0 -17 -13 -30t-31 -13q-25 0 -37 20z" />
    <glyph glyph-name="atilde" unicode="&#xe3;" horiz-adv-x="591" 
d="M571 415q0 -12 -1 -15l-78 -350q-15 -66 -80 -66q-27 0 -49.5 20t-26.5 48q-58 -64 -135 -64q-84 0 -132.5 53t-48.5 147q-1 74 28.5 144t89.5 117.5t136 45.5q99 0 147 -70l1 5q6 27 26.5 44.5t47.5 17.5q32 0 53.5 -22.5t21.5 -54.5zM364 169l33 146q-33 44 -96 44
q-53 0 -88 -41q-34 -40 -34 -98q0 -42 27 -69t67 -27q52 0 91 45zM321 629q-19 0 -30 -32q-9 -26 -37 -26q-16 0 -27 11.5t-11 27.5q0 1 2 11q15 48 41.5 70.5t70.5 22.5q40 0 78 -32q27 -23 44 -23q20 0 31 32q9 26 36 26q17 0 27.5 -10.5t10.5 -27.5q0 -2 -2 -12
q-15 -48 -41.5 -70.5t-70.5 -22.5q-24 0 -39.5 7t-38.5 25q-24 23 -44 23z" />
    <glyph glyph-name="adieresis" unicode="&#xe4;" horiz-adv-x="591" 
d="M571 415q0 -12 -1 -15l-78 -350q-15 -66 -80 -66q-27 0 -49.5 20t-26.5 48q-58 -64 -135 -64q-84 0 -132.5 53t-48.5 147q-1 74 28.5 144t89.5 117.5t136 45.5q99 0 147 -70l1 5q6 27 26.5 44.5t47.5 17.5q32 0 53.5 -22.5t21.5 -54.5zM364 169l33 146q-33 44 -96 44
q-53 0 -88 -41q-34 -40 -34 -98q0 -42 27 -69t67 -27q52 0 91 45zM204 631q0 35 27 60q27 27 62 27q29 0 49 -20t20 -50q0 -34 -27 -61q-28 -26 -62 -26q-29 0 -49 20t-20 50zM417 631q0 35 27 60q27 27 62 27q30 0 50 -20t20 -50q0 -34 -27 -61q-28 -26 -62 -26
q-29 0 -49.5 20t-20.5 50z" />
    <glyph glyph-name="aring" unicode="&#xe5;" horiz-adv-x="591" 
d="M571 415q0 -12 -1 -15l-78 -350q-15 -66 -80 -66q-27 0 -49.5 20t-26.5 48q-58 -64 -135 -64q-84 0 -132.5 53t-48.5 147q-1 74 28.5 144t89.5 117.5t136 45.5q99 0 147 -70l1 5q6 27 26.5 44.5t47.5 17.5q32 0 53.5 -22.5t21.5 -54.5zM364 169l33 146q-33 44 -96 44
q-53 0 -88 -41q-34 -40 -34 -98q0 -42 27 -69t67 -27q52 0 91 45zM400 762q44 0 71.5 -27.5t27.5 -71.5q0 -47 -36 -82.5t-83 -35.5q-44 0 -71.5 27.5t-27.5 71.5q0 47 36 82.5t83 35.5zM393 694q-17 0 -30 -13t-13 -30q0 -16 10 -26.5t27 -10.5t30 12.5t13 30.5
q0 17 -10.5 27t-26.5 10z" />
    <glyph glyph-name="ae" unicode="&#xe6;" horiz-adv-x="902" 
d="M881 289v-12q-1 -40 -26.5 -62t-69.5 -22h-256v-6q0 -24 35 -50.5t88 -26.5q34 0 67 12q6 2 17 2q25 0 42 -16.5t17 -41.5q0 -18 -10.5 -33t-26.5 -21q-56 -24 -103 -24q-58 0 -99.5 20.5t-60.5 55.5l-3 -14q-5 -26 -25.5 -42.5t-47.5 -16.5q-30 0 -52 20t-24 49
q-61 -72 -142 -72q-84 0 -132.5 53t-48.5 147q-1 74 28.5 144t89.5 117.5t136 45.5q99 0 147 -70l2 7q6 26 26.5 43t47.5 17q28 0 48.5 -17t25.5 -43q60 63 139 63q171 0 171 -206zM744 293v6q0 31 -24 54t-67 23q-39 0 -69 -25t-39 -58h199zM364 169l33 146q-33 44 -96 44
q-53 0 -88 -41q-34 -40 -34 -98q0 -42 27 -69t67 -27q52 0 91 45z" />
    <glyph glyph-name="ccedilla" unicode="&#xe7;" horiz-adv-x="487" 
d="M177 219q0 -43 29.5 -69t75.5 -26q29 0 57 16q13 8 31 8q27 0 46.5 -19.5t19.5 -46.5q0 -37 -34 -57q-61 -37 -135 -37h-9l-23 -37q13 10 30 10q25 0 42.5 -17.5t17.5 -46.5q0 -42 -33 -68.5t-83 -26.5q-57 0 -100 25q-17 11 -17 29q0 14 10 23.5t23 9.5q9 0 17 -5
q32 -21 67 -21q44 0 44 30q0 20 -26 20q-7 0 -18 -6q-7 -4 -17 -4q-13 0 -22 8.5t-9 20.5q0 10 5 18l27 46q-80 19 -126 76.5t-46 137.5q-2 116 83 201.5t203 83.5q84 0 140 -36q35 -22 35 -62q0 -30 -21 -51t-51 -21q-23 0 -40 13q-27 21 -64 21q-55 0 -93 -41
q-36 -40 -36 -99z" />
    <glyph glyph-name="egrave" unicode="&#xe8;" horiz-adv-x="548" 
d="M304 495q94 0 157.5 -57t64.5 -155v-12q-1 -34 -27 -56t-68 -22h-257v-6q0 -25 33 -52.5t83 -27.5q37 0 76 13q8 3 17 3q24 0 40.5 -17t16.5 -40q0 -41 -37 -54q-61 -24 -125 -24q-118 0 -187.5 58.5t-69.5 160.5q-2 116 81.5 203t201.5 85zM390 300q0 30 -25 53t-68 23
q-39 0 -70 -25t-38 -58h200q1 1 1 7zM321 585l-64 73q-12 13 -12 32q0 18 14.5 32t32.5 14q26 0 39 -20l56 -83q8 -11 8 -21q0 -17 -12 -29t-29 -12q-21 0 -33 14z" />
    <glyph glyph-name="eacute" unicode="&#xe9;" horiz-adv-x="548" 
d="M304 495q94 0 157.5 -57t64.5 -155v-12q-1 -34 -27 -56t-68 -22h-257v-6q0 -25 33 -52.5t83 -27.5q37 0 76 13q8 3 17 3q24 0 40.5 -17t16.5 -40q0 -41 -37 -54q-61 -24 -125 -24q-118 0 -187.5 58.5t-69.5 160.5q-2 116 81.5 203t201.5 85zM390 300q0 30 -25 53t-68 23
q-39 0 -70 -25t-38 -58h200q1 1 1 7zM362 570q-15 0 -26.5 11.5t-11.5 26.5q0 19 14 30l94 86q14 12 32 12q17 0 30.5 -14t13.5 -33q0 -23 -18 -36l-103 -75q-11 -8 -25 -8z" />
    <glyph glyph-name="ecircumflex" unicode="&#xea;" horiz-adv-x="548" 
d="M304 495q94 0 157.5 -57t64.5 -155v-12q-1 -34 -27 -56t-68 -22h-257v-6q0 -25 33 -52.5t83 -27.5q37 0 76 13q8 3 17 3q24 0 40.5 -17t16.5 -40q0 -41 -37 -54q-61 -24 -125 -24q-118 0 -187.5 58.5t-69.5 160.5q-2 116 81.5 203t201.5 85zM390 300q0 30 -25 53t-68 23
q-39 0 -70 -25t-38 -58h200q1 1 1 7zM417 590l-42 67l-76 -74q-14 -13 -29 -13t-25 10.5t-10 25.5q0 13 8 23l46 54q31 37 75 37h48q44 0 59 -36l24 -55q3 -7 3 -16q0 -17 -13 -30t-31 -13q-25 0 -37 20z" />
    <glyph glyph-name="edieresis" unicode="&#xeb;" horiz-adv-x="548" 
d="M304 495q94 0 157.5 -57t64.5 -155v-12q-1 -34 -27 -56t-68 -22h-257v-6q0 -25 33 -52.5t83 -27.5q37 0 76 13q8 3 17 3q24 0 40.5 -17t16.5 -40q0 -41 -37 -54q-61 -24 -125 -24q-118 0 -187.5 58.5t-69.5 160.5q-2 116 81.5 203t201.5 85zM390 300q0 30 -25 53t-68 23
q-39 0 -70 -25t-38 -58h200q1 1 1 7zM188 631q0 35 27 60q27 27 62 27q29 0 49 -20t20 -50q0 -34 -27 -61q-28 -26 -62 -26q-29 0 -49 20t-20 50zM401 631q0 35 27 60q27 27 62 27q30 0 50 -20t20 -50q0 -34 -27 -61q-28 -26 -62 -26q-29 0 -49.5 20t-20.5 50z" />
    <glyph glyph-name="igrave" unicode="&#xec;" horiz-adv-x="266" 
d="M20 67q0 12 1 16l77 350q6 26 26.5 42.5t47.5 16.5q31 0 52.5 -22t21.5 -54q0 -13 -1 -16l-78 -350q-5 -26 -25.5 -42.5t-47.5 -16.5q-32 0 -53 22t-21 54zM172 585l-64 73q-12 13 -12 32q0 18 14.5 32t32.5 14q26 0 39 -20l56 -83q8 -11 8 -21q0 -17 -12 -29t-29 -12
q-21 0 -33 14z" />
    <glyph glyph-name="iacute" unicode="&#xed;" horiz-adv-x="266" 
d="M20 67q0 12 1 16l77 350q6 26 26.5 42.5t47.5 16.5q31 0 52.5 -22t21.5 -54q0 -13 -1 -16l-78 -350q-5 -26 -25.5 -42.5t-47.5 -16.5q-32 0 -53 22t-21 54zM213 570q-15 0 -26.5 11.5t-11.5 26.5q0 19 14 30l94 86q13 12 32 12q17 0 30.5 -14t13.5 -33q0 -23 -18 -36
l-103 -75q-11 -8 -25 -8z" />
    <glyph glyph-name="icircumflex" unicode="&#xee;" horiz-adv-x="266" 
d="M20 67q0 12 1 16l77 350q6 26 26.5 42.5t47.5 16.5q31 0 52.5 -22t21.5 -54q0 -13 -1 -16l-78 -350q-5 -26 -25.5 -42.5t-47.5 -16.5q-32 0 -53 22t-21 54zM268 590l-42 67l-76 -74q-14 -13 -29 -13t-25 10.5t-10 25.5q0 13 8 23l46 54q31 37 75 37h48q44 0 59 -36
l24 -55q3 -7 3 -16q0 -17 -13 -30t-31 -13q-25 0 -37 20z" />
    <glyph glyph-name="idieresis" unicode="&#xef;" horiz-adv-x="266" 
d="M20 67q0 12 1 16l77 350q6 26 26.5 42.5t47.5 16.5q31 0 52.5 -22t21.5 -54q0 -13 -1 -16l-78 -350q-5 -26 -25.5 -42.5t-47.5 -16.5q-32 0 -53 22t-21 54zM39 631q0 35 27 60q27 27 62 27q29 0 49 -20t20 -50q0 -34 -27 -61q-28 -26 -62 -26q-29 0 -49 20t-20 50z
M252 631q0 35 27 60q27 27 62 27q30 0 50 -20t20 -50q0 -34 -27 -61q-28 -26 -62 -26q-29 0 -49.5 20t-20.5 50z" />
    <glyph glyph-name="eth" unicode="&#xf0;" horiz-adv-x="576" 
d="M561 307q0 -135 -79 -227t-210 -92q-115 0 -185 58t-70 154q-2 103 69 177.5t171 72.5q120 0 163 -109q-12 75 -117 179l-138 -41q-8 -2 -10 -2q-13 0 -23 10.5t-10 25.5q0 25 23 33l99 29q-19 22 -19 50q0 31 22 54t54 23t51 -19q22 -19 61 -58l82 24q2 1 9 1
q14 0 24.5 -10t10.5 -25q0 -26 -24 -33l-51 -15q97 -124 97 -260zM389 234q0 36 -28 58.5t-75 22.5q-48 0 -79.5 -31.5t-31.5 -77.5q0 -39 26 -60.5t74 -21.5q50 0 82 31t32 79z" />
    <glyph glyph-name="ntilde" unicode="&#xf1;" horiz-adv-x="593" 
d="M561 369q0 -14 -5 -39l-62 -280q-6 -26 -26.5 -42.5t-46.5 -16.5q-33 0 -54 22t-21 56q0 12 3 24l42 191q3 12 3 22q0 53 -66 53q-56 0 -103 -47l-58 -262q-5 -26 -25.5 -42.5t-47.5 -16.5q-32 0 -54 21.5t-22 52.5q0 2 2 18l78 350q6 28 26 46.5t47 18.5q32 0 54.5 -22
t22.5 -53q41 36 76.5 54t81.5 18q71 0 113 -33.5t42 -92.5zM320 629q-19 0 -30 -32q-9 -26 -37 -26q-16 0 -27 11.5t-11 27.5q0 1 2 11q15 48 41.5 70.5t70.5 22.5q40 0 78 -32q27 -23 44 -23q20 0 31 32q9 26 36 26q17 0 27.5 -10.5t10.5 -27.5q0 -2 -2 -12
q-15 -48 -41.5 -70.5t-70.5 -22.5q-24 0 -39.5 7t-38.5 25q-24 23 -44 23z" />
    <glyph glyph-name="ograve" unicode="&#xf2;" horiz-adv-x="576" 
d="M304 495q117 0 183 -62t66 -161q2 -113 -81.5 -199.5t-202.5 -84.5q-116 0 -182.5 62.5t-66.5 159.5q-2 113 81.5 200t202.5 85zM299 359q-53 0 -87 -41.5t-34 -99.5q0 -44 26 -69t71 -25q52 0 86.5 42t34.5 99q0 44 -26 69t-71 25zM327 585l-64 73q-12 13 -12 32
q0 18 14.5 32t32.5 14q26 0 39 -20l56 -83q8 -11 8 -21q0 -17 -12 -29t-29 -12q-21 0 -33 14z" />
    <glyph glyph-name="oacute" unicode="&#xf3;" horiz-adv-x="576" 
d="M304 495q117 0 183 -62t66 -161q2 -113 -81.5 -199.5t-202.5 -84.5q-116 0 -182.5 62.5t-66.5 159.5q-2 113 81.5 200t202.5 85zM299 359q-53 0 -87 -41.5t-34 -99.5q0 -44 26 -69t71 -25q52 0 86.5 42t34.5 99q0 44 -26 69t-71 25zM368 570q-15 0 -26.5 11.5t-11.5 26.5
q0 19 14 30l94 86q14 12 32 12q17 0 30.5 -14t13.5 -33q0 -23 -18 -36l-103 -75q-11 -8 -25 -8z" />
    <glyph glyph-name="ocircumflex" unicode="&#xf4;" horiz-adv-x="576" 
d="M304 495q117 0 183 -62t66 -161q2 -113 -81.5 -199.5t-202.5 -84.5q-116 0 -182.5 62.5t-66.5 159.5q-2 113 81.5 200t202.5 85zM299 359q-53 0 -87 -41.5t-34 -99.5q0 -44 26 -69t71 -25q52 0 86.5 42t34.5 99q0 44 -26 69t-71 25zM423 590l-42 67l-76 -74
q-14 -13 -29 -13t-25 10.5t-10 25.5q0 13 8 23l46 54q31 37 75 37h48q44 0 59 -36l24 -55q3 -7 3 -16q0 -17 -13 -30t-31 -13q-25 0 -37 20z" />
    <glyph glyph-name="otilde" unicode="&#xf5;" horiz-adv-x="576" 
d="M304 495q117 0 183 -62t66 -161q2 -113 -81.5 -199.5t-202.5 -84.5q-116 0 -182.5 62.5t-66.5 159.5q-2 113 81.5 200t202.5 85zM299 359q-53 0 -87 -41.5t-34 -99.5q0 -44 26 -69t71 -25q52 0 86.5 42t34.5 99q0 44 -26 69t-71 25zM310 629q-19 0 -30 -32
q-9 -26 -37 -26q-16 0 -27 11.5t-11 27.5q0 1 2 11q15 48 41.5 70.5t70.5 22.5q40 0 78 -32q27 -23 44 -23q20 0 31 32q9 26 36 26q17 0 27.5 -10.5t10.5 -27.5q0 -2 -2 -12q-15 -48 -41.5 -70.5t-70.5 -22.5q-24 0 -39.5 7t-38.5 25q-24 23 -44 23z" />
    <glyph glyph-name="odieresis" unicode="&#xf6;" horiz-adv-x="576" 
d="M304 495q117 0 183 -62t66 -161q2 -113 -81.5 -199.5t-202.5 -84.5q-116 0 -182.5 62.5t-66.5 159.5q-2 113 81.5 200t202.5 85zM299 359q-53 0 -87 -41.5t-34 -99.5q0 -44 26 -69t71 -25q52 0 86.5 42t34.5 99q0 44 -26 69t-71 25zM193 631q0 35 27 60q27 27 62 27
q29 0 49 -20t20 -50q0 -34 -27 -61q-28 -26 -62 -26q-29 0 -49 20t-20 50zM406 631q0 35 27 60q27 27 62 27q30 0 50 -20t20 -50q0 -34 -27 -61q-28 -26 -62 -26q-29 0 -49.5 20t-20.5 50z" />
    <glyph glyph-name="divide" unicode="&#xf7;" horiz-adv-x="511" 
d="M245 504q0 30 22 52t53 22q25 0 43.5 -18.5t18.5 -44.5q0 -30 -22.5 -52t-52.5 -22q-25 0 -43.5 18.5t-18.5 44.5zM41 338q0 19 14 32t33 13h376q19 0 33 -13t14 -32t-14 -33t-33 -14h-376q-19 0 -33 14t-14 33zM168 158q0 30 22 52t53 22q25 0 43.5 -18.5t18.5 -44.5
q0 -30 -22.5 -52t-52.5 -22q-25 0 -43.5 18.5t-18.5 44.5z" />
    <glyph glyph-name="oslash" unicode="&#xf8;" horiz-adv-x="576" 
d="M553 272q2 -113 -81.5 -199.5t-202.5 -84.5q-74 0 -129 26l-41 -50q-11 -12 -23 -12t-21 8.5t-9 20.5q0 10 8 20l37 45q-71 60 -71 164q-2 113 81.5 200t202.5 85q78 0 133 -28l42 52q9 12 24 12q11 0 19.5 -8t8.5 -20q0 -10 -8 -20l-39 -47q69 -62 69 -164zM190 167
l152 185q-17 7 -43 7q-53 0 -87 -41.5t-34 -99.5q0 -30 12 -51zM396 265q0 25 -11 49l-150 -184q18 -6 40 -6q52 0 86.5 42t34.5 99z" />
    <glyph glyph-name="ugrave" unicode="&#xf9;" horiz-adv-x="592" 
d="M573 418q0 -2 -2 -18l-78 -350q-6 -28 -26 -46.5t-46 -18.5q-32 0 -55 22t-23 53q-39 -36 -75.5 -54t-82.5 -18q-70 0 -112 33.5t-42 92.5q0 22 4 39l62 280q6 26 26.5 42.5t47.5 16.5q33 0 53.5 -21.5t20.5 -55.5q0 -13 -3 -25l-42 -190q-2 -10 -2 -21q0 -55 65 -55
q54 0 104 47l57 262q6 26 26.5 42.5t46.5 16.5q32 0 54 -21.5t22 -52.5zM335 585l-64 73q-12 13 -12 32q0 18 14.5 32t32.5 14q26 0 39 -20l56 -83q8 -11 8 -21q0 -17 -12 -29t-29 -12q-21 0 -33 14z" />
    <glyph glyph-name="uacute" unicode="&#xfa;" horiz-adv-x="592" 
d="M573 418q0 -2 -2 -18l-78 -350q-6 -28 -26 -46.5t-46 -18.5q-32 0 -55 22t-23 53q-39 -36 -75.5 -54t-82.5 -18q-70 0 -112 33.5t-42 92.5q0 22 4 39l62 280q6 26 26.5 42.5t47.5 16.5q33 0 53.5 -21.5t20.5 -55.5q0 -13 -3 -25l-42 -190q-2 -10 -2 -21q0 -55 65 -55
q54 0 104 47l57 262q6 26 26.5 42.5t46.5 16.5q32 0 54 -21.5t22 -52.5zM376 570q-15 0 -26.5 11.5t-11.5 26.5q0 19 14 30l94 86q14 12 32 12q17 0 30.5 -14t13.5 -33q0 -23 -18 -36l-103 -75q-11 -8 -25 -8z" />
    <glyph glyph-name="ucircumflex" unicode="&#xfb;" horiz-adv-x="592" 
d="M573 418q0 -2 -2 -18l-78 -350q-6 -28 -26 -46.5t-46 -18.5q-32 0 -55 22t-23 53q-39 -36 -75.5 -54t-82.5 -18q-70 0 -112 33.5t-42 92.5q0 22 4 39l62 280q6 26 26.5 42.5t47.5 16.5q33 0 53.5 -21.5t20.5 -55.5q0 -13 -3 -25l-42 -190q-2 -10 -2 -21q0 -55 65 -55
q54 0 104 47l57 262q6 26 26.5 42.5t46.5 16.5q32 0 54 -21.5t22 -52.5zM431 590l-42 67l-76 -74q-14 -13 -29 -13t-25 10.5t-10 25.5q0 13 8 23l46 54q31 37 75 37h48q44 0 59 -36l24 -55q3 -7 3 -16q0 -17 -13 -30t-31 -13q-25 0 -37 20z" />
    <glyph glyph-name="udieresis" unicode="&#xfc;" horiz-adv-x="592" 
d="M573 418q0 -2 -2 -18l-78 -350q-6 -28 -26 -46.5t-46 -18.5q-32 0 -55 22t-23 53q-39 -36 -75.5 -54t-82.5 -18q-70 0 -112 33.5t-42 92.5q0 22 4 39l62 280q6 26 26.5 42.5t47.5 16.5q33 0 53.5 -21.5t20.5 -55.5q0 -13 -3 -25l-42 -190q-2 -10 -2 -21q0 -55 65 -55
q54 0 104 47l57 262q6 26 26.5 42.5t46.5 16.5q32 0 54 -21.5t22 -52.5zM201 631q0 35 27 60q27 27 62 27q29 0 49 -20t20 -50q0 -34 -27 -61q-28 -26 -62 -26q-29 0 -49 20t-20 50zM414 631q0 35 27 60q27 27 62 27q30 0 50 -20t20 -50q0 -34 -27 -61q-28 -26 -62 -26
q-29 0 -49.5 20t-20.5 50z" />
    <glyph glyph-name="yacute" unicode="&#xfd;" horiz-adv-x="511" 
d="M31 -59h12q36 0 54 26l20 31l-70 404q-1 3 -1 13q0 32 22.5 54.5t55.5 22.5q29 0 50.5 -19.5t25.5 -48.5l33 -247l163 279q19 36 61 36q30 0 50.5 -21.5t20.5 -49.5q0 -21 -10 -37l-280 -453q-42 -69 -88.5 -97.5t-112.5 -29.5h-11q-28 1 -47.5 21t-19.5 48
q0 29 21.5 49.5t50.5 18.5zM334 570q-15 0 -26.5 11.5t-11.5 26.5q0 19 14 30l94 86q14 12 32 12q17 0 30.5 -14t13.5 -33q0 -23 -18 -36l-103 -75q-11 -8 -25 -8z" />
    <glyph glyph-name="thorn" unicode="&#xfe;" 
d="M168 57l-42 -191q-5 -26 -25.5 -42.5t-47.5 -16.5q-31 0 -53 22.5t-22 54.5q0 12 1 15l159 718q6 26 26.5 42.5t46.5 16.5q32 0 53.5 -22t21.5 -55q0 -12 -1 -15l-35 -157q59 68 138 68q84 0 133 -53.5t49 -147.5q0 -54 -17.5 -108.5t-49 -99.5t-81 -72t-107.5 -26
q-97 0 -147 69zM317 359q-50 0 -92 -45l-32 -146q33 -44 96 -44q53 0 87 40q35 41 35 98q0 42 -27 69.5t-67 27.5z" />
    <glyph glyph-name="ydieresis" unicode="&#xff;" horiz-adv-x="511" 
d="M31 -59h12q36 0 54 26l20 31l-70 404q-1 3 -1 13q0 32 22.5 54.5t55.5 22.5q29 0 50.5 -19.5t25.5 -48.5l33 -247l163 279q19 36 61 36q30 0 50.5 -21.5t20.5 -49.5q0 -21 -10 -37l-280 -453q-42 -69 -88.5 -97.5t-112.5 -29.5h-11q-28 1 -47.5 21t-19.5 48
q0 29 21.5 49.5t50.5 18.5zM159 631q0 35 27 60q27 27 62 27q29 0 49 -20t20 -50q0 -34 -27 -61q-28 -26 -62 -26q-29 0 -49 20t-20 50zM372 631q0 35 27 60q27 27 62 27q30 0 50 -20t20 -50q0 -34 -27 -61q-28 -26 -62 -26q-29 0 -49.5 20t-20.5 50z" />
    <glyph glyph-name="Amacron" unicode="&#x100;" horiz-adv-x="684" 
d="M634 78q0 -36 -25 -61.5t-61 -25.5q-34 0 -58.5 22.5t-28.5 55.5l-4 40h-273l-41 -74q-24 -44 -73 -44q-34 0 -59 24.5t-25 58.5q0 22 12 43l291 487q21 33 54.5 52.5t71.5 19.5q55 0 96 -36q42 -36 50 -89l72 -460q1 -3 1 -13zM264 254h177l-30 268zM277 765
q0 18 13 30.5t30 12.5h279q17 0 30 -12.5t13 -30.5q0 -17 -13 -29.5t-30 -12.5h-279q-17 0 -30 12.5t-13 29.5z" />
    <glyph glyph-name="amacron" unicode="&#x101;" horiz-adv-x="591" 
d="M571 415q0 -12 -1 -15l-78 -350q-15 -66 -80 -66q-27 0 -49.5 20t-26.5 48q-58 -64 -135 -64q-84 0 -132.5 53t-48.5 147q-1 74 28.5 144t89.5 117.5t136 45.5q99 0 147 -70l1 5q6 27 26.5 44.5t47.5 17.5q32 0 53.5 -22.5t21.5 -54.5zM364 169l33 146q-33 44 -96 44
q-53 0 -88 -41q-34 -40 -34 -98q0 -42 27 -69t67 -27q52 0 91 45zM201 618q0 18 13 30.5t30 12.5h279q17 0 30 -12.5t13 -30.5q0 -17 -13 -29.5t-30 -12.5h-279q-17 0 -30 12.5t-13 29.5z" />
    <glyph glyph-name="Abreve" unicode="&#x102;" horiz-adv-x="684" 
d="M634 78q0 -36 -25 -61.5t-61 -25.5q-34 0 -58.5 22.5t-28.5 55.5l-4 40h-273l-41 -74q-24 -44 -73 -44q-34 0 -59 24.5t-25 58.5q0 22 12 43l291 487q21 33 54.5 52.5t71.5 19.5q55 0 96 -36q42 -36 50 -89l72 -460q1 -3 1 -13zM264 254h177l-30 268zM321 771
q-14 17 -14 33q0 19 13.5 32.5t32.5 13.5t33 -14q31 -33 79 -33q54 0 104 40q9 9 25 9t27 -11.5t11 -27.5q0 -19 -14 -30q-80 -65 -168 -65q-78 0 -129 53z" />
    <glyph glyph-name="abreve" unicode="&#x103;" horiz-adv-x="591" 
d="M571 415q0 -12 -1 -15l-78 -350q-15 -66 -80 -66q-27 0 -49.5 20t-26.5 48q-58 -64 -135 -64q-84 0 -132.5 53t-48.5 147q-1 74 28.5 144t89.5 117.5t136 45.5q99 0 147 -70l1 5q6 27 26.5 44.5t47.5 17.5q32 0 53.5 -22.5t21.5 -54.5zM364 169l33 146q-33 44 -96 44
q-53 0 -88 -41q-34 -40 -34 -98q0 -42 27 -69t67 -27q52 0 91 45zM245 624q-14 17 -14 33q0 19 13.5 32.5t32.5 13.5t33 -14q32 -33 79 -33q54 0 104 40q9 9 25 9t27 -11.5t11 -27.5q0 -19 -14 -30q-80 -65 -168 -65q-78 0 -129 53z" />
    <glyph glyph-name="Aogonek" unicode="&#x104;" horiz-adv-x="697" 
d="M528 -74q0 -18 21 -22l11 -1q16 -2 27 -13.5t11 -27.5q0 -14 -9 -25t-22 -14q-31 -9 -77 -9q-47 0 -76.5 17.5t-29.5 49.5q0 38 31.5 65t98.5 52q-47 19 -53 71l-4 40h-273l-41 -74q-24 -44 -73 -44q-34 0 -59 24.5t-25 58.5q0 22 12 43l291 487q21 33 54.5 52.5
t71.5 19.5q55 0 96 -36q42 -36 50 -89l72 -460q1 -3 1 -13q0 -27 -15 -49t-40 -32q-51 -39 -51 -71zM264 254h177l-30 268z" />
    <glyph glyph-name="aogonek" unicode="&#x105;" horiz-adv-x="591" 
d="M571 415q0 -12 -1 -15l-78 -350q-15 -65 -76 -66q-35 -32 -35 -58q0 -18 21 -22l10 -1q16 -2 27 -13.5t11 -27.5q0 -14 -8.5 -25t-21.5 -14q-32 -9 -77 -9q-47 0 -76.5 17.5t-29.5 49.5q0 38 32.5 65.5t99.5 52.5q-27 20 -33 53q-58 -64 -135 -64q-84 0 -132.5 53
t-48.5 147q-1 74 28.5 144t89.5 117.5t136 45.5q99 0 147 -70l1 5q6 27 26.5 44.5t47.5 17.5q32 0 53.5 -22.5t21.5 -54.5zM364 169l33 146q-33 44 -96 44q-53 0 -88 -41q-34 -40 -34 -98q0 -42 27 -69t67 -27q52 0 91 45z" />
    <glyph glyph-name="Cacute" unicode="&#x106;" horiz-adv-x="665" 
d="M430 678q167 0 257 -111q19 -23 19 -54q0 -35 -25.5 -60t-60.5 -25q-43 0 -68 35q-45 63 -130 63q-86 0 -146.5 -66t-60.5 -158q0 -69 47 -115.5t122 -46.5q58 0 114 43q21 18 49 18q33 0 56 -22.5t23 -55.5q0 -38 -32 -62q-96 -73 -220 -73q-142 -2 -241 84t-97 219
q-2 110 52.5 200.5t145.5 139.5t196 47zM488 717q-15 0 -26.5 11.5t-11.5 26.5q0 19 14 30l94 86q14 12 32 12q17 0 30.5 -14t13.5 -33q0 -23 -18 -36l-103 -75q-11 -8 -25 -8z" />
    <glyph glyph-name="cacute" unicode="&#x107;" horiz-adv-x="487" 
d="M307 495q84 0 140 -36q35 -22 35 -62q0 -30 -21 -51t-51 -21q-23 0 -40 13q-27 21 -64 21q-55 0 -93 -41q-36 -40 -36 -99q0 -43 29.5 -69t75.5 -26q29 0 57 16q13 8 31 8q27 0 46.5 -19.5t19.5 -46.5q0 -37 -34 -57q-61 -37 -135 -37q-112 0 -179 61.5t-67 160.5
q-2 116 83 201.5t203 83.5zM367 570q-15 0 -26.5 11.5t-11.5 26.5q0 19 14 30l94 86q13 12 32 12q17 0 30.5 -14t13.5 -33q0 -23 -18 -36l-103 -75q-11 -8 -25 -8z" />
    <glyph glyph-name="Ccircumflex" unicode="&#x108;" horiz-adv-x="665" 
d="M430 678q167 0 257 -111q19 -23 19 -54q0 -35 -25.5 -60t-60.5 -25q-43 0 -68 35q-45 63 -130 63q-86 0 -146.5 -66t-60.5 -158q0 -69 47 -115.5t122 -46.5q58 0 114 43q21 18 49 18q33 0 56 -22.5t23 -55.5q0 -38 -32 -62q-96 -73 -220 -73q-142 -2 -241 84t-97 219
q-2 110 52.5 200.5t145.5 139.5t196 47zM543 737l-42 67l-76 -74q-14 -13 -29 -13t-25 10.5t-10 25.5q0 13 8 23l46 54q31 37 75 37h48q44 0 59 -36l24 -55q3 -7 3 -16q0 -17 -13 -30t-31 -13q-25 0 -37 20z" />
    <glyph glyph-name="ccircumflex" unicode="&#x109;" horiz-adv-x="487" 
d="M307 495q84 0 140 -36q35 -22 35 -62q0 -30 -21 -51t-51 -21q-23 0 -40 13q-27 21 -64 21q-55 0 -93 -41q-36 -40 -36 -99q0 -43 29.5 -69t75.5 -26q29 0 57 16q13 8 31 8q27 0 46.5 -19.5t19.5 -46.5q0 -37 -34 -57q-61 -37 -135 -37q-112 0 -179 61.5t-67 160.5
q-2 116 83 201.5t203 83.5zM422 590l-42 67l-76 -74q-14 -13 -29 -13t-25 10.5t-10 25.5q0 13 8 23l46 54q31 37 75 37h48q44 0 59 -36l24 -55q3 -7 3 -16q0 -17 -13 -30t-31 -13q-25 0 -37 20z" />
    <glyph glyph-name="Cdotaccent" unicode="&#x10a;" horiz-adv-x="665" 
d="M430 678q167 0 257 -111q19 -23 19 -54q0 -35 -25.5 -60t-60.5 -25q-43 0 -68 35q-45 63 -130 63q-86 0 -146.5 -66t-60.5 -158q0 -69 47 -115.5t122 -46.5q58 0 114 43q21 18 49 18q33 0 56 -22.5t23 -55.5q0 -38 -32 -62q-96 -73 -220 -73q-142 -2 -241 84t-97 219
q-2 110 52.5 200.5t145.5 139.5t196 47zM416 778q0 35 26.5 61.5t61.5 26.5q30 0 50 -20.5t20 -49.5q0 -34 -27 -61q-28 -26 -62 -26q-30 0 -49.5 19.5t-19.5 49.5z" />
    <glyph glyph-name="cdotaccent" unicode="&#x10b;" horiz-adv-x="487" 
d="M307 495q84 0 140 -36q35 -22 35 -62q0 -30 -21 -51t-51 -21q-23 0 -40 13q-27 21 -64 21q-55 0 -93 -41q-36 -40 -36 -99q0 -43 29.5 -69t75.5 -26q29 0 57 16q13 8 31 8q27 0 46.5 -19.5t19.5 -46.5q0 -37 -34 -57q-61 -37 -135 -37q-112 0 -179 61.5t-67 160.5
q-2 116 83 201.5t203 83.5zM295 631q0 35 26.5 61.5t61.5 26.5q30 0 50 -20.5t20 -49.5q0 -34 -27 -61q-28 -26 -62 -26q-30 0 -49.5 19.5t-19.5 49.5z" />
    <glyph glyph-name="Ccaron" unicode="&#x10c;" horiz-adv-x="665" 
d="M430 678q167 0 257 -111q19 -23 19 -54q0 -35 -25.5 -60t-60.5 -25q-43 0 -68 35q-45 63 -130 63q-86 0 -146.5 -66t-60.5 -158q0 -69 47 -115.5t122 -46.5q58 0 114 43q21 18 49 18q33 0 56 -22.5t23 -55.5q0 -38 -32 -62q-96 -73 -220 -73q-142 -2 -241 84t-97 219
q-2 110 52.5 200.5t145.5 139.5t196 47zM452 853l42 -67l77 74q14 13 28 13q15 0 25.5 -11t10.5 -26q0 -12 -8 -22l-46 -54q-32 -37 -76 -37h-48q-43 0 -58 36l-24 55q-3 8 -3 16q0 17 12.5 30t30.5 13q23 0 37 -20z" />
    <glyph glyph-name="ccaron" unicode="&#x10d;" horiz-adv-x="487" 
d="M307 495q84 0 140 -36q35 -22 35 -62q0 -30 -21 -51t-51 -21q-23 0 -40 13q-27 21 -64 21q-55 0 -93 -41q-36 -40 -36 -99q0 -43 29.5 -69t75.5 -26q29 0 57 16q13 8 31 8q27 0 46.5 -19.5t19.5 -46.5q0 -37 -34 -57q-61 -37 -135 -37q-112 0 -179 61.5t-67 160.5
q-2 116 83 201.5t203 83.5zM331 706l42 -67l77 74q14 13 28 13q15 0 25.5 -11t10.5 -26q0 -12 -8 -22l-46 -54q-32 -37 -76 -37h-48q-43 0 -58 36l-24 55q-3 7 -3 16q0 17 12.5 30t30.5 13q23 0 37 -20z" />
    <glyph glyph-name="Dcaron" unicode="&#x10e;" horiz-adv-x="727" 
d="M25 74q0 12 3 27l107 486q18 80 100 80h193q115 2 207 -81.5t89 -205.5q0 -71 -25.5 -137.5t-77 -122t-138.5 -88.5t-198 -32h-177q-40 0 -61.5 19.5t-21.5 54.5zM546 368q0 62 -42.5 105.5t-106.5 43.5h-105l-81 -367h106q102 0 165.5 63t63.5 155zM439 853l42 -67
l77 74q14 13 28 13q15 0 25.5 -11t10.5 -26q0 -12 -8 -22l-46 -54q-32 -37 -76 -37h-48q-43 0 -58 36l-24 55q-3 8 -3 16q0 17 12.5 30t30.5 13q23 0 37 -20z" />
    <glyph glyph-name="dcaron" unicode="&#x10f;" horiz-adv-x="713" 
d="M611 600q0 -12 -1 -16l-118 -534q-15 -66 -76 -66q-30 0 -52.5 21.5t-23.5 50.5q-61 -68 -139 -68q-84 0 -132.5 53t-48.5 147q-1 74 28.5 144t89.5 117.5t136 45.5q98 0 147 -69l42 191q6 26 26.5 42.5t47.5 16.5q32 0 53 -22t21 -54zM364 169l33 146q-33 44 -96 44
q-53 0 -88 -41q-34 -40 -34 -98q0 -42 27 -69t67 -27q52 0 91 45zM670 441q-12 0 -20 8.5t-8 19.5q0 16 14 24q43 23 56 53q-1 -1 -9 -1q-24 0 -39 15.5t-15 42.5q0 30 24.5 53t54.5 23q29 0 48.5 -19.5t19.5 -51.5q0 -46 -31.5 -90.5t-78.5 -71.5q-15 -5 -16 -5z" />
    <glyph glyph-name="Dcroat" unicode="&#x110;" horiz-adv-x="750" 
d="M747 380q0 -71 -25.5 -137.5t-77 -122t-138.5 -88.5t-198 -32h-177q-40 0 -61.5 19t-21.5 53q0 14 3 29l36 164q-27 1 -47 21t-20 47q0 28 20.5 48.5t48.5 20.5h28l41 185q18 80 100 80h193q115 2 207 -81.5t89 -205.5zM568 368q0 63 -42 106t-107 43h-104l-25 -115h61
q28 0 48.5 -20.5t20.5 -48.5t-20.5 -48t-48.5 -20h-92l-25 -115h106q102 0 165 63t63 155z" />
    <glyph glyph-name="dslash" unicode="&#x111;" horiz-adv-x="596" 
d="M664 567q0 -17 -13 -29.5t-30 -12.5h-24l-105 -475q-15 -66 -76 -66q-30 0 -52.5 21.5t-23.5 50.5q-61 -68 -139 -68q-84 0 -132.5 53t-48.5 147q-1 74 28.5 144t89.5 117.5t136 45.5q98 0 147 -69l22 99h-99q-17 0 -29.5 12.5t-12.5 29.5t12.5 29.5t29.5 12.5h117l2 8
q6 26 26.5 42.5t47.5 16.5q30 0 50.5 -19t23.5 -48h10q17 0 30 -12.5t13 -29.5zM364 169l33 146q-33 44 -96 44q-53 0 -88 -41q-34 -40 -34 -98q0 -42 27 -69t67 -27q52 0 91 45z" />
    <glyph glyph-name="Emacron" unicode="&#x112;" 
d="M25 74q0 12 3 27l107 486q18 80 100 80h325q30 0 51.5 -21.5t21.5 -51.5q0 -29 -21.5 -50.5t-51.5 -21.5h-267l-24 -111h228q30 0 51 -21.5t21 -51.5t-21 -51.5t-51 -21.5h-260l-27 -120h235q30 0 51.5 -21t21.5 -51t-21.5 -51.5t-51.5 -21.5h-337q-40 0 -61.5 19.5
t-21.5 54.5zM246 765q0 18 13 30.5t30 12.5h279q17 0 30 -12.5t13 -30.5q0 -17 -13 -29.5t-30 -12.5h-279q-17 0 -30 12.5t-13 29.5z" />
    <glyph glyph-name="emacron" unicode="&#x113;" horiz-adv-x="548" 
d="M304 495q94 0 157.5 -57t64.5 -155v-12q-1 -34 -27 -56t-68 -22h-257v-6q0 -25 33 -52.5t83 -27.5q37 0 76 13q8 3 17 3q24 0 40.5 -17t16.5 -40q0 -41 -37 -54q-61 -24 -125 -24q-118 0 -187.5 58.5t-69.5 160.5q-2 116 81.5 203t201.5 85zM390 300q0 30 -25 53t-68 23
q-39 0 -70 -25t-38 -58h200q1 1 1 7zM185 618q0 18 13 30.5t30 12.5h279q17 0 30 -12.5t13 -30.5q0 -17 -13 -29.5t-30 -12.5h-279q-17 0 -30 12.5t-13 29.5z" />
    <glyph glyph-name="Ebreve" unicode="&#x114;" 
d="M25 74q0 12 3 27l107 486q18 80 100 80h325q30 0 51.5 -21.5t21.5 -51.5q0 -29 -21.5 -50.5t-51.5 -21.5h-267l-24 -111h228q30 0 51 -21.5t21 -51.5t-21 -51.5t-51 -21.5h-260l-27 -120h235q30 0 51.5 -21t21.5 -51t-21.5 -51.5t-51.5 -21.5h-337q-40 0 -61.5 19.5
t-21.5 54.5zM290 771q-14 17 -14 33q0 19 13.5 32.5t32.5 13.5t33 -14q31 -33 79 -33q54 0 104 40q9 9 25 9t27 -11.5t11 -27.5q0 -19 -14 -30q-80 -65 -168 -65q-78 0 -129 53z" />
    <glyph glyph-name="ebreve" unicode="&#x115;" horiz-adv-x="548" 
d="M304 495q94 0 157.5 -57t64.5 -155v-12q-1 -34 -27 -56t-68 -22h-257v-6q0 -25 33 -52.5t83 -27.5q37 0 76 13q8 3 17 3q24 0 40.5 -17t16.5 -40q0 -41 -37 -54q-61 -24 -125 -24q-118 0 -187.5 58.5t-69.5 160.5q-2 116 81.5 203t201.5 85zM390 300q0 30 -25 53t-68 23
q-39 0 -70 -25t-38 -58h200q1 1 1 7zM229 624q-14 17 -14 33q0 19 13.5 32.5t32.5 13.5t33 -14q32 -33 79 -33q54 0 104 40q9 9 25 9t27 -11.5t11 -27.5q0 -19 -14 -30q-80 -65 -168 -65q-78 0 -129 53z" />
    <glyph glyph-name="Edotaccent" unicode="&#x116;" 
d="M25 74q0 12 3 27l107 486q18 80 100 80h325q30 0 51.5 -21.5t21.5 -51.5q0 -29 -21.5 -50.5t-51.5 -21.5h-267l-24 -111h228q30 0 51 -21.5t21 -51.5t-21 -51.5t-51 -21.5h-260l-27 -120h235q30 0 51.5 -21t21.5 -51t-21.5 -51.5t-51.5 -21.5h-337q-40 0 -61.5 19.5
t-21.5 54.5zM352 778q0 35 26.5 61.5t61.5 26.5q30 0 50 -20.5t20 -49.5q0 -34 -27 -61q-28 -26 -62 -26q-30 0 -49.5 19.5t-19.5 49.5z" />
    <glyph glyph-name="edotaccent" unicode="&#x117;" horiz-adv-x="548" 
d="M304 495q94 0 157.5 -57t64.5 -155v-12q-1 -34 -27 -56t-68 -22h-257v-6q0 -25 33 -52.5t83 -27.5q37 0 76 13q8 3 17 3q24 0 40.5 -17t16.5 -40q0 -41 -37 -54q-61 -24 -125 -24q-118 0 -187.5 58.5t-69.5 160.5q-2 116 81.5 203t201.5 85zM390 300q0 30 -25 53t-68 23
q-39 0 -70 -25t-38 -58h200q1 1 1 7zM291 631q0 35 26.5 61.5t61.5 26.5q30 0 50 -20.5t20 -49.5q0 -34 -27 -61q-28 -26 -62 -26q-30 0 -49.5 19.5t-19.5 49.5z" />
    <glyph glyph-name="Eogonek" unicode="&#x118;" 
d="M560 522h-267l-24 -111h228q30 0 51 -21.5t21 -51.5t-21 -51.5t-51 -21.5h-260l-27 -120h235q30 0 51.5 -21t21.5 -51q0 -27 -19 -48t-46 -25q-55 -40 -55 -74q0 -18 21 -22l10 -1q16 -2 27 -13.5t11 -27.5q0 -14 -8.5 -25t-21.5 -14q-32 -9 -77 -9q-47 0 -76.5 17.5
t-29.5 49.5q0 40 32.5 67t102.5 52h-281q-40 0 -61.5 19.5t-21.5 54.5q0 12 3 27l107 486q18 80 100 80h325q30 0 51.5 -21.5t21.5 -51.5q0 -29 -21.5 -50.5t-51.5 -21.5z" />
    <glyph glyph-name="eogonek" unicode="&#x119;" horiz-adv-x="548" 
d="M300 -11q-5 -1 -22 -1q-118 0 -187.5 58.5t-69.5 160.5q-2 116 81.5 203t201.5 85q96 0 159 -58.5t63 -159.5q0 -4 -2 -22q-12 -62 -93 -62h-257v-6q0 -25 33 -52.5t83 -27.5q37 0 75 13q8 2 17 2q25 0 42 -17t17 -41q0 -30 -28 -50q-82 -53 -82 -89q0 -20 20 -22
q11 0 14 -1q16 -2 26 -13t10 -27q0 -14 -9 -25t-22 -14q-31 -9 -77 -9t-75.5 17.5t-29.5 50.5q0 71 112 107zM390 300q0 30 -25 53t-68 23q-39 0 -70 -25t-38 -58h200q1 1 1 7z" />
    <glyph glyph-name="Ecaron" unicode="&#x11a;" 
d="M25 74q0 12 3 27l107 486q18 80 100 80h325q30 0 51.5 -21.5t21.5 -51.5q0 -29 -21.5 -50.5t-51.5 -21.5h-267l-24 -111h228q30 0 51 -21.5t21 -51.5t-21 -51.5t-51 -21.5h-260l-27 -120h235q30 0 51.5 -21t21.5 -51t-21.5 -51.5t-51.5 -21.5h-337q-40 0 -61.5 19.5
t-21.5 54.5zM387 853l42 -67l77 74q14 13 28 13q15 0 25.5 -11t10.5 -26q0 -12 -8 -22l-46 -54q-32 -37 -76 -37h-48q-43 0 -58 36l-24 55q-3 8 -3 16q0 17 12.5 30t30.5 13q23 0 37 -20z" />
    <glyph glyph-name="ecaron" unicode="&#x11b;" horiz-adv-x="548" 
d="M304 495q94 0 157.5 -57t64.5 -155v-12q-1 -34 -27 -56t-68 -22h-257v-6q0 -25 33 -52.5t83 -27.5q37 0 76 13q8 3 17 3q24 0 40.5 -17t16.5 -40q0 -41 -37 -54q-61 -24 -125 -24q-118 0 -187.5 58.5t-69.5 160.5q-2 116 81.5 203t201.5 85zM390 300q0 30 -25 53t-68 23
q-39 0 -70 -25t-38 -58h200q1 1 1 7zM326 706l42 -67l77 74q14 13 28 13q15 0 25.5 -11t10.5 -26q0 -12 -8 -22l-46 -54q-32 -37 -76 -37h-48q-43 0 -58 36l-24 55q-3 7 -3 16q0 17 12.5 30t30.5 13q23 0 37 -20z" />
    <glyph glyph-name="Gcircumflex" unicode="&#x11c;" horiz-adv-x="723" 
d="M694 314q0 -14 -3 -27l-23 -104q-18 -77 -54 -108q-101 -87 -240 -87q-141 -2 -241 83.5t-97 219.5q-2 164 116 276.5t295 110.5q129 0 212 -78q28 -25 28 -63q0 -34 -24 -59t-59 -25q-36 0 -58 24q-49 49 -124 49q-85 0 -146 -65.5t-61 -158.5q0 -68 46.5 -115
t122.5 -47q63 0 115 40l11 56h-71q-29 0 -50.5 21t-21.5 51q0 28 21.5 50t50.5 22h189q32 0 49 -17.5t17 -48.5zM553 737l-42 67l-76 -74q-14 -13 -29 -13t-25 10.5t-10 25.5q0 13 8 23l46 54q31 37 75 37h48q44 0 59 -36l24 -55q3 -7 3 -16q0 -17 -13 -30t-31 -13
q-25 0 -37 20z" />
    <glyph glyph-name="gcircumflex" unicode="&#x11d;" horiz-adv-x="590" 
d="M569 415q0 -12 -1 -15l-80 -357q-28 -133 -105 -186t-171 -53q-112 0 -186 43q-34 19 -34 58q0 27 19.5 46.5t46.5 19.5q19 0 34 -9q52 -32 117 -32q99 0 126 113l8 35q-57 -70 -140 -70q-82 0 -132.5 50t-50.5 145q-2 114 70 204t181 88q42 0 82.5 -18.5t66.5 -51.5v2
q6 28 26.5 46.5t47.5 18.5q32 0 53.5 -22t21.5 -55zM367 189l27 121q-31 49 -102 49q-49 0 -81 -35t-32 -91q0 -39 27 -64t70 -25q51 0 91 45zM433 590l-42 67l-76 -74q-14 -13 -29 -13t-25 10.5t-10 25.5q0 13 8 23l46 54q31 37 75 37h48q44 0 59 -36l24 -55q3 -7 3 -16
q0 -17 -13 -30t-31 -13q-25 0 -37 20z" />
    <glyph glyph-name="Gbreve" unicode="&#x11e;" horiz-adv-x="723" 
d="M694 314q0 -14 -3 -27l-23 -104q-18 -77 -54 -108q-101 -87 -240 -87q-141 -2 -241 83.5t-97 219.5q-2 164 116 276.5t295 110.5q129 0 212 -78q28 -25 28 -63q0 -34 -24 -59t-59 -25q-36 0 -58 24q-49 49 -124 49q-85 0 -146 -65.5t-61 -158.5q0 -68 46.5 -115
t122.5 -47q63 0 115 40l11 56h-71q-29 0 -50.5 21t-21.5 51q0 28 21.5 50t50.5 22h189q32 0 49 -17.5t17 -48.5zM364 771q-14 17 -14 33q0 19 13.5 32.5t32.5 13.5t33 -14q32 -33 79 -33q54 0 104 40q9 9 25 9t27 -11.5t11 -27.5q0 -19 -14 -30q-80 -65 -168 -65
q-78 0 -129 53z" />
    <glyph glyph-name="gbreve" unicode="&#x11f;" horiz-adv-x="590" 
d="M569 415q0 -12 -1 -15l-80 -357q-28 -133 -105 -186t-171 -53q-112 0 -186 43q-34 19 -34 58q0 27 19.5 46.5t46.5 19.5q19 0 34 -9q52 -32 117 -32q99 0 126 113l8 35q-57 -70 -140 -70q-82 0 -132.5 50t-50.5 145q-2 114 70 204t181 88q42 0 82.5 -18.5t66.5 -51.5v2
q6 28 26.5 46.5t47.5 18.5q32 0 53.5 -22t21.5 -55zM367 189l27 121q-31 49 -102 49q-49 0 -81 -35t-32 -91q0 -39 27 -64t70 -25q51 0 91 45zM245 624q-14 17 -14 33q0 19 13.5 32.5t32.5 13.5t33 -14q32 -33 79 -33q54 0 104 40q9 9 25 9t27 -11.5t11 -27.5q0 -19 -14 -30
q-80 -65 -168 -65q-78 0 -129 53z" />
    <glyph glyph-name="Gdotaccent" unicode="&#x120;" horiz-adv-x="723" 
d="M694 314q0 -14 -3 -27l-23 -104q-18 -77 -54 -108q-101 -87 -240 -87q-141 -2 -241 83.5t-97 219.5q-2 164 116 276.5t295 110.5q129 0 212 -78q28 -25 28 -63q0 -34 -24 -59t-59 -25q-36 0 -58 24q-49 49 -124 49q-85 0 -146 -65.5t-61 -158.5q0 -68 46.5 -115
t122.5 -47q63 0 115 40l11 56h-71q-29 0 -50.5 21t-21.5 51q0 28 21.5 50t50.5 22h189q32 0 49 -17.5t17 -48.5zM426 778q0 35 26.5 61.5t61.5 26.5q30 0 50 -20.5t20 -49.5q0 -34 -27 -61q-28 -26 -62 -26q-30 0 -49.5 19.5t-19.5 49.5z" />
    <glyph glyph-name="gdotaccent" unicode="&#x121;" horiz-adv-x="590" 
d="M569 415q0 -12 -1 -15l-80 -357q-28 -133 -105 -186t-171 -53q-112 0 -186 43q-34 19 -34 58q0 27 19.5 46.5t46.5 19.5q19 0 34 -9q52 -32 117 -32q99 0 126 113l8 35q-57 -70 -140 -70q-82 0 -132.5 50t-50.5 145q-2 114 70 204t181 88q42 0 82.5 -18.5t66.5 -51.5v2
q6 28 26.5 46.5t47.5 18.5q32 0 53.5 -22t21.5 -55zM367 189l27 121q-31 49 -102 49q-49 0 -81 -35t-32 -91q0 -39 27 -64t70 -25q51 0 91 45zM307 631q0 35 26.5 61.5t61.5 26.5q30 0 50 -20.5t20 -49.5q0 -34 -27 -61q-28 -26 -62 -26q-30 0 -49.5 19.5t-19.5 49.5z" />
    <glyph glyph-name="uni0122" unicode="&#x122;" horiz-adv-x="723" 
d="M694 314q0 -14 -3 -27l-23 -104q-18 -77 -54 -108q-101 -87 -240 -87q-141 -2 -241 83.5t-97 219.5q-2 164 116 276.5t295 110.5q129 0 212 -78q28 -25 28 -63q0 -34 -24 -59t-59 -25q-36 0 -58 24q-49 49 -124 49q-85 0 -146 -65.5t-61 -158.5q0 -68 46.5 -115
t122.5 -47q63 0 115 40l11 56h-71q-29 0 -50.5 21t-21.5 51q0 28 21.5 50t50.5 22h189q32 0 49 -17.5t17 -48.5zM254 -287q-12 0 -20 8.5t-8 19.5q0 16 14 24q43 23 56 53q-1 -1 -9 -1q-24 0 -39 15.5t-15 42.5q0 30 24.5 53t54.5 23q29 0 48.5 -19.5t19.5 -51.5
q0 -46 -31.5 -90.5t-78.5 -71.5q-15 -5 -16 -5z" />
    <glyph glyph-name="uni0123" unicode="&#x123;" horiz-adv-x="590" 
d="M298 613q0 46 31 90t79 71q8 5 16 5q11 0 19.5 -8t8.5 -19q0 -18 -14 -24q-42 -24 -56 -53q1 1 9 1q24 0 39 -15.5t15 -42.5q0 -30 -24 -53t-55 -23q-30 0 -49 19t-19 52zM569 415q0 -12 -1 -15l-80 -357q-28 -133 -105 -186t-171 -53q-112 0 -186 43q-34 19 -34 58
q0 27 19.5 46.5t46.5 19.5q19 0 34 -9q52 -32 117 -32q99 0 126 113l8 35q-57 -70 -140 -70q-82 0 -132.5 50t-50.5 145q-2 114 70 204t181 88q42 0 82.5 -18.5t66.5 -51.5v2q6 28 26.5 46.5t47.5 18.5q32 0 53.5 -22t21.5 -55zM367 189l27 121q-31 49 -102 49
q-49 0 -81 -35t-32 -91q0 -39 27 -64t70 -25q51 0 91 45z" />
    <glyph glyph-name="Hcircumflex" unicode="&#x124;" horiz-adv-x="741" 
d="M474 77q0 1 2 17l38 174h-277l-46 -211q-6 -29 -29 -47.5t-54 -18.5q-36 0 -59.5 25t-23.5 62q0 12 1 16l114 516q7 29 29.5 47.5t52.5 18.5q36 0 60 -25t24 -62q0 -12 -1 -16l-35 -155h277l42 192q7 29 30 47.5t53 18.5q36 0 59.5 -25t23.5 -62q0 -12 -1 -16l-114 -516
q-6 -29 -29 -47.5t-53 -18.5q-35 0 -59.5 25t-24.5 61zM538 737l-42 67l-76 -74q-14 -13 -29 -13t-25 10.5t-10 25.5q0 13 8 23l46 54q31 37 75 37h48q44 0 59 -36l24 -55q3 -7 3 -16q0 -17 -13 -30t-31 -13q-25 0 -37 20z" />
    <glyph glyph-name="hcircumflex" unicode="&#x125;" horiz-adv-x="594" 
d="M346 64q0 2 2 18l41 192q5 25 5 32q0 53 -73 53q-49 0 -96 -47l-57 -262q-5 -25 -26 -42t-48 -17q-31 0 -53 22t-22 53q0 1 2 17l118 534q5 26 25.5 42.5t47.5 16.5q32 0 53.5 -21.5t21.5 -52.5q0 -2 -2 -18l-36 -160q78 71 157 71q71 0 113 -34t42 -91q0 -12 -5 -40
l-61 -280q-6 -25 -26.5 -42t-47.5 -17q-31 0 -53 21t-22 52zM463 737l-42 67l-76 -74q-14 -13 -29 -13t-25 10.5t-10 25.5q0 13 8 23l46 54q31 37 75 37h48q44 0 59 -36l24 -55q3 -7 3 -16q0 -17 -13 -30t-31 -13q-25 0 -37 20z" />
    <glyph glyph-name="Hbar" unicode="&#x126;" horiz-adv-x="748" 
d="M816 544q0 -18 -12.5 -30.5t-29.5 -12.5h-33l-98 -444q-6 -29 -29 -47.5t-53 -18.5q-35 0 -59.5 25t-24.5 61q0 1 2 17l38 174h-277l-46 -211q-6 -29 -29 -47.5t-53 -18.5q-36 0 -60 24.5t-24 60.5q0 2 2 18l89 407h-15q-17 0 -29.5 12.5t-12.5 29.5q0 18 12.5 30.5
t29.5 12.5h34l5 24q7 29 29.5 47.5t52.5 18.5q37 0 61.5 -26t22.5 -64h278l5 24q7 29 30 47.5t53 18.5q37 0 61 -26t22 -64h16q17 0 29.5 -12.5t12.5 -29.5zM550 418l18 83h-276l-18 -83h276z" />
    <glyph glyph-name="hbar" unicode="&#x127;" horiz-adv-x="597" 
d="M564 370q0 -12 -5 -40l-61 -280q-5 -25 -26 -42t-48 -17q-31 0 -53 21.5t-22 52.5q0 1 2 17l42 192q5 25 5 32q0 53 -74 53q-46 0 -96 -47l-57 -262q-5 -25 -26 -42t-48 -17q-31 0 -53 22t-22 53q0 1 2 17l98 442h-9q-17 0 -29.5 12.5t-12.5 29.5t12.5 29.5t29.5 12.5h27
l2 8q6 26 26.5 42.5t46.5 16.5q30 0 51 -19t24 -48h100q17 0 29.5 -12.5t12.5 -29.5t-12.5 -29.5t-29.5 -12.5h-115l-22 -101q74 71 156 71q71 0 113 -34t42 -91z" />
    <glyph glyph-name="Itilde" unicode="&#x128;" horiz-adv-x="292" 
d="M24 76q0 2 2 18l114 516q7 29 29.5 47.5t52.5 18.5q36 0 60.5 -24.5t24.5 -59.5q0 -1 -2 -19l-114 -516q-6 -29 -29 -47.5t-53 -18.5q-35 0 -60 25t-25 60zM201 776q-19 0 -30 -32q-9 -26 -37 -26q-16 0 -27 11.5t-11 27.5q0 1 2 11q15 48 41.5 70.5t70.5 22.5
q40 0 78 -32q27 -23 44 -23q20 0 31 32q9 26 36 26q17 0 27.5 -10.5t10.5 -27.5q0 -2 -2 -12q-15 -48 -41.5 -70.5t-70.5 -22.5q-24 0 -39.5 7t-38.5 25q-24 23 -44 23z" />
    <glyph glyph-name="itilde" unicode="&#x129;" horiz-adv-x="266" 
d="M20 67q0 12 1 16l77 350q6 26 26.5 42.5t47.5 16.5q31 0 52.5 -22t21.5 -54q0 -13 -1 -16l-78 -350q-5 -26 -25.5 -42.5t-47.5 -16.5q-32 0 -53 22t-21 54zM156 629q-19 0 -30 -32q-9 -26 -37 -26q-16 0 -27 11.5t-11 27.5q0 1 2 11q15 48 41.5 70.5t70.5 22.5
q40 0 78 -32q27 -23 44 -23q20 0 31 32q9 26 36 26q17 0 27.5 -10.5t10.5 -27.5q0 -2 -2 -12q-15 -48 -41.5 -70.5t-70.5 -22.5q-24 0 -39.5 7t-38.5 25q-24 23 -44 23z" />
    <glyph glyph-name="Imacron" unicode="&#x12a;" horiz-adv-x="292" 
d="M24 76q0 2 2 18l114 516q7 29 29.5 47.5t52.5 18.5q36 0 60.5 -24.5t24.5 -59.5q0 -1 -2 -19l-114 -516q-6 -29 -29 -47.5t-53 -18.5q-35 0 -60 25t-25 60zM81 765q0 18 13 30.5t30 12.5h279q17 0 30 -12.5t13 -30.5q0 -17 -13 -29.5t-30 -12.5h-279q-17 0 -30 12.5
t-13 29.5z" />
    <glyph glyph-name="imacron" unicode="&#x12b;" horiz-adv-x="266" 
d="M20 67q0 12 1 16l77 350q6 26 26.5 42.5t47.5 16.5q31 0 52.5 -22t21.5 -54q0 -13 -1 -16l-78 -350q-5 -26 -25.5 -42.5t-47.5 -16.5q-32 0 -53 22t-21 54zM36 618q0 18 13 30.5t30 12.5h279q17 0 30 -12.5t13 -30.5q0 -17 -13 -29.5t-30 -12.5h-279q-17 0 -30 12.5
t-13 29.5z" />
    <glyph glyph-name="Ibreve" unicode="&#x12c;" horiz-adv-x="292" 
d="M24 76q0 2 2 18l114 516q7 29 29.5 47.5t52.5 18.5q36 0 60.5 -24.5t24.5 -59.5q0 -1 -2 -19l-114 -516q-6 -29 -29 -47.5t-53 -18.5q-35 0 -60 25t-25 60zM125 771q-14 17 -14 33q0 19 13.5 32.5t32.5 13.5t33 -14q31 -33 79 -33q54 0 104 40q9 9 25 9t27 -11.5
t11 -27.5q0 -19 -14 -30q-80 -65 -168 -65q-78 0 -129 53z" />
    <glyph glyph-name="ibreve" unicode="&#x12d;" horiz-adv-x="266" 
d="M20 67q0 12 1 16l77 350q6 26 26.5 42.5t47.5 16.5q31 0 52.5 -22t21.5 -54q0 -13 -1 -16l-78 -350q-5 -26 -25.5 -42.5t-47.5 -16.5q-32 0 -53 22t-21 54zM80 624q-14 17 -14 33q0 19 13.5 32.5t32.5 13.5t33 -14q31 -33 79 -33q54 0 104 40q9 9 25 9t27 -11.5t11 -27.5
q0 -19 -14 -30q-80 -65 -168 -65q-78 0 -129 53z" />
    <glyph glyph-name="Iogonek" unicode="&#x12e;" horiz-adv-x="292" 
d="M307 592q0 -1 -2 -19l-114 -516q-11 -50 -61 -63q-47 -40 -47 -68q0 -18 21 -22l11 -1q16 -2 27 -13.5t11 -27.5q0 -14 -9 -25t-22 -14q-31 -9 -77 -9q-47 0 -76.5 17.5t-29.5 49.5q0 38 32.5 65.5t100.5 52.5q-48 26 -48 78q0 1 2 17l114 516q7 29 29.5 47.5t52.5 18.5
q36 0 60.5 -24.5t24.5 -59.5z" />
    <glyph glyph-name="iogonek" unicode="&#x12f;" horiz-adv-x="266" 
d="M310 653q0 -45 -31 -73t-68 -28q-35 0 -57.5 22t-22.5 53q0 45 31 73t69 28q33 0 56 -22t23 -53zM247 418q0 -2 -2 -18l-78 -350q-5 -25 -24 -41.5t-44 -17.5q-44 -34 -44 -65q0 -18 21 -22l11 -1q15 -2 26 -14t11 -27q0 -14 -8.5 -25t-21.5 -14q-31 -9 -77 -9
q-47 0 -76.5 17.5t-29.5 49.5q0 40 34 67.5t107 53.5h1q-34 22 -34 63q0 2 2 18l77 350q6 26 26.5 42.5t47.5 16.5q31 0 53 -21.5t22 -52.5z" />
    <glyph glyph-name="Idot" unicode="&#x130;" horiz-adv-x="292" 
d="M24 76q0 2 2 18l114 516q7 29 29.5 47.5t52.5 18.5q36 0 60.5 -24.5t24.5 -59.5q0 -1 -2 -19l-114 -516q-6 -29 -29 -47.5t-53 -18.5q-35 0 -60 25t-25 60zM187 778q0 35 26.5 61.5t61.5 26.5q30 0 50 -20.5t20 -49.5q0 -34 -27 -61q-28 -26 -62 -26q-30 0 -49.5 19.5
t-19.5 49.5z" />
    <glyph glyph-name="dotlessi" unicode="&#x131;" horiz-adv-x="266" 
d="M20 67q0 12 1 16l77 350q6 26 26.5 42.5t47.5 16.5q31 0 52.5 -22t21.5 -54q0 -13 -1 -16l-78 -350q-5 -26 -25.5 -42.5t-47.5 -16.5q-32 0 -53 22t-21 54z" />
    <glyph glyph-name="IJ" unicode="&#x132;" horiz-adv-x="784" 
d="M24 76q0 2 2 18l114 516q7 29 29.5 47.5t52.5 18.5q36 0 60.5 -24.5t24.5 -59.5q0 -1 -2 -19l-114 -516q-6 -29 -29 -47.5t-53 -18.5q-35 0 -60 25t-25 60zM283 85q0 32 22.5 54.5t54.5 22.5q19 0 32 -7q28 -15 55 -15q83 0 102 91l83 379q7 29 29.5 47.5t52.5 18.5
q36 0 60.5 -24.5t24.5 -59.5q0 -1 -2 -19l-77 -344q-27 -125 -89 -183t-171 -58q-72 0 -129 27q-21 8 -34.5 27t-13.5 43z" />
    <glyph glyph-name="ij" unicode="&#x133;" horiz-adv-x="533" 
d="M231 728q33 0 56 -22t23 -53q0 -45 -31 -73t-68 -28q-35 0 -57.5 22t-22.5 53q0 45 31 73t69 28zM19 65q0 2 2 18l77 350q6 26 26.5 42.5t47.5 16.5q31 0 53 -21.5t22 -52.5q0 -2 -2 -18l-78 -350q-5 -26 -25.5 -42.5t-47.5 -16.5q-32 0 -53.5 21.5t-21.5 52.5zM397 627
q0 45 31 73t69 28q33 0 56 -22t23 -53q0 -45 -31 -73t-68 -28q-35 0 -57.5 22t-22.5 53zM141 -133q0 24 15.5 42.5t36.5 21.5l10 2q51 5 65 71l96 429q6 26 26.5 42.5t46.5 16.5q33 0 53.5 -21t20.5 -54q0 -13 -1 -17l-88 -396q-21 -99 -69.5 -149.5t-132.5 -50.5
q-11 0 -14 1q-27 1 -46 18.5t-19 43.5z" />
    <glyph glyph-name="Jcircumflex" unicode="&#x134;" horiz-adv-x="492" 
d="M-9 85q0 32 22.5 54.5t54.5 22.5q19 0 32 -7q28 -15 55 -15q83 0 102 91l83 379q7 29 29.5 47.5t52.5 18.5q36 0 60.5 -24.5t24.5 -59.5q0 -1 -2 -19l-77 -344q-27 -125 -89 -183t-171 -58q-72 0 -129 27q-21 8 -34.5 27t-13.5 43zM518 754l-42 67l-76 -74
q-14 -13 -29 -13t-25 10.5t-10 25.5q0 13 8 23l46 54q31 37 75 37h48q44 0 59 -36l24 -55q3 -7 3 -16q0 -17 -13 -30t-31 -13q-25 0 -37 20z" />
    <glyph glyph-name="jcircumflex" unicode="&#x135;" horiz-adv-x="266" 
d="M-125 -133q0 24 15.5 42.5t36.5 21.5l10 2q51 5 65 71l96 429q6 26 26.5 42.5t46.5 16.5q33 0 53.5 -21t20.5 -54q0 -13 -1 -17l-88 -396q-21 -99 -69.5 -149.5t-132.5 -50.5q-11 0 -14 1q-27 1 -46 18.5t-19 43.5zM268 590l-42 67l-76 -74q-14 -13 -29 -13t-25 10.5
t-10 25.5q0 13 8 23l46 54q31 37 75 37h48q44 0 59 -36l24 -55q3 -7 3 -16q0 -17 -13 -30t-31 -13q-25 0 -37 20z" />
    <glyph glyph-name="uni0136" unicode="&#x136;" horiz-adv-x="641" 
d="M664 600q0 -34 -23 -54l-225 -191l155 -235q10 -14 10 -41q0 -37 -25.5 -62.5t-61.5 -25.5q-48 0 -79 51l-131 216l-63 -63l-30 -138q-6 -29 -29 -47.5t-53 -18.5q-35 0 -60 25t-25 60q0 2 2 18l114 516q7 29 29.5 47.5t52.5 18.5q36 0 60.5 -24.5t24.5 -59.5
q0 -1 -2 -19l-37 -168l266 247q25 24 55 24q31 0 53 -22.5t22 -53.5zM202 -287q-12 0 -20 8.5t-8 19.5q0 16 14 24q43 23 56 53q-1 -1 -9 -1q-24 0 -39 15.5t-15 42.5q0 30 24.5 53t54.5 23q29 0 48.5 -19.5t19.5 -51.5q0 -46 -31.5 -90.5t-78.5 -71.5q-15 -5 -16 -5z" />
    <glyph glyph-name="uni0137" unicode="&#x137;" horiz-adv-x="546" 
d="M542 425q0 -32 -26 -52l-142 -113l95 -147q14 -23 14 -42q0 -32 -25 -56t-58 -24q-44 0 -76 54l-75 125l-68 -56l-14 -63q-6 -27 -26 -43.5t-47 -16.5q-31 0 -53.5 22t-22.5 53q0 1 2 17l118 534q6 26 26.5 42.5t46.5 16.5q32 0 54 -21.5t22 -53.5q0 -1 -2 -17l-64 -287
l204 173q23 22 49 22q28 0 48 -19.5t20 -47.5zM141 -287q-12 0 -20 8.5t-8 19.5q0 16 14 24q43 23 56 53q-1 -1 -9 -1q-24 0 -39 15.5t-15 42.5q0 30 24.5 53t54.5 23q29 0 48.5 -19.5t19.5 -51.5q0 -46 -31.5 -90.5t-78.5 -71.5q-15 -5 -16 -5z" />
    <glyph glyph-name="kgreenlandic" unicode="&#x138;" horiz-adv-x="546" 
d="M542 425q0 -32 -26 -52l-142 -113l95 -147q14 -23 14 -42q0 -32 -25 -56t-58 -24q-44 0 -76 54l-75 125l-68 -56l-14 -64q-6 -26 -26 -42.5t-47 -16.5q-32 0 -54 21.5t-22 52.5q0 2 2 18l78 350q6 26 26.5 42.5t46.5 16.5q32 0 53.5 -21t21.5 -52q0 -11 -2 -19l-23 -103
l204 173q23 22 49 22q28 0 48 -19.5t20 -47.5z" />
    <glyph glyph-name="Lacute" unicode="&#x139;" horiz-adv-x="523" 
d="M25 73q0 12 3 27l112 510q7 29 30 47.5t53 18.5q35 0 59.5 -24.5t24.5 -59.5q0 -1 -2 -19l-94 -423h183q31 0 53 -22t22 -53t-22 -53t-53 -22h-286q-40 0 -61.5 19t-21.5 54zM258 717q-15 0 -26.5 11.5t-11.5 26.5q0 19 14 30l94 86q14 12 32 12q17 0 30.5 -14t13.5 -33
q0 -23 -18 -36l-103 -75q-11 -8 -25 -8z" />
    <glyph glyph-name="lacute" unicode="&#x13a;" horiz-adv-x="266" 
d="M18 66q0 1 2 17l118 534q6 26 26.5 42.5t47.5 16.5q31 0 53 -22t22 -53q0 -1 -2 -17l-118 -534q-5 -26 -25.5 -42.5t-47.5 -16.5q-31 0 -53.5 22t-22.5 53zM246 717q-15 0 -26.5 11.5t-11.5 26.5q0 19 14 30l94 86q14 12 32 12q17 0 30.5 -14t13.5 -33q0 -23 -18 -36
l-103 -75q-11 -8 -25 -8z" />
    <glyph glyph-name="uni013B" unicode="&#x13b;" horiz-adv-x="523" 
d="M25 73q0 12 3 27l112 510q7 29 30 47.5t53 18.5q35 0 59.5 -24.5t24.5 -59.5q0 -1 -2 -19l-94 -423h183q31 0 53 -22t22 -53t-22 -53t-53 -22h-286q-40 0 -61.5 19t-21.5 54zM149 -287q-12 0 -20 8.5t-8 19.5q0 16 14 24q43 23 56 53q-1 -1 -9 -1q-24 0 -39 15.5
t-15 42.5q0 30 24.5 53t54.5 23q29 0 48.5 -19.5t19.5 -51.5q0 -46 -31.5 -90.5t-78.5 -71.5q-15 -5 -16 -5z" />
    <glyph glyph-name="uni013C" unicode="&#x13c;" horiz-adv-x="266" 
d="M18 66q0 1 2 17l118 534q6 26 26.5 42.5t47.5 16.5q31 0 53 -22t22 -53q0 -1 -2 -17l-118 -534q-5 -26 -25.5 -42.5t-47.5 -16.5q-31 0 -53.5 22t-22.5 53zM1 -287q-12 0 -20 8.5t-8 19.5q0 16 14 24q43 23 56 53q-1 -1 -9 -1q-24 0 -39 15.5t-15 42.5q0 30 24.5 53
t54.5 23q29 0 48.5 -19.5t19.5 -51.5q0 -46 -31.5 -90.5t-78.5 -71.5q-15 -5 -16 -5z" />
    <glyph glyph-name="Lcaron" unicode="&#x13d;" horiz-adv-x="529" 
d="M25 73q0 12 3 27l112 510q7 29 30 47.5t53 18.5q35 0 59.5 -24.5t24.5 -59.5q0 -1 -2 -19l-94 -423h183q31 0 53 -22t22 -53t-22 -53t-53 -22h-286q-40 0 -61.5 19t-21.5 54zM405 443q-12 0 -20 8.5t-8 19.5q0 16 14 24q43 23 56 53q-1 -1 -9 -1q-24 0 -39 15.5t-15 42.5
q0 30 24.5 53t54.5 23q29 0 48.5 -19.5t19.5 -51.5q0 -46 -31.5 -90.5t-78.5 -71.5q-15 -5 -16 -5z" />
    <glyph glyph-name="lcaron" unicode="&#x13e;" horiz-adv-x="386" 
d="M18 66q0 1 2 17l118 534q6 26 26.5 42.5t47.5 16.5q31 0 53 -22t22 -53q0 -1 -2 -17l-118 -534q-5 -26 -25.5 -42.5t-47.5 -16.5q-31 0 -53.5 22t-22.5 53zM355 443q-12 0 -20 8.5t-8 19.5q0 16 14 24q43 23 56 53q-1 -1 -9 -1q-24 0 -39 15.5t-15 42.5q0 30 24.5 53
t54.5 23q29 0 48.5 -19.5t19.5 -51.5q0 -46 -31.5 -90.5t-78.5 -71.5q-15 -5 -16 -5z" />
    <glyph glyph-name="Ldot" unicode="&#x13f;" horiz-adv-x="570" 
d="M25 73q0 12 3 27l112 510q7 29 30 47.5t53 18.5q35 0 59.5 -24.5t24.5 -59.5q0 -1 -2 -19l-94 -423h183q31 0 53 -22t22 -53t-22 -53t-53 -22h-286q-40 0 -61.5 19t-21.5 54zM462 438q36 0 60.5 -25.5t24.5 -61.5q0 -42 -31 -72q-30 -30 -71 -30q-36 0 -61 25.5t-25 61.5
q0 41 31 71q31 31 72 31z" />
    <glyph glyph-name="ldot" unicode="&#x140;" horiz-adv-x="423" 
d="M18 66q0 1 2 17l118 534q6 26 26.5 42.5t47.5 16.5q31 0 53 -22t22 -53q0 -1 -2 -17l-118 -534q-5 -26 -25.5 -42.5t-47.5 -16.5q-31 0 -53.5 22t-22.5 53zM353 340q36 0 60.5 -25.5t24.5 -61.5q0 -42 -31 -72q-30 -30 -71 -30q-36 0 -61 25.5t-25 61.5q0 41 31 71
q31 31 72 31z" />
    <glyph glyph-name="Lslash" unicode="&#x141;" horiz-adv-x="544" 
d="M484 75q0 -31 -22.5 -53t-53.5 -22h-285q-40 0 -62 19t-22 54q0 12 3 27l26 119q-23 -2 -41 14t-18 40q0 35 30 49l58 30l57 258q7 29 30 47.5t53 18.5q35 0 59.5 -24t24.5 -59q0 -10 -2 -20l-28 -125q24 3 43.5 -13.5t19.5 -41.5q0 -34 -31 -49l-61 -31l-36 -163h182
q31 0 53.5 -22t22.5 -53z" />
    <glyph glyph-name="lslash" unicode="&#x142;" horiz-adv-x="319" 
d="M312 444q17 0 29.5 -12.5t12.5 -30.5q0 -27 -24 -38l-75 -38l-61 -275q-6 -26 -26.5 -42.5t-47.5 -16.5q-31 0 -53 22t-22 53q0 1 2 17l33 153l-13 -7q-12 -5 -19 -5q-18 0 -31 12.5t-13 30.5q0 28 24 39l76 39l60 272q6 26 26.5 42.5t47.5 16.5q32 0 54 -22t22 -54
q0 -2 -2 -16l-33 -151l12 6q10 5 21 5z" />
    <glyph glyph-name="Nacute" unicode="&#x143;" horiz-adv-x="740" 
d="M435 57l-164 367l-80 -367q-6 -29 -29 -47.5t-54 -18.5q-35 0 -59.5 24.5t-24.5 59.5q0 1 2 19l108 489q9 40 41.5 66.5t74.5 26.5q35 0 64 -19t44 -52l153 -343l76 348q7 29 29.5 47.5t52.5 18.5q36 0 60.5 -24.5t24.5 -59.5q0 -1 -2 -19l-109 -495q-8 -37 -38 -62
t-69 -25q-33 0 -60.5 18t-40.5 48zM482 717q-15 0 -26.5 11.5t-11.5 26.5q0 19 14 30l94 86q14 12 32 12q17 0 30.5 -14t13.5 -33q0 -23 -18 -36l-103 -75q-11 -8 -25 -8z" />
    <glyph glyph-name="nacute" unicode="&#x144;" horiz-adv-x="593" 
d="M561 369q0 -14 -5 -39l-62 -280q-6 -26 -26.5 -42.5t-46.5 -16.5q-33 0 -54 22t-21 56q0 12 3 24l42 191q3 12 3 22q0 53 -66 53q-56 0 -103 -47l-58 -262q-5 -26 -25.5 -42.5t-47.5 -16.5q-32 0 -54 21.5t-22 52.5q0 2 2 18l78 350q6 28 26 46.5t47 18.5q32 0 54.5 -22
t22.5 -53q41 36 76.5 54t81.5 18q71 0 113 -33.5t42 -92.5zM378 570q-15 0 -26.5 11.5t-11.5 26.5q0 19 14 30l94 86q13 12 32 12q17 0 30.5 -14t13.5 -33q0 -23 -18 -36l-103 -75q-11 -8 -25 -8z" />
    <glyph glyph-name="uni0145" unicode="&#x145;" horiz-adv-x="740" 
d="M435 57l-164 367l-80 -367q-6 -29 -29 -47.5t-54 -18.5q-35 0 -59.5 24.5t-24.5 59.5q0 1 2 19l108 489q9 40 41.5 66.5t74.5 26.5q35 0 64 -19t44 -52l153 -343l76 348q7 29 29.5 47.5t52.5 18.5q36 0 60.5 -24.5t24.5 -59.5q0 -1 -2 -19l-109 -495q-8 -37 -38 -62
t-69 -25q-33 0 -60.5 18t-40.5 48zM238 -287q-12 0 -20 8.5t-8 19.5q0 16 14 24q43 23 56 53q-1 -1 -9 -1q-24 0 -39 15.5t-15 42.5q0 30 24.5 53t54.5 23q29 0 48.5 -19.5t19.5 -51.5q0 -46 -31.5 -90.5t-78.5 -71.5q-15 -5 -16 -5z" />
    <glyph glyph-name="uni0146" unicode="&#x146;" horiz-adv-x="593" 
d="M561 369q0 -14 -5 -39l-62 -280q-6 -26 -26.5 -42.5t-46.5 -16.5q-33 0 -54 22t-21 56q0 12 3 24l42 191q3 12 3 22q0 53 -66 53q-56 0 -103 -47l-58 -262q-5 -26 -25.5 -42.5t-47.5 -16.5q-32 0 -54 21.5t-22 52.5q0 2 2 18l78 350q6 28 26 46.5t47 18.5q32 0 54.5 -22
t22.5 -53q41 36 76.5 54t81.5 18q71 0 113 -33.5t42 -92.5zM165 -287q-12 0 -20 8.5t-8 19.5q0 16 14 24q43 23 56 53q-1 -1 -9 -1q-24 0 -39 15.5t-15 42.5q0 30 24.5 53t54.5 23q29 0 48.5 -19.5t19.5 -51.5q0 -46 -31.5 -90.5t-78.5 -71.5q-15 -5 -16 -5z" />
    <glyph glyph-name="Ncaron" unicode="&#x147;" horiz-adv-x="740" 
d="M435 57l-164 367l-80 -367q-6 -29 -29 -47.5t-54 -18.5q-35 0 -59.5 24.5t-24.5 59.5q0 1 2 19l108 489q9 40 41.5 66.5t74.5 26.5q35 0 64 -19t44 -52l153 -343l76 348q7 29 29.5 47.5t52.5 18.5q36 0 60.5 -24.5t24.5 -59.5q0 -1 -2 -19l-109 -495q-8 -37 -38 -62
t-69 -25q-33 0 -60.5 18t-40.5 48zM446 853l42 -67l77 74q14 13 28 13q15 0 25.5 -11t10.5 -26q0 -12 -8 -22l-46 -54q-32 -37 -76 -37h-48q-43 0 -58 36l-24 55q-3 8 -3 16q0 17 12.5 30t30.5 13q23 0 37 -20z" />
    <glyph glyph-name="ncaron" unicode="&#x148;" horiz-adv-x="593" 
d="M561 369q0 -14 -5 -39l-62 -280q-6 -26 -26.5 -42.5t-46.5 -16.5q-33 0 -54 22t-21 56q0 12 3 24l42 191q3 12 3 22q0 53 -66 53q-56 0 -103 -47l-58 -262q-5 -26 -25.5 -42.5t-47.5 -16.5q-32 0 -54 21.5t-22 52.5q0 2 2 18l78 350q6 28 26 46.5t47 18.5q32 0 54.5 -22
t22.5 -53q41 36 76.5 54t81.5 18q71 0 113 -33.5t42 -92.5zM342 706l42 -67l77 74q14 13 28 13q15 0 25.5 -11t10.5 -26q0 -12 -8 -22l-46 -54q-32 -37 -76 -37h-48q-43 0 -58 36l-24 55q-3 7 -3 16q0 17 12.5 30t30.5 13q23 0 37 -20z" />
    <glyph glyph-name="napostrophe" unicode="&#x149;" horiz-adv-x="593" 
d="M561 369q0 -14 -5 -39l-62 -280q-6 -26 -26.5 -42.5t-46.5 -16.5q-33 0 -54 22t-21 56q0 12 3 24l42 191q3 12 3 22q0 53 -66 53q-56 0 -103 -47l-58 -262q-5 -26 -25.5 -42.5t-47.5 -16.5q-32 0 -54 21.5t-22 52.5q0 2 2 18l78 350q6 28 26 46.5t47 18.5q32 0 54.5 -22
t22.5 -53q41 36 76.5 54t81.5 18q71 0 113 -33.5t42 -92.5zM155 537q-12 0 -20 8.5t-8 19.5q0 16 14 24q43 23 56 53q-1 -1 -9 -1q-24 0 -39 15.5t-15 42.5q0 30 24.5 53t54.5 23q29 0 48.5 -19.5t19.5 -51.5q0 -46 -31.5 -90.5t-78.5 -71.5q-15 -5 -16 -5z" />
    <glyph glyph-name="Eng" unicode="&#x14a;" horiz-adv-x="740" 
d="M754 590q0 -1 -2 -17l-118 -529q-28 -125 -91 -182.5t-169 -57.5q-78 0 -136 30q-42 19 -42 62q0 29 20 49.5t49 20.5q19 0 33 -8q28 -18 60 -18q72 0 97 73l-184 411l-80 -367q-6 -29 -29 -47.5t-54 -18.5q-36 0 -59.5 25t-23.5 62q0 12 1 16l108 489q9 40 41.5 66.5
t74.5 26.5q35 0 64 -19t44 -52l153 -343l76 348q7 29 29.5 47.5t52.5 18.5q36 0 60.5 -25t24.5 -61z" />
    <glyph glyph-name="eng" unicode="&#x14b;" horiz-adv-x="593" 
d="M561 370q0 -15 -5 -40l-73 -326q-21 -99 -69.5 -149.5t-132.5 -50.5q-11 0 -14 1q-27 1 -46 18.5t-19 43.5q0 24 15.5 42.5t37.5 21.5l9 2q51 5 65 71l62 280q2 10 2 21q0 54 -65 54q-56 0 -103 -47l-58 -262q-5 -26 -25.5 -42.5t-47.5 -16.5q-32 0 -54 21.5t-22 52.5
q0 2 2 18l78 350q6 28 26 46.5t47 18.5q32 0 54.5 -22t22.5 -53q41 36 76.5 54t81.5 18q70 0 112.5 -34t42.5 -91z" />
    <glyph glyph-name="Omacron" unicode="&#x14c;" horiz-adv-x="766" 
d="M430 678q143 2 241.5 -83.5t96.5 -217.5q3 -160 -113 -276t-281 -113q-145 0 -241.5 85t-96.5 218q-3 159 113 274.5t281 112.5zM420 526q-86 0 -145.5 -65.5t-59.5 -158.5q0 -72 47 -117t122 -45q86 0 145.5 65.5t59.5 158.5q0 72 -47 117t-122 45zM317 765
q0 18 13 30.5t30 12.5h279q17 0 30 -12.5t13 -30.5q0 -17 -13 -29.5t-30 -12.5h-279q-17 0 -30 12.5t-13 29.5z" />
    <glyph glyph-name="omacron" unicode="&#x14d;" horiz-adv-x="576" 
d="M304 495q117 0 183 -62t66 -161q2 -113 -81.5 -199.5t-202.5 -84.5q-116 0 -182.5 62.5t-66.5 159.5q-2 113 81.5 200t202.5 85zM299 359q-53 0 -87 -41.5t-34 -99.5q0 -44 26 -69t71 -25q52 0 86.5 42t34.5 99q0 44 -26 69t-71 25zM190 618q0 18 13 30.5t30 12.5h279
q17 0 30 -12.5t13 -30.5q0 -17 -13 -29.5t-30 -12.5h-279q-17 0 -30 12.5t-13 29.5z" />
    <glyph glyph-name="Obreve" unicode="&#x14e;" horiz-adv-x="766" 
d="M430 678q143 2 241.5 -83.5t96.5 -217.5q3 -160 -113 -276t-281 -113q-145 0 -241.5 85t-96.5 218q-3 159 113 274.5t281 112.5zM420 526q-86 0 -145.5 -65.5t-59.5 -158.5q0 -72 47 -117t122 -45q86 0 145.5 65.5t59.5 158.5q0 72 -47 117t-122 45zM361 771
q-14 17 -14 33q0 19 13.5 32.5t32.5 13.5t33 -14q31 -33 79 -33q54 0 104 40q9 9 25 9t27 -11.5t11 -27.5q0 -19 -14 -30q-80 -65 -168 -65q-78 0 -129 53z" />
    <glyph glyph-name="obreve" unicode="&#x14f;" horiz-adv-x="576" 
d="M304 495q117 0 183 -62t66 -161q2 -113 -81.5 -199.5t-202.5 -84.5q-116 0 -182.5 62.5t-66.5 159.5q-2 113 81.5 200t202.5 85zM299 359q-53 0 -87 -41.5t-34 -99.5q0 -44 26 -69t71 -25q52 0 86.5 42t34.5 99q0 44 -26 69t-71 25zM234 624q-14 17 -14 33
q0 19 13.5 32.5t32.5 13.5t33 -14q31 -33 79 -33q54 0 104 40q9 9 25 9t27 -11.5t11 -27.5q0 -19 -14 -30q-80 -65 -168 -65q-78 0 -129 53z" />
    <glyph glyph-name="Ohungarumlaut" unicode="&#x150;" horiz-adv-x="766" 
d="M430 678q143 2 241.5 -83.5t96.5 -217.5q3 -160 -113 -276t-281 -113q-145 0 -241.5 85t-96.5 218q-3 159 113 274.5t281 112.5zM420 526q-86 0 -145.5 -65.5t-59.5 -158.5q0 -72 47 -117t122 -45q86 0 145.5 65.5t59.5 158.5q0 72 -47 117t-122 45zM399 752q0 15 8 23
l69 84q10 15 31 15q17 0 29 -12t12 -29q0 -16 -11 -30l-76 -74q-12 -12 -27 -12t-25 10.5t-10 24.5zM551 752q0 12 8 23l69 84q12 15 32 15q17 0 29 -12t12 -29q0 -18 -12 -30l-75 -74q-12 -12 -27 -12t-25.5 10.5t-10.5 24.5z" />
    <glyph glyph-name="ohungarumlaut" unicode="&#x151;" horiz-adv-x="576" 
d="M304 495q117 0 183 -62t66 -161q2 -113 -81.5 -199.5t-202.5 -84.5q-116 0 -182.5 62.5t-66.5 159.5q-2 113 81.5 200t202.5 85zM299 359q-53 0 -87 -41.5t-34 -99.5q0 -44 26 -69t71 -25q52 0 86.5 42t34.5 99q0 44 -26 69t-71 25zM272 605q0 15 8 23l69 84q11 15 31 15
q17 0 29 -12t12 -29q0 -16 -11 -30l-76 -74q-12 -12 -27 -12t-25 10.5t-10 24.5zM424 605q0 12 8 23l69 84q12 15 32 15q17 0 29 -12t12 -29q0 -18 -12 -30l-75 -74q-12 -12 -27 -12t-25.5 10.5t-10.5 24.5z" />
    <glyph glyph-name="OE" unicode="&#x152;" horiz-adv-x="1073" 
d="M1048 522h-267l-24 -111h228q30 0 51.5 -21.5t21.5 -51.5t-21.5 -51.5t-51.5 -21.5h-260l-27 -120h235q30 0 51.5 -21t21.5 -51t-21.5 -51.5t-51.5 -21.5h-337q-42 0 -65 17.5t-22 45.5q-72 -75 -194 -75q-115 -2 -198 86.5t-81 216.5q-3 165 110.5 276.5t268.5 109.5
q137 0 208 -92l4 16q17 66 96 66h325q30 0 51.5 -21.5t21.5 -51.5q0 -29 -21.5 -50.5t-51.5 -21.5zM544 228l42 190q-18 51 -59.5 79t-98.5 28q-92 0 -152.5 -65.5t-60.5 -157.5q0 -72 45.5 -117t115.5 -45q104 0 168 88z" />
    <glyph glyph-name="oe" unicode="&#x153;" horiz-adv-x="916" 
d="M548 193v-6q0 -26 33 -53t81 -27q36 0 75 13q6 2 17 2q23 0 40 -16.5t17 -39.5q0 -18 -11 -33t-27 -21q-54 -24 -123 -24q-64 0 -116 26t-77 65q-46 -43 -88 -68q-41 -23 -102 -23q-111 0 -179 59t-68 163q-2 111 80.5 199.5t201.5 85.5q60 0 110 -26.5t76 -65.5
q46 46 89 69t100 23q93 0 156 -57.5t63 -160.5q0 -3 -2 -21q-11 -63 -94 -63h-252zM760 299q0 32 -23.5 54.5t-66.5 22.5q-41 0 -71 -27q-30 -25 -36 -56h196q1 1 1 6zM178 218q0 -45 25 -69.5t70 -24.5q50 0 85 41q34 41 34 100q0 46 -26 70t-69 24q-50 0 -84.5 -40.5
t-34.5 -100.5z" />
    <glyph glyph-name="Racute" unicode="&#x154;" horiz-adv-x="661" 
d="M505 239l65 -118q11 -20 11 -41q0 -36 -25.5 -62.5t-62.5 -26.5q-55 0 -80 51l-87 184h-98l-37 -169q-6 -29 -29 -47.5t-54 -18.5q-35 0 -59.5 24t-24.5 59q0 2 2 20l109 493q18 80 100 80h222q90 0 153 -54.5t63 -140.5q0 -84 -48 -148q-46 -62 -120 -85zM293 522
l-33 -150h133q47 0 74 22.5t27 60.5q0 30 -21 48.5t-52 18.5h-128zM446 717q-15 0 -26.5 11.5t-11.5 26.5q0 19 14 30l94 86q14 12 32 12q17 0 30.5 -14t13.5 -33q0 -23 -18 -36l-103 -75q-11 -8 -25 -8z" />
    <glyph glyph-name="racute" unicode="&#x155;" horiz-adv-x="375" 
d="M407 426q0 -33 -20.5 -54.5t-51.5 -21.5h-8q-60 0 -105 -47l-55 -253q-5 -25 -25.5 -42t-47.5 -17q-32 0 -54 21.5t-22 52.5q0 2 2 18l77 345q6 30 26 47.5t50 17.5t49 -20t21 -51q40 71 101 71q28 0 45.5 -18.5t17.5 -48.5zM289 570q-15 0 -26.5 11.5t-11.5 26.5
q0 19 14 30l94 86q13 12 32 12q17 0 30.5 -14t13.5 -33q0 -23 -18 -36l-103 -75q-11 -8 -25 -8z" />
    <glyph glyph-name="uni0156" unicode="&#x156;" horiz-adv-x="661" 
d="M505 239l65 -118q11 -20 11 -41q0 -36 -25.5 -62.5t-62.5 -26.5q-55 0 -80 51l-87 184h-98l-37 -169q-6 -29 -29 -47.5t-54 -18.5q-35 0 -59.5 24t-24.5 59q0 2 2 20l109 493q18 80 100 80h222q90 0 153 -54.5t63 -140.5q0 -84 -48 -148q-46 -62 -120 -85zM293 522
l-33 -150h133q47 0 74 22.5t27 60.5q0 30 -21 48.5t-52 18.5h-128zM202 -287q-12 0 -20 8.5t-8 19.5q0 16 14 24q43 23 56 53q-1 -1 -9 -1q-24 0 -39 15.5t-15 42.5q0 30 24.5 53t54.5 23q29 0 48.5 -19.5t19.5 -51.5q0 -46 -31.5 -90.5t-78.5 -71.5q-15 -5 -16 -5z" />
    <glyph glyph-name="uni0157" unicode="&#x157;" horiz-adv-x="375" 
d="M407 426q0 -33 -20.5 -54.5t-51.5 -21.5h-8q-60 0 -105 -47l-55 -253q-5 -25 -25.5 -42t-47.5 -17q-32 0 -54 21.5t-22 52.5q0 2 2 18l77 345q6 30 26 47.5t50 17.5t49 -20t21 -51q40 71 101 71q28 0 45.5 -18.5t17.5 -48.5zM4 -287q-12 0 -20 8.5t-8 19.5q0 16 14 24
q43 23 56 53q-1 -1 -9 -1q-24 0 -39 15.5t-15 42.5q0 30 24.5 53t54.5 23q29 0 48.5 -19.5t19.5 -51.5q0 -46 -31.5 -90.5t-78.5 -71.5q-15 -5 -16 -5z" />
    <glyph glyph-name="Rcaron" unicode="&#x158;" horiz-adv-x="661" 
d="M505 239l65 -118q11 -20 11 -41q0 -36 -25.5 -62.5t-62.5 -26.5q-55 0 -80 51l-87 184h-98l-37 -169q-6 -29 -29 -47.5t-54 -18.5q-35 0 -59.5 24t-24.5 59q0 2 2 20l109 493q18 80 100 80h222q90 0 153 -54.5t63 -140.5q0 -84 -48 -148q-46 -62 -120 -85zM293 522
l-33 -150h133q47 0 74 22.5t27 60.5q0 30 -21 48.5t-52 18.5h-128zM410 853l42 -67l77 74q14 13 28 13q15 0 25.5 -11t10.5 -26q0 -12 -8 -22l-46 -54q-32 -37 -76 -37h-48q-43 0 -58 36l-24 55q-3 8 -3 16q0 17 12.5 30t30.5 13q23 0 37 -20z" />
    <glyph glyph-name="rcaron" unicode="&#x159;" horiz-adv-x="375" 
d="M407 426q0 -33 -20.5 -54.5t-51.5 -21.5h-8q-60 0 -105 -47l-55 -253q-5 -25 -25.5 -42t-47.5 -17q-32 0 -54 21.5t-22 52.5q0 2 2 18l77 345q6 30 26 47.5t50 17.5t49 -20t21 -51q40 71 101 71q28 0 45.5 -18.5t17.5 -48.5zM253 706l42 -67l77 74q14 13 28 13
q15 0 25.5 -11t10.5 -26q0 -12 -8 -22l-46 -54q-32 -37 -76 -37h-48q-43 0 -58 36l-24 55q-3 7 -3 16q0 17 12.5 30t30.5 13q23 0 37 -20z" />
    <glyph glyph-name="Sacute" unicode="&#x15a;" horiz-adv-x="606" 
d="M14 128q0 33 23.5 56.5t55.5 23.5q27 0 46 -15q84 -58 181 -58q38 0 58.5 16t20.5 39q0 21 -23 36t-77 34q-69 24 -109 44q-110 57 -110 163q0 81 75 145.5t195 64.5q119 0 214 -59q38 -25 38 -67q0 -32 -23 -55t-55 -23q-23 0 -42 13q-70 46 -152 46q-32 0 -52 -14.5
t-20 -36.5q0 -19 22.5 -33.5t76.5 -33.5q98 -32 160 -77q62 -44 62 -124q0 -95 -75 -160t-196 -65q-151 0 -259 75q-35 25 -35 65zM409 717q-15 0 -26.5 11.5t-11.5 26.5q0 19 14 30l94 86q13 12 32 12q17 0 30.5 -14t13.5 -33q0 -23 -18 -36l-103 -75q-11 -8 -25 -8z" />
    <glyph glyph-name="sacute" unicode="&#x15b;" horiz-adv-x="484" 
d="M5 92q0 26 18.5 44t44.5 18q20 0 33 -9q68 -45 138 -45q23 0 37 10.5t14 26.5q0 25 -80 50q-82 26 -121 56t-39 82q0 70 57 120t150 50q92 0 167 -45q30 -17 30 -50q0 -25 -17 -42.5t-42 -17.5q-13 0 -30 9q-54 33 -108 33t-54 -34q0 -22 73 -44q46 -14 83 -30
q85 -38 85 -112q0 -75 -60 -124.5t-159 -49.5q-103 0 -188 51q-32 19 -32 53zM321 570q-15 0 -26.5 11.5t-11.5 26.5q0 19 14 30l94 86q13 12 32 12q17 0 30.5 -14t13.5 -33q0 -23 -18 -36l-103 -75q-11 -8 -25 -8z" />
    <glyph glyph-name="Scircumflex" unicode="&#x15c;" horiz-adv-x="606" 
d="M14 128q0 33 23.5 56.5t55.5 23.5q27 0 46 -15q84 -58 181 -58q38 0 58.5 16t20.5 39q0 21 -23 36t-77 34q-69 24 -109 44q-110 57 -110 163q0 81 75 145.5t195 64.5q119 0 214 -59q38 -25 38 -67q0 -32 -23 -55t-55 -23q-23 0 -42 13q-70 46 -152 46q-32 0 -52 -14.5
t-20 -36.5q0 -19 22.5 -33.5t76.5 -33.5q98 -32 160 -77q62 -44 62 -124q0 -95 -75 -160t-196 -65q-151 0 -259 75q-35 25 -35 65zM464 737l-42 67l-76 -74q-14 -13 -29 -13t-25 10.5t-10 25.5q0 13 8 23l46 54q31 37 75 37h48q44 0 59 -36l24 -55q3 -7 3 -16q0 -17 -13 -30
t-31 -13q-25 0 -37 20z" />
    <glyph glyph-name="scircumflex" unicode="&#x15d;" horiz-adv-x="484" 
d="M5 92q0 26 18.5 44t44.5 18q20 0 33 -9q68 -45 138 -45q23 0 37 10.5t14 26.5q0 25 -80 50q-82 26 -121 56t-39 82q0 70 57 120t150 50q92 0 167 -45q30 -17 30 -50q0 -25 -17 -42.5t-42 -17.5q-13 0 -30 9q-54 33 -108 33t-54 -34q0 -22 73 -44q46 -14 83 -30
q85 -38 85 -112q0 -75 -60 -124.5t-159 -49.5q-103 0 -188 51q-32 19 -32 53zM376 590l-42 67l-76 -74q-14 -13 -29 -13t-25 10.5t-10 25.5q0 13 8 23l46 54q31 37 75 37h48q44 0 59 -36l24 -55q3 -7 3 -16q0 -17 -13 -30t-31 -13q-25 0 -37 20z" />
    <glyph glyph-name="uni015E" unicode="&#x15e;" horiz-adv-x="606" 
d="M258 481q0 -19 22.5 -33.5t76.5 -33.5q98 -32 160 -77q62 -44 62 -124q0 -95 -75 -160t-196 -65q-29 0 -38 1l-24 -38q13 10 30 10q25 0 42 -17.5t17 -46.5q0 -42 -33 -68.5t-82 -26.5q-57 0 -100 25q-18 11 -18 29q0 14 10.5 23.5t23.5 9.5q9 0 17 -5q32 -21 67 -21
q44 0 44 30q0 20 -26 20q-8 0 -18 -6q-7 -4 -17 -4q-13 0 -22 8.5t-9 20.5q0 13 5 18l28 48q-84 18 -156 65q-35 25 -35 65q0 33 23.5 56.5t55.5 23.5q27 0 46 -15q84 -58 181 -58q38 0 58.5 16t20.5 39q0 21 -23 36t-77 34q-69 24 -109 44q-110 57 -110 163q0 81 75 145.5
t195 64.5q119 0 214 -59q38 -25 38 -67q0 -32 -23 -55t-55 -23q-23 0 -42 13q-70 46 -152 46q-32 0 -52 -14.5t-20 -36.5z" />
    <glyph glyph-name="uni015F" unicode="&#x15f;" horiz-adv-x="484" 
d="M444 162q0 -75 -60 -124.5t-159 -49.5h-12l-24 -37q13 10 30 10q25 0 42 -17.5t17 -46.5q0 -42 -33 -68.5t-82 -26.5q-57 0 -100 25q-18 11 -18 29q0 14 10.5 23.5t23.5 9.5q8 0 16 -5q34 -21 68 -21q43 0 43 30q0 20 -25 20q-7 0 -19 -6q-4 -4 -16 -4q-13 0 -22 8.5
t-9 20.5q0 13 5 18l27 46q-59 12 -110 43q-32 19 -32 53q0 26 18.5 44t44.5 18q20 0 33 -9q68 -45 138 -45q23 0 37 10.5t14 26.5q0 25 -80 50q-82 26 -121 56t-39 82q0 70 57 120t150 50q92 0 167 -45q30 -17 30 -50q0 -25 -17 -42.5t-42 -17.5q-13 0 -30 9q-54 33 -108 33
t-54 -34q0 -22 73 -44q46 -14 83 -30q85 -38 85 -112z" />
    <glyph glyph-name="Scaron" unicode="&#x160;" horiz-adv-x="606" 
d="M14 128q0 33 23.5 56.5t55.5 23.5q27 0 46 -15q84 -58 181 -58q38 0 58.5 16t20.5 39q0 21 -23 36t-77 34q-69 24 -109 44q-110 57 -110 163q0 81 75 145.5t195 64.5q119 0 214 -59q38 -25 38 -67q0 -32 -23 -55t-55 -23q-23 0 -42 13q-70 46 -152 46q-32 0 -52 -14.5
t-20 -36.5q0 -19 22.5 -33.5t76.5 -33.5q98 -32 160 -77q62 -44 62 -124q0 -95 -75 -160t-196 -65q-151 0 -259 75q-35 25 -35 65zM373 853l42 -67l77 74q14 13 28 13q15 0 25.5 -11t10.5 -26q0 -12 -8 -22l-46 -54q-32 -37 -76 -37h-48q-43 0 -58 36l-24 55q-3 8 -3 16
q0 17 12.5 30t30.5 13q23 0 37 -20z" />
    <glyph glyph-name="scaron" unicode="&#x161;" horiz-adv-x="484" 
d="M5 92q0 26 18.5 44t44.5 18q20 0 33 -9q68 -45 138 -45q23 0 37 10.5t14 26.5q0 25 -80 50q-82 26 -121 56t-39 82q0 70 57 120t150 50q92 0 167 -45q30 -17 30 -50q0 -25 -17 -42.5t-42 -17.5q-13 0 -30 9q-54 33 -108 33t-54 -34q0 -22 73 -44q46 -14 83 -30
q85 -38 85 -112q0 -75 -60 -124.5t-159 -49.5q-103 0 -188 51q-32 19 -32 53zM285 706l42 -67l77 74q14 13 28 13q15 0 25.5 -11t10.5 -26q0 -12 -8 -22l-46 -54q-32 -37 -76 -37h-48q-43 0 -58 36l-24 55q-3 7 -3 16q0 17 12.5 30t30.5 13q23 0 37 -20z" />
    <glyph glyph-name="uni0162" unicode="&#x162;" 
d="M178 75q0 1 2 19l93 423h-107q-31 0 -53 22t-22 53t22 53t53 22h410q31 0 53 -22t22 -53t-22 -53t-53 -22h-130l-101 -460q-7 -29 -30 -47.5t-53 -18.5q-35 0 -59.5 24.5t-24.5 59.5zM163 -287q-12 0 -20 8.5t-8 19.5q0 16 14 24q43 23 56 53q-1 -1 -9 -1q-24 0 -39 15.5
t-15 42.5q0 30 24.5 53t54.5 23q29 0 48.5 -19.5t19.5 -51.5q0 -46 -31.5 -90.5t-78.5 -71.5q-15 -5 -16 -5z" />
    <glyph glyph-name="uni0163" unicode="&#x163;" horiz-adv-x="360" 
d="M385 417q0 -28 -19.5 -47.5t-47.5 -19.5h-53l-38 -170q-2 -16 -2 -17q0 -36 33 -38q3 0 6 -0.5t4.5 -1t2.5 -0.5q17 -2 30.5 -19t13.5 -38q0 -61 -64 -74q-13 -4 -38 -4q-71 0 -112 30t-41 84q0 20 4 35l47 213h-4q-28 0 -48 19t-20 48q0 27 19.5 46.5t46.5 19.5h36
l18 82q5 25 26 42t47 17q32 0 54 -22t22 -53q0 -1 -2 -17l-11 -49h23q28 0 47.5 -19.5t19.5 -46.5zM37 -287q-12 0 -20 8.5t-8 19.5q0 16 14 24q43 23 56 53q-1 -1 -9 -1q-24 0 -39 15.5t-15 42.5q0 30 24.5 53t54.5 23q29 0 48.5 -19.5t19.5 -51.5q0 -46 -31.5 -90.5
t-78.5 -71.5q-15 -5 -16 -5z" />
    <glyph glyph-name="Tcaron" unicode="&#x164;" 
d="M178 75q0 1 2 19l93 423h-107q-31 0 -53 22t-22 53t22 53t53 22h410q31 0 53 -22t22 -53t-22 -53t-53 -22h-130l-101 -460q-7 -29 -30 -47.5t-53 -18.5q-35 0 -59.5 24.5t-24.5 59.5zM371 853l42 -67l77 74q14 13 28 13q15 0 25.5 -11t10.5 -26q0 -12 -8 -22l-46 -54
q-32 -37 -76 -37h-48q-43 0 -58 36l-24 55q-3 8 -3 16q0 17 12.5 30t30.5 13q23 0 37 -20z" />
    <glyph glyph-name="tcaron" unicode="&#x165;" horiz-adv-x="391" 
d="M385 417q0 -28 -19.5 -47.5t-47.5 -19.5h-53l-38 -170q-2 -16 -2 -17q0 -36 33 -38q3 0 6 -0.5t4.5 -1t2.5 -0.5q17 -2 30.5 -19t13.5 -38q0 -61 -64 -74q-13 -4 -38 -4q-71 0 -112 30t-41 84q0 20 4 35l47 213h-4q-28 0 -48 19t-20 48q0 27 19.5 46.5t46.5 19.5h36
l18 82q5 25 26 42t47 17q32 0 54 -22t22 -53q0 -1 -2 -17l-11 -49h23q28 0 47.5 -19.5t19.5 -46.5zM392 537q-12 0 -20 8.5t-8 19.5q0 16 14 24q43 23 56 53q-1 -1 -9 -1q-24 0 -39 15.5t-15 42.5q0 30 24.5 53t54.5 23q29 0 48.5 -19.5t19.5 -51.5q0 -46 -31.5 -90.5
t-78.5 -71.5q-15 -5 -16 -5z" />
    <glyph glyph-name="Tbar" unicode="&#x166;" 
d="M651 592q0 -31 -22 -53t-53 -22h-130l-41 -185h75q17 0 30 -13t13 -30t-13 -29.5t-30 -12.5h-93l-42 -190q-7 -29 -30 -47.5t-53 -18.5q-35 0 -59.5 24.5t-24.5 59.5q0 1 2 19l34 153h-86q-17 0 -29.5 12.5t-12.5 29.5t12.5 30t29.5 13h104l41 185h-107q-31 0 -53 22
t-22 53t22 53t53 22h410q31 0 53 -22t22 -53z" />
    <glyph glyph-name="tbar" unicode="&#x167;" horiz-adv-x="360" 
d="M385 417q0 -28 -19.5 -47.5t-47.5 -19.5h-53l-14 -65h22q18 0 30.5 -12.5t12.5 -30.5q0 -17 -12.5 -29.5t-30.5 -12.5h-42l-4 -20q-2 -16 -2 -17q0 -36 33 -38q3 0 6 -0.5t4.5 -1t2.5 -0.5q17 -2 30.5 -19t13.5 -38q0 -61 -64 -74q-13 -4 -38 -4q-71 0 -112 30t-41 84
q0 20 4 35l14 63h-35q-18 0 -30.5 12.5t-12.5 29.5q0 18 12.5 30.5t30.5 12.5h54l14 65h-4q-28 0 -48 19t-20 48q0 27 19.5 46.5t46.5 19.5h36l18 82q5 25 26 42t47 17q32 0 54 -22t22 -53q0 -1 -2 -17l-11 -49h23q28 0 47.5 -19.5t19.5 -46.5z" />
    <glyph glyph-name="Utilde" unicode="&#x168;" horiz-adv-x="739" 
d="M65 270l75 339q7 29 30.5 48t53.5 19q36 0 60 -24t24 -59q0 -11 -2 -21l-65 -298q-3 -7 -3 -28q1 -47 33.5 -77.5t88.5 -30.5q119 0 150 136l74 335q7 29 30.5 48t53.5 19q36 0 60 -24t24 -59q0 -11 -2 -21l-66 -301q-31 -139 -108.5 -211t-215.5 -72q-144 0 -222 63.5
t-78 174.5q0 16 5 44zM423 776q-19 0 -30 -32q-9 -26 -37 -26q-16 0 -27 11.5t-11 27.5q0 1 2 11q15 48 41.5 70.5t70.5 22.5q40 0 78 -32q27 -23 44 -23q20 0 31 32q9 26 36 26q17 0 27.5 -10.5t10.5 -27.5q0 -2 -2 -12q-15 -48 -41.5 -70.5t-70.5 -22.5q-24 0 -39.5 7
t-38.5 25q-24 23 -44 23z" />
    <glyph glyph-name="utilde" unicode="&#x169;" horiz-adv-x="592" 
d="M573 418q0 -2 -2 -18l-78 -350q-6 -28 -26 -46.5t-46 -18.5q-32 0 -55 22t-23 53q-39 -36 -75.5 -54t-82.5 -18q-70 0 -112 33.5t-42 92.5q0 22 4 39l62 280q6 26 26.5 42.5t47.5 16.5q33 0 53.5 -21.5t20.5 -55.5q0 -13 -3 -25l-42 -190q-2 -10 -2 -21q0 -55 65 -55
q54 0 104 47l57 262q6 26 26.5 42.5t46.5 16.5q32 0 54 -21.5t22 -52.5zM318 629q-19 0 -30 -32q-9 -26 -37 -26q-16 0 -27 11.5t-11 27.5q0 1 2 11q15 48 41.5 70.5t70.5 22.5q40 0 78 -32q27 -23 44 -23q20 0 31 32q9 26 36 26q17 0 27.5 -10.5t10.5 -27.5q0 -2 -2 -12
q-15 -48 -41.5 -70.5t-70.5 -22.5q-24 0 -39.5 7t-38.5 25q-24 23 -44 23z" />
    <glyph glyph-name="Umacron" unicode="&#x16a;" horiz-adv-x="739" 
d="M65 270l75 339q7 29 30.5 48t53.5 19q36 0 60 -24t24 -59q0 -11 -2 -21l-65 -298q-3 -7 -3 -28q1 -47 33.5 -77.5t88.5 -30.5q119 0 150 136l74 335q7 29 30.5 48t53.5 19q36 0 60 -24t24 -59q0 -11 -2 -21l-66 -301q-31 -139 -108.5 -211t-215.5 -72q-144 0 -222 63.5
t-78 174.5q0 16 5 44zM304 765q0 18 13 30.5t30 12.5h279q17 0 30 -12.5t13 -30.5q0 -17 -13 -29.5t-30 -12.5h-279q-17 0 -30 12.5t-13 29.5z" />
    <glyph glyph-name="umacron" unicode="&#x16b;" horiz-adv-x="592" 
d="M573 418q0 -2 -2 -18l-78 -350q-6 -28 -26 -46.5t-46 -18.5q-32 0 -55 22t-23 53q-39 -36 -75.5 -54t-82.5 -18q-70 0 -112 33.5t-42 92.5q0 22 4 39l62 280q6 26 26.5 42.5t47.5 16.5q33 0 53.5 -21.5t20.5 -55.5q0 -13 -3 -25l-42 -190q-2 -10 -2 -21q0 -55 65 -55
q54 0 104 47l57 262q6 26 26.5 42.5t46.5 16.5q32 0 54 -21.5t22 -52.5zM199 618q0 18 13 30.5t30 12.5h279q17 0 30 -12.5t13 -30.5q0 -17 -13 -29.5t-30 -12.5h-279q-17 0 -30 12.5t-13 29.5z" />
    <glyph glyph-name="Ubreve" unicode="&#x16c;" horiz-adv-x="739" 
d="M65 270l75 339q7 29 30.5 48t53.5 19q36 0 60 -24t24 -59q0 -11 -2 -21l-65 -298q-3 -7 -3 -28q1 -47 33.5 -77.5t88.5 -30.5q119 0 150 136l74 335q7 29 30.5 48t53.5 19q36 0 60 -24t24 -59q0 -11 -2 -21l-66 -301q-31 -139 -108.5 -211t-215.5 -72q-144 0 -222 63.5
t-78 174.5q0 16 5 44zM347 771q-14 17 -14 33q0 19 13.5 32.5t32.5 13.5t33 -14q32 -33 79 -33q54 0 104 40q9 9 25 9t27 -11.5t11 -27.5q0 -19 -14 -30q-80 -65 -168 -65q-78 0 -129 53z" />
    <glyph glyph-name="ubreve" unicode="&#x16d;" horiz-adv-x="592" 
d="M573 418q0 -2 -2 -18l-78 -350q-6 -28 -26 -46.5t-46 -18.5q-32 0 -55 22t-23 53q-39 -36 -75.5 -54t-82.5 -18q-70 0 -112 33.5t-42 92.5q0 22 4 39l62 280q6 26 26.5 42.5t47.5 16.5q33 0 53.5 -21.5t20.5 -55.5q0 -13 -3 -25l-42 -190q-2 -10 -2 -21q0 -55 65 -55
q54 0 104 47l57 262q6 26 26.5 42.5t46.5 16.5q32 0 54 -21.5t22 -52.5zM242 624q-14 17 -14 33q0 19 13.5 32.5t32.5 13.5t33 -14q32 -33 79 -33q54 0 104 40q9 9 25 9t27 -11.5t11 -27.5q0 -19 -14 -30q-80 -65 -168 -65q-78 0 -129 53z" />
    <glyph glyph-name="Uring" unicode="&#x16e;" horiz-adv-x="739" 
d="M65 270l75 339q7 29 30.5 48t53.5 19q36 0 60 -24t24 -59q0 -11 -2 -21l-65 -298q-3 -7 -3 -28q1 -47 33.5 -77.5t88.5 -30.5q119 0 150 136l74 335q7 29 30.5 48t53.5 19q36 0 60 -24t24 -59q0 -11 -2 -21l-66 -301q-31 -139 -108.5 -211t-215.5 -72q-144 0 -222 63.5
t-78 174.5q0 16 5 44zM503 909q44 0 71.5 -27.5t27.5 -71.5q0 -47 -36 -82.5t-83 -35.5q-44 0 -71.5 27.5t-27.5 71.5q0 47 36 82.5t83 35.5zM496 841q-17 0 -30 -13t-13 -30q0 -16 10 -26.5t27 -10.5t30 12.5t13 30.5q0 17 -10.5 27t-26.5 10z" />
    <glyph glyph-name="uring" unicode="&#x16f;" horiz-adv-x="592" 
d="M573 418q0 -2 -2 -18l-78 -350q-6 -28 -26 -46.5t-46 -18.5q-32 0 -55 22t-23 53q-39 -36 -75.5 -54t-82.5 -18q-70 0 -112 33.5t-42 92.5q0 22 4 39l62 280q6 26 26.5 42.5t47.5 16.5q33 0 53.5 -21.5t20.5 -55.5q0 -13 -3 -25l-42 -190q-2 -10 -2 -21q0 -55 65 -55
q54 0 104 47l57 262q6 26 26.5 42.5t46.5 16.5q32 0 54 -21.5t22 -52.5zM398 762q44 0 71.5 -27.5t27.5 -71.5q0 -47 -36 -82.5t-83 -35.5q-44 0 -71.5 27.5t-27.5 71.5q0 47 36 82.5t83 35.5zM391 694q-17 0 -30 -13t-13 -30q0 -16 10 -26.5t27 -10.5t30 12.5t13 30.5
q0 17 -10.5 27t-26.5 10z" />
    <glyph glyph-name="Uhungarumlaut" unicode="&#x170;" horiz-adv-x="739" 
d="M65 270l75 339q7 29 30.5 48t53.5 19q36 0 60 -24t24 -59q0 -11 -2 -21l-65 -298q-3 -7 -3 -28q1 -47 33.5 -77.5t88.5 -30.5q119 0 150 136l74 335q7 29 30.5 48t53.5 19q36 0 60 -24t24 -59q0 -11 -2 -21l-66 -301q-31 -139 -108.5 -211t-215.5 -72q-144 0 -222 63.5
t-78 174.5q0 16 5 44zM386 752q0 15 8 23l69 84q11 15 31 15q17 0 29 -12t12 -29q0 -16 -11 -30l-76 -74q-12 -12 -27 -12t-25 10.5t-10 24.5zM538 752q0 12 8 23l69 84q12 15 32 15q17 0 29 -12t12 -29q0 -18 -12 -30l-75 -74q-12 -12 -27 -12t-25.5 10.5t-10.5 24.5z" />
    <glyph glyph-name="uhungarumlaut" unicode="&#x171;" horiz-adv-x="592" 
d="M573 418q0 -2 -2 -18l-78 -350q-6 -28 -26 -46.5t-46 -18.5q-32 0 -55 22t-23 53q-39 -36 -75.5 -54t-82.5 -18q-70 0 -112 33.5t-42 92.5q0 22 4 39l62 280q6 26 26.5 42.5t47.5 16.5q33 0 53.5 -21.5t20.5 -55.5q0 -13 -3 -25l-42 -190q-2 -10 -2 -21q0 -55 65 -55
q54 0 104 47l57 262q6 26 26.5 42.5t46.5 16.5q32 0 54 -21.5t22 -52.5zM281 605q0 15 8 23l69 84q10 15 31 15q17 0 29 -12t12 -29q0 -16 -11 -30l-76 -74q-12 -12 -27 -12t-25 10.5t-10 24.5zM433 605q0 12 8 23l69 84q12 15 32 15q17 0 29 -12t12 -29q0 -18 -12 -30
l-75 -74q-12 -12 -27 -12t-25.5 10.5t-10.5 24.5z" />
    <glyph glyph-name="Uogonek" unicode="&#x172;" horiz-adv-x="739" 
d="M394 -97h6q16 0 27.5 -12t11.5 -29q0 -14 -9 -25t-22 -14q-32 -9 -77 -9q-46 0 -75.5 17.5t-29.5 49.5q0 38 33.5 66.5t89.5 40.5h-12q-120 2 -198.5 64t-78.5 174q0 16 5 44l75 339q7 29 30.5 48t53.5 19q37 0 60.5 -24.5t23.5 -61.5q0 -2 -2 -18l-65 -298q-3 -7 -3 -28
q1 -47 32.5 -77.5t89.5 -30.5q120 0 150 136l74 335q7 29 30.5 48t53.5 19q37 0 60.5 -24.5t23.5 -61.5q0 -2 -2 -18l-66 -301q-47 -215 -203 -266q-112 -34 -112 -79q0 -21 25 -23z" />
    <glyph glyph-name="uogonek" unicode="&#x173;" horiz-adv-x="592" 
d="M573 418q0 -2 -2 -18l-78 -350q-6 -29 -24.5 -46.5t-44.5 -18.5q-36 -32 -36 -59q0 -18 21 -22l11 -1q16 -2 27 -13.5t11 -27.5q0 -14 -9 -25t-22 -14q-31 -9 -77 -9q-47 0 -76.5 17.5t-29.5 49.5q0 38 32.5 65.5t99.5 52.5q-33 21 -33 61q-39 -36 -75.5 -54t-82.5 -18
q-70 0 -112 33.5t-42 92.5q0 22 4 39l62 280q6 26 26.5 42.5t47.5 16.5q33 0 53.5 -21.5t20.5 -55.5q0 -13 -3 -25l-42 -190q-2 -10 -2 -21q0 -55 65 -55q54 0 104 47l57 262q6 26 26.5 42.5t46.5 16.5q32 0 54 -21.5t22 -52.5z" />
    <glyph glyph-name="Wcircumflex" unicode="&#x174;" horiz-adv-x="923" 
d="M507 101l-7 317l-168 -361q-13 -30 -40.5 -48t-61.5 -18q-44 0 -77 30q-33 33 -34 75l-32 482q-3 40 24 69t67 29q38 0 65 -27t26 -65l3 -362l195 409q20 45 72 45q32 0 55 -22.5t24 -54.5l14 -377l179 401q10 23 32 38t47 15q37 0 62 -26t25 -62q0 -20 -9 -39l-251 -497
q-15 -28 -41 -44.5t-58 -16.5q-46 0 -78 32t-33 78zM628 737l-42 67l-76 -74q-14 -13 -29 -13t-25 10.5t-10 25.5q0 13 8 23l46 54q31 37 75 37h48q44 0 59 -36l24 -55q3 -7 3 -16q0 -17 -13 -30t-31 -13q-25 0 -37 20z" />
    <glyph glyph-name="wcircumflex" unicode="&#x175;" horiz-adv-x="774" 
d="M413 88l-18 211l-131 -251q-13 -26 -38 -41.5t-55 -15.5q-41 0 -71 28t-33 69l-24 323q-2 32 20 56.5t54 24.5q30 0 52 -21.5t24 -51.5l10 -232l140 259q25 46 78 46q34 0 59 -23t28 -57l22 -225l127 263q8 19 26 30.5t40 11.5q29 0 50.5 -22t21.5 -50q0 -16 -9 -33
l-175 -339q-13 -26 -38 -41.5t-55 -15.5q-42 0 -72 28.5t-33 68.5zM509 590l-42 67l-76 -74q-14 -13 -29 -13t-25 10.5t-10 25.5q0 13 8 23l46 54q31 37 75 37h48q44 0 59 -36l24 -55q3 -7 3 -16q0 -17 -13 -30t-31 -13q-25 0 -37 20z" />
    <glyph glyph-name="Ycircumflex" unicode="&#x176;" horiz-adv-x="642" 
d="M677 549l-265 -280l-46 -212q-6 -29 -29 -47.5t-53 -18.5q-35 0 -59.5 24t-24.5 59q0 10 2 20l39 177l-137 288q-8 21 -8 34q0 34 25.5 58.5t61.5 24.5q53 0 79 -57l91 -202l205 229q26 30 61 30q32 0 54.5 -22.5t22.5 -54.5q0 -30 -19 -50zM489 737l-42 67l-76 -74
q-14 -13 -29 -13t-25 10.5t-10 25.5q0 13 8 23l46 54q31 37 75 37h48q44 0 59 -36l24 -55q3 -7 3 -16q0 -17 -13 -30t-31 -13q-25 0 -37 20z" />
    <glyph glyph-name="ycircumflex" unicode="&#x177;" horiz-adv-x="511" 
d="M31 -59h12q36 0 54 26l20 31l-70 404q-1 3 -1 13q0 32 22.5 54.5t55.5 22.5q29 0 50.5 -19.5t25.5 -48.5l33 -247l163 279q19 36 61 36q30 0 50.5 -21.5t20.5 -49.5q0 -21 -10 -37l-280 -453q-42 -69 -88.5 -97.5t-112.5 -29.5h-11q-28 1 -47.5 21t-19.5 48
q0 29 21.5 49.5t50.5 18.5zM389 590l-42 67l-76 -74q-14 -13 -29 -13t-25 10.5t-10 25.5q0 13 8 23l46 54q31 37 75 37h48q44 0 59 -36l24 -55q3 -7 3 -16q0 -17 -13 -30t-31 -13q-25 0 -37 20z" />
    <glyph glyph-name="Ydieresis" unicode="&#x178;" horiz-adv-x="642" 
d="M677 549l-265 -280l-46 -212q-6 -29 -29 -47.5t-53 -18.5q-35 0 -59.5 24t-24.5 59q0 10 2 20l39 177l-137 288q-8 21 -8 34q0 34 25.5 58.5t61.5 24.5q53 0 79 -57l91 -202l205 229q26 30 61 30q32 0 54.5 -22.5t22.5 -54.5q0 -30 -19 -50zM259 778q0 34 27 60
q27 27 62 27q29 0 49 -20t20 -50q0 -34 -27 -61q-28 -26 -62 -26q-29 0 -49 20t-20 50zM472 778q0 34 27 60q27 27 62 27q30 0 50 -20t20 -50q0 -34 -27 -61q-28 -26 -62 -26q-29 0 -49.5 20t-20.5 50z" />
    <glyph glyph-name="Zacute" unicode="&#x179;" horiz-adv-x="596" 
d="M-4 84q0 34 24 58l354 375h-191q-31 0 -53 22t-22 53t22 53t53 22h365q34 0 59 -25t25 -59q0 -32 -23 -58l-356 -375h199q31 0 53 -22t22 -53t-22 -53t-53 -22h-372q-34 0 -59 25t-25 59zM411 717q-15 0 -26.5 11.5t-11.5 26.5q0 19 14 30l94 86q13 12 32 12
q17 0 30.5 -14t13.5 -33q0 -23 -18 -36l-103 -75q-11 -8 -25 -8z" />
    <glyph glyph-name="zacute" unicode="&#x17a;" horiz-adv-x="483" 
d="M-9 68q0 28 21 49l238 232h-115q-27 0 -47 20t-20 47q0 28 20 47.5t47 19.5h287q26 0 45.5 -19t19.5 -46q0 -26 -20 -46l-244 -239h123q28 0 47.5 -19.5t19.5 -47.5q0 -27 -19.5 -46.5t-47.5 -19.5h-287q-28 0 -48 20t-20 48zM323 570q-15 0 -26.5 11.5t-11.5 26.5
q0 19 14 30l94 86q13 12 32 12q17 0 30.5 -14t13.5 -33q0 -23 -18 -36l-103 -75q-11 -8 -25 -8z" />
    <glyph glyph-name="Zdotaccent" unicode="&#x17b;" horiz-adv-x="596" 
d="M-4 84q0 34 24 58l354 375h-191q-31 0 -53 22t-22 53t22 53t53 22h365q34 0 59 -25t25 -59q0 -32 -23 -58l-356 -375h199q31 0 53 -22t22 -53t-22 -53t-53 -22h-372q-34 0 -59 25t-25 59zM339 778q0 35 26.5 61.5t61.5 26.5q30 0 50 -20.5t20 -49.5q0 -34 -27 -61
q-28 -26 -62 -26q-30 0 -49.5 19.5t-19.5 49.5z" />
    <glyph glyph-name="zdotaccent" unicode="&#x17c;" horiz-adv-x="483" 
d="M-9 68q0 28 21 49l238 232h-115q-27 0 -47 20t-20 47q0 28 20 47.5t47 19.5h287q26 0 45.5 -19t19.5 -46q0 -26 -20 -46l-244 -239h123q28 0 47.5 -19.5t19.5 -47.5q0 -27 -19.5 -46.5t-47.5 -19.5h-287q-28 0 -48 20t-20 48zM251 631q0 35 26.5 61.5t61.5 26.5
q30 0 50 -20.5t20 -49.5q0 -34 -27 -61q-28 -26 -62 -26q-30 0 -49.5 19.5t-19.5 49.5z" />
    <glyph glyph-name="Zcaron" unicode="&#x17d;" horiz-adv-x="596" 
d="M-4 84q0 34 24 58l354 375h-191q-31 0 -53 22t-22 53t22 53t53 22h365q34 0 59 -25t25 -59q0 -32 -23 -58l-356 -375h199q31 0 53 -22t22 -53t-22 -53t-53 -22h-372q-34 0 -59 25t-25 59zM375 853l42 -67l77 74q14 13 28 13q15 0 25.5 -11t10.5 -26q0 -12 -8 -22l-46 -54
q-32 -37 -76 -37h-48q-43 0 -58 36l-24 55q-3 8 -3 16q0 17 12.5 30t30.5 13q23 0 37 -20z" />
    <glyph glyph-name="zcaron" unicode="&#x17e;" horiz-adv-x="483" 
d="M-9 68q0 28 21 49l238 232h-115q-27 0 -47 20t-20 47q0 28 20 47.5t47 19.5h287q26 0 45.5 -19t19.5 -46q0 -26 -20 -46l-244 -239h123q28 0 47.5 -19.5t19.5 -47.5q0 -27 -19.5 -46.5t-47.5 -19.5h-287q-28 0 -48 20t-20 48zM287 706l42 -67l77 74q14 13 28 13
q15 0 25.5 -11t10.5 -26q0 -12 -8 -22l-46 -54q-32 -37 -76 -37h-48q-43 0 -58 36l-24 55q-3 7 -3 16q0 17 12.5 30t30.5 13q23 0 37 -20z" />
    <glyph glyph-name="longs" unicode="&#x17f;" horiz-adv-x="349" 
d="M443 616q0 -24 -17 -41t-40 -17q-8 0 -10 1q-3 1 -15 1q-48 0 -60 -51l-101 -459q-5 -25 -26 -42t-47 -17q-32 0 -53.5 22t-21.5 54q0 13 1 16l59 266h-5q-28 0 -47.5 19t-19.5 48q0 28 19.5 47.5t47.5 19.5h34l6 26q19 78 69.5 123t124.5 45q32 0 56 -6q20 -4 33 -19
t13 -36z" />
    <glyph glyph-name="uni018F" unicode="&#x18f;" horiz-adv-x="742" 
d="M744 376q3 -168 -113.5 -279t-280.5 -109q-128 -2 -224 86t-92 227q0 41 26 63.5t70 22.5h419q2 0 16 -2q-8 63 -53.5 102t-114.5 39q-65 0 -114 -43q-21 -18 -50 -18q-32 0 -55 23t-23 55q0 38 31 62q97 73 220 73q142 2 241 -84t97 -218zM537 249h-328
q11 -46 53.5 -77.5t95.5 -31.5q56 0 103.5 29t75.5 80z" />
    <glyph glyph-name="uni0192" unicode="&#x192;" horiz-adv-x="465" 
d="M509 596q0 -30 -22 -51.5t-52 -21.5q-8 0 -11 1q-9 3 -16 3q-47 0 -60 -55l-25 -107h42q28 0 47.5 -19.5t19.5 -47.5t-19.5 -47.5t-47.5 -19.5h-71l-74 -333q-7 -30 -30.5 -49t-53.5 -19q-37 0 -61 25t-24 63q0 13 1 17l66 297q-24 5 -40 23.5t-16 42.5q0 28 20 47.5
t48 19.5h17l32 146q18 78 66.5 122t122.5 44q51 0 93 -17q48 -19 48 -64z" />
    <glyph glyph-name="uni019D" unicode="&#x19d;" horiz-adv-x="740" 
d="M670 676q35 0 59.5 -25t24.5 -61q0 -1 -2 -17l-109 -495q-8 -37 -38 -62t-69 -25q-33 0 -60.5 18t-40.5 48l-164 367l-84 -386q-27 -123 -88.5 -178.5t-170.5 -55.5q-21 0 -28 1q-28 2 -48 22.5t-20 49.5q0 31 23 53t54 20h5q39 0 65.5 24t35.5 67l119 542q8 40 41 66.5
t75 26.5q35 0 64 -19t44 -52l153 -343l76 348q7 29 30 47.5t53 18.5z" />
    <glyph glyph-name="Ohorn" unicode="&#x1a0;" horiz-adv-x="766" 
d="M723 535q45 -71 45 -158q3 -160 -113 -276t-281 -113q-145 0 -241.5 85t-96.5 218q-3 159 113 274.5t281 112.5q168 0 263 -104q47 23 61 54q-1 -1 -8 -1q-21 0 -34.5 14t-13.5 37q0 27 21 47.5t48 20.5q25 0 43 -18t18 -46q0 -42 -29 -83t-76 -64zM589 364q0 72 -47 117
t-122 45q-86 0 -145.5 -65.5t-59.5 -158.5q0 -72 47 -117t122 -45q86 0 145.5 65.5t59.5 158.5z" />
    <glyph glyph-name="ohorn" unicode="&#x1a1;" horiz-adv-x="576" 
d="M513 404q40 -56 40 -132q2 -113 -81.5 -199.5t-202.5 -84.5q-116 0 -182.5 62.5t-66.5 159.5q-2 113 81.5 200t202.5 85q110 0 174 -54q48 23 60 54q-1 -1 -7 -1q-21 0 -34.5 13.5t-13.5 37.5q0 27 21 47t48 20q26 0 43.5 -17.5t17.5 -45.5q0 -40 -28 -80.5t-72 -64.5z
M396 265q0 44 -26 69t-71 25q-53 0 -87 -41.5t-34 -99.5q0 -44 26 -69t71 -25q52 0 86.5 42t34.5 99z" />
    <glyph glyph-name="Uhorn" unicode="&#x1af;" horiz-adv-x="739" 
d="M751 577l-1 -5l-66 -301q-31 -139 -108.5 -211t-215.5 -72q-144 0 -222 63.5t-78 174.5q0 16 5 44l75 339q7 29 30.5 48t53.5 19q37 0 60.5 -24.5t23.5 -61.5q0 -2 -2 -18l-65 -298q-3 -7 -3 -28q1 -47 33.5 -77.5t88.5 -30.5q119 0 150 136l74 335q7 29 30.5 48t53.5 19
q26 0 46.5 -13.5t29.5 -35.5q57 27 72 61q-1 -1 -8 -1q-21 0 -34.5 14t-13.5 37q0 27 21.5 47t48.5 20q26 0 43 -17.5t17 -45.5q0 -52 -38 -95.5t-101 -69.5z" />
    <glyph glyph-name="uhorn" unicode="&#x1b0;" horiz-adv-x="592" 
d="M573 415q0 -1 -2 -15l-78 -350q-6 -28 -26 -46.5t-46 -18.5q-32 0 -55 22t-23 53q-39 -36 -75.5 -54t-82.5 -18q-70 0 -112 33.5t-42 92.5q0 22 4 39l62 280q6 26 26.5 42.5t47.5 16.5q33 0 53.5 -21.5t20.5 -55.5q0 -13 -3 -25l-42 -190q-2 -10 -2 -21q0 -55 65 -55
q54 0 104 47l57 262q6 26 26.5 42.5t46.5 16.5q38 0 61 -29q38 23 48 48q-1 -1 -8 -1q-21 0 -34.5 14t-13.5 38q0 27 21.5 47t48.5 20q26 0 43.5 -17.5t17.5 -46.5q0 -44 -29 -83t-79 -67z" />
    <glyph glyph-name="Gcaron" unicode="&#x1e6;" horiz-adv-x="723" 
d="M694 314q0 -14 -3 -27l-23 -104q-18 -77 -54 -108q-101 -87 -240 -87q-141 -2 -241 83.5t-97 219.5q-2 164 116 276.5t295 110.5q129 0 212 -78q28 -25 28 -63q0 -34 -24 -59t-59 -25q-36 0 -58 24q-49 49 -124 49q-85 0 -146 -65.5t-61 -158.5q0 -68 46.5 -115
t122.5 -47q63 0 115 40l11 56h-71q-29 0 -50.5 21t-21.5 51q0 28 21.5 50t50.5 22h189q32 0 49 -17.5t17 -48.5zM462 853l42 -67l77 74q14 13 28 13q15 0 25.5 -11t10.5 -26q0 -12 -8 -22l-46 -54q-32 -37 -76 -37h-48q-43 0 -58 36l-24 55q-3 8 -3 16q0 17 12.5 30t30.5 13
q23 0 37 -20z" />
    <glyph glyph-name="gcaron" unicode="&#x1e7;" horiz-adv-x="590" 
d="M569 415q0 -12 -1 -15l-80 -357q-28 -133 -105 -186t-171 -53q-112 0 -186 43q-34 19 -34 58q0 27 19.5 46.5t46.5 19.5q19 0 34 -9q52 -32 117 -32q99 0 126 113l8 35q-57 -70 -140 -70q-82 0 -132.5 50t-50.5 145q-2 114 70 204t181 88q42 0 82.5 -18.5t66.5 -51.5v2
q6 28 26.5 46.5t47.5 18.5q32 0 53.5 -22t21.5 -55zM367 189l27 121q-31 49 -102 49q-49 0 -81 -35t-32 -91q0 -39 27 -64t70 -25q51 0 91 45zM342 706l42 -67l77 74q14 13 28 13q15 0 25.5 -11t10.5 -26q0 -12 -8 -22l-46 -54q-32 -37 -76 -37h-48q-43 0 -58 36l-24 55
q-3 7 -3 16q0 17 12.5 30t30.5 13q23 0 37 -20z" />
    <glyph glyph-name="uni01EA" unicode="&#x1ea;" horiz-adv-x="766" 
d="M424 -74q0 -18 21 -22l10 -1q16 -2 27 -13.5t11 -27.5q0 -14 -8.5 -25t-21.5 -14q-31 -9 -77 -9q-47 0 -76.5 17.5t-29.5 49.5q0 35 25.5 59.5t79.5 47.5h-11q-145 0 -241.5 85t-96.5 218q-3 159 113 274.5t281 112.5q143 2 241.5 -83.5t96.5 -217.5q0 -134 -79.5 -238
t-206.5 -137q-58 -39 -58 -76zM384 140q86 0 145.5 65.5t59.5 158.5q0 72 -47 117t-122 45q-86 0 -145.5 -65.5t-59.5 -158.5q0 -72 47 -117t122 -45z" />
    <glyph glyph-name="uni01EB" unicode="&#x1eb;" horiz-adv-x="576" 
d="M303 -74q0 -18 21 -22l11 -1q16 -2 27 -13.5t11 -27.5q0 -14 -9 -25t-22 -14q-31 -9 -77 -9q-47 0 -76.5 17.5t-29.5 49.5q0 35 25.5 59.5t79.5 47.5q-114 1 -179 63t-65 159q-2 113 81.5 200t202.5 85q117 0 183 -62t66 -161q0 -91 -52 -165q-53 -74 -138 -104
q-60 -43 -60 -77zM275 124q52 0 86.5 42t34.5 99q0 44 -26 69t-71 25q-53 0 -87 -41.5t-34 -99.5q0 -44 26 -69t71 -25z" />
    <glyph glyph-name="Aringacute" unicode="&#x1fa;" horiz-adv-x="684" 
d="M634 78q0 -36 -25 -61.5t-61 -25.5q-34 0 -58.5 22.5t-28.5 55.5l-4 40h-273l-41 -74q-24 -44 -73 -44q-34 0 -59 24.5t-25 58.5q0 22 12 43l291 487q21 33 54.5 52.5t71.5 19.5q55 0 96 -36q42 -36 50 -89l72 -460q1 -3 1 -13zM264 254h177l-30 268zM476 909
q44 0 71.5 -27.5t27.5 -71.5q0 -47 -36 -82.5t-83 -35.5q-44 0 -71.5 27.5t-27.5 71.5q0 47 36 82.5t83 35.5zM469 841q-17 0 -30 -13t-13 -30q0 -16 10 -26.5t27 -10.5t30 12.5t13 30.5q0 17 -10.5 27t-26.5 10zM501 929q-15 0 -26.5 11.5t-11.5 26.5q0 19 14 30l94 86
q13 12 32 12q17 0 30.5 -14t13.5 -33q0 -23 -18 -36l-103 -75q-11 -8 -25 -8z" />
    <glyph glyph-name="aringacute" unicode="&#x1fb;" horiz-adv-x="591" 
d="M571 415q0 -12 -1 -15l-78 -350q-15 -66 -80 -66q-27 0 -49.5 20t-26.5 48q-58 -64 -135 -64q-84 0 -132.5 53t-48.5 147q-1 74 28.5 144t89.5 117.5t136 45.5q99 0 147 -70l1 5q6 27 26.5 44.5t47.5 17.5q32 0 53.5 -22.5t21.5 -54.5zM364 169l33 146q-33 44 -96 44
q-53 0 -88 -41q-34 -40 -34 -98q0 -42 27 -69t67 -27q52 0 91 45zM400 762q44 0 71.5 -27.5t27.5 -71.5q0 -47 -36 -82.5t-83 -35.5q-44 0 -71.5 27.5t-27.5 71.5q0 47 36 82.5t83 35.5zM393 694q-17 0 -30 -13t-13 -30q0 -16 10 -26.5t27 -10.5t30 12.5t13 30.5
q0 17 -10.5 27t-26.5 10zM426 782q-15 0 -26.5 11.5t-11.5 26.5q0 19 14 30l94 86q14 12 32 12q17 0 30.5 -14t13.5 -33q0 -23 -18 -36l-103 -75q-11 -8 -25 -8z" />
    <glyph glyph-name="AEacute" unicode="&#x1fc;" horiz-adv-x="966" 
d="M941 522h-267l-24 -111h228q29 0 50.5 -21.5t21.5 -51.5t-21.5 -51.5t-50.5 -21.5h-261l-26 -120h235q30 0 51.5 -21t21.5 -51t-21.5 -51.5t-51.5 -21.5h-337q-85 0 -85 64q0 11 3 25l4 20h-221l-66 -88q-23 -30 -59 -30q-31 0 -52.5 22t-21.5 53q0 23 17 46l412 502
q42 53 111 53h410q30 0 51.5 -21.5t21.5 -51.5q0 -29 -21.5 -50.5t-51.5 -21.5zM299 254h144l58 268zM637 717q-15 0 -26.5 11.5t-11.5 26.5q0 19 14 30l94 86q13 12 32 12q17 0 30.5 -14t13.5 -33q0 -23 -18 -36l-103 -75q-11 -8 -25 -8z" />
    <glyph glyph-name="aeacute" unicode="&#x1fd;" horiz-adv-x="902" 
d="M881 289v-12q-1 -40 -26.5 -62t-69.5 -22h-256v-6q0 -24 35 -50.5t88 -26.5q34 0 67 12q6 2 17 2q25 0 42 -16.5t17 -41.5q0 -18 -10.5 -33t-26.5 -21q-56 -24 -103 -24q-58 0 -99.5 20.5t-60.5 55.5l-3 -14q-5 -26 -25.5 -42.5t-47.5 -16.5q-30 0 -52 20t-24 49
q-61 -72 -142 -72q-84 0 -132.5 53t-48.5 147q-1 74 28.5 144t89.5 117.5t136 45.5q99 0 147 -70l2 7q6 26 26.5 43t47.5 17q28 0 48.5 -17t25.5 -43q60 63 139 63q171 0 171 -206zM744 293v6q0 31 -24 54t-67 23q-39 0 -69 -25t-39 -58h199zM364 169l33 146q-33 44 -96 44
q-53 0 -88 -41q-34 -40 -34 -98q0 -42 27 -69t67 -27q52 0 91 45zM539 570q-15 0 -26.5 11.5t-11.5 26.5q0 19 14 30l94 86q13 12 32 12q17 0 30.5 -14t13.5 -33q0 -23 -18 -36l-103 -75q-11 -8 -25 -8z" />
    <glyph glyph-name="Oslashacute" unicode="&#x1fe;" horiz-adv-x="766" 
d="M768 377q3 -160 -113 -276t-281 -113q-110 0 -196 50l-68 -72q-14 -14 -30 -14t-27 11t-11 27t12 28l64 68q-82 82 -82 205q-3 159 113 274.5t281 112.5q115 0 198 -52l71 75q14 14 29 14q16 0 27 -11t11 -27t-12 -28l-66 -70q80 -82 80 -202zM239 214l273 289
q-41 23 -92 23q-86 0 -145.5 -65.5t-59.5 -158.5q0 -50 24 -88zM589 364q0 49 -22 86l-273 -289q42 -21 90 -21q86 0 145.5 65.5t59.5 158.5zM494 717q-15 0 -26.5 11.5t-11.5 26.5q0 19 14 30l94 86q14 12 32 12q17 0 30.5 -14t13.5 -33q0 -23 -18 -36l-103 -75
q-11 -8 -25 -8z" />
    <glyph glyph-name="oslashacute" unicode="&#x1ff;" horiz-adv-x="576" 
d="M553 272q2 -113 -81.5 -199.5t-202.5 -84.5q-74 0 -129 26l-41 -50q-11 -12 -23 -12t-21 8.5t-9 20.5q0 10 8 20l37 45q-71 60 -71 164q-2 113 81.5 200t202.5 85q78 0 133 -28l42 52q9 12 24 12q11 0 19.5 -8t8.5 -20q0 -10 -8 -20l-39 -47q69 -62 69 -164zM190 167
l152 185q-17 7 -43 7q-53 0 -87 -41.5t-34 -99.5q0 -30 12 -51zM396 265q0 25 -11 49l-150 -184q18 -6 40 -6q52 0 86.5 42t34.5 99zM368 570q-15 0 -26.5 11.5t-11.5 26.5q0 19 14 30l94 86q14 12 32 12q17 0 30.5 -14t13.5 -33q0 -23 -18 -36l-103 -75q-11 -8 -25 -8z" />
    <glyph glyph-name="uni0218" unicode="&#x218;" horiz-adv-x="606" 
d="M14 128q0 33 23.5 56.5t55.5 23.5q27 0 46 -15q84 -58 181 -58q38 0 58.5 16t20.5 39q0 21 -23 36t-77 34q-69 24 -109 44q-110 57 -110 163q0 81 75 145.5t195 64.5q119 0 214 -59q38 -25 38 -67q0 -32 -23 -55t-55 -23q-23 0 -42 13q-70 46 -152 46q-32 0 -52 -14.5
t-20 -36.5q0 -19 22.5 -33.5t76.5 -33.5q98 -32 160 -77q62 -44 62 -124q0 -95 -75 -160t-196 -65q-151 0 -259 75q-35 25 -35 65zM165 -287q-12 0 -20 8.5t-8 19.5q0 16 14 24q43 23 56 53q-1 -1 -9 -1q-24 0 -39 15.5t-15 42.5q0 30 24.5 53t54.5 23q29 0 48.5 -19.5
t19.5 -51.5q0 -46 -31.5 -90.5t-78.5 -71.5q-15 -5 -16 -5z" />
    <glyph glyph-name="uni0219" unicode="&#x219;" horiz-adv-x="484" 
d="M5 92q0 26 18.5 44t44.5 18q20 0 33 -9q68 -45 138 -45q23 0 37 10.5t14 26.5q0 25 -80 50q-82 26 -121 56t-39 82q0 70 57 120t150 50q92 0 167 -45q30 -17 30 -50q0 -25 -17 -42.5t-42 -17.5q-13 0 -30 9q-54 33 -108 33t-54 -34q0 -22 73 -44q46 -14 83 -30
q85 -38 85 -112q0 -75 -60 -124.5t-159 -49.5q-103 0 -188 51q-32 19 -32 53zM108 -287q-12 0 -20 8.5t-8 19.5q0 16 14 24q43 23 56 53q-1 -1 -9 -1q-24 0 -39 15.5t-15 42.5q0 30 24.5 53t54.5 23q29 0 48.5 -19.5t19.5 -51.5q0 -46 -31.5 -90.5t-78.5 -71.5
q-15 -5 -16 -5z" />
    <glyph glyph-name="uni021A" unicode="&#x21a;" 
d="M178 75q0 1 2 19l93 423h-107q-31 0 -53 22t-22 53t22 53t53 22h410q31 0 53 -22t22 -53t-22 -53t-53 -22h-130l-101 -460q-7 -29 -30 -47.5t-53 -18.5q-35 0 -59.5 24.5t-24.5 59.5zM163 -287q-12 0 -20 8.5t-8 19.5q0 16 14 24q43 23 56 53q-1 -1 -9 -1q-24 0 -39 15.5
t-15 42.5q0 30 24.5 53t54.5 23q29 0 48.5 -19.5t19.5 -51.5q0 -46 -31.5 -90.5t-78.5 -71.5q-15 -5 -16 -5z" />
    <glyph glyph-name="uni021B" unicode="&#x21b;" horiz-adv-x="360" 
d="M385 417q0 -28 -19.5 -47.5t-47.5 -19.5h-53l-38 -170q-2 -16 -2 -17q0 -36 33 -38q3 0 6 -0.5t4.5 -1t2.5 -0.5q17 -2 30.5 -19t13.5 -38q0 -61 -64 -74q-13 -4 -38 -4q-71 0 -112 30t-41 84q0 20 4 35l47 213h-4q-28 0 -48 19t-20 48q0 27 19.5 46.5t46.5 19.5h36
l18 82q5 25 26 42t47 17q32 0 54 -22t22 -53q0 -1 -2 -17l-11 -49h23q28 0 47.5 -19.5t19.5 -46.5zM37 -287q-12 0 -20 8.5t-8 19.5q0 16 14 24q43 23 56 53q-1 -1 -9 -1q-24 0 -39 15.5t-15 42.5q0 30 24.5 53t54.5 23q29 0 48.5 -19.5t19.5 -51.5q0 -46 -31.5 -90.5
t-78.5 -71.5q-15 -5 -16 -5z" />
    <glyph glyph-name="uni0232" unicode="&#x232;" horiz-adv-x="642" 
d="M677 549l-265 -280l-46 -212q-6 -29 -29 -47.5t-53 -18.5q-35 0 -59.5 24t-24.5 59q0 10 2 20l39 177l-137 288q-8 21 -8 34q0 34 25.5 58.5t61.5 24.5q53 0 79 -57l91 -202l205 229q26 30 61 30q32 0 54.5 -22.5t22.5 -54.5q0 -30 -19 -50zM257 765q0 18 13 30.5
t30 12.5h279q17 0 30 -12.5t13 -30.5q0 -17 -13 -29.5t-30 -12.5h-279q-17 0 -30 12.5t-13 29.5z" />
    <glyph glyph-name="uni0233" unicode="&#x233;" horiz-adv-x="511" 
d="M31 -59h12q36 0 54 26l20 31l-70 404q-1 3 -1 13q0 32 22.5 54.5t55.5 22.5q29 0 50.5 -19.5t25.5 -48.5l33 -247l163 279q19 36 61 36q30 0 50.5 -21.5t20.5 -49.5q0 -21 -10 -37l-280 -453q-42 -69 -88.5 -97.5t-112.5 -29.5h-11q-28 1 -47.5 21t-19.5 48
q0 29 21.5 49.5t50.5 18.5zM157 618q0 18 13 30.5t30 12.5h279q17 0 30 -12.5t13 -30.5q0 -17 -13 -29.5t-30 -12.5h-279q-17 0 -30 12.5t-13 29.5z" />
    <glyph glyph-name="uni0237" unicode="&#x237;" horiz-adv-x="266" 
d="M-125 -133q0 24 15.5 42.5t36.5 21.5l10 2q51 5 65 71l96 429q6 26 26.5 42.5t46.5 16.5q33 0 53.5 -21t20.5 -54q0 -13 -1 -17l-88 -396q-21 -99 -69.5 -149.5t-132.5 -50.5q-11 0 -14 1q-27 1 -46 18.5t-19 43.5z" />
    <glyph glyph-name="uni0259" unicode="&#x259;" horiz-adv-x="548" 
d="M243 -12q-94 0 -157 57.5t-64 154.5v12q1 34 27 56t68 22h256l1 6q0 25 -33 52.5t-83 27.5q-37 0 -77 -13q-8 -3 -16 -3q-24 0 -40.5 17t-16.5 41q0 39 36 53q61 24 125 24q118 0 187.5 -58.5t69.5 -160.5q2 -116 -81.5 -203t-201.5 -85zM158 190v-7q0 -30 25 -53t67 -23
q39 0 69.5 25t39.5 58h-201z" />
    <glyph glyph-name="uni0272" unicode="&#x272;" horiz-adv-x="593" 
d="M560 368q0 -23 -4 -38l-62 -280q-6 -26 -26.5 -42.5t-46.5 -16.5q-33 0 -54 22t-21 56q0 12 3 24l42 191q3 12 3 22q0 53 -66 53q-56 0 -103 -47l-69 -308q-22 -99 -70 -149.5t-132 -50.5q-11 0 -14 1q-27 1 -46 18.5t-19 43.5q0 24 15.5 42.5t39.5 23.5q11 0 14 1
q44 7 58 70l96 429q6 28 26 46.5t47 18.5q32 0 55 -22t22 -53q41 36 76.5 54t81.5 18q70 0 112 -34t42 -93z" />
    <glyph glyph-name="uni02B0" unicode="&#x2b0;" horiz-adv-x="417" 
d="M291 370q0 9 1 12l27 124q2 10 2 16q0 34 -45 34q-30 0 -62 -32l-36 -165q-4 -18 -19 -30t-33 -12q-22 0 -38 16t-16 38q0 8 1 11l76 345q5 18 20 30t33 12q22 0 37.5 -16t15.5 -38q0 -8 -1 -11l-22 -101q45 45 101 45q50 0 78 -22.5t28 -62.5q0 -14 -4 -29l-38 -175
q-5 -18 -20 -30t-33 -12q-21 0 -37 16t-16 37z" />
    <glyph glyph-name="uni02BC" unicode="&#x2bc;" horiz-adv-x="268" 
d="M146 367q-16 0 -26.5 11t-10.5 27q0 19 17 30q56 38 72 68q-3 -1 -12 -1q-31 0 -51.5 20t-20.5 55q0 40 32 70t72 30q38 0 64 -25.5t26 -67.5q0 -57 -39 -114t-104 -97q-7 -6 -19 -6z" />
    <glyph glyph-name="circumflex" unicode="&#x2c6;" horiz-adv-x="318" 
d="M288 570l-42 67l-76 -74q-14 -13 -29 -13t-25 10.5t-10 25.5q0 13 8 23l46 54q31 37 75 37h48q44 0 59 -36l24 -55q3 -7 3 -16q0 -17 -13 -30t-31 -13q-25 0 -37 20z" />
    <glyph glyph-name="caron" unicode="&#x2c7;" horiz-adv-x="318" 
d="M200 686l42 -67l77 74q14 13 28 13q15 0 25.5 -11t10.5 -26q0 -12 -8 -22l-46 -54q-32 -37 -76 -37h-48q-43 0 -58 36l-24 55q-3 7 -3 16q0 17 12.5 30t30.5 13q23 0 37 -20z" />
    <glyph glyph-name="uni02C9" unicode="&#x2c9;" horiz-adv-x="363" 
d="M86 634q0 17 13 29.5t30 12.5h279q17 0 29.5 -12.5t12.5 -30.5q0 -17 -12.5 -29.5t-29.5 -12.5h-279q-17 0 -30 12.5t-13 30.5z" />
    <glyph glyph-name="uni02CB" unicode="&#x2cb;" horiz-adv-x="263" 
d="M224 565l-64 73q-12 14 -12 32t14.5 32t32.5 14q26 0 39 -20l56 -83q8 -11 8 -21q0 -17 -12 -29t-29 -12q-21 0 -33 14z" />
    <glyph glyph-name="breve" unicode="&#x2d8;" horiz-adv-x="351" 
d="M115 604q-14 17 -14 33q0 19 13.5 32.5t32.5 13.5t33 -14q31 -33 79 -33q54 0 104 40q9 9 25 9t27 -11.5t11 -27.5q0 -19 -14 -30q-80 -65 -168 -65q-78 0 -129 53z" />
    <glyph glyph-name="dotaccent" unicode="&#x2d9;" horiz-adv-x="176" 
d="M93 611q0 35 26.5 61.5t61.5 26.5q30 0 50 -20.5t20 -49.5q0 -34 -27 -61q-28 -26 -62 -26q-30 0 -49.5 19.5t-19.5 49.5z" />
    <glyph glyph-name="ring" unicode="&#x2da;" horiz-adv-x="258" 
d="M226 742q44 0 71.5 -27.5t27.5 -71.5q0 -47 -36 -82.5t-83 -35.5q-44 0 -71.5 27.5t-27.5 71.5q0 47 36 82.5t83 35.5zM219 674q-17 0 -30 -13t-13 -30q0 -16 10 -26.5t27 -10.5t30 12.5t13 30.5q0 17 -10.5 27t-26.5 10z" />
    <glyph glyph-name="ogonek" unicode="&#x2db;" horiz-adv-x="237" 
d="M112 -177q-33 -9 -77 -9q-47 0 -76.5 17.5t-29.5 49.5q0 40 33.5 67.5t106.5 53.5q48 16 72 16q6 0 6 -2q0 -3 -8 -8q-67 -45 -67 -82q0 -18 22 -22l10 -1q16 -2 27 -13.5t11 -27.5q0 -14 -8.5 -25t-21.5 -14z" />
    <glyph glyph-name="tilde" unicode="&#x2dc;" horiz-adv-x="334" 
d="M185 609q-19 0 -30 -32q-9 -26 -37 -26q-16 0 -27 11.5t-11 27.5q0 1 2 11q15 48 41.5 70.5t70.5 22.5q40 0 78 -32q27 -23 44 -23q20 0 31 32q9 26 36 26q17 0 27.5 -10.5t10.5 -27.5q0 -2 -2 -12q-15 -48 -41.5 -70.5t-70.5 -22.5q-24 0 -39.5 7t-38.5 25
q-24 23 -44 23z" />
    <glyph glyph-name="hungarumlaut" unicode="&#x2dd;" horiz-adv-x="355" 
d="M100 585q0 15 8 23l69 84q11 15 31 15q17 0 29 -12t12 -29q0 -16 -11 -30l-76 -74q-12 -12 -27 -12t-25 10.5t-10 24.5zM252 585q0 12 8 23l69 84q12 15 32 15q17 0 29 -12t12 -29q0 -18 -12 -30l-75 -74q-12 -12 -27 -12t-25.5 10.5t-10.5 24.5z" />
    <glyph glyph-name="gravecomb" unicode="&#x300;" horiz-adv-x="0" 
d="M-39 565l-64 73q-12 14 -12 32t14.5 32t32.5 14q26 0 39 -20l56 -83q8 -11 8 -21q0 -17 -12 -29t-29 -12q-21 0 -33 14z" />
    <glyph glyph-name="acutecomb" unicode="&#x301;" horiz-adv-x="0" 
d="M-107 550q-15 0 -26.5 11.5t-11.5 26.5q0 19 14 30l94 86q13 12 32 12q17 0 30.5 -14t13.5 -33q0 -23 -18 -36l-103 -75q-11 -8 -25 -8z" />
    <glyph glyph-name="uni0302" unicode="&#x302;" horiz-adv-x="0" 
d="M-30 570l-42 67l-76 -74q-14 -13 -29 -13t-25 10.5t-10 25.5q0 13 8 23l46 54q31 37 75 37h48q44 0 59 -36l24 -55q3 -7 3 -16q0 -17 -13 -30t-31 -13q-25 0 -37 20z" />
    <glyph glyph-name="tildecomb" unicode="&#x303;" horiz-adv-x="0" 
d="M-149 609q-19 0 -30 -32q-9 -26 -37 -26q-16 0 -27 11.5t-11 27.5q0 1 2 11q15 48 41.5 70.5t70.5 22.5q40 0 78 -32q27 -23 44 -23q20 0 31 32q9 26 36 26q17 0 27.5 -10.5t10.5 -27.5q0 -2 -2 -12q-15 -48 -41.5 -70.5t-70.5 -22.5q-24 0 -39.5 7t-38.5 25
q-24 23 -44 23z" />
    <glyph glyph-name="uni0304" unicode="&#x304;" horiz-adv-x="0" 
d="M-284 598q0 18 13 30.5t30 12.5h279q17 0 30 -12.5t13 -30.5q0 -17 -13 -29.5t-30 -12.5h-279q-17 0 -30 12.5t-13 29.5z" />
    <glyph glyph-name="uni0306" unicode="&#x306;" horiz-adv-x="0" 
d="M-236 604q-14 17 -14 33q0 19 13.5 32.5t32.5 13.5t33 -14q32 -33 79 -33q54 0 104 40q9 9 25 9t27 -11.5t11 -27.5q0 -19 -14 -30q-80 -65 -168 -65q-78 0 -129 53z" />
    <glyph glyph-name="uni0307" unicode="&#x307;" horiz-adv-x="0" 
d="M-83 611q0 35 26.5 61.5t61.5 26.5q30 0 50 -20.5t20 -49.5q0 -34 -27 -61q-28 -26 -62 -26q-30 0 -49.5 19.5t-19.5 49.5z" />
    <glyph glyph-name="uni0308" unicode="&#x308;" horiz-adv-x="0" 
d="M-316 611q0 35 27 60q27 27 62 27q29 0 49 -20t20 -50q0 -34 -27 -61q-28 -26 -62 -26q-29 0 -49 20t-20 50zM-103 611q0 35 27 60q27 27 62 27q30 0 50 -20t20 -50q0 -34 -27 -61q-28 -26 -62 -26q-29 0 -49.5 20t-20.5 50z" />
    <glyph glyph-name="uni0309" unicode="&#x309;" horiz-adv-x="0" 
d="M-1 585q0 2 2 12q5 13 5 26t-9 21.5t-22 8.5q-21 0 -34 -15q-8 -11 -23 -11q-14 0 -23.5 9.5t-9.5 23.5q0 15 10 22q34 34 88 34q41 0 71 -22.5t30 -59.5q0 -28 -20 -66q-10 -18 -30 -18q-14 0 -24.5 10.5t-10.5 24.5z" />
    <glyph glyph-name="uni030A" unicode="&#x30a;" horiz-adv-x="0" 
d="M-32 742q44 0 71.5 -27.5t27.5 -71.5q0 -47 -36 -82.5t-83 -35.5q-44 0 -71.5 27.5t-27.5 71.5q0 47 36 82.5t83 35.5zM-39 674q-17 0 -30 -13t-13 -30q0 -16 10 -26.5t27 -10.5t30 12.5t13 30.5q0 17 -10.5 27t-26.5 10z" />
    <glyph glyph-name="uni030B" unicode="&#x30b;" horiz-adv-x="0" 
d="M-255 585q0 15 8 23l69 84q11 15 31 15q17 0 29 -12t12 -29q0 -16 -11 -30l-76 -74q-12 -12 -27 -12t-25 10.5t-10 24.5zM-103 585q0 12 8 23l69 84q12 15 32 15q17 0 29 -12t12 -29q0 -18 -12 -30l-75 -74q-12 -12 -27 -12t-25.5 10.5t-10.5 24.5z" />
    <glyph glyph-name="uni030C" unicode="&#x30c;" horiz-adv-x="0" 
d="M-118 686l42 -67l77 74q14 13 28 13q15 0 25.5 -11t10.5 -26q0 -12 -8 -22l-46 -54q-32 -37 -76 -37h-48q-43 0 -58 36l-24 55q-3 7 -3 16q0 17 12.5 30t30.5 13q23 0 37 -20z" />
    <glyph glyph-name="dotbelowcomb" unicode="&#x323;" horiz-adv-x="0" 
d="M-248 -129q0 34 27 61t62 27q29 0 49.5 -20.5t20.5 -49.5q0 -35 -27 -60q-28 -27 -63 -27q-29 0 -49 19.5t-20 49.5z" />
    <glyph glyph-name="uni0326" unicode="&#x326;" horiz-adv-x="0" 
d="M-266 -287q-12 0 -20 8.5t-8 19.5q0 16 14 24q43 23 56 53q-1 -1 -9 -1q-24 0 -39 15.5t-15 42.5q0 30 24.5 53t54.5 23q29 0 48.5 -19.5t19.5 -51.5q0 -46 -31.5 -90.5t-78.5 -71.5q-15 -5 -16 -5z" />
    <glyph glyph-name="uni0327" unicode="&#x327;" horiz-adv-x="0" 
d="M-311 -144q0 14 10 23.5t23 9.5q9 0 17 -5q32 -21 67 -21q44 0 44 30q0 20 -26 20q-8 0 -18 -6q-7 -4 -16 -4q-13 0 -22 8.5t-9 20.5q0 14 4 18l36 61h72l-39 -60q16 10 30 10q27 0 43.5 -17.5t16.5 -46.5q0 -42 -33 -68.5t-83 -26.5q-57 0 -100 25q-17 11 -17 29z" />
    <glyph glyph-name="uni0328" unicode="&#x328;" horiz-adv-x="0" 
d="M-125 -177q-33 -9 -77 -9q-47 0 -76.5 17.5t-29.5 49.5q0 40 33.5 67.5t106.5 53.5q48 16 72 16q6 0 6 -2q0 -3 -8 -8q-67 -45 -67 -82q0 -18 22 -22l10 -1q16 -2 27 -13.5t11 -27.5q0 -14 -8.5 -25t-21.5 -14z" />
    <glyph glyph-name="uni037E" unicode="&#x37e;" horiz-adv-x="270" 
d="M176 491q36 0 61 -25.5t25 -61.5q0 -42 -30.5 -72t-72.5 -30q-36 0 -61 25.5t-25 61.5q0 41 31 71q31 31 72 31zM35 -133q-16 0 -26 10.5t-10 26.5q0 19 17 31q55 35 71 68q-2 -1 -12 -1q-31 0 -51 20t-20 55q0 41 31 69q31 30 72 30q38 0 64 -25t26 -68q0 -57 -39 -114
t-103 -97q-12 -5 -20 -5z" />
    <glyph glyph-name="tonos" unicode="&#x384;" horiz-adv-x="155" 
d="M85 579q0 2 2 10l50 152q5 15 18 25t28 10q21 0 36 -14.5t15 -34.5q0 -13 -7 -23l-80 -140q-11 -18 -28 -18q-14 0 -24 9.5t-10 23.5z" />
    <glyph glyph-name="dieresistonos" unicode="&#x385;" horiz-adv-x="486" 
d="M271 578q0 1 2 11l49 152q5 15 18 25t29 10q21 0 35.5 -14.5t14.5 -34.5q0 -14 -6 -23l-80 -140q-11 -18 -29 -18q-13 0 -23 9.5t-10 22.5zM90 611q0 35 27 60q27 27 62 27q29 0 49 -20t20 -50q0 -34 -27 -60.5t-61 -26.5q-30 0 -50 20t-20 50zM405 611q0 35 27 60
q27 27 62 27q30 0 50 -20t20 -50q0 -34 -27 -61q-28 -26 -62 -26q-30 0 -50 20t-20 50z" />
    <glyph glyph-name="Alphatonos" unicode="&#x386;" horiz-adv-x="684" 
d="M634 78q0 -36 -25 -61.5t-61 -25.5q-34 0 -58.5 22.5t-28.5 55.5l-4 40h-273l-41 -74q-24 -44 -73 -44q-34 0 -59 24.5t-25 58.5q0 22 12 43l291 487q21 33 54.5 52.5t71.5 19.5q55 0 96 -36q42 -36 50 -89l72 -460q1 -3 1 -13zM264 254h177l-30 268zM72 482q0 2 2 10
l50 152q5 15 18 25t28 10q21 0 36 -14.5t15 -34.5q0 -13 -7 -23l-80 -140q-10 -18 -28 -18q-14 0 -24 9.5t-10 23.5z" />
    <glyph glyph-name="Epsilontonos" unicode="&#x388;" horiz-adv-x="660" 
d="M95 74q0 12 3 27l107 486q18 80 100 80h325q30 0 51.5 -21.5t21.5 -51.5q0 -29 -21.5 -50.5t-51.5 -21.5h-267l-24 -111h228q30 0 51 -21.5t21 -51.5t-21 -51.5t-51 -21.5h-260l-27 -120h235q30 0 51.5 -21t21.5 -51t-21.5 -51.5t-51.5 -21.5h-337q-40 0 -61.5 19.5
t-21.5 54.5zM35 482q0 2 2 10l50 152q5 15 18 25t28 10q21 0 36 -14.5t15 -34.5q0 -13 -7 -23l-80 -140q-11 -18 -28 -18q-14 0 -24 9.5t-10 23.5z" />
    <glyph glyph-name="Etatonos" unicode="&#x389;" horiz-adv-x="811" 
d="M544 77q0 1 2 17l38 174h-277l-46 -211q-6 -29 -29 -47.5t-54 -18.5q-36 0 -59.5 25t-23.5 62q0 12 1 16l114 516q7 29 29.5 47.5t52.5 18.5q36 0 60 -25t24 -62q0 -12 -1 -16l-35 -155h277l42 192q7 29 30 47.5t53 18.5q36 0 59.5 -25t23.5 -62q0 -12 -1 -16l-114 -516
q-6 -29 -29 -47.5t-53 -18.5q-35 0 -59.5 25t-24.5 61zM35 482q0 2 2 10l50 152q5 15 18 25t28 10q21 0 36 -14.5t15 -34.5q0 -13 -7 -23l-80 -140q-11 -18 -28 -18q-14 0 -24 9.5t-10 23.5z" />
    <glyph glyph-name="Iotatonos" unicode="&#x38a;" horiz-adv-x="362" 
d="M94 76q0 2 2 18l114 516q7 29 29.5 47.5t52.5 18.5q36 0 60.5 -24.5t24.5 -59.5q0 -1 -2 -19l-114 -516q-6 -29 -29 -47.5t-53 -18.5q-35 0 -60 25t-25 60zM35 482q0 2 2 10l50 152q5 15 18 25t28 10q21 0 36 -14.5t15 -34.5q0 -13 -7 -23l-80 -140q-11 -18 -28 -18
q-14 0 -24 9.5t-10 23.5z" />
    <glyph glyph-name="Omicrontonos" unicode="&#x38c;" horiz-adv-x="836" 
d="M500 678q143 2 241.5 -83.5t96.5 -217.5q3 -160 -113 -276t-281 -113q-145 0 -241.5 85t-96.5 218q-3 159 113 274.5t281 112.5zM490 526q-86 0 -145.5 -65.5t-59.5 -158.5q0 -72 47 -117t122 -45q86 0 145.5 65.5t59.5 158.5q0 72 -47 117t-122 45zM34 482q0 2 2 10
l50 152q5 15 18 25t28 10q21 0 36 -14.5t15 -34.5q0 -13 -7 -23l-80 -140q-10 -18 -28 -18q-14 0 -24 9.5t-10 23.5z" />
    <glyph glyph-name="Upsilontonos" unicode="&#x38e;" horiz-adv-x="754" 
d="M776 549l-265 -280l-46 -212q-6 -29 -29 -47.5t-53 -18.5q-35 0 -59.5 24t-24.5 59q0 10 2 20l39 177l-137 288q-8 21 -8 34q0 34 25.5 58.5t61.5 24.5q53 0 79 -57l91 -202l205 229q25 30 61 30q32 0 54.5 -22.5t22.5 -54.5q0 -30 -19 -50zM34 482q0 2 2 10l50 152
q5 15 18 25t28 10q21 0 36 -14.5t15 -34.5q0 -13 -7 -23l-80 -140q-10 -18 -28 -18q-14 0 -24 9.5t-10 23.5z" />
    <glyph glyph-name="Omegatonos" unicode="&#x38f;" horiz-adv-x="845" 
d="M772 75q0 -31 -22 -53t-53 -22h-135q-35 0 -60 25t-25 60q0 57 53 79q65 25 101.5 79.5t36.5 123.5q0 72 -44.5 115t-122.5 43q-90 0 -147.5 -66.5t-57.5 -153.5q0 -79 54 -127q32 -30 32 -76q0 -42 -30 -72t-72 -30h-126q-31 0 -53 22t-22 53t22 53t53 22h79
q-103 79 -103 210q-1 57 24.5 113.5t72.5 103t121 74.5t161 27q146 2 245.5 -74t98.5 -200q0 -90 -52 -155q-51 -64 -116 -99h12q31 0 53 -22t22 -53zM34 482q0 2 2 10l50 152q5 15 18 25t28 10q21 0 36 -14.5t15 -34.5q0 -13 -7 -23l-80 -140q-10 -18 -28 -18
q-14 0 -24 9.5t-10 23.5z" />
    <glyph glyph-name="iotadieresistonos" unicode="&#x390;" horiz-adv-x="280" 
d="M31 130l69 303q6 25 26.5 42t46.5 17q31 0 53 -21.5t22 -52.5q0 -2 -2 -18l-54 -238l-2 -12q0 -14 12 -21q10 -7 18 -15q18 -23 18 -49q0 -27 -17.5 -49t-43.5 -26q-14 -2 -30 -2q-121 0 -121 99q0 21 5 43zM187 598q0 1 2 11l49 152q5 15 18 25t29 10q21 0 35.5 -14.5
t14.5 -34.5q0 -14 -6 -23l-80 -140q-11 -18 -29 -18q-13 0 -23 9.5t-10 22.5zM6 631q0 35 27 60q27 27 62 27q29 0 49 -20t20 -50q0 -34 -27 -60.5t-61 -26.5q-30 0 -50 20t-20 50zM321 631q0 35 27 60q27 27 62 27q30 0 50 -20t20 -50q0 -34 -27 -61q-28 -26 -62 -26
q-30 0 -50 20t-20 50z" />
    <glyph glyph-name="Alpha" unicode="&#x391;" horiz-adv-x="684" 
d="M634 78q0 -36 -25 -61.5t-61 -25.5q-34 0 -58.5 22.5t-28.5 55.5l-4 40h-273l-41 -74q-24 -44 -73 -44q-34 0 -59 24.5t-25 58.5q0 22 12 43l291 487q21 33 54.5 52.5t71.5 19.5q55 0 96 -36q42 -36 50 -89l72 -460q1 -3 1 -13zM264 254h177l-30 268z" />
    <glyph glyph-name="Beta" unicode="&#x392;" horiz-adv-x="680" 
d="M25 74q0 12 3 27l107 486q18 80 100 80h265q87 0 137.5 -48t50.5 -115q0 -64 -46 -115.5t-105 -56.5q44 -12 69.5 -49.5t25.5 -83.5q0 -81 -60 -140t-175 -59h-289q-40 0 -61.5 19.5t-21.5 54.5zM450 524h-156l-26 -115h164q36 0 54 18.5t18 47.5q0 21 -15 35t-39 14z
M403 267h-166l-28 -124h170q36 0 58.5 19.5t22.5 49.5q0 24 -15.5 39.5t-41.5 15.5z" />
    <glyph glyph-name="Gamma" unicode="&#x393;" horiz-adv-x="567" 
d="M25 78q0 13 1 16l109 493q18 80 100 80h322q31 0 53 -22t22 -53t-22 -53t-53 -22h-265l-101 -460q-6 -29 -29 -47.5t-54 -18.5q-35 0 -59 25.5t-24 61.5z" />
    <glyph glyph-name="uni0394" unicode="&#x394;" horiz-adv-x="697" 
d="M-17 58q0 23 17 51l296 495q19 33 52.5 52.5t73.5 19.5q56 0 96 -36q42 -37 49 -89l72 -453q2 -18 2 -20q0 -78 -86 -78h-493q-37 0 -58 15.5t-21 42.5zM412 497l-193 -347h235z" />
    <glyph glyph-name="Epsilon" unicode="&#x395;" 
d="M25 74q0 12 3 27l107 486q18 80 100 80h325q30 0 51.5 -21.5t21.5 -51.5q0 -29 -21.5 -50.5t-51.5 -21.5h-267l-24 -111h228q30 0 51 -21.5t21 -51.5t-21 -51.5t-51 -21.5h-260l-27 -120h235q30 0 51.5 -21t21.5 -51t-21.5 -51.5t-51.5 -21.5h-337q-40 0 -61.5 19.5
t-21.5 54.5z" />
    <glyph glyph-name="Zeta" unicode="&#x396;" horiz-adv-x="596" 
d="M-4 84q0 34 24 58l354 375h-191q-31 0 -53 22t-22 53t22 53t53 22h365q34 0 59 -25t25 -59q0 -32 -23 -58l-356 -375h199q31 0 53 -22t22 -53t-22 -53t-53 -22h-372q-34 0 -59 25t-25 59z" />
    <glyph glyph-name="Eta" unicode="&#x397;" horiz-adv-x="741" 
d="M474 77q0 1 2 17l38 174h-277l-46 -211q-6 -29 -29 -47.5t-54 -18.5q-36 0 -59.5 25t-23.5 62q0 12 1 16l114 516q7 29 29.5 47.5t52.5 18.5q36 0 60 -25t24 -62q0 -12 -1 -16l-35 -155h277l42 192q7 29 30 47.5t53 18.5q36 0 59.5 -25t23.5 -62q0 -12 -1 -16l-114 -516
q-6 -29 -29 -47.5t-53 -18.5q-35 0 -59.5 25t-24.5 61z" />
    <glyph glyph-name="Theta" unicode="&#x398;" horiz-adv-x="766" 
d="M430 678q143 2 241.5 -83.5t96.5 -217.5q3 -160 -113 -276t-281 -113q-145 0 -241.5 85t-96.5 218q-3 159 113 274.5t281 112.5zM420 526q-86 0 -145.5 -65.5t-59.5 -158.5q0 -72 47 -117t122 -45q86 0 145.5 65.5t59.5 158.5q0 72 -47 117t-122 45zM249 338
q0 31 22.5 53t53.5 22h152q31 0 53 -21.5t22 -52.5q0 -32 -22 -54t-53 -22h-152q-31 0 -53.5 22t-22.5 53z" />
    <glyph glyph-name="Iota" unicode="&#x399;" horiz-adv-x="292" 
d="M24 76q0 2 2 18l114 516q7 29 29.5 47.5t52.5 18.5q36 0 60.5 -24.5t24.5 -59.5q0 -1 -2 -19l-114 -516q-6 -29 -29 -47.5t-53 -18.5q-35 0 -60 25t-25 60z" />
    <glyph glyph-name="Kappa" unicode="&#x39a;" horiz-adv-x="641" 
d="M664 600q0 -34 -23 -54l-225 -191l155 -235q10 -14 10 -41q0 -37 -25.5 -62.5t-61.5 -25.5q-48 0 -79 51l-131 216l-63 -63l-30 -138q-6 -29 -29 -47.5t-53 -18.5q-35 0 -60 25t-25 60q0 2 2 18l114 516q7 29 29.5 47.5t52.5 18.5q36 0 60.5 -24.5t24.5 -59.5
q0 -1 -2 -19l-37 -168l266 247q25 24 55 24q31 0 53 -22.5t22 -53.5z" />
    <glyph glyph-name="Lambda" unicode="&#x39b;" horiz-adv-x="697" 
d="M460 72l-48 425l-253 -460q-25 -46 -77 -46q-36 0 -61.5 26t-25.5 62q0 22 12 43l289 482q19 33 52.5 52.5t73.5 19.5q56 0 96 -36q42 -37 49 -89l72 -455q1 -3 1 -13q0 -38 -26.5 -65t-63.5 -27q-35 0 -61 23.5t-29 57.5z" />
    <glyph glyph-name="Mu" unicode="&#x39c;" horiz-adv-x="877" 
d="M610 77q0 1 2 17l77 350l-257 -429q-14 -24 -43 -24q-18 0 -31.5 12t-16.5 30l-65 411l-85 -387q-6 -29 -29 -47.5t-54 -18.5q-35 0 -59.5 24.5t-24.5 59.5q0 1 2 19l105 473q10 47 47.5 78t86.5 31q53 0 90 -34q40 -35 47 -84l41 -263l188 315q40 66 115 66
q56 0 95 -39.5t39 -95.5q0 -13 -3 -28l-101 -456q-6 -29 -29 -47.5t-53 -18.5q-35 0 -59.5 25t-24.5 61z" />
    <glyph glyph-name="Nu" unicode="&#x39d;" horiz-adv-x="740" 
d="M435 57l-164 367l-80 -367q-6 -29 -29 -47.5t-54 -18.5q-35 0 -59.5 24.5t-24.5 59.5q0 1 2 19l108 489q9 40 41.5 66.5t74.5 26.5q35 0 64 -19t44 -52l153 -343l76 348q7 29 29.5 47.5t52.5 18.5q36 0 60.5 -24.5t24.5 -59.5q0 -1 -2 -19l-109 -495q-8 -37 -38 -62
t-69 -25q-33 0 -60.5 18t-40.5 48z" />
    <glyph glyph-name="Xi" unicode="&#x39e;" horiz-adv-x="631" 
d="M114 594q0 30 21.5 51.5t51.5 21.5h415q30 0 51.5 -21.5t21.5 -51.5q0 -29 -21.5 -50.5t-51.5 -21.5h-415q-30 0 -51.5 21.5t-21.5 50.5zM64 338q0 30 21.5 51.5t51.5 21.5h402q29 0 50.5 -21.5t21.5 -51.5t-21.5 -51.5t-50.5 -21.5h-402q-30 0 -51.5 21.5t-21.5 51.5z
M0 72q0 31 21.5 52t51.5 21h415q30 0 51 -21t21 -52q0 -29 -21.5 -50.5t-50.5 -21.5h-415q-30 0 -51.5 21.5t-21.5 50.5z" />
    <glyph glyph-name="Omicron" unicode="&#x39f;" horiz-adv-x="766" 
d="M430 678q143 2 241.5 -83.5t96.5 -217.5q3 -160 -113 -276t-281 -113q-145 0 -241.5 85t-96.5 218q-3 159 113 274.5t281 112.5zM420 526q-86 0 -145.5 -65.5t-59.5 -158.5q0 -72 47 -117t122 -45q86 0 145.5 65.5t59.5 158.5q0 72 -47 117t-122 45z" />
    <glyph glyph-name="Pi" unicode="&#x3a0;" horiz-adv-x="741" 
d="M474 77q0 1 2 17l93 423h-277l-101 -460q-6 -29 -29 -47.5t-54 -18.5q-35 0 -59 25.5t-24 61.5q0 13 1 16l109 493q18 80 100 80h437q40 0 61.5 -18.5t21.5 -52.5q0 -14 -3 -29l-112 -510q-6 -29 -29 -47.5t-53 -18.5q-35 0 -59.5 25t-24.5 61z" />
    <glyph glyph-name="Rho" unicode="&#x3a1;" horiz-adv-x="643" 
d="M24 75q0 1 2 19l109 493q18 80 100 80h230q92 0 149.5 -55t57.5 -136q0 -44 -15.5 -87t-48 -82.5t-90 -63t-132.5 -22.5h-159l-36 -164q-6 -29 -29 -47.5t-54 -18.5q-35 0 -59.5 24.5t-24.5 59.5zM494 458q0 29 -20 46.5t-53 17.5h-128l-33 -150h133q46 0 73.5 24
t27.5 62z" />
    <glyph glyph-name="Sigma" unicode="&#x3a3;" horiz-adv-x="584" 
d="M248 150h192q31 0 53 -22t22 -53t-22 -53t-53 -22h-322q-41 0 -71 30t-30 72q0 48 39 79l213 175l-124 149q-23 29 -23 64q0 41 28.5 69.5t68.5 28.5h335q31 0 53 -22t22 -53t-22 -53t-53 -22h-226l88 -112q27 -30 27 -60q0 -37 -39 -67z" />
    <glyph glyph-name="Tau" unicode="&#x3a4;" 
d="M178 75q0 1 2 19l93 423h-107q-31 0 -53 22t-22 53t22 53t53 22h410q31 0 53 -22t22 -53t-22 -53t-53 -22h-130l-101 -460q-7 -29 -30 -47.5t-53 -18.5q-35 0 -59.5 24.5t-24.5 59.5z" />
    <glyph glyph-name="Upsilon" unicode="&#x3a5;" horiz-adv-x="642" 
d="M677 549l-265 -280l-46 -212q-6 -29 -29 -47.5t-53 -18.5q-35 0 -59.5 24t-24.5 59q0 10 2 20l39 177l-137 288q-8 21 -8 34q0 34 25.5 58.5t61.5 24.5q53 0 79 -57l91 -202l205 229q26 30 61 30q32 0 54.5 -22.5t22.5 -54.5q0 -30 -19 -50z" />
    <glyph glyph-name="Phi" unicode="&#x3a6;" horiz-adv-x="880" 
d="M488 66l-2 -9q-7 -29 -29.5 -47.5t-52.5 -18.5q-34 0 -58 23t-26 57q-141 15 -210 74.5t-69 168.5q0 120 109 197.5t285 88.5l2 10q6 29 29 47.5t53 18.5q34 0 58 -23.5t26 -57.5q279 -28 279 -244q0 -119 -109 -196.5t-285 -88.5zM350 221l50 225q-179 -20 -179 -132
q0 -76 129 -93zM703 351q0 77 -131 94l-50 -225q181 20 181 131z" />
    <glyph glyph-name="Chi" unicode="&#x3a7;" horiz-adv-x="650" 
d="M684 596q0 -33 -20 -53l-212 -210l132 -217q12 -21 12 -41q0 -34 -28 -59q-26 -25 -62 -25q-49 0 -79 51l-109 177l-198 -200q-28 -28 -60 -28q-34 0 -57 23.5t-23 56.5q0 32 20 52l230 228l-122 200q-12 19 -12 39q0 33 27 59.5t63 26.5q48 0 80 -52l97 -162l179 184
q30 30 62 30q33 0 56.5 -23.5t23.5 -56.5z" />
    <glyph glyph-name="Psi" unicode="&#x3a8;" horiz-adv-x="902" 
d="M834 676q35 0 60.5 -26.5t25.5 -60.5q0 -2 -2 -18l-43 -191q-23 -100 -120.5 -171t-242.5 -83l-16 -69q-6 -29 -29 -47.5t-53 -18.5q-35 0 -59.5 24t-24.5 59q0 2 2 20l9 37q-246 33 -246 222q0 43 10 82l40 174q7 29 30 48t53 19q38 0 61.5 -24.5t23.5 -59.5
q0 -3 -2 -19l-34 -149q-7 -28 -7 -44q0 -76 106 -96l74 327q7 28 29.5 46.5t52.5 18.5q35 0 59.5 -25.5t24.5 -59.5q0 -2 -2 -18l-66 -289q135 25 158 128l45 197q6 29 29.5 48t53.5 19z" />
    <glyph glyph-name="uni03A9" unicode="&#x3a9;" horiz-adv-x="766" 
d="M692 75q0 -31 -22 -53t-53 -22h-135q-35 0 -60 25t-25 60q0 57 53 79q65 25 101.5 79.5t36.5 123.5q0 72 -44.5 115t-122.5 43q-90 0 -147.5 -66.5t-57.5 -153.5q0 -79 54 -127q32 -30 32 -76q0 -42 -30 -72t-72 -30h-126q-31 0 -53 22t-22 53t22 53t53 22h79
q-103 79 -103 210q-1 57 24.5 113.5t72.5 103t121 74.5t161 27q146 2 245.5 -74t98.5 -200q0 -90 -52 -155q-51 -64 -116 -99h12q31 0 53 -22t22 -53z" />
    <glyph glyph-name="Iotadieresis" unicode="&#x3aa;" horiz-adv-x="292" 
d="M24 76q0 2 2 18l114 516q7 29 29.5 47.5t52.5 18.5q36 0 60.5 -24.5t24.5 -59.5q0 -1 -2 -19l-114 -516q-6 -29 -29 -47.5t-53 -18.5q-35 0 -60 25t-25 60zM84 778q0 34 27 60q27 27 62 27q29 0 49 -20t20 -50q0 -34 -27 -61q-28 -26 -62 -26q-29 0 -49 20t-20 50z
M297 778q0 34 27 60q27 27 62 27q30 0 50 -20t20 -50q0 -34 -27 -61q-28 -26 -62 -26q-29 0 -49.5 20t-20.5 50z" />
    <glyph glyph-name="Upsilondieresis" unicode="&#x3ab;" horiz-adv-x="642" 
d="M677 549l-265 -280l-46 -212q-6 -29 -29 -47.5t-53 -18.5q-35 0 -59.5 24t-24.5 59q0 10 2 20l39 177l-137 288q-8 21 -8 34q0 34 25.5 58.5t61.5 24.5q53 0 79 -57l91 -202l205 229q26 30 61 30q32 0 54.5 -22.5t22.5 -54.5q0 -30 -19 -50zM259 778q0 34 27 60
q27 27 62 27q29 0 49 -20t20 -50q0 -34 -27 -61q-28 -26 -62 -26q-29 0 -49 20t-20 50zM472 778q0 34 27 60q27 27 62 27q30 0 50 -20t20 -50q0 -34 -27 -61q-28 -26 -62 -26q-29 0 -49.5 20t-20.5 50z" />
    <glyph glyph-name="alphatonos" unicode="&#x3ac;" horiz-adv-x="605" 
d="M570 400l-53 -238q-2 -10 -2 -12q0 -14 12 -21q11 -7 18 -15q18 -22 18 -49t-17.5 -49t-43.5 -26q-14 -2 -30 -2q-108 0 -119 84q-40 -45 -75 -64.5t-77 -19.5q-84 0 -132.5 53t-48.5 147q-1 74 28.5 144t89.5 117.5t136 45.5q99 0 147 -70l1 4q6 27 26.5 45t47.5 18
q31 0 53 -22.5t22 -54.5q0 -12 -1 -15zM364 169l33 146q-33 44 -96 44q-53 0 -88 -41q-34 -40 -34 -98q0 -42 27 -69t67 -27q52 0 91 45zM348 599q0 2 2 10l50 152q5 15 18 25t28 10q21 0 36 -14.5t15 -34.5q0 -13 -7 -23l-80 -140q-10 -18 -28 -18q-14 0 -24 9.5t-10 23.5z
" />
    <glyph glyph-name="epsilontonos" unicode="&#x3ad;" horiz-adv-x="496" 
d="M-1 134q0 58 46 89q47 33 109 33q-43 13 -69.5 42t-26.5 65q0 9 1 12q12 54 66 86.5t147 32.5q110 0 189 -58q25 -18 25 -48q0 -25 -17.5 -42.5t-42.5 -17.5q-18 0 -35 11q-50 38 -114 38q-29 0 -47.5 -11.5t-18.5 -31.5q0 -39 65 -39h29q21 0 36.5 -15t15.5 -37
q0 -21 -15.5 -36t-36.5 -15h-62q-82 0 -82 -41q0 -20 21.5 -32.5t61.5 -12.5q61 0 108 19q11 4 20 4q24 0 41 -17t17 -41q0 -38 -35 -53q-67 -30 -153 -30q-113 0 -178 42.5t-65 103.5zM309 599q0 2 2 10l50 152q5 15 18 25t28 10q21 0 36 -14.5t15 -34.5q0 -13 -7 -23
l-80 -140q-11 -18 -28 -18q-14 0 -24 9.5t-10 23.5z" />
    <glyph glyph-name="etatonos" unicode="&#x3ae;" horiz-adv-x="593" 
d="M561 370q0 -12 -5 -40l-104 -464q-6 -26 -26.5 -42.5t-46.5 -16.5q-32 0 -53 22t-21 55q0 12 1 15l85 381q3 14 3 26q0 53 -73 53q-49 0 -96 -47l-58 -262q-5 -26 -25.5 -42.5t-47.5 -16.5q-32 0 -53.5 22t-21.5 55q0 12 1 15l78 350q6 28 26 46.5t47 18.5
q33 0 55.5 -23.5t21.5 -56.5q68 77 158 77q71 0 113 -34t42 -91zM346 599q0 2 2 10l50 152q5 15 18 25t28 10q21 0 36 -14.5t15 -34.5q0 -13 -7 -23l-80 -140q-10 -18 -28 -18q-14 0 -24 9.5t-10 23.5z" />
    <glyph glyph-name="iotatonos" unicode="&#x3af;" horiz-adv-x="280" 
d="M31 130l69 303q6 25 26.5 42t46.5 17q31 0 53 -21.5t22 -52.5q0 -2 -2 -18l-54 -238l-2 -12q0 -14 12 -21q10 -7 18 -15q18 -23 18 -49q0 -27 -17.5 -49t-43.5 -26q-14 -2 -30 -2q-121 0 -121 99q0 21 5 43zM183 599q0 2 2 10l50 152q5 15 18 25t28 10q21 0 36 -14.5
t15 -34.5q0 -13 -7 -23l-80 -140q-11 -18 -28 -18q-14 0 -24 9.5t-10 23.5z" />
    <glyph glyph-name="upsilondieresistonos" unicode="&#x3b0;" horiz-adv-x="584" 
d="M54 226l47 207q6 25 26.5 42t46.5 17q32 0 53.5 -21t21.5 -52q0 -11 -2 -19l-40 -176q-4 -20 -4 -31q0 -69 71 -69q64 0 102 56q38 58 38 145q0 32 -8 72q-2 16 -2 18q0 32 23.5 54.5t56.5 22.5q32 0 53.5 -17.5t26.5 -47.5q9 -34 9 -83q2 -153 -85.5 -255.5
t-226.5 -100.5q-103 0 -159 47.5t-56 129.5q0 24 8 61zM350 598q0 1 2 11l49 152q5 15 18 25t29 10q21 0 35.5 -14.5t14.5 -34.5q0 -14 -6 -23l-80 -140q-10 -18 -29 -18q-13 0 -23 9.5t-10 22.5zM169 631q0 35 27 60q27 27 62 27q29 0 49 -20t20 -50q0 -34 -27 -60.5
t-61 -26.5q-30 0 -50 20t-20 50zM484 631q0 35 27 60q27 27 62 27q30 0 50 -20t20 -50q0 -34 -27 -61q-28 -26 -62 -26q-30 0 -50 20t-20 50z" />
    <glyph glyph-name="alpha" unicode="&#x3b1;" horiz-adv-x="605" 
d="M570 400l-53 -238q-2 -10 -2 -12q0 -14 12 -21q11 -7 18 -15q18 -22 18 -49t-17.5 -49t-43.5 -26q-14 -2 -30 -2q-108 0 -119 84q-40 -45 -75 -64.5t-77 -19.5q-84 0 -132.5 53t-48.5 147q-1 74 28.5 144t89.5 117.5t136 45.5q99 0 147 -70l1 4q6 27 26.5 45t47.5 18
q31 0 53 -22.5t22 -54.5q0 -12 -1 -15zM364 169l33 146q-33 44 -96 44q-53 0 -88 -41q-34 -40 -34 -98q0 -42 27 -69t67 -27q52 0 91 45z" />
    <glyph glyph-name="beta" unicode="&#x3b2;" horiz-adv-x="591" 
d="M168 55l-43 -189q-5 -26 -25.5 -42.5t-46.5 -16.5q-32 0 -54 22t-22 53q0 1 2 17l124 546q17 78 66 132t108 77t124 23q102 0 157.5 -41.5t55.5 -116.5q0 -64 -53 -113.5t-127 -61.5q121 -26 121 -140q3 -89 -71.5 -153.5t-158.5 -62.5q-102 0 -157 67zM401 210
q0 49 -58 56q-56 13 -56 70q0 27 19.5 47.5t46.5 21.5q43 1 69 23.5t26 56.5q0 55 -74 55q-42 0 -74.5 -26.5t-42.5 -68.5l-64 -279q31 -42 98 -42q49 0 79.5 24.5t30.5 61.5z" />
    <glyph glyph-name="gamma" unicode="&#x3b3;" horiz-adv-x="524" 
d="M541 418q0 -9 -5 -24q-38 -104 -107 -211q-69 -106 -144 -178l-31 -139q-6 -27 -26 -43.5t-47 -16.5q-30 0 -53 21.5t-23 50.5q0 9 1 12l6 27q22 98 22 194q0 147 -50 279q-5 15 -5 26q0 30 22.5 53t54.5 23q25 0 44.5 -14.5t27.5 -37.5q41 -110 41 -224q0 -8 -2 -42
q35 42 72 117q38 77 59 149q7 22 26 37t43 15q31 0 52.5 -22.5t21.5 -51.5z" />
    <glyph glyph-name="delta" unicode="&#x3b4;" horiz-adv-x="576" 
d="M557 266q2 -67 -37 -131.5t-109.5 -106.5t-151.5 -40q-117 0 -179 57t-62 153q0 75 45 135q46 61 113 92q-35 33 -35 86q0 69 69 118.5t174 49.5q74 0 128 -27q40 -18 40 -60q0 -27 -19.5 -46.5t-46.5 -19.5q-17 0 -31 8q-41 25 -94 25q-29 0 -49 -10.5t-20 -25.5
q0 -11 14.5 -19.5t52.5 -21.5q56 -18 97 -39q44 -22 72.5 -67t28.5 -110zM405 248q0 42 -25.5 65.5t-86.5 49.5q-52 -23 -83 -62.5t-31 -81.5q0 -43 26 -69t73 -26q51 0 89 38t38 86z" />
    <glyph glyph-name="epsilon" unicode="&#x3b5;" horiz-adv-x="496" 
d="M-1 134q0 58 46 89q47 33 109 33q-43 13 -69.5 42t-26.5 65q0 9 1 12q12 54 66 86.5t147 32.5q110 0 189 -58q25 -18 25 -48q0 -25 -17.5 -42.5t-42.5 -17.5q-18 0 -35 11q-50 38 -114 38q-29 0 -47.5 -11.5t-18.5 -31.5q0 -39 65 -39h29q21 0 36.5 -15t15.5 -37
q0 -21 -15.5 -36t-36.5 -15h-62q-82 0 -82 -41q0 -20 21.5 -32.5t61.5 -12.5q61 0 108 19q11 4 20 4q24 0 41 -17t17 -41q0 -38 -35 -53q-67 -30 -153 -30q-113 0 -178 42.5t-65 103.5z" />
    <glyph glyph-name="zeta" unicode="&#x3b6;" horiz-adv-x="484" 
d="M12 166q0 106 83 204t222 163h-134q-28 0 -47.5 20t-19.5 47q0 28 19.5 47.5t47.5 19.5h290q27 0 46 -19t19 -46q0 -37 -37 -58q-136 -65 -232 -161.5t-94 -183.5q0 -36 25 -49.5t80 -13.5q137 0 137 -86q0 -66 -84 -187q-20 -29 -54 -29q-27 0 -46.5 19t-19.5 47
q0 19 10 36q25 37 25 53q0 11 -19 11q-104 0 -160.5 43t-56.5 123z" />
    <glyph glyph-name="eta" unicode="&#x3b7;" horiz-adv-x="593" 
d="M561 370q0 -12 -5 -40l-104 -464q-6 -26 -26.5 -42.5t-46.5 -16.5q-32 0 -53 22t-21 55q0 12 1 15l85 381q3 14 3 26q0 53 -73 53q-49 0 -96 -47l-58 -262q-5 -26 -25.5 -42.5t-47.5 -16.5q-32 0 -53.5 22t-21.5 55q0 12 1 15l78 350q6 28 26 46.5t47 18.5
q33 0 55.5 -23.5t21.5 -56.5q68 77 158 77q71 0 113 -34t42 -91z" />
    <glyph glyph-name="theta" unicode="&#x3b8;" horiz-adv-x="576" 
d="M586 405q1 -110 -40.5 -206.5t-115.5 -154.5t-161 -56q-107 0 -171 72t-64 201q-1 109 40.5 206t116.5 155.5t162 56.5q107 0 170 -72t63 -202zM218 402h212l1 28q0 52 -21.5 82.5t-60.5 30.5q-82 0 -131 -141zM402 268h-212l-2 -30q0 -53 22 -83.5t63 -30.5
q80 0 129 144z" />
    <glyph glyph-name="iota" unicode="&#x3b9;" horiz-adv-x="280" 
d="M31 130l69 303q6 25 26.5 42t46.5 17q31 0 53 -21.5t22 -52.5q0 -2 -2 -18l-54 -238l-2 -12q0 -14 12 -21q10 -7 18 -15q18 -23 18 -49q0 -27 -17.5 -49t-43.5 -26q-14 -2 -30 -2q-121 0 -121 99q0 21 5 43z" />
    <glyph glyph-name="kappa" unicode="&#x3ba;" horiz-adv-x="546" 
d="M542 425q0 -32 -26 -52l-142 -113l95 -147q14 -23 14 -42q0 -32 -25 -56t-58 -24q-44 0 -76 54l-75 125l-68 -56l-14 -64q-6 -26 -26 -42.5t-47 -16.5q-32 0 -54 21.5t-22 52.5q0 2 2 18l78 350q6 26 26.5 42.5t46.5 16.5q32 0 53.5 -21t21.5 -52q0 -11 -2 -19l-23 -103
l204 173q23 22 49 22q28 0 48 -19.5t20 -47.5z" />
    <glyph glyph-name="lambda" unicode="&#x3bb;" horiz-adv-x="524" 
d="M387 551l80 -470q1 -3 1 -13q0 -32 -22.5 -54.5t-54.5 -22.5q-29 0 -51 19.5t-25 48.5l-34 247l-163 -279q-19 -36 -61 -36q-30 0 -50.5 21.5t-20.5 49.5q0 20 11 37l243 390l-5 26q-4 21 -37 26q-14 1 -24 6q-42 18 -42 63q0 26 17 44.5t43 22.5q5 1 20 1
q81 -3 122 -30.5t53 -96.5z" />
    <glyph glyph-name="uni03BC" unicode="&#x3bc;" horiz-adv-x="606" 
d="M52 -193q-32 0 -54 22t-22 54l2 16l122 534q6 25 26.5 42t46.5 17q33 0 53.5 -21.5t20.5 -55.5q0 -13 -3 -25l-42 -190q-3 -12 -3 -22q0 -26 18 -40t46 -14q56 0 103 47l57 262q5 25 26 42t48 17q31 0 52.5 -22t21.5 -54q0 -13 -1 -16l-52 -238l-2 -12q0 -14 12 -21
q10 -7 18 -15q18 -22 18 -49t-17.5 -49t-43.5 -26q-14 -2 -27 -2q-113 0 -123 87q-28 -40 -67 -63.5t-79 -23.5q-36 0 -51 17l-31 -139q-6 -25 -26.5 -42t-46.5 -17z" />
    <glyph glyph-name="nu" unicode="&#x3bd;" horiz-adv-x="524" 
d="M111 91l-52 309q-1 3 -1 13q0 32 23 55.5t56 23.5q31 0 53 -20t26 -50l34 -269q104 123 149 286q6 23 25 38t44 15q30 0 51.5 -21.5t21.5 -51.5q0 -10 -5 -25q-70 -193 -218 -361q-36 -42 -90 -42q-44 0 -77 28.5t-40 71.5z" />
    <glyph glyph-name="xi" unicode="&#x3be;" horiz-adv-x="484" 
d="M243 454q0 -24 23.5 -37.5t65.5 -13.5h74q27 0 46.5 -19.5t19.5 -46.5q0 -28 -19.5 -47t-46.5 -19h-103q-63 0 -97.5 -23t-34.5 -65q0 -26 26 -36.5t83 -10.5q137 0 137 -86q0 -66 -84 -188q-21 -28 -54 -28q-27 0 -46 19t-19 47q0 17 9 35q25 37 25 54q0 11 -17 11
q-228 0 -228 141q0 61 41.5 105.5t109.5 63.5q-37 6 -59 30t-22 63q0 38 33.5 75t84.5 55q-28 1 -48.5 20.5t-20.5 46.5q0 28 19.5 47.5t47.5 19.5h279q28 0 47.5 -19.5t19.5 -47.5q0 -27 -19.5 -47t-47.5 -20h-146q-35 -9 -57 -30.5t-22 -48.5z" />
    <glyph glyph-name="omicron" unicode="&#x3bf;" horiz-adv-x="576" 
d="M304 495q117 0 183 -62t66 -161q2 -113 -81.5 -199.5t-202.5 -84.5q-116 0 -182.5 62.5t-66.5 159.5q-2 113 81.5 200t202.5 85zM299 359q-53 0 -87 -41.5t-34 -99.5q0 -44 26 -69t71 -25q52 0 86.5 42t34.5 99q0 44 -26 69t-71 25z" />
    <glyph glyph-name="pi" unicode="&#x3c0;" horiz-adv-x="656" 
d="M696 416q0 -27 -19.5 -47t-47.5 -20h-35l-68 -299q-6 -26 -26.5 -42.5t-46.5 -16.5q-32 0 -53.5 21t-21.5 52q0 11 2 19l60 266h-173l-68 -299q-6 -26 -26.5 -42.5t-46.5 -16.5q-32 0 -53.5 21t-21.5 52q0 11 2 19l60 266h-3q-28 0 -48 19.5t-20 47.5t19.5 47.5
t46.5 19.5h521q28 0 47.5 -19.5t19.5 -47.5z" />
    <glyph glyph-name="rho" unicode="&#x3c1;" 
d="M169 57l-44 -191q-5 -25 -25.5 -42t-46.5 -17q-32 0 -54 21.5t-22 52.5q0 2 2 18l77 343q27 118 103.5 185.5t190.5 67.5q102 0 161 -60t59 -157q1 -66 -29 -132.5t-90.5 -113t-135.5 -44.5q-44 0 -84.5 18.5t-61.5 50.5zM326 359q-44 0 -74.5 -32t-42.5 -85l-16 -74
q33 -44 96 -44q53 0 87 40q35 41 35 98q0 42 -23.5 69.5t-61.5 27.5z" />
    <glyph glyph-name="uni03C2" unicode="&#x3c2;" horiz-adv-x="497" 
d="M307 495q84 0 140 -36q35 -22 35 -62q0 -30 -21 -51t-51 -21q-23 0 -40 13q-27 21 -64 21q-55 0 -93 -41q-36 -40 -36 -99q0 -45 31.5 -64t103.5 -19q53 0 84 -24t31 -67q0 -60 -84 -183q-19 -28 -54 -28q-27 0 -46 19t-19 47q0 21 10 34q25 40 25 54q0 12 -17 12
q-89 0 -155 58t-66 152q-2 116 83 201.5t203 83.5z" />
    <glyph glyph-name="sigma" unicode="&#x3c3;" horiz-adv-x="576" 
d="M21 210q0 115 88.5 194t220.5 79h208q28 0 48 -20t20 -48t-20 -48t-48 -20h-32q32 -37 32 -96q2 -102 -77.5 -183.5t-191.5 -79.5q-116 0 -182 62t-66 160zM364 347h-49q-61 0 -99 -36.5t-38 -92.5q0 -44 26 -69t71 -25q51 0 86 42t35 97q0 57 -32 84z" />
    <glyph glyph-name="tau" unicode="&#x3c4;" horiz-adv-x="488" 
d="M518 416q0 -27 -19.5 -47t-47.5 -20h-105l-37 -169q-2 -8 -2 -17q0 -36 33 -38q10 -2 13 -2q17 -2 30.5 -19t13.5 -38q0 -61 -64 -74q-15 -4 -38 -4q-71 0 -112.5 30t-41.5 84q0 13 4 34l47 213h-74q-27 0 -46.5 20t-19.5 47q0 28 19.5 47.5t46.5 19.5h333
q28 0 47.5 -19.5t19.5 -47.5z" />
    <glyph glyph-name="upsilon" unicode="&#x3c5;" horiz-adv-x="584" 
d="M54 226l47 207q6 25 26.5 42t46.5 17q32 0 53.5 -21t21.5 -52q0 -11 -2 -19l-40 -176q-4 -20 -4 -31q0 -69 71 -69q64 0 102 56q38 58 38 145q0 32 -8 72q-2 16 -2 18q0 32 23.5 54.5t56.5 22.5q32 0 53.5 -17.5t26.5 -47.5q9 -34 9 -83q2 -153 -85.5 -255.5
t-226.5 -100.5q-103 0 -159 47.5t-56 129.5q0 24 8 61z" />
    <glyph glyph-name="phi" unicode="&#x3c6;" horiz-adv-x="730" 
d="M386 -12l-27 -122q-5 -26 -25.5 -42.5t-47.5 -16.5q-31 0 -53 22t-22 53q0 1 2 17l21 98q-85 9 -147 70t-62 150q0 177 157 250q18 8 30 8q27 0 47 -20.5t20 -48.5q0 -38 -33 -58q-65 -36 -65 -115q0 -43 23 -69t60 -31l63 290q7 32 34 51.5t61 19.5q122 0 202 -68
t80 -164q0 -124 -80 -199t-238 -75zM548 246q0 42 -23 66t-62 30l-48 -218q63 0 98 32.5t35 89.5z" />
    <glyph glyph-name="chi" unicode="&#x3c7;" horiz-adv-x="512" 
d="M525 420q0 -28 -19 -50l-183 -218l94 -239q5 -15 5 -28q0 -32 -23.5 -55t-54.5 -23q-26 0 -47 17t-31 45l-55 155l-146 -186q-21 -31 -58 -31q-30 0 -50.5 21t-20.5 50q0 28 19 50l197 237l-86 216q-7 17 -7 35q0 33 23 54.5t56 21.5q26 0 46.5 -17t30.5 -46l50 -136
l130 167q25 32 59 32q29 0 50 -21.5t21 -50.5z" />
    <glyph glyph-name="psi" unicode="&#x3c8;" horiz-adv-x="768" 
d="M674 492q33 0 53.5 -22t20.5 -56q0 -12 -3 -25l-35 -160q-24 -106 -102.5 -173.5t-200.5 -67.5l-27 -122q-6 -26 -26.5 -42.5t-46.5 -16.5q-32 0 -54 22t-22 53q0 1 2 17l22 98q-92 13 -146.5 66.5t-54.5 132.5q0 30 9 69l36 168q5 25 26 42t48 17q33 0 53.5 -22
t20.5 -56q0 -12 -3 -25l-26 -117q-8 -43 -8 -60q0 -63 74 -80l106 485q6 25 26.5 42t46.5 17q32 0 54 -21.5t22 -52.5q0 -2 -2 -18l-101 -460q97 0 124 125l40 183q5 26 26 43t48 17z" />
    <glyph glyph-name="omega" unicode="&#x3c9;" horiz-adv-x="794" 
d="M379 120q-34 -67 -79.5 -99.5t-111.5 -32.5q-79 0 -124 54q-45 56 -45 139q0 161 138 293q20 19 46 19q28 0 47.5 -20t19.5 -48q0 -21 -15 -41q-76 -95 -76 -184q0 -36 14 -56t40 -20q61 0 88 118l15 69q6 27 26 44t48 17q30 0 53 -22t23 -52q0 -2 -2 -16l-9 -40
q-7 -29 -7 -51q0 -67 54 -67q43 0 70 53t27 119q0 46 -18 97q-4 9 -4 25q0 32 22 53.5t53 21.5q48 0 69 -47q33 -69 33 -142q1 -79 -29.5 -151.5t-89 -119.5t-131.5 -45q-128 0 -145 132z" />
    <glyph glyph-name="iotadieresis" unicode="&#x3ca;" horiz-adv-x="280" 
d="M31 130l69 303q6 25 26.5 42t46.5 17q31 0 53 -21.5t22 -52.5q0 -2 -2 -18l-54 -238l-2 -12q0 -14 12 -21q10 -7 18 -15q18 -23 18 -49q0 -27 -17.5 -49t-43.5 -26q-14 -2 -30 -2q-121 0 -121 99q0 21 5 43zM40 631q0 35 27 60q27 27 62 27q29 0 49 -20t20 -50
q0 -34 -27 -61q-28 -26 -62 -26q-29 0 -49 20t-20 50zM253 631q0 35 27 60q27 27 62 27q30 0 50 -20t20 -50q0 -34 -27 -61q-28 -26 -62 -26q-29 0 -49.5 20t-20.5 50z" />
    <glyph glyph-name="upsilondieresis" unicode="&#x3cb;" horiz-adv-x="584" 
d="M54 226l47 207q6 25 26.5 42t46.5 17q32 0 53.5 -21t21.5 -52q0 -11 -2 -19l-40 -176q-4 -20 -4 -31q0 -69 71 -69q64 0 102 56q38 58 38 145q0 32 -8 72q-2 16 -2 18q0 32 23.5 54.5t56.5 22.5q32 0 53.5 -17.5t26.5 -47.5q9 -34 9 -83q2 -153 -85.5 -255.5
t-226.5 -100.5q-103 0 -159 47.5t-56 129.5q0 24 8 61zM203 631q0 35 27 60q27 27 62 27q29 0 49 -20t20 -50q0 -34 -27 -61q-28 -26 -62 -26q-29 0 -49 20t-20 50zM416 631q0 35 27 60q27 27 62 27q30 0 50 -20t20 -50q0 -34 -27 -61q-28 -26 -62 -26q-29 0 -49.5 20
t-20.5 50z" />
    <glyph glyph-name="omicrontonos" unicode="&#x3cc;" horiz-adv-x="576" 
d="M304 495q117 0 183 -62t66 -161q2 -113 -81.5 -199.5t-202.5 -84.5q-116 0 -182.5 62.5t-66.5 159.5q-2 113 81.5 200t202.5 85zM299 359q-53 0 -87 -41.5t-34 -99.5q0 -44 26 -69t71 -25q52 0 86.5 42t34.5 99q0 44 -26 69t-71 25zM336 599q0 2 2 10l50 152q5 15 18 25
t28 10q21 0 36 -14.5t15 -34.5q0 -13 -7 -23l-80 -140q-10 -18 -28 -18q-14 0 -24 9.5t-10 23.5z" />
    <glyph glyph-name="upsilontonos" unicode="&#x3cd;" horiz-adv-x="584" 
d="M54 226l47 207q6 25 26.5 42t46.5 17q32 0 53.5 -21t21.5 -52q0 -11 -2 -19l-40 -176q-4 -20 -4 -31q0 -69 71 -69q64 0 102 56q38 58 38 145q0 32 -8 72q-2 16 -2 18q0 32 23.5 54.5t56.5 22.5q32 0 53.5 -17.5t26.5 -47.5q9 -34 9 -83q2 -153 -85.5 -255.5
t-226.5 -100.5q-103 0 -159 47.5t-56 129.5q0 24 8 61zM346 599q0 2 2 10l50 152q5 15 18 25t28 10q21 0 36 -14.5t15 -34.5q0 -13 -7 -23l-80 -140q-10 -18 -28 -18q-14 0 -24 9.5t-10 23.5z" />
    <glyph glyph-name="omegatonos" unicode="&#x3ce;" horiz-adv-x="794" 
d="M379 120q-34 -67 -79.5 -99.5t-111.5 -32.5q-79 0 -124 54q-45 56 -45 139q0 161 138 293q20 19 46 19q28 0 47.5 -20t19.5 -48q0 -21 -15 -41q-76 -95 -76 -184q0 -36 14 -56t40 -20q61 0 88 118l15 69q6 27 26 44t48 17q30 0 53 -22t23 -52q0 -2 -2 -16l-9 -40
q-7 -29 -7 -51q0 -67 54 -67q43 0 70 53t27 119q0 46 -18 97q-4 9 -4 25q0 32 22 53.5t53 21.5q48 0 69 -47q33 -69 33 -142q1 -79 -29.5 -151.5t-89 -119.5t-131.5 -45q-128 0 -145 132zM440 599q0 2 2 10l50 152q5 15 18 25t28 10q21 0 36 -14.5t15 -34.5q0 -13 -7 -23
l-80 -140q-10 -18 -28 -18q-14 0 -24 9.5t-10 23.5z" />
    <glyph glyph-name="uni0401" unicode="&#x401;" 
d="M25 74q0 12 3 27l107 486q18 80 100 80h325q30 0 51.5 -21.5t21.5 -51.5q0 -29 -21.5 -50.5t-51.5 -21.5h-267l-24 -111h228q30 0 51 -21.5t21 -51.5t-21 -51.5t-51 -21.5h-260l-27 -120h235q30 0 51.5 -21t21.5 -51t-21.5 -51.5t-51.5 -21.5h-337q-40 0 -61.5 19.5
t-21.5 54.5zM249 778q0 34 27 60q27 27 62 27q29 0 49 -20t20 -50q0 -34 -27 -61q-28 -26 -62 -26q-29 0 -49 20t-20 50zM462 778q0 34 27 60q27 27 62 27q30 0 50 -20t20 -50q0 -34 -27 -61q-28 -26 -62 -26q-29 0 -49.5 20t-20.5 50z" />
    <glyph glyph-name="uni0402" unicode="&#x402;" horiz-adv-x="791" 
d="M458 60q0 26 17 46t43 24q59 10 72 67l2 7q2 16 2 18q0 31 -25.5 49t-73.5 18q-54 0 -110 -25l-45 -207q-7 -29 -30 -47.5t-53 -18.5q-35 0 -59.5 24.5t-24.5 59.5q0 1 2 19l93 423h-103q-31 0 -53 22t-22 53t22 53t53 22h410q31 0 53 -22t22 -53t-22 -53t-53 -22h-135
l-26 -119q76 42 169 42q88 0 137.5 -50t49.5 -130q0 -28 -6 -56l-2 -9q-22 -102 -100 -160q-63 -46 -133 -46q-29 0 -50 20.5t-21 50.5z" />
    <glyph glyph-name="uni0403" unicode="&#x403;" horiz-adv-x="567" 
d="M25 78q0 13 1 16l109 493q18 80 100 80h322q31 0 53 -22t22 -53t-22 -53t-53 -22h-265l-101 -460q-6 -29 -29 -47.5t-54 -18.5q-35 0 -59 25.5t-24 61.5zM451 717q-19 0 -32 13.5t-13 31.5q0 17 16 33l75 67q11 11 32 11q19 0 33.5 -14.5t14.5 -34.5q0 -25 -20 -39
l-79 -59q-12 -9 -27 -9z" />
    <glyph glyph-name="uni0404" unicode="&#x404;" horiz-adv-x="692" 
d="M242 413h192q31 0 53 -21.5t22 -52.5t-22 -53.5t-53 -22.5h-215q12 -55 57 -89t108 -34q58 0 114 43q21 18 49 18q33 0 56 -22.5t23 -55.5q0 -38 -32 -62q-96 -73 -220 -73q-142 -2 -241 84t-97 219q-2 110 52.5 200.5t145.5 139.5t196 47q167 0 257 -111q19 -22 19 -53
q0 -35 -24.5 -60.5t-61.5 -25.5q-43 0 -68 35q-45 63 -130 63q-56 0 -104.5 -30.5t-75.5 -82.5z" />
    <glyph glyph-name="uni0405" unicode="&#x405;" horiz-adv-x="606" 
d="M14 128q0 33 23.5 56.5t55.5 23.5q27 0 46 -15q84 -58 181 -58q38 0 58.5 16t20.5 39q0 21 -23 36t-77 34q-69 24 -109 44q-110 57 -110 163q0 81 75 145.5t195 64.5q119 0 214 -59q38 -25 38 -67q0 -32 -23 -55t-55 -23q-23 0 -42 13q-70 46 -152 46q-32 0 -52 -14.5
t-20 -36.5q0 -19 22.5 -33.5t76.5 -33.5q98 -32 160 -77q62 -44 62 -124q0 -95 -75 -160t-196 -65q-151 0 -259 75q-35 25 -35 65z" />
    <glyph glyph-name="uni0406" unicode="&#x406;" horiz-adv-x="292" 
d="M24 76q0 2 2 18l114 516q7 29 29.5 47.5t52.5 18.5q36 0 60.5 -24.5t24.5 -59.5q0 -1 -2 -19l-114 -516q-6 -29 -29 -47.5t-53 -18.5q-35 0 -60 25t-25 60z" />
    <glyph glyph-name="uni0407" unicode="&#x407;" horiz-adv-x="292" 
d="M24 76q0 2 2 18l114 516q7 29 29.5 47.5t52.5 18.5q36 0 60.5 -24.5t24.5 -59.5q0 -1 -2 -19l-114 -516q-6 -29 -29 -47.5t-53 -18.5q-35 0 -60 25t-25 60zM84 778q0 34 27 60q27 27 62 27q29 0 49 -20t20 -50q0 -34 -27 -61q-28 -26 -62 -26q-29 0 -49 20t-20 50z
M297 778q0 34 27 60q27 27 62 27q30 0 50 -20t20 -50q0 -34 -27 -61q-28 -26 -62 -26q-29 0 -49.5 20t-20.5 50z" />
    <glyph glyph-name="uni0408" unicode="&#x408;" horiz-adv-x="492" 
d="M-9 85q0 32 22.5 54.5t54.5 22.5q19 0 32 -7q28 -15 55 -15q83 0 102 91l83 379q7 29 29.5 47.5t52.5 18.5q36 0 60.5 -24.5t24.5 -59.5q0 -1 -2 -19l-77 -344q-27 -125 -89 -183t-171 -58q-72 0 -129 27q-21 8 -34.5 27t-13.5 43z" />
    <glyph glyph-name="uni0409" unicode="&#x409;" horiz-adv-x="1092" 
d="M786 0h-228q-40 0 -62 19t-22 54q0 12 3 27l91 417h-184l-21 -74q-63 -213 -131 -314q-69 -103 -150 -135q-16 -6 -29 -6q-31 0 -54 23t-23 55q0 26 15 46.5t40 28.5q48 14 92 89q45 73 98 252l33 108q23 77 101 77h316q40 0 61.5 -18.5t21.5 -52.5q0 -14 -3 -29
l-27 -124h151q85 0 141 -55.5t56 -135.5q0 -43 -16 -86t-48.5 -81.5t-90.5 -62t-131 -22.5zM691 293l-31 -143h135q42 0 70 23.5t28 60.5q0 27 -18.5 43t-50.5 16h-133z" />
    </font>
</defs>
</svg>
