<?xml version="1.0" standalone="no"?>
<!DOCTYPE svg PUBLIC "-//W3C//DTD SVG 1.1//EN" "http://www.w3.org/Graphics/SVG/1.1/DTD/svg11.dtd" >
<svg xmlns="http://www.w3.org/2000/svg" xmlns:xlink="http://www.w3.org/1999/xlink" version="1.1">
<metadata>
Created by FontForge 20170731 at Tue Dec 25 03:00:00 2018
 By Aleksey,,,
Copyright (c) 2018 by Mark Simonson. All rights reserved.
</metadata>
<defs>
<font id="ProximaSoft-LightIt" horiz-adv-x="571" >
  <font-face 
    font-family="Proxima Soft Light"
    font-weight="300"
    font-style="italic"
    font-stretch="normal"
    units-per-em="1000"
    panose-1="2 0 5 6 3 0 0 2 0 4"
    ascent="790"
    descent="-210"
    x-height="483"
    cap-height="667"
    bbox="-282 -305 1145 1081"
    underline-thickness="39"
    underline-position="-278"
    slope="-12.5"
    unicode-range="U+000D-FB04"
  />
<missing-glyph horiz-adv-x="517" 
d="M103 -28v718q0 62 62 62h227q62 0 62 -62v-718q0 -62 -62 -62h-227q-62 0 -62 62zM422 722h-288v-782h288v782z" />
    <glyph glyph-name="f_f_j" unicode="ffj" horiz-adv-x="743" 
d="M381 646q0 -11 -9.5 -18t-20.5 -3q-14 7 -40 7q-74 0 -98 -105l-10 -44h73q9 0 16 -7t7 -17q0 -9 -7 -15.5t-16 -6.5h-82l-94 -420q-2 -20 -25 -20q-12 0 -19.5 9.5t-4.5 21.5l90 409h-54q-10 0 -16.5 6.5t-6.5 15.5q0 10 6.5 17t16.5 7h64l9 44q33 150 150 150
q30 0 57 -11q14 -5 14 -20zM646 646q0 -11 -9.5 -18t-20.5 -3q-14 7 -40 7q-74 0 -98 -105l-10 -44h73q9 0 16 -7t7 -17q0 -9 -7 -15.5t-16 -6.5h-82l-94 -420q-2 -20 -25 -20q-12 0 -19.5 9.5t-4.5 21.5l90 409h-54q-10 0 -16.5 6.5t-6.5 15.5q0 10 6.5 17t16.5 7h64l9 44
q33 150 150 150q30 0 57 -11q14 -5 14 -20zM679 618q0 20 13.5 32.5t31.5 12.5q15 0 25.5 -10.5t10.5 -24.5q0 -18 -13.5 -31.5t-31.5 -13.5q-15 0 -25.5 10.5t-10.5 24.5zM397 -169q0 11 8.5 18t19.5 5q9 -4 27 -4q69 0 90 88l117 528q2 20 25 20q12 0 19.5 -9.5t4.5 -21.5
l-114 -517q-29 -134 -139 -134q-22 0 -40 5t-18 22z" />
    <glyph glyph-name="f_j" unicode="fj" horiz-adv-x="478" 
d="M381 646q0 -11 -9.5 -18t-20.5 -3q-14 7 -40 7q-74 0 -98 -105l-10 -44h73q9 0 16 -7t7 -17q0 -9 -7 -15.5t-16 -6.5h-82l-94 -420q-2 -20 -25 -20q-12 0 -19.5 9.5t-4.5 21.5l90 409h-54q-10 0 -16.5 6.5t-6.5 15.5q0 10 6.5 17t16.5 7h64l9 44q33 150 150 150
q30 0 57 -11q14 -5 14 -20zM415 618q0 20 13.5 32.5t31.5 12.5q15 0 25.5 -10.5t10.5 -24.5q0 -18 -13.5 -31.5t-31.5 -13.5q-15 0 -25.5 10.5t-10.5 24.5zM133 -169q0 11 8.5 18t19.5 5q9 -4 27 -4q69 0 90 88l117 528q2 20 25 20q12 0 19.5 -9.5t4.5 -21.5l-114 -517
q-29 -134 -139 -134q-22 0 -40 5t-18 22z" />
    <glyph glyph-name="f_f" unicode="ff" horiz-adv-x="529" 
d="M381 646q0 -11 -9.5 -18t-20.5 -3q-14 7 -40 7q-74 0 -98 -105l-10 -44h73q9 0 16 -7t7 -17q0 -9 -7 -15.5t-16 -6.5h-82l-94 -420q-2 -20 -25 -20q-12 0 -19.5 9.5t-4.5 21.5l90 409h-54q-10 0 -16.5 6.5t-6.5 15.5q0 10 6.5 17t16.5 7h64l9 44q33 150 150 150
q30 0 57 -11q14 -5 14 -20zM646 646q0 -11 -9.5 -18t-20.5 -3q-14 7 -40 7q-74 0 -98 -105l-10 -44h73q9 0 16 -7t7 -17q0 -9 -7 -15.5t-16 -6.5h-82l-94 -420q-2 -20 -25 -20q-12 0 -19.5 9.5t-4.5 21.5l90 409h-54q-10 0 -16.5 6.5t-6.5 15.5q0 10 6.5 17t16.5 7h64l9 44
q33 150 150 150q30 0 57 -11q14 -5 14 -20z" />
    <glyph glyph-name="fi" unicode="fi" horiz-adv-x="478" 
d="M381 646q0 -11 -9.5 -18t-20.5 -3q-14 7 -40 7q-74 0 -98 -105l-10 -44h73q9 0 16 -7t7 -17q0 -9 -7 -15.5t-16 -6.5h-82l-94 -420q-2 -20 -25 -20q-12 0 -19.5 9.5t-4.5 21.5l90 409h-54q-10 0 -16.5 6.5t-6.5 15.5q0 10 6.5 17t16.5 7h64l9 44q33 150 150 150
q30 0 57 -11q14 -5 14 -20zM460 663q15 0 25.5 -10.5t10.5 -24.5q0 -18 -13.5 -31.5t-31.5 -13.5q-15 0 -25.5 10.5t-10.5 24.5q0 20 13.5 32.5t31.5 12.5zM298 28l97 438q2 20 25 20q12 0 19.5 -9.5t5.5 -21.5l-97 -438q-2 -20 -25 -20q-12 0 -19.5 9.5t-5.5 21.5z" />
    <glyph glyph-name="fl" unicode="fl" horiz-adv-x="478" 
d="M381 646q0 -11 -9.5 -18t-20.5 -3q-14 7 -40 7q-74 0 -98 -105l-10 -44h73q9 0 16 -7t7 -17q0 -9 -7 -15.5t-16 -6.5h-82l-94 -420q-2 -20 -25 -20q-12 0 -19.5 9.5t-4.5 21.5l90 409h-54q-10 0 -16.5 6.5t-6.5 15.5q0 10 6.5 17t16.5 7h64l9 44q33 150 150 150
q30 0 57 -11q14 -5 14 -20zM298 28l137 622q2 20 25 20q12 0 19.5 -9.5t5.5 -21.5l-137 -622q-2 -20 -25 -20q-12 0 -19.5 9.5t-5.5 21.5z" />
    <glyph glyph-name="f_f_i" unicode="ffi" horiz-adv-x="743" 
d="M381 646q0 -11 -9.5 -18t-20.5 -3q-14 7 -40 7q-74 0 -98 -105l-10 -44h73q9 0 16 -7t7 -17q0 -9 -7 -15.5t-16 -6.5h-82l-94 -420q-2 -20 -25 -20q-12 0 -19.5 9.5t-4.5 21.5l90 409h-54q-10 0 -16.5 6.5t-6.5 15.5q0 10 6.5 17t16.5 7h64l9 44q33 150 150 150
q30 0 57 -11q14 -5 14 -20zM646 646q0 -11 -9.5 -18t-20.5 -3q-14 7 -40 7q-74 0 -98 -105l-10 -44h73q9 0 16 -7t7 -17q0 -9 -7 -15.5t-16 -6.5h-82l-94 -420q-2 -20 -25 -20q-12 0 -19.5 9.5t-4.5 21.5l90 409h-54q-10 0 -16.5 6.5t-6.5 15.5q0 10 6.5 17t16.5 7h64l9 44
q33 150 150 150q30 0 57 -11q14 -5 14 -20zM724 663q15 0 25.5 -10.5t10.5 -24.5q0 -18 -13.5 -31.5t-31.5 -13.5q-15 0 -25.5 10.5t-10.5 24.5q0 20 13.5 32.5t31.5 12.5zM562 28l97 438q2 20 25 20q12 0 19.5 -9.5t5.5 -21.5l-97 -438q-2 -20 -25 -20q-12 0 -19.5 9.5
t-5.5 21.5z" />
    <glyph glyph-name="f_f_l" unicode="ffl" horiz-adv-x="743" 
d="M381 646q0 -11 -9.5 -18t-20.5 -3q-14 7 -40 7q-74 0 -98 -105l-10 -44h73q9 0 16 -7t7 -17q0 -9 -7 -15.5t-16 -6.5h-82l-94 -420q-2 -20 -25 -20q-12 0 -19.5 9.5t-4.5 21.5l90 409h-54q-10 0 -16.5 6.5t-6.5 15.5q0 10 6.5 17t16.5 7h64l9 44q33 150 150 150
q30 0 57 -11q14 -5 14 -20zM646 646q0 -11 -9.5 -18t-20.5 -3q-14 7 -40 7q-74 0 -98 -105l-10 -44h73q9 0 16 -7t7 -17q0 -9 -7 -15.5t-16 -6.5h-82l-94 -420q-2 -20 -25 -20q-12 0 -19.5 9.5t-4.5 21.5l90 409h-54q-10 0 -16.5 6.5t-6.5 15.5q0 10 6.5 17t16.5 7h64l9 44
q33 150 150 150q30 0 57 -11q14 -5 14 -20zM562 28l137 622q2 20 25 20q12 0 19.5 -9.5t5.5 -21.5l-137 -622q-2 -20 -25 -20q-12 0 -19.5 9.5t-5.5 21.5z" />
    <glyph glyph-name="f_b" unicode="fb" horiz-adv-x="835" 
d="M381 646q0 -11 -9.5 -18t-20.5 -3q-14 7 -40 7q-74 0 -98 -105l-10 -44h73q9 0 16 -7t7 -17q0 -9 -7 -15.5t-16 -6.5h-82l-94 -420q-2 -20 -25 -20q-12 0 -19.5 9.5t-4.5 21.5l90 409h-54q-10 0 -16.5 6.5t-6.5 15.5q0 10 6.5 17t16.5 7h64l9 44q33 150 150 150
q30 0 57 -11q14 -5 14 -20zM789 296q2 -124 -72 -217.5t-181 -90.5q-58 0 -103.5 25t-70.5 69l-14 -65q-5 -20 -25 -20q-12 0 -19.5 9.5t-5.5 21.5l137 622q2 20 25 20q12 0 19.5 -9.5t4.5 -21.5l-49 -229q64 85 166 85q85 0 136.5 -54t51.5 -145zM732 287q0 74 -40 117.5
t-106 43.5q-47 0 -91.5 -26t-72.5 -67l-51 -232q19 -39 62 -63.5t98 -24.5q86 -2 144.5 76t56.5 176z" />
    <glyph glyph-name="f_h" unicode="fh" horiz-adv-x="805" 
d="M381 646q0 -11 -9.5 -18t-20.5 -3q-14 7 -40 7q-74 0 -98 -105l-10 -44h73q9 0 16 -7t7 -17q0 -9 -7 -15.5t-16 -6.5h-82l-94 -420q-2 -20 -25 -20q-12 0 -19.5 9.5t-4.5 21.5l90 409h-54q-10 0 -16.5 6.5t-6.5 15.5q0 10 6.5 17t16.5 7h64l9 44q33 150 150 150
q30 0 57 -11q14 -5 14 -20zM624 28l66 300q6 27 6 35q0 42 -29 63.5t-79 21.5q-81 0 -164 -85l-76 -346q-2 -20 -25 -20q-12 0 -19.5 9.5t-5.5 21.5l137 622q2 20 25 20q12 0 19.5 -9.5t5.5 -21.5l-50 -229q85 85 174 85q65 0 103 -31t38 -87q0 -21 -6 -41l-70 -319
q-2 -20 -25 -20q-12 0 -19.5 9.5t-5.5 21.5z" />
    <glyph glyph-name="f_k" unicode="fk" horiz-adv-x="770" 
d="M381 646q0 -11 -9.5 -18t-20.5 -3q-14 7 -40 7q-74 0 -98 -105l-10 -44h73q9 0 16 -7t7 -17q0 -9 -7 -15.5t-16 -6.5h-82l-94 -420q-2 -20 -25 -20q-12 0 -19.5 9.5t-4.5 21.5l90 409h-54q-10 0 -16.5 6.5t-6.5 15.5q0 10 6.5 17t16.5 7h64l9 44q33 150 150 150
q30 0 57 -11q14 -5 14 -20zM765 445l-233 -180l148 -227q5 -8 5 -15q0 -11 -8.5 -18.5t-20.5 -7.5q-15 0 -23 14l-145 222l-112 -87l-28 -128q-5 -21 -25 -21q-12 0 -19.5 9.5t-5.5 21.5l137 622q2 20 25 20q12 0 19.5 -9.5t5.5 -21.5l-94 -427l344 269q8 5 15 5
q10 0 16.5 -7t6.5 -16q0 -10 -8 -18z" />
    <glyph glyph-name=".notdef" horiz-adv-x="517" 
d="M103 -28v718q0 62 62 62h227q62 0 62 -62v-718q0 -62 -62 -62h-227q-62 0 -62 62zM422 722h-288v-782h288v782z" />
    <glyph glyph-name=".null" horiz-adv-x="0" 
 />
    <glyph glyph-name="nonmarkingreturn" horiz-adv-x="333" 
 />
    <glyph glyph-name="CR" unicode="&#xd;" horiz-adv-x="0" 
 />
    <glyph glyph-name="space" unicode=" " horiz-adv-x="259" 
 />
    <glyph glyph-name="exclam" unicode="!" horiz-adv-x="219" 
d="M77 195l87 449q5 26 32 26q16 0 25.5 -12.5t5.5 -27.5l-110 -443q-2 -16 -20 -16q-9 0 -15 7t-5 17zM67 78q17 0 28.5 -12t11.5 -29q0 -19 -14 -33t-34 -14q-17 0 -28.5 12t-11.5 29q0 20 14 33.5t34 13.5z" />
    <glyph glyph-name="quotedbl" unicode="&#x22;" horiz-adv-x="317" 
d="M120 442l23 191q5 44 42 44q13 0 22.5 -9.5t9.5 -23.5q0 -5 -5 -20l-62 -189q-5 -11 -15 -11q-7 0 -11.5 5.5t-3.5 12.5zM251 442l23 191q5 44 42 44q14 0 23 -9.5t9 -23.5q0 -8 -5 -20l-62 -189q-5 -11 -14 -11q-7 0 -12 5.5t-4 12.5z" />
    <glyph glyph-name="numbersign" unicode="#" horiz-adv-x="579" 
d="M598 460q0 -8 -6 -14t-14 -6h-104l-119 -213h85q8 0 14.5 -6t6.5 -15q0 -8 -6.5 -14t-14.5 -6h-107l-99 -178q-5 -11 -18 -11q-9 0 -15 6t-6 15q0 5 3 10l88 158h-117l-99 -178q-8 -11 -18 -11q-9 0 -15 6t-6 15q0 5 3 10l88 158h-81q-8 0 -14.5 6t-6.5 15q0 8 6.5 14
t14.5 6h103l119 213h-83q-8 0 -14 6t-6 15q0 8 6 14t14 6h105l99 178q6 11 18 11q9 0 15 -6.5t6 -14.5q0 -5 -3 -10l-88 -158h117l99 178q5 11 18 11q9 0 15 -6t6 -15q0 -5 -3 -10l-88 -158h82q8 0 14 -6t6 -15zM308 227l119 213h-117l-119 -213h117z" />
    <glyph glyph-name="dollar" unicode="$" horiz-adv-x="584" 
d="M567 574q0 -13 -9 -21.5t-21 -8.5q-13 0 -20 9q-43 49 -115 66l-56 -252q88 -38 128 -74t43 -101q0 -82 -64.5 -143t-171.5 -61h-19l-16 -74q-5 -17 -23 -17q-10 0 -17 8t-5 19l16 70q-112 19 -175 90q-8 8 -8 21q0 12 8.5 21t21.5 9q14 0 21 -10q56 -62 143 -80l62 278
q-88 37 -127 71.5t-42 97.5q0 76 66 131t159 55q18 0 23 -1l17 76q5 18 22 18q11 0 17.5 -8.5t4.5 -18.5l-16 -72q88 -18 144 -77q9 -11 9 -21zM304 385l54 241h-17q-64 0 -111 -39t-47 -89q0 -35 28.5 -60t92.5 -53zM333 305l-59 -265h12q80 0 124 43.5t44 101.5
q0 40 -29 67t-92 53z" />
    <glyph glyph-name="percent" unicode="%" horiz-adv-x="720" 
d="M265 677q61 0 102.5 -38t41.5 -95q0 -84 -52 -139t-123 -55q-62 0 -103 37q-41 38 -41 96q0 84 52 139t123 55zM91 14q0 6 4 11l549 639q3 6 13 6q7 0 12.5 -5t5.5 -12q0 -6 -4 -11l-550 -639q-3 -6 -13 -6q-7 0 -12 5t-5 12zM263 638q-51 0 -89 -44t-38 -107
q0 -43 28.5 -71t71.5 -28q50 0 88.5 44.5t38.5 106.5q0 43 -28.5 71t-71.5 28zM524 316q63 0 104 -37.5t41 -96.5q0 -83 -52 -138.5t-123 -55.5q-63 0 -104 37.5t-41 96.5q0 83 52 138.5t123 55.5zM523 277q-51 0 -89 -44.5t-38 -106.5q0 -43 28 -71t71 -28q51 0 89 44
t38 107q0 42 -28 70.5t-71 28.5z" />
    <glyph glyph-name="ampersand" unicode="&#x26;" horiz-adv-x="639" 
d="M564 270q0 -10 -4 -14q-64 -98 -112 -149q28 -37 51 -62q8 -8 8 -19q0 -12 -9 -20.5t-20 -8.5q-13 0 -22 9q-31 37 -49 62q-92 -80 -192 -80q-84 0 -139 43t-55 120q2 87 50 135.5t148 92.5q-25 63 -25 119q0 72 53 125.5t123 53.5q61 0 99 -30t38 -83q0 -54 -30 -92
q-29 -36 -71 -59q-38 -21 -117 -52q20 -42 58 -105q37 -64 72 -111q59 65 100 137q11 12 21 12t17 -7.5t7 -16.5zM272 400q71 29 97 43q84 44 84 116q0 34 -23 54t-59 20q-45 0 -83 -37.5t-38 -96.5q0 -45 22 -99zM379 107q-50 68 -79 115q-38 63 -63 117
q-79 -34 -117.5 -75.5t-38.5 -105.5q0 -58 39 -91t100 -33q77 0 159 73z" />
    <glyph glyph-name="quotesingle" unicode="'" horiz-adv-x="187" 
d="M120 442l23 191q5 44 42 44q13 0 22.5 -9.5t9.5 -23.5q0 -5 -5 -20l-62 -189q-5 -11 -15 -11q-7 0 -11.5 5.5t-3.5 12.5z" />
    <glyph glyph-name="parenleft" unicode="(" horiz-adv-x="227" 
d="M72 -179q-47 126 -47 263q0 306 239 588q6 7 15 7t14 -6t5 -13q0 -8 -4 -12q-213 -293 -213 -588q0 -98 33 -225q3 -12 -4 -20t-17 -8q-16 0 -21 14z" />
    <glyph glyph-name="parenright" unicode=")" horiz-adv-x="227" 
d="M154 665q47 -126 47 -263q0 -307 -240 -588q-4 -7 -14 -7q-9 0 -14 6t-5 13q0 8 4 12q213 293 213 588q0 98 -33 225q-3 12 4 20t17 8q16 0 21 -14z" />
    <glyph glyph-name="asterisk" unicode="*" horiz-adv-x="335" 
d="M187 419l27 99l-98 -45q-6 -2 -7 -2q-6 0 -11.5 5t-5.5 12q0 13 12 16l102 37l-77 53q-7 4 -7 15q0 19 18 19q7 0 12 -5l72 -62l17 104q6 15 18 15q9 0 14 -7.5t3 -15.5l-26 -98l97 44q6 2 7 2q6 0 11.5 -5t5.5 -12q0 -11 -11 -16l-102 -37l76 -53q8 -5 8 -15
q0 -8 -5.5 -13.5t-12.5 -5.5q-8 0 -13 5l-71 62l-17 -104q-6 -15 -18 -15q-9 0 -14.5 7.5t-3.5 15.5z" />
    <glyph glyph-name="plus" unicode="+" horiz-adv-x="496" 
d="M286 316l-45 -203q-2 -17 -21 -17q-10 0 -16.5 8t-4.5 18l43 194h-174q-8 0 -14.5 6.5t-6.5 14.5t6.5 14.5t14.5 6.5h183l43 197q6 17 21 17q11 0 17.5 -8t4.5 -18l-41 -188h174q8 0 14.5 -6.5t6.5 -14.5t-6.5 -14.5t-14.5 -6.5h-184z" />
    <glyph glyph-name="comma" unicode="," horiz-adv-x="219" 
d="M7 -114q-7 0 -12 5.5t-5 12.5q0 9 8 15q50 32 62 75h-7q-14 0 -24 10.5t-10 25.5q0 20 14 34t33 14t31 -12.5t12 -35.5q0 -38 -26 -77t-66 -64q-5 -3 -10 -3z" />
    <glyph glyph-name="hyphen" unicode="-" horiz-adv-x="300" 
d="M27 242q0 10 7 17t17 7h196q10 0 17 -7t7 -17t-7 -17t-17 -7h-196q-10 0 -17 7t-7 17z" />
    <glyph glyph-name="period" unicode="." horiz-adv-x="219" 
d="M67 78q17 0 28.5 -12t11.5 -29q0 -19 -14 -33t-34 -14q-17 0 -28.5 12t-11.5 29q0 20 14 33.5t34 13.5z" />
    <glyph glyph-name="slash" unicode="/" horiz-adv-x="282" 
d="M-46 -3q0 6 2 10l374 672q5 11 17 11q9 0 15.5 -6.5t6.5 -14.5q0 -5 -3 -10l-374 -672q-7 -10 -18 -10q-9 0 -14.5 6t-5.5 14z" />
    <glyph glyph-name="zero" unicode="0" horiz-adv-x="608" 
d="M373 677q100 0 154 -68t54 -187q0 -100 -38 -202q-38 -103 -107 -167q-70 -65 -161 -65q-100 0 -155 68.5t-55 187.5q0 99 38 201t108 166q71 66 162 66zM367 625q-67 3 -125 -58.5t-88.5 -150.5t-28.5 -176q0 -94 38.5 -147t116.5 -53q67 -3 125 58.5t88.5 151
t28.5 176.5q0 94 -38.5 146.5t-116.5 52.5z" />
    <glyph glyph-name="one" unicode="1" horiz-adv-x="308" 
d="M121 31l122 558l-114 -100q-8 -5 -15 -5q-10 0 -16.5 6.5t-6.5 16.5q0 9 8 17l163 139q8 7 19 7q14 0 23.5 -11.5t6.5 -25.5l-136 -614q-2 -9 -9.5 -15.5t-17.5 -6.5q-14 0 -22 10.5t-5 23.5z" />
    <glyph glyph-name="two" unicode="2" horiz-adv-x="568" 
d="M9 37q0 20 17 32q161 101 250 167q215 155 215 273q0 54 -41.5 85t-111.5 31q-92 0 -157 -53q-8 -5 -14 -5q-11 0 -18.5 7.5t-7.5 18.5q0 13 10 20q78 64 189 64q90 0 151.5 -44t61.5 -122q0 -76 -61 -152q-59 -76 -155 -147q-93 -69 -235 -160h321q11 0 19 -8t8 -18
t-8 -18t-19 -8h-378q-15 0 -25.5 11t-10.5 26z" />
    <glyph glyph-name="three" unicode="3" horiz-adv-x="537" 
d="M6 104q-5 8 -5 16q0 11 8 19.5t20 8.5q15 0 23 -11q26 -45 74.5 -71t106.5 -26q80 0 128 45t48 115q0 53 -43.5 85t-115.5 32h-27q-11 0 -18.5 8t-7.5 19q0 10 8 17.5t19 7.5h71q72 0 122 35q51 36 51 102q0 50 -45 84.5t-117 34.5q-85 0 -154 -57q-4 -4 -14 -4
t-17.5 7.5t-7.5 17.5q0 13 10 20q81 68 186 68q97 0 157 -44.5t60 -121.5q0 -73 -55 -120.5t-126 -52.5q53 -12 87 -50t34 -91q0 -87 -66 -148t-167 -61q-73 0 -135 31.5t-92 84.5z" />
    <glyph glyph-name="four" unicode="4" horiz-adv-x="527" 
d="M485 208q0 -10 -7.5 -18t-18.5 -8h-78l-36 -163q-2 -9 -10 -15.5t-18 -6.5q-14 0 -22 10.5t-5 23.5l33 151h-276q-13 0 -23.5 10.5t-10.5 23.5q0 10 9 24l373 414q13 16 35 16q20 0 33.5 -14t13.5 -34l-1 -9l-84 -379h67q11 0 18.5 -7.5t7.5 -18.5zM334 234l83 376
l-340 -376h257z" />
    <glyph glyph-name="five" unicode="5" horiz-adv-x="582" 
d="M50 118q0 11 8 19.5t20 8.5q14 0 23 -12q52 -94 175 -94q75 0 129.5 53t54.5 129q0 66 -44.5 104t-116.5 38q-73 0 -132 -42q-8 -5 -17 -5q-15 0 -25 11.5t-6 26.5l63 284q6 28 34 28h328q11 0 18.5 -7.5t7.5 -18.5q0 -10 -7.5 -18t-18.5 -8h-310l-55 -247q61 46 143 46
q84 0 141 -50t57 -137q0 -98 -71.5 -168.5t-177.5 -70.5q-151 0 -216 114q-5 7 -5 16z" />
    <glyph glyph-name="six" unicode="6" horiz-adv-x="584" 
d="M377 677q118 0 177 -84q7 -10 7 -19q0 -11 -8.5 -19t-19.5 -8q-13 0 -21 9q-44 69 -138 69q-98 0 -158 -84q-59 -83 -86 -203l-5 -19q33 36 87 64q56 29 113 29q90 0 144.5 -46.5t54.5 -126.5q2 -100 -72 -176.5t-177 -74.5q-103 0 -158.5 62.5t-55.5 177.5q0 95 35 200
q34 103 106 177q71 72 175 72zM307 362q-101 0 -189 -96q-2 -24 -2 -53q0 -79 42.5 -126t118.5 -47q77 0 132 57.5t55 133.5q0 60 -43 95.5t-114 35.5z" />
    <glyph glyph-name="seven" unicode="7" horiz-adv-x="502" 
d="M89 25q0 8 4 15l388 575h-336q-10 0 -18 8t-8 18q0 11 8 18.5t18 7.5h392q9 0 15.5 -7.5t6.5 -16.5q0 -6 -3 -12l-416 -622q-8 -12 -24 -12q-12 0 -19.5 8t-7.5 20z" />
    <glyph glyph-name="eight" unicode="8" 
d="M246 351q-54 20 -88 57.5t-34 85.5q0 85 68 134t157 49t152 -44.5t63 -116.5t-53.5 -119t-142.5 -59q53 -23 91 -62q40 -40 40 -98q0 -81 -68 -135.5t-165 -54.5q-100 0 -165 44q-64 43 -64 123q0 75 57 126.5t152 69.5zM347 624q-67 0 -117 -36q-48 -36 -48 -97
q0 -43 41 -78q42 -35 90 -45q88 7 139 44t51 98q0 48 -45.5 81t-110.5 33zM302 319q-89 -6 -147 -49q-58 -42 -58 -106q0 -58 48 -91t122 -33q69 0 121.5 39.5t52.5 102.5q0 50 -44 86q-43 37 -95 51z" />
    <glyph glyph-name="nine" unicode="9" horiz-adv-x="584" 
d="M245 -11q-119 0 -176 84q-7 10 -7 20q0 11 8 18.5t19 7.5q14 0 21 -10q43 -68 139 -68q97 0 156 83t88 204l4 18q-33 -36 -87 -64q-55 -28 -113 -28q-90 0 -144.5 46.5t-54.5 126.5q-2 99 72.5 176t176.5 75q103 0 158.5 -62.5t55.5 -177.5q0 -95 -35 -202
q-35 -105 -106 -176t-175 -71zM315 304q104 0 189 96q2 24 2 53q0 79 -42.5 126t-118.5 47q-77 0 -132 -57.5t-55 -133.5q0 -60 43 -95.5t114 -35.5z" />
    <glyph glyph-name="colon" unicode=":" horiz-adv-x="219" 
d="M158 490q17 0 28.5 -11.5t11.5 -28.5q0 -20 -14 -33.5t-34 -13.5q-17 0 -28.5 11.5t-11.5 28.5q0 19 14 33t34 14zM67 78q17 0 28.5 -12t11.5 -29q0 -19 -14 -33t-34 -14q-17 0 -28.5 12t-11.5 29q0 20 14 33.5t34 13.5z" />
    <glyph glyph-name="semicolon" unicode=";" horiz-adv-x="219" 
d="M158 490q17 0 28.5 -11.5t11.5 -28.5q0 -20 -14 -33.5t-34 -13.5q-17 0 -28.5 11.5t-11.5 28.5q0 19 14 33t34 14zM7 -114q-7 0 -12 5.5t-5 12.5q0 9 8 15q50 32 62 75h-7q-14 0 -24 10.5t-10 25.5q0 20 14 34t33 14t31 -12.5t12 -35.5q0 -38 -26 -77t-66 -64
q-5 -3 -10 -3z" />
    <glyph glyph-name="less" unicode="&#x3c;" horiz-adv-x="496" 
d="M46 332q0 16 16 25l444 207q6 2 9 2q8 0 14.5 -6.5t6.5 -15.5q0 -13 -13 -18l-423 -195l331 -188q11 -5 11 -19q0 -10 -6.5 -16.5t-16.5 -6.5q-8 0 -11 3l-348 203q-14 11 -14 25z" />
    <glyph glyph-name="equal" unicode="=" horiz-adv-x="496" 
d="M68 432q0 8 6 14.5t14 6.5h403q8 0 14 -6.5t6 -14.5t-6 -14.5t-14 -6.5h-403q-8 0 -14 6.5t-6 14.5zM24 236q0 8 6.5 14.5t14.5 6.5h402q8 0 14.5 -6.5t6.5 -14.5t-6.5 -14t-14.5 -6h-402q-8 0 -14.5 6t-6.5 14z" />
    <glyph glyph-name="greater" unicode="&#x3e;" horiz-adv-x="496" 
d="M21 104q-9 0 -15 6t-6 15q0 15 13 19l423 192l-331 190q-12 7 -12 20q0 10 7 16.5t16 6.5q8 0 11 -3l348 -204q15 -9 15 -25t-17 -25l-443 -206q-8 -2 -9 -2z" />
    <glyph glyph-name="question" unicode="?" horiz-adv-x="464" 
d="M187 199q-14 23 -14 49q0 33 17 58q17 23 40.5 40t69.5 40q69 35 97 61.5t31 76.5q0 46 -37.5 73.5t-100.5 27.5q-85 0 -152 -58q-8 -5 -14 -5q-10 0 -16.5 7t-6.5 17q0 12 9 19q79 72 184 72q87 0 142 -41q55 -40 55 -105q0 -47 -22 -79q-20 -30 -47 -49t-86 -50
q-62 -32 -86.5 -54t-24.5 -54q0 -16 10 -29q2 -6 2 -8q0 -10 -8 -17.5t-19 -7.5q-18 0 -23 16zM180 78q17 0 28.5 -12t11.5 -29q0 -20 -14 -33.5t-34 -13.5q-17 0 -28.5 12t-11.5 29q0 19 14 33t34 14z" />
    <glyph glyph-name="at" unicode="@" horiz-adv-x="783" 
d="M767 316q0 -105 -48 -168t-114 -63q-38 0 -62.5 24.5t-25.5 60.5l-1 6q-29 -40 -73 -65.5t-91 -25.5q-69 0 -111 43.5t-42 116.5q-3 100 73.5 178t165.5 76q46 0 79.5 -22t49.5 -59l10 48q5 20 24 20q11 0 18.5 -9.5t5.5 -20.5l-54 -256q-2 -16 -2 -19q0 -24 14.5 -39.5
t35.5 -15.5q41 0 78.5 48.5t37.5 142.5q0 125 -80.5 207t-205.5 82q-92 2 -177.5 -49.5t-136 -136.5t-48.5 -175q0 -120 83 -202t206 -82q94 0 177 51q6 2 7 2q6 0 10.5 -4.5t4.5 -10.5q0 -9 -7 -13q-92 -56 -196 -56q-132 -2 -225.5 91t-91.5 223q-2 102 54.5 195
t149.5 147t193 52q135 2 226 -93t89 -229zM526 227l32 148q-12 35 -42 59t-72 24q-76 2 -135.5 -64.5t-57.5 -145.5q0 -55 30 -88.5t81 -33.5q94 0 164 101z" />
    <glyph glyph-name="A" unicode="A" horiz-adv-x="647" 
d="M542 -3q-12 0 -20 7t-9 18l-26 142h-357l-95 -153q-9 -14 -24 -14q-12 0 -20.5 8.5t-8.5 20.5q0 8 4 15l383 606q12 23 41 23q19 0 32.5 -11.5t15.5 -28.5l114 -597q2 -14 -7 -25t-23 -11zM162 216h316l-71 394z" />
    <glyph glyph-name="B" unicode="B" horiz-adv-x="614" 
d="M35 25q0 7 1 9l134 605q6 28 34 28h229q70 0 117.5 -42.5t47.5 -108.5q0 -69 -45.5 -120.5t-109.5 -59.5q42 -10 69.5 -50t27.5 -88q0 -84 -59.5 -141t-166.5 -57h-250q-29 0 -29 25zM420 615h-198l-54 -247h218q73 0 111 40t38 102q0 45 -33.5 75t-81.5 30zM359 316
h-203l-59 -264h220q75 0 119.5 43.5t44.5 105.5q0 51 -33 83t-89 32z" />
    <glyph glyph-name="C" unicode="C" horiz-adv-x="666" 
d="M437 678q162 0 245 -115q5 -8 5 -17q0 -13 -8.5 -21.5t-21.5 -8.5q-17 0 -24 13q-65 97 -200 97q-76 2 -146.5 -41.5t-115 -125.5t-42.5 -180q0 -107 65.5 -173t175.5 -66q92 0 174 64q6 6 16 6q12 0 20 -8t8 -19q0 -12 -11 -21q-95 -74 -210 -74q-131 0 -215.5 80
t-84.5 209q-1 85 30 161t83 128.5t119.5 82.5t137.5 29z" />
    <glyph glyph-name="D" unicode="D" horiz-adv-x="692" 
d="M35 25q0 7 1 9l134 605q6 28 34 28h180q111 2 192 -81t79 -203q1 -71 -27 -139.5t-78.5 -123.5t-131.5 -88t-177 -32h-177q-29 0 -29 25zM595 381q0 100 -63.5 167t-158.5 67h-151l-125 -563h154q149 -3 247.5 95t96.5 234z" />
    <glyph glyph-name="E" unicode="E" horiz-adv-x="564" 
d="M35 25q0 7 1 9l134 605q6 28 34 28h365q11 0 18.5 -7.5t7.5 -18.5q0 -10 -7.5 -18t-18.5 -8h-347l-54 -247h328q11 0 18.5 -7.5t7.5 -18.5q0 -10 -7.5 -18t-18.5 -8h-340l-59 -264h336q11 0 18.5 -7.5t7.5 -18.5q0 -10 -7.5 -18t-18.5 -8h-369q-29 0 -29 25z" />
    <glyph glyph-name="F" unicode="F" horiz-adv-x="542" 
d="M36 31l134 608q6 28 34 28h365q11 0 18.5 -7.5t7.5 -18.5q0 -10 -7.5 -18t-18.5 -8h-347l-54 -247h328q11 0 18.5 -7.5t7.5 -18.5q0 -10 -7.5 -18t-18.5 -8h-340l-65 -297q-2 -9 -10 -15.5t-18 -6.5q-14 0 -22 10.5t-5 23.5z" />
    <glyph glyph-name="G" unicode="G" horiz-adv-x="711" 
d="M129 279q0 -108 66 -173.5t175 -65.5q108 0 194 80l35 160h-223q-10 0 -17.5 7.5t-7.5 17.5q0 11 7 18.5t18 7.5h257q29 0 29 -26q0 -6 -1 -8l-41 -183q-5 -23 -20 -35q-104 -91 -233 -91q-134 0 -217 81t-83 208q-2 111 50 204.5t138.5 146t184.5 50.5q158 0 240 -112
q6 -8 6 -16q0 -12 -8 -20.5t-20 -8.5q-15 0 -23 11q-66 94 -202 94q-120 3 -213.5 -100.5t-90.5 -246.5z" />
    <glyph glyph-name="H" unicode="H" horiz-adv-x="703" 
d="M516 31l63 286h-423l-65 -298q-2 -9 -10 -15.5t-18 -6.5q-14 0 -22 10.5t-5 23.5l136 617q6 22 27 22q14 0 22 -10.5t5 -23.5l-58 -267h422l62 279q6 22 27 22q13 0 21.5 -10t6.5 -24l-136 -617q-2 -9 -10 -15.5t-18 -6.5q-13 0 -21.5 10.5t-5.5 23.5z" />
    <glyph glyph-name="I" unicode="I" horiz-adv-x="223" 
d="M36 31l136 617q6 22 27 22q14 0 22 -10.5t5 -23.5l-135 -617q-2 -9 -10 -15.5t-18 -6.5q-14 0 -22 10.5t-5 23.5z" />
    <glyph glyph-name="J" unicode="J" horiz-adv-x="470" 
d="M-13 77q0 11 8.5 19.5t19.5 8.5t19 -9q44 -56 119 -56q65 0 107 40t58 113l100 455q6 22 28 22q13 0 21.5 -10.5t5.5 -23.5l-97 -443q-46 -205 -220 -205q-106 0 -160 70q-9 8 -9 19z" />
    <glyph glyph-name="K" unicode="K" horiz-adv-x="586" 
d="M596 643q0 -12 -8 -18l-313 -276l213 -308q5 -8 5 -16q0 -11 -9 -19.5t-20 -8.5q-15 0 -25 13l-207 308l-94 -85l-47 -214q-2 -9 -10 -15.5t-18 -6.5q-14 0 -22 10.5t-5 23.5l136 617q6 22 27 22q14 0 22 -10.5t5 -23.5l-71 -327l397 354q7 7 18 7t18.5 -8t7.5 -19z" />
    <glyph glyph-name="L" unicode="L" horiz-adv-x="517" 
d="M35 25q0 7 1 9l136 614q6 22 27 22q14 0 22 -10.5t5 -23.5l-129 -584h294q11 0 18.5 -7.5t7.5 -18.5q0 -10 -7.5 -18t-18.5 -8h-327q-29 0 -29 25z" />
    <glyph glyph-name="M" unicode="M" horiz-adv-x="790" 
d="M602 31l125 567l-369 -594q-4 -9 -15 -9q-15 0 -19 16l-106 587l-127 -579q-2 -9 -10 -15.5t-18 -6.5q-14 0 -22 10.5t-5 23.5l132 600q4 17 17.5 28t30.5 11q18 0 32 -11.5t17 -29.5l95 -530l339 548q14 23 41 23q21 0 35 -14.5t14 -35.5l-1 -9l-131 -592
q-2 -9 -10 -15.5t-18 -6.5q-13 0 -21.5 10.5t-5.5 23.5z" />
    <glyph glyph-name="N" unicode="N" horiz-adv-x="699" 
d="M497 18l-281 570l-125 -569q-2 -9 -10 -15.5t-18 -6.5q-14 0 -22 10.5t-5 23.5l134 608q7 31 38 31q24 0 36 -22l279 -560l125 560q6 22 27 22q14 0 22 -10.5t5 -23.5l-134 -610q-3 -12 -13.5 -20.5t-23.5 -8.5q-22 0 -34 21z" />
    <glyph glyph-name="O" unicode="O" horiz-adv-x="764" 
d="M437 678q130 0 214.5 -78t84.5 -211q3 -165 -108 -284.5t-261 -116.5q-130 0 -215 78t-85 211q-3 165 108 284.5t262 116.5zM432 626q-122 3 -213.5 -100t-89.5 -247q0 -111 68 -175t173 -64q121 -3 214 100t90 247q0 110 -69 174.5t-173 64.5z" />
    <glyph glyph-name="P" unicode="P" 
d="M36 31l134 608q6 28 34 28h206q76 0 125.5 -49t49.5 -118q0 -90 -64 -156.5t-183 -66.5h-190l-57 -258q-2 -9 -10 -15.5t-18 -6.5q-14 0 -22 10.5t-5 23.5zM524 496q0 48 -35.5 83.5t-87.5 35.5h-179l-63 -286h186q83 0 131 48t48 119z" />
    <glyph glyph-name="Q" unicode="Q" horiz-adv-x="764" 
d="M582 62l29 -38q6 -9 6 -17q0 -12 -11 -21q-8 -6 -16 -6q-12 0 -23 14l-29 39q-80 -45 -171 -45q-130 0 -215 78t-85 211q-3 165 108 284.5t262 116.5q130 0 214.5 -78t84.5 -211q0 -100 -41 -186t-113 -141zM428 188q0 13 12 22q8 5 16 5q13 0 21 -11l73 -98
q58 49 91 122t33 159q0 110 -69 174.5t-173 64.5q-122 3 -213.5 -100t-89.5 -247q0 -111 68 -175t173 -64q70 0 135 36l-72 96q-5 7 -5 16z" />
    <glyph glyph-name="R" unicode="R" horiz-adv-x="594" 
d="M364 279l120 -241q3 -8 3 -13q0 -12 -9 -20t-21 -8q-19 0 -27 19l-125 260h-158l-57 -257q-6 -22 -27 -22q-14 0 -22 10.5t-5 23.5l134 608q6 28 34 28h201q73 0 127 -46.5t54 -121.5q0 -93 -61 -154.5t-161 -65.5zM524 496q0 50 -38.5 84.5t-87.5 34.5h-176l-63 -287
h186q82 0 130.5 48t48.5 120z" />
    <glyph glyph-name="S" unicode="S" horiz-adv-x="581" 
d="M32 105q0 12 9 21t21 9q14 0 21 -10q79 -85 201 -85q80 0 124 43.5t44 101.5q0 33 -20 56q-19 22 -46 37.5t-84 39.5q-54 22 -96 44q-87 49 -87 130q0 76 66 131t159 55q137 0 212 -83q9 -11 9 -21q0 -13 -8.5 -21.5t-21.5 -8.5t-20 9q-65 73 -176 73q-64 0 -111 -39
t-47 -89q0 -29 19 -51q18 -20 44.5 -34.5t81.5 -37.5q58 -24 99 -47q90 -50 90 -136q0 -83 -64 -143.5t-172 -60.5q-73 0 -136 26t-102 70q-9 8 -9 21z" />
    <glyph glyph-name="T" unicode="T" horiz-adv-x="564" 
d="M206 31l129 584h-189q-10 0 -18 8t-8 18q0 11 8 18.5t18 7.5h447q11 0 18.5 -7.5t7.5 -18.5q0 -10 -7.5 -18t-18.5 -8h-200l-132 -596q-2 -9 -10 -15.5t-18 -6.5q-13 0 -21.5 10.5t-5.5 23.5z" />
    <glyph glyph-name="U" unicode="U" horiz-adv-x="686" 
d="M86 256l86 392q6 22 27 22q13 0 22 -10.5t6 -23.5l-83 -379q-6 -24 -6 -45q0 -78 51 -125t138 -47q93 0 144.5 53t76.5 164l86 391q6 22 28 22q14 0 22 -10.5t5 -23.5l-83 -380q-31 -137 -95.5 -202.5t-183.5 -65.5q-114 0 -180 58.5t-66 158.5q0 26 5 51z" />
    <glyph glyph-name="V" unicode="V" horiz-adv-x="647" 
d="M228 37l-114 597q-2 14 7 25t24 11q24 0 29 -25l106 -581l369 592q9 14 25 14q13 0 21 -8.5t8 -20.5q0 -9 -4 -16l-382 -605q-15 -23 -42 -23q-18 0 -31.5 11.5t-15.5 28.5z" />
    <glyph glyph-name="W" unicode="W" horiz-adv-x="867" 
d="M538 35l-32 538l-277 -554q-12 -22 -36 -22q-16 0 -27 11t-12 27l-40 603q-1 13 8 22.5t23 9.5q13 0 22 -9t9 -20l29 -561l287 572q8 18 28 18q13 0 22 -8.5t10 -21.5l33 -560l284 574q7 16 26 16q12 0 21 -8t9 -20q0 -5 -4 -14l-308 -609q-12 -22 -36 -22
q-15 0 -26.5 11t-12.5 27z" />
    <glyph glyph-name="X" unicode="X" horiz-adv-x="645" 
d="M674 642q0 -13 -8 -19l-286 -285l175 -299q4 -7 4 -15q0 -11 -8.5 -19t-20.5 -8q-16 0 -25 15l-169 290l-296 -297q-8 -8 -20 -8t-20 8.5t-8 19.5q0 13 8 19l305 303l-164 280q-4 7 -4 14q0 11 9 20t20 9q17 0 26 -16l157 -272l277 279q9 9 20 9t19.5 -8.5t8.5 -19.5z
" />
    <glyph glyph-name="Y" unicode="Y" horiz-adv-x="618" 
d="M657 624l-311 -339l-58 -266q-6 -22 -27 -22q-13 0 -21.5 10t-6.5 24l56 255l-163 343q-3 6 -3 12q0 12 8.5 20.5t20.5 8.5q18 0 26 -17l147 -315l292 322q7 10 20 10q11 0 19 -8.5t8 -19.5q0 -10 -7 -18z" />
    <glyph glyph-name="Z" unicode="Z" horiz-adv-x="581" 
d="M0 31q0 7 8 20l521 564h-367q-10 0 -18 8t-8 18q0 11 8 18.5t18 7.5h420q13 0 22 -9t9 -22q0 -9 -8 -20l-521 -564h375q10 0 17.5 -7.5t7.5 -18.5t-7.5 -18.5t-17.5 -7.5h-428q-12 0 -21.5 9t-9.5 22z" />
    <glyph glyph-name="bracketleft" unicode="[" horiz-adv-x="228" 
d="M-53 -161l182 818q2 21 25 21h130q9 0 15 -6.5t6 -14.5q0 -9 -6 -15.5t-15 -6.5h-117l-173 -782h107q8 0 14.5 -6.5t6.5 -15.5q0 -8 -6.5 -14.5t-14.5 -6.5h-131q-13 0 -19.5 8.5t-3.5 20.5z" />
    <glyph glyph-name="backslash" unicode="\" horiz-adv-x="282" 
d="M123 690q17 0 22 -20l76 -668q1 -10 -6 -17.5t-17 -7.5q-17 0 -22 20l-75 668q-1 10 5.5 17.5t16.5 7.5z" />
    <glyph glyph-name="bracketright" unicode="]" horiz-adv-x="228" 
d="M-78 -169q0 9 6.5 15.5t14.5 6.5h117l173 782h-107q-8 0 -14.5 6.5t-6.5 15.5q0 8 6.5 14.5t14.5 6.5h132q12 0 18.5 -8.5t4.5 -20.5l-182 -818q-5 -21 -26 -21h-130q-8 0 -14.5 6.5t-6.5 14.5z" />
    <glyph glyph-name="asciicircum" unicode="^" horiz-adv-x="428" 
d="M379 346l-79 280l-208 -287q-4 -9 -16 -9q-8 0 -14 6t-6 15q0 7 3 11l220 295q8 13 25 13q24 0 29 -22l88 -290q3 -10 -3.5 -19t-17.5 -9q-17 0 -21 16z" />
    <glyph glyph-name="underscore" unicode="_" horiz-adv-x="564" 
d="M-73 -61q0 8 6.5 14.5t15.5 6.5h531q9 0 15.5 -6.5t6.5 -14.5q0 -9 -6.5 -15.5t-15.5 -6.5h-531q-9 0 -15.5 6.5t-6.5 15.5z" />
    <glyph glyph-name="grave" unicode="`" horiz-adv-x="216" 
d="M239 560l-105 105q-6 7 -6 16q0 10 6 16t15 6q11 0 17 -8l98 -113q5 -5 5 -11q0 -7 -5 -12.5t-13 -5.5t-12 7z" />
    <glyph glyph-name="a" unicode="a" 
d="M537 455l-97 -438q-2 -20 -25 -20q-12 0 -20 9.5t-5 21.5l10 45q-66 -85 -166 -85q-86 0 -137.5 53.5t-51.5 144.5q-2 125 72 218t182 91q57 0 103 -25.5t71 -68.5l14 65q2 20 25 20q12 0 19.5 -9.5t5.5 -21.5zM412 128l51 232q-19 39 -62 63.5t-98 24.5q-85 0 -143 -76
t-58 -177q0 -74 40 -117t106 -43q48 0 92.5 26t71.5 67z" />
    <glyph glyph-name="b" unicode="b" 
d="M524 296q2 -124 -72 -217.5t-181 -90.5q-58 0 -103.5 25t-70.5 69l-14 -65q-5 -20 -25 -20q-12 0 -19.5 9.5t-5.5 21.5l137 622q2 20 25 20q12 0 19.5 -9.5t4.5 -21.5l-49 -229q64 85 166 85q85 0 136.5 -54t51.5 -145zM467 287q0 74 -40 117.5t-106 43.5
q-47 0 -91.5 -26t-72.5 -67l-51 -232q19 -39 62 -63.5t98 -24.5q86 -2 144.5 76t56.5 176z" />
    <glyph glyph-name="c" unicode="c" horiz-adv-x="494" 
d="M314 495q104 0 158 -68q8 -8 8 -18t-7.5 -17t-18.5 -7t-19 8q-40 55 -119 55q-94 0 -154.5 -73.5t-60.5 -173.5q0 -79 45.5 -122.5t119.5 -43.5q66 0 116 47q6 6 15 6q10 0 17 -7t7 -16q0 -11 -9 -18q-65 -59 -151 -59q-96 0 -155.5 57.5t-59.5 156.5q-2 118 78 206.5
t190 86.5z" />
    <glyph glyph-name="d" unicode="d" 
d="M577 639l-137 -622q-2 -20 -25 -20q-12 0 -20 9.5t-5 21.5l10 45q-66 -85 -166 -85q-86 0 -137.5 53.5t-51.5 144.5q-2 125 72 218t182 91q56 0 101.5 -25t72.5 -69l55 249q2 20 24 20q13 0 20.5 -9.5t4.5 -21.5zM412 128l51 232q-19 39 -62 63.5t-98 24.5
q-85 0 -143 -76t-58 -177q0 -74 40 -117t106 -43q48 0 92.5 26t71.5 67z" />
    <glyph glyph-name="e" unicode="e" horiz-adv-x="567" 
d="M314 495q93 0 149 -59t56 -150q0 -16 -4 -33q-3 -28 -32 -28h-380q-2 -16 -2 -28q0 -73 47 -118.5t130 -45.5q69 0 131 41q3 3 10 3q9 0 15 -6.5t6 -14.5q0 -12 -10 -19q-76 -49 -154 -49q-106 0 -168 58.5t-62 154.5q-2 119 78 208t190 86zM469 288q0 73 -43 117.5
t-118 44.5q-71 0 -129.5 -54.5t-70.5 -129.5h360q1 3 1 22z" />
    <glyph glyph-name="f" unicode="f" horiz-adv-x="265" 
d="M381 646q0 -11 -9.5 -18t-20.5 -3q-14 7 -40 7q-74 0 -98 -105l-10 -44h73q9 0 16 -7t7 -17q0 -9 -7 -15.5t-16 -6.5h-82l-94 -420q-2 -20 -25 -20q-12 0 -19.5 9.5t-4.5 21.5l90 409h-54q-10 0 -16.5 6.5t-6.5 15.5q0 10 6.5 17t16.5 7h64l9 44q33 150 150 150
q30 0 57 -11q14 -5 14 -20z" />
    <glyph glyph-name="g" unicode="g" horiz-adv-x="570" 
d="M536 455l-100 -450q-45 -201 -224 -201q-128 0 -192 64q-9 9 -9 19q0 11 7.5 18.5t18.5 7.5q10 0 17 -7q53 -57 157 -57q65 0 110.5 38.5t62.5 117.5l15 72q-67 -85 -171 -85q-83 0 -133 52.5t-50 148.5q-2 121 70 212.5t181 89.5q51 0 99.5 -26t76.5 -68l14 65
q5 20 25 20q12 0 19.5 -9.5t5.5 -21.5zM410 125l53 234q-22 40 -67.5 64.5t-97.5 24.5q-56 2 -102.5 -35.5t-71.5 -95t-24 -117.5q0 -75 40 -118.5t107 -43.5q43 0 87.5 24.5t75.5 62.5z" />
    <glyph glyph-name="h" unicode="h" horiz-adv-x="540" 
d="M359 28l66 300q6 27 6 35q0 42 -29 63.5t-79 21.5q-81 0 -164 -85l-76 -346q-2 -20 -25 -20q-12 0 -19.5 9.5t-5.5 21.5l137 622q2 20 25 20q12 0 19.5 -9.5t5.5 -21.5l-50 -229q85 85 174 85q65 0 103 -31t38 -87q0 -21 -6 -41l-70 -319q-2 -20 -25 -20q-12 0 -19.5 9.5
t-5.5 21.5z" />
    <glyph glyph-name="i" unicode="i" horiz-adv-x="214" 
d="M195 663q15 0 25.5 -10.5t10.5 -24.5q0 -18 -13.5 -31.5t-31.5 -13.5q-15 0 -25.5 10.5t-10.5 24.5q0 20 13.5 32.5t31.5 12.5zM33 28l97 438q2 20 25 20q12 0 19.5 -9.5t5.5 -21.5l-97 -438q-2 -20 -25 -20q-12 0 -19.5 9.5t-5.5 21.5z" />
    <glyph glyph-name="j" unicode="j" horiz-adv-x="214" 
d="M150 618q0 20 13.5 32.5t31.5 12.5q15 0 25.5 -10.5t10.5 -24.5q0 -18 -13.5 -31.5t-31.5 -13.5q-15 0 -25.5 10.5t-10.5 24.5zM-132 -169q0 11 8.5 18t19.5 5q9 -4 27 -4q69 0 90 88l117 528q2 20 25 20q12 0 19.5 -9.5t4.5 -21.5l-114 -517q-29 -134 -139 -134
q-22 0 -40 5t-18 22z" />
    <glyph glyph-name="k" unicode="k" horiz-adv-x="505" 
d="M500 445l-233 -180l148 -227q5 -8 5 -15q0 -11 -8.5 -18.5t-20.5 -7.5q-15 0 -23 14l-145 222l-112 -87l-28 -128q-5 -21 -25 -21q-12 0 -19.5 9.5t-5.5 21.5l137 622q2 20 25 20q12 0 19.5 -9.5t5.5 -21.5l-94 -427l344 269q8 5 15 5q10 0 16.5 -7t6.5 -16q0 -10 -8 -18
z" />
    <glyph glyph-name="l" unicode="l" horiz-adv-x="214" 
d="M33 28l137 622q2 20 25 20q12 0 19.5 -9.5t5.5 -21.5l-137 -622q-2 -20 -25 -20q-12 0 -19.5 9.5t-5.5 21.5z" />
    <glyph glyph-name="m" unicode="m" horiz-adv-x="789" 
d="M732 377q0 -24 -4 -41l-70 -319q-2 -20 -25 -20q-12 0 -19.5 9.5t-5.5 21.5l68 310q4 17 4 28q0 36 -24.5 59t-63.5 23q-35 0 -74.5 -23.5t-70.5 -60.5l-76 -347q-5 -20 -26 -20q-11 0 -19 9.5t-5 21.5l68 310q3 16 3 30q0 39 -23.5 59.5t-65.5 20.5q-69 0 -144 -84
l-76 -347q-2 -20 -25 -20q-12 0 -19.5 9.5t-5.5 21.5l97 438q2 20 25 20q12 0 19.5 -10t4.5 -21l-10 -45q75 85 155 85q54 0 87.5 -30t33.5 -63v-2q74 95 167 95q56 0 88 -31.5t32 -86.5z" />
    <glyph glyph-name="n" unicode="n" horiz-adv-x="540" 
d="M484 377q0 -13 -5 -41l-70 -319q-2 -20 -25 -20q-12 0 -19.5 9.5t-5.5 21.5l66 300q5 25 5 38q0 82 -104 82q-85 0 -167 -84l-76 -347q-2 -20 -25 -20q-12 0 -19.5 9.5t-5.5 21.5l97 438q2 20 25 20q12 0 19.5 -10t4.5 -21l-10 -46q90 86 175 86q66 0 103 -31t37 -87z
" />
    <glyph glyph-name="o" unicode="o" 
d="M311 495q97 0 155 -58t58 -154q2 -115 -78 -206.5t-188 -88.5q-97 0 -155 58t-58 154q-2 115 78 206.5t188 88.5zM310 448q-87 0 -147.5 -74.5t-60.5 -171.5q0 -78 41.5 -122.5t115.5 -44.5q87 0 147.5 74.5t60.5 171.5q0 78 -41.5 122.5t-115.5 44.5z" />
    <glyph glyph-name="p" unicode="p" horiz-adv-x="567" 
d="M524 296q2 -124 -72 -217.5t-181 -90.5q-116 0 -174 94l-55 -249q-2 -20 -25 -20q-12 0 -19.5 9.5t-5.5 21.5l138 622q5 20 25 20q12 0 19.5 -9.5t4.5 -21.5l-10 -45q69 85 167 85q85 0 136.5 -54t51.5 -145zM467 287q0 74 -40 117.5t-106 43.5q-47 0 -91.5 -26
t-72.5 -67l-51 -232q19 -39 62 -63.5t98 -24.5q86 -2 144.5 76t56.5 176z" />
    <glyph glyph-name="q" unicode="q" horiz-adv-x="567" 
d="M536 455l-137 -622q-2 -20 -25 -20q-12 0 -19.5 9.5t-5.5 21.5l51 229q-66 -85 -166 -85q-86 0 -137.5 53.5t-51.5 144.5q-2 125 72 218t182 91q57 0 103 -25.5t71 -68.5l14 65q2 20 25 20q12 0 19.5 -9.5t4.5 -21.5zM412 128l51 232q-19 39 -62 63.5t-98 24.5
q-85 0 -143 -76t-58 -177q0 -74 40 -117t106 -43q48 0 92.5 26t71.5 67z" />
    <glyph glyph-name="r" unicode="r" horiz-adv-x="317" 
d="M348 466q0 -12 -8 -19.5t-19 -7.5l-17 1q-40 0 -79.5 -25t-67.5 -63l-74 -335q-2 -20 -25 -20q-12 0 -19.5 9.5t-5.5 21.5l97 438q5 20 25 20q12 0 19.5 -9.5t4.5 -21.5l-11 -50q77 85 150 85q30 0 30 -24z" />
    <glyph glyph-name="s" unicode="s" horiz-adv-x="459" 
d="M16 74q0 10 7 17t17 7t17 -7q54 -59 146 -59q57 0 92.5 29t35.5 71q0 30 -25.5 49.5t-90.5 46.5q-43 17 -74 33q-68 37 -68 95q0 59 48 99t128 40q51 0 94 -17t68 -46q8 -6 8 -17q0 -10 -7 -17t-17 -7q-9 0 -16 7q-21 24 -57.5 38.5t-76.5 14.5q-54 0 -86.5 -24
t-32.5 -63q0 -28 24 -45.5t87 -43.5q55 -23 77 -35q70 -36 70 -100q0 -62 -50 -107t-132 -45q-116 0 -179 68q-7 7 -7 18z" />
    <glyph glyph-name="t" unicode="t" horiz-adv-x="275" 
d="M292 460q0 -10 -6.5 -16.5t-16.5 -6.5h-82l-75 -335q-3 -14 -3 -24q0 -43 50 -43q17 0 33 9l6 1q15 0 20 -17l1 -5q0 -14 -12 -20q-27 -15 -56 -15q-46 0 -71.5 19.5t-25.5 55.5q0 18 4 31l76 343h-54q-10 0 -16.5 6.5t-6.5 16.5t6.5 16.5t16.5 6.5h64l26 115q5 20 24 20
q13 0 20.5 -9.5t5.5 -21.5l-23 -104h72q10 0 16.5 -6.5t6.5 -16.5z" />
    <glyph glyph-name="u" unicode="u" horiz-adv-x="540" 
d="M506 455l-97 -438q-2 -20 -25 -20q-12 0 -19.5 10t-5.5 21l10 45q-88 -85 -174 -85q-66 0 -103 30.5t-37 85.5q0 15 5 43l70 319q2 20 25 20q12 0 19.5 -9.5t5.5 -21.5l-66 -299q-5 -25 -5 -38q0 -83 104 -83q87 0 166 84l77 347q2 20 25 20q12 0 19.5 -9.5t5.5 -21.5z
" />
    <glyph glyph-name="v" unicode="v" horiz-adv-x="481" 
d="M508 460q0 -6 -4 -13l-279 -431q-12 -19 -34 -19q-14 0 -25.5 9.5t-14.5 23.5l-85 423q-2 12 5.5 22.5t20.5 10.5q10 0 17.5 -6.5t9.5 -15.5l78 -404l263 414q8 12 22 12q11 0 18.5 -7.5t7.5 -18.5z" />
    <glyph glyph-name="w" unicode="w" horiz-adv-x="719" 
d="M439 26l-42 387l-220 -399q-8 -17 -28 -17q-12 0 -21 8.5t-10 20.5l-45 431q-2 11 6 20t20 9q20 0 26 -24l35 -389l221 398q7 15 25 15q24 0 29 -26l42 -387l214 400q7 13 23 13q25 0 25 -25q0 -7 -3 -13l-238 -434q-8 -17 -27 -17q-13 0 -22 8.5t-10 20.5z" />
    <glyph glyph-name="x" unicode="x" horiz-adv-x="479" 
d="M474 446l-203 -200l125 -210q4 -4 4 -13q0 -10 -8.5 -18t-19.5 -8q-14 0 -22 14l-114 203l-209 -209q-8 -8 -17 -8q-10 0 -17 7t-7 17t7 17l215 211l-115 198q-3 6 -3 13q0 11 8 18.5t19 7.5q17 0 23 -14l105 -188l195 195q8 7 17 7q10 0 17 -7t7 -17q0 -9 -7 -16z" />
    <glyph glyph-name="y" unicode="y" horiz-adv-x="481" 
d="M-9 -141q11 -4 30 -4q38 0 76 55l57 87l-88 456q-2 12 5.5 22.5t20.5 10.5q10 0 17.5 -6.5t9.5 -15.5l78 -403l263 413q8 12 22 12q11 0 18.5 -7.5t7.5 -18.5q0 -6 -4 -13l-358 -553q-58 -90 -135 -90q-14 0 -29 3q-22 5 -22 25q0 13 10 21t21 6z" />
    <glyph glyph-name="z" unicode="z" horiz-adv-x="469" 
d="M5 26q0 11 7 18l369 393h-257q-9 0 -15.5 6.5t-6.5 15.5q0 10 6.5 17t15.5 7h309q11 0 18.5 -7.5t7.5 -18.5q0 -6 -7 -17l-372 -394h263q9 0 16 -6.5t7 -16.5t-7 -16.5t-16 -6.5h-313q-10 0 -17.5 7.5t-7.5 18.5z" />
    <glyph glyph-name="braceleft" unicode="{" horiz-adv-x="249" 
d="M-15 -93q0 15 3 26l50 220q2 16 2 17q0 39 -25 50q-12 9 -12 22q0 19 19 24q42 7 56 69l49 219q14 60 50.5 92t88.5 32h39q9 0 15 -6.5t6 -14.5q0 -9 -6 -15.5t-15 -6.5h-49q-33 0 -55 -21t-30 -60l-51 -227q-15 -69 -64 -87q29 -15 29 -54q0 -19 -4 -34l-48 -218
q-2 -16 -2 -22q0 -25 16.5 -42t41.5 -17h33q8 0 14.5 -6.5t6.5 -15.5q0 -8 -6.5 -14.5t-14.5 -6.5h-36q-41 0 -71 27.5t-30 69.5z" />
    <glyph glyph-name="bar" unicode="|" horiz-adv-x="208" 
d="M103 -2v671q0 8 6.5 14.5t14.5 6.5q9 0 15.5 -6.5t6.5 -14.5v-671q0 -8 -6.5 -14.5t-15.5 -6.5q-8 0 -14.5 6.5t-6.5 14.5z" />
    <glyph glyph-name="braceright" unicode="}" horiz-adv-x="249" 
d="M262 581q0 -15 -3 -26l-49 -220q-2 -16 -2 -17q0 -39 25 -50q12 -7 12 -22q0 -19 -19 -24q-42 -7 -56 -69l-49 -219q-14 -60 -50.5 -92t-88.5 -32h-40q-8 0 -14.5 6.5t-6.5 14.5q0 9 6.5 15.5t14.5 6.5h49q33 0 55.5 21.5t30.5 59.5l51 227q15 69 64 88q-29 14 -29 53
q0 19 4 34l48 218q2 16 2 22q0 25 -16.5 42t-41.5 17h-33q-9 0 -15 6.5t-6 15.5q0 8 6 14.5t15 6.5h36q41 0 70.5 -27.5t29.5 -69.5z" />
    <glyph glyph-name="asciitilde" unicode="~" horiz-adv-x="499" 
d="M559 642q-55 -214 -169 -214q-49 3 -66 28t-27 84q-9 47 -20 65.5t-37 18.5q-77 0 -125 -182q-5 -16 -20 -16q-10 0 -16.5 8.5t-4.5 18.5q55 212 168 212q49 -3 66 -27t28 -85q7 -47 18.5 -66t38.5 -19q37 0 69.5 48t55.5 136q5 16 21 16q10 0 16 -8.5t4 -17.5z" />
    <glyph glyph-name="uni00A0" unicode="&#xa0;" horiz-adv-x="259" 
 />
    <glyph glyph-name="exclamdown" unicode="&#xa1;" horiz-adv-x="219" 
d="M150 405q-17 0 -28.5 11.5t-11.5 28.5q0 20 14 34t34 14q17 0 28.5 -12t11.5 -29q0 -19 -14 -33t-34 -14zM140 287l-87 -448q-5 -26 -32 -26q-13 0 -22.5 9t-9.5 23q0 6 1 8l110 443q2 16 20 16q9 0 15 -7.5t5 -17.5z" />
    <glyph glyph-name="cent" unicode="&#xa2;" horiz-adv-x="494" 
d="M480 409q0 -10 -7.5 -17t-18.5 -7t-19 8q-31 42 -90 53l-90 -411h11q66 0 116 47q6 6 15 6q10 0 17 -7t7 -16q0 -11 -9 -18q-65 -59 -151 -59h-16l-18 -74q-5 -17 -21 -17q-10 0 -16.5 8t-4.5 18l16 71q-72 18 -113.5 72t-41.5 136q-2 116 78 205.5t188 87.5l13 56
q6 17 21 17q10 0 16.5 -8t4.5 -18l-12 -50q73 -12 117 -65q8 -8 8 -18zM211 42l91 406q-89 -6 -145 -78t-56 -169q0 -62 29 -103.5t81 -55.5z" />
    <glyph glyph-name="sterling" unicode="&#xa3;" horiz-adv-x="505" 
d="M517 575q0 -12 -7.5 -20.5t-19.5 -8.5q-16 0 -23 13q-16 30 -52 49t-80 19q-72 0 -123.5 -46.5t-51.5 -120.5q0 -46 39 -108l25 -43h124q8 0 14.5 -6t6.5 -15q0 -8 -6.5 -14.5t-14.5 -6.5h-111l1 -20q0 -51 -37 -98q-35 -47 -81 -76q26 9 50 9q36 0 87 -22q50 -21 79 -21
q36 0 74 24q4 4 12 4q10 0 17.5 -7t7.5 -17q0 -11 -11 -20q-52 -37 -102 -37q-45 0 -105 25q-57 20 -97 20q-36 0 -98 -30q-8 -2 -9 -2q-10 0 -16.5 7t-6.5 16q0 15 13 21q72 31 120 87t48 110q0 14 -3 27h-133q-9 0 -15 6.5t-6 14.5q0 9 6 15t15 6h117q-4 8 -22 36
q-44 67 -44 117q0 87 69 151t166 64q57 0 106.5 -23.5t72.5 -62.5q5 -8 5 -16z" />
    <glyph glyph-name="currency" unicode="&#xa4;" horiz-adv-x="588" 
d="M622 561q0 -11 -9 -18l-87 -71q28 -47 28 -107q0 -116 -81 -194l45 -55q5 -5 5 -15t-7 -17.5t-17 -7.5q-12 0 -19 10l-44 55q-64 -43 -140 -43q-98 0 -157 57l-87 -69q-4 -6 -15 -6q-10 0 -17.5 7.5t-7.5 17.5q0 11 9 18l87 70q-28 47 -28 107q0 114 81 195l-47 58
q-5 8 -5 16q0 10 7.5 17t17.5 7q12 0 19 -10l46 -58q61 42 139 42q98 0 157 -57l86 71q7 5 16 5q25 0 25 -25zM498 359q0 69 -43.5 113.5t-120.5 44.5q-82 2 -141 -63t-57 -149q0 -70 43 -113.5t120 -43.5q83 0 141 63t58 148z" />
    <glyph glyph-name="yen" unicode="&#xa5;" horiz-adv-x="618" 
d="M668 642q0 -10 -7 -18l-273 -297h204q8 0 14.5 -6.5t6.5 -14.5t-6.5 -14.5t-14.5 -6.5h-242l-26 -118h233q8 0 14 -6.5t6 -14.5t-6 -14t-14 -6h-242l-24 -107q-5 -22 -27 -22q-14 0 -22 10.5t-5 23.5l21 95h-241q-8 0 -14 6t-6 14t6 14.5t14 6.5h250l26 118h-240
q-8 0 -14 6.5t-6 14.5t6 14.5t14 6.5h220l-144 302q-3 6 -3 12q0 12 8.5 20.5t20.5 8.5q18 0 27 -17l147 -314l291 321q7 10 20 10q11 0 19.5 -8.5t8.5 -19.5z" />
    <glyph glyph-name="brokenbar" unicode="&#xa6;" horiz-adv-x="208" 
d="M103 389v280q0 8 6.5 14.5t14.5 6.5q9 0 15.5 -6.5t6.5 -14.5v-280q0 -8 -6.5 -14.5t-15.5 -6.5q-8 0 -14.5 6.5t-6.5 14.5zM103 -2v280q0 8 6.5 14.5t14.5 6.5q9 0 15.5 -6.5t6.5 -14.5v-280q0 -8 -6.5 -14.5t-15.5 -6.5q-8 0 -14.5 6.5t-6.5 14.5z" />
    <glyph glyph-name="section" unicode="&#xa7;" horiz-adv-x="461" 
d="M368 71q0 -61 -50 -106.5t-130 -45.5q-118 0 -186 62q-8 8 -8 19t7 17.5t17 6.5q9 0 17 -7q55 -57 152 -57q56 0 91.5 30t35.5 75q0 31 -25 49.5t-89 44.5q-46 19 -75 33q-66 37 -66 99q0 52 41 90t112 47q-99 36 -99 109q0 56 47.5 98t124.5 42q107 0 172 -59
q8 -8 8 -17t-6.5 -16t-16.5 -7q-9 0 -15 6q-48 52 -139 52q-53 0 -88 -26t-35 -65q3 -36 27 -53t88 -41q46 -18 75 -33q68 -35 68 -101q0 -49 -33.5 -87.5t-94.5 -55.5q40 -21 56.5 -45t16.5 -58zM112 299q0 -35 30.5 -57.5t106.5 -48.5q59 16 89.5 47t30.5 67q0 34 -26 57
t-79 42q-73 -9 -112.5 -38.5t-39.5 -68.5z" />
    <glyph glyph-name="dieresis" unicode="&#xa8;" horiz-adv-x="409" 
d="M145 601q0 17 12.5 29.5t29.5 12.5q14 0 23.5 -10t9.5 -24q0 -16 -12.5 -28.5t-28.5 -12.5q-14 0 -24 9.5t-10 23.5zM350 601q0 17 12 29.5t29 12.5q15 0 24.5 -10t9.5 -24q0 -16 -12.5 -28.5t-29.5 -12.5q-14 0 -23.5 9.5t-9.5 23.5z" />
    <glyph glyph-name="copyright" unicode="&#xa9;" horiz-adv-x="778" 
d="M64 334q-3 139 101.5 243t242.5 102q140 2 244.5 -102t101.5 -243q3 -139 -101.5 -243.5t-244.5 -101.5q-138 -3 -242.5 101.5t-101.5 243.5zM726 334q2 128 -94 224t-224 93q-128 3 -223 -92.5t-93 -224.5q-2 -128 93 -223.5t223 -93.5q128 -2 224 94t94 223zM197 307
q-3 97 71.5 170.5t164.5 71.5q99 0 147 -68q4 -5 4 -10q0 -7 -5 -12t-12 -5q-10 0 -14 7q-39 58 -120 58q-76 2 -141 -62.5t-62 -149.5q0 -66 45 -111.5t114 -45.5q57 0 105 38q4 3 10 3q15 0 15 -14q0 -7 -6 -13q-59 -44 -124 -44q-87 0 -139.5 53.5t-52.5 133.5z" />
    <glyph glyph-name="ordfeminine" unicode="&#xaa;" horiz-adv-x="409" 
d="M427 618l-62 -278q-2 -17 -21 -17q-9 0 -16 8.5t-4 17.5l7 28q-49 -59 -114 -59q-55 0 -90.5 36t-35.5 99q0 79 49 137t121 58q80 0 118 -57l7 36q2 16 20 16q10 0 16.5 -8t4.5 -17zM338 410l34 152q-13 23 -41.5 37t-63.5 14q-54 0 -92.5 -47t-38.5 -110
q0 -48 25.5 -75.5t68.5 -27.5q58 0 108 57z" />
    <glyph glyph-name="guillemotleft" unicode="&#xab;" horiz-adv-x="402" 
d="M145 70l-100 149q-7 10 -7 19q0 14 13 24l176 156q5 5 13 5t14.5 -6t6.5 -14q0 -11 -7 -15l-168 -150l95 -143q4 -7 4 -13q0 -9 -6.5 -15.5t-15.5 -6.5q-14 0 -18 10zM269 70l-100 149q-6 10 -6 19q0 12 13 24l175 156q5 5 13 5q9 0 15 -6t6 -14q0 -11 -7 -15l-167 -150
l95 -143q4 -7 4 -13q0 -9 -7 -15.5t-16 -6.5q-11 0 -18 10z" />
    <glyph glyph-name="logicalnot" unicode="&#xac;" horiz-adv-x="499" 
d="M443 212q-10 0 -16.5 8t-4.5 18l39 173h-373q-8 0 -14 6.5t-6 14.5t6 14.5t14 6.5h390q29 0 29 -25q0 -7 -1 -10l-43 -188q-2 -18 -20 -18z" />
    <glyph glyph-name="uni00AD" unicode="&#xad;" horiz-adv-x="300" 
d="M27 242q0 10 7 17t17 7h196q10 0 17 -7t7 -17t-7 -17t-17 -7h-196q-10 0 -17 7t-7 17z" />
    <glyph glyph-name="registered" unicode="&#xae;" horiz-adv-x="494" 
d="M84 465q0 88 62 150t150 62t150 -62t62 -150t-62.5 -150t-150.5 -62q-87 0 -149 62t-62 150zM481 465q0 76 -55 130.5t-131 54.5q-77 0 -130.5 -54t-53.5 -131q0 -76 54 -130.5t130 -54.5t131 54.5t55 130.5zM327 351l-39 88h-48l-19 -87q-1 -12 -14 -12q-7 0 -12 5.5
t-3 13.5l46 211q5 16 20 16h75q29 0 49 -17.5t20 -46.5q0 -34 -24.5 -58t-55.5 -24l35 -76q1 -1 1 -6q0 -7 -4.5 -12.5t-11.5 -5.5q-12 0 -15 11zM328 558h-62l-20 -90h69q23 0 39 14.5t16 35.5q0 18 -12 29t-30 11z" />
    <glyph glyph-name="overscore" unicode="&#xaf;" horiz-adv-x="363" 
d="M110 595q0 19 19 19h262q8 0 13.5 -5.5t5.5 -12.5q0 -19 -19 -19h-262q-8 0 -13.5 5.5t-5.5 12.5z" />
    <glyph glyph-name="degree" unicode="&#xb0;" horiz-adv-x="282" 
d="M94 560q0 48 34 82q35 35 82 35t82 -35t35 -82t-35 -82q-34 -33 -82 -33t-82 33.5t-34 81.5zM134 560q0 -32 22 -54t53 -22q32 0 55.5 22.5t23.5 53.5q0 32 -23 55t-55 23q-31 0 -53.5 -23t-22.5 -55z" />
    <glyph glyph-name="plusminus" unicode="&#xb1;" horiz-adv-x="496" 
d="M288 323l-46 -204q-2 -17 -21 -17q-10 0 -16.5 8t-4.5 18l43 195h-174q-8 0 -14.5 6t-6.5 14q0 9 6.5 15t14.5 6h183l44 197q5 18 21 18q10 0 16.5 -8t4.5 -19l-41 -188h174q8 0 14.5 -6t6.5 -14q0 -9 -6.5 -15t-14.5 -6h-183zM-23 21q0 8 6 14t14 6h402q8 0 14.5 -6
t6.5 -14q0 -9 -6.5 -15t-14.5 -6h-402q-8 0 -14 6t-6 15z" />
    <glyph glyph-name="uni00B2" unicode="&#xb2;" horiz-adv-x="344" 
d="M64 445q0 13 12 20q88 52 157 98q127 87 127 157q0 32 -26 50.5t-65 18.5q-59 0 -102 -36q-3 -4 -11 -4t-13.5 5.5t-5.5 12.5q0 8 7 15q53 45 125 45q55 0 96 -26t41 -79q0 -46 -36 -89q-33 -41 -83.5 -77.5t-149.5 -96.5h193q19 0 19 -19q0 -7 -5.5 -13t-13.5 -6h-242
q-10 0 -17 7t-7 17z" />
    <glyph glyph-name="uni00B3" unicode="&#xb3;" horiz-adv-x="364" 
d="M95 471q-5 8 -5 14q0 8 6 14t14 6q10 0 15 -6q41 -47 110 -47q44 0 71 25t27 65q0 29 -28.5 47.5t-73.5 18.5h-10q-7 0 -12.5 5.5t-5.5 13.5q0 19 19 19q40 -2 46 -2q45 0 72.5 20.5t27.5 56.5q0 30 -28 49t-70 19q-50 0 -97 -35q-4 -3 -11 -3q-17 0 -17 18q0 8 7 14
q54 44 120 44q62 0 101.5 -26.5t39.5 -73.5q0 -44 -31 -72.5t-81 -32.5q32 -6 55 -30t23 -56q0 -49 -40 -85.5t-103 -36.5q-93 0 -141 57z" />
    <glyph glyph-name="acute" unicode="&#xb4;" horiz-adv-x="216" 
d="M104 553q-6 0 -10.5 4.5t-4.5 9.5q0 9 7 13l151 117q8 5 13 5q8 0 13.5 -6t5.5 -13q0 -12 -9 -18l-154 -108q-4 -4 -12 -4z" />
    <glyph glyph-name="uni00B5" unicode="&#xb5;" horiz-adv-x="553" 
d="M16 -187q-13 0 -20.5 9.5t-4.5 21.5l140 622q5 20 25 20q12 0 19.5 -9.5t5.5 -21.5l-67 -299q-5 -25 -5 -37q0 -42 26 -64t69 -22q44 0 93 24q50 24 81 58l77 351q2 20 25 20q12 0 19.5 -9.5t5.5 -21.5l-78 -356q-3 -13 -3 -26q0 -35 32 -37q5 0 10 -3q15 -5 15 -20
q0 -22 -21 -24q-3 -1 -16 -1q-74 0 -74 69q0 13 1 17q-88 -86 -182 -86q-75 0 -101 56l-48 -211q-5 -20 -24 -20z" />
    <glyph glyph-name="paragraph" unicode="&#xb6;" horiz-adv-x="449" 
d="M258 -81l157 711h-93l-160 -719q-5 -14 -18 -14q-8 0 -13.5 7t-3.5 15l89 404q-57 0 -97 44.5t-40 111.5q0 73 57 130.5t137 57.5h153q28 0 28 -24q0 -7 -1 -10l-160 -722q-5 -14 -18 -14q-8 0 -13.5 7t-3.5 15z" />
    <glyph glyph-name="middot" unicode="&#xb7;" horiz-adv-x="219" 
d="M114 288q17 0 28.5 -11.5t11.5 -28.5q0 -19 -14 -33t-34 -14q-17 0 -29 11.5t-12 28.5q0 20 14.5 33.5t34.5 13.5z" />
    <glyph glyph-name="cedilla" unicode="&#xb8;" horiz-adv-x="198" 
d="M-84 -147q0 8 5.5 13.5t12.5 5.5t12 -4q30 -24 71 -24q31 0 48.5 14t17.5 37q0 33 -40 33q-17 0 -31 -11q-5 -5 -11 -5q-7 0 -11.5 4.5t-4.5 10.5q0 7 3 11l43 73h38l-41 -68q15 12 34 12q27 0 42.5 -15t15.5 -42q0 -38 -29 -62.5t-76 -24.5q-53 0 -91 27q-8 5 -8 15z
" />
    <glyph glyph-name="uni00B9" unicode="&#xb9;" horiz-adv-x="214" 
d="M153 445l68 313l-64 -55q-8 -5 -12 -5q-18 0 -18 19q0 9 6 14l105 88q8 5 15 5q11 0 17.5 -8.5t4.5 -19.5l-79 -360q-5 -18 -22 -18q-10 0 -16.5 8.5t-4.5 18.5z" />
    <glyph glyph-name="ordmasculine" unicode="&#xba;" horiz-adv-x="405" 
d="M271 648q66 0 105.5 -39t39.5 -102q0 -77 -52.5 -133t-126.5 -56q-66 0 -105.5 39t-39.5 102q0 77 52.5 133t126.5 56zM270 610q-58 0 -95.5 -44.5t-37.5 -106.5q0 -46 27.5 -75t72.5 -29q58 0 96.5 45t38.5 107q0 45 -28.5 74t-73.5 29z" />
    <glyph glyph-name="guillemotright" unicode="&#xbb;" horiz-adv-x="402" 
d="M135 413l99 -149q7 -10 7 -19q0 -14 -13 -24l-176 -156q-5 -5 -13 -5t-14.5 6t-6.5 15t8 14l167 150l-95 144q-4 4 -4 13t6.5 15t15.5 6q12 0 19 -10zM259 413l100 -149q6 -10 6 -19q0 -12 -13 -24l-175 -156q-5 -5 -13 -5q-9 0 -15 6t-6 15q0 10 7 14l168 150l-96 144
q-4 4 -4 12q0 9 7 15.5t16 6.5q12 0 18 -10z" />
    <glyph glyph-name="onequarter" unicode="&#xbc;" horiz-adv-x="683" 
d="M119 291l68 313l-64 -55q-8 -5 -12 -5q-18 0 -18 19q0 9 6 14l105 88q8 5 15 5q11 0 17.5 -8.5t4.5 -19.5l-79 -360q-5 -18 -22 -18q-10 0 -16.5 8.5t-4.5 18.5zM65 -3q-7 0 -11.5 5t-4.5 12q0 8 4 12l548 638q3 6 13 6q7 0 12.5 -5t5.5 -12q0 -5 -4 -12l-549 -638
q-5 -6 -14 -6zM645 125q0 -7 -5.5 -12.5t-13.5 -5.5h-47l-21 -93q-2 -17 -21 -17q-10 0 -16.5 8.5t-4.5 18.5l18 83h-173q-8 0 -14.5 6t-6.5 15q0 6 5 14l230 250q9 11 25 11q17 0 27.5 -13t6.5 -29l-47 -217h39q19 0 19 -19zM542 144l47 211l-196 -211h149z" />
    <glyph glyph-name="onehalf" unicode="&#xbd;" horiz-adv-x="730" 
d="M119 291l68 313l-64 -55q-8 -5 -12 -5q-18 0 -18 19q0 9 6 14l105 88q8 5 15 5q11 0 17.5 -8.5t4.5 -19.5l-79 -360q-5 -18 -22 -18q-10 0 -16.5 8.5t-4.5 18.5zM65 -3q-7 0 -11.5 5t-4.5 12q0 8 4 12l548 638q3 6 13 6q7 0 12.5 -5t5.5 -12q0 -5 -4 -12l-549 -638
q-5 -6 -14 -6zM357 24q0 12 12 20q88 52 157 98q127 87 127 157q0 32 -26 50.5t-65 18.5q-58 0 -102 -36q-3 -4 -11 -4t-13.5 5.5t-5.5 12.5q0 8 7 15q53 45 125 45q55 0 96 -26t41 -79q0 -45 -36 -89q-33 -41 -83.5 -77.5t-149.5 -96.5h193q19 0 19 -19q0 -7 -5.5 -13
t-13.5 -6h-242q-10 0 -17 7t-7 17z" />
    <glyph glyph-name="threequarters" unicode="&#xbe;" horiz-adv-x="791" 
d="M61 317q-5 8 -5 14q0 8 6 14t14 6q10 0 15 -6q41 -47 110 -47q44 0 71 25t27 65q0 29 -28.5 47.5t-73.5 18.5h-10q-7 0 -12.5 5.5t-5.5 13.5q0 19 19 19q40 -2 46 -2q45 0 72.5 20.5t27.5 56.5q0 30 -28 49t-70 19q-50 0 -97 -35q-5 -3 -11 -3q-17 0 -17 18q0 8 7 14
q54 44 120 44q62 0 101.5 -26.5t39.5 -73.5q0 -44 -31 -72.5t-81 -32.5q32 -6 55 -30t23 -56q0 -49 -40 -85.5t-103 -36.5q-93 0 -141 57zM173 -3q-7 0 -11.5 5t-4.5 12q0 8 4 12l548 638q3 6 13 6q7 0 12.5 -5t5.5 -12q0 -5 -4 -12l-549 -638q-5 -6 -14 -6zM753 125
q0 -7 -5.5 -12.5t-13.5 -5.5h-47l-21 -93q-2 -17 -21 -17q-10 0 -16.5 8.5t-4.5 18.5l18 83h-173q-8 0 -14.5 6t-6.5 15q0 6 5 14l230 250q9 11 25 11q17 0 27.5 -13t6.5 -29l-47 -217h39q19 0 19 -19zM650 144l47 211l-196 -211h149z" />
    <glyph glyph-name="questiondown" unicode="&#xbf;" horiz-adv-x="393" 
d="M282 405q-16 0 -28 12t-12 28q0 20 14 33.5t34 13.5q17 0 28.5 -11.5t11.5 -28.5q0 -20 -14 -33.5t-34 -13.5zM276 284q14 -26 14 -49q-3 -50 -30.5 -76t-97.5 -62q-69 -35 -97 -61.5t-31 -77.5q0 -45 37 -72.5t102 -27.5q87 0 151 58q7 4 14 4q10 0 17 -7t7 -17
q0 -13 -9 -18q-79 -72 -185 -72q-87 0 -142 40.5t-55 104.5q0 47 22 79q14 21 34.5 38.5t39.5 28.5t60 33q42 22 61 34q50 30 50 73q0 17 -10 30q-2 2 -2 8q0 10 7.5 17.5t18.5 7.5q18 0 24 -16z" />
    <glyph glyph-name="Agrave" unicode="&#xc0;" horiz-adv-x="647" 
d="M542 -3q-12 0 -20 7t-9 18l-26 142h-357l-95 -153q-9 -14 -24 -14q-12 0 -20.5 8.5t-8.5 20.5q0 8 4 15l383 606q12 23 41 23q19 0 32.5 -11.5t15.5 -28.5l114 -597q2 -14 -7 -25t-23 -11zM162 216h316l-71 394zM412 727l-105 105q-6 8 -6 16q0 10 6 16t15 6q11 0 17 -8
l98 -113q5 -5 5 -11q0 -7 -5 -12.5t-13 -5.5t-12 7z" />
    <glyph glyph-name="Aacute" unicode="&#xc1;" horiz-adv-x="647" 
d="M542 -3q-12 0 -20 7t-9 18l-26 142h-357l-95 -153q-9 -14 -24 -14q-12 0 -20.5 8.5t-8.5 20.5q0 8 4 15l383 606q12 23 41 23q19 0 32.5 -11.5t15.5 -28.5l114 -597q2 -14 -7 -25t-23 -11zM162 216h316l-71 394zM437 720q-6 0 -10.5 4.5t-4.5 9.5q0 9 7 13l151 117
q8 5 13 5q8 0 13.5 -6t5.5 -13q0 -12 -9 -18l-154 -108q-4 -4 -12 -4z" />
    <glyph glyph-name="Acircumflex" unicode="&#xc2;" horiz-adv-x="647" 
d="M542 -3q-12 0 -20 7t-9 18l-26 142h-357l-95 -153q-9 -14 -24 -14q-12 0 -20.5 8.5t-8.5 20.5q0 8 4 15l383 606q12 23 41 23q19 0 32.5 -11.5t15.5 -28.5l114 -597q2 -14 -7 -25t-23 -11zM162 216h316l-71 394zM516 729l-59 107l-107 -111q-3 -5 -11 -5q-7 0 -11.5 5
t-4.5 11t4 10l96 106q13 16 32 16h14q22 0 30 -20l48 -103q1 -1 1 -7q0 -18 -17 -18q-11 0 -15 9z" />
    <glyph glyph-name="Atilde" unicode="&#xc3;" horiz-adv-x="647" 
d="M542 -3q-12 0 -20 7t-9 18l-26 142h-357l-95 -153q-9 -14 -24 -14q-12 0 -20.5 8.5t-8.5 20.5q0 8 4 15l383 606q12 23 41 23q19 0 32.5 -11.5t15.5 -28.5l114 -597q2 -14 -7 -25t-23 -11zM162 216h316l-71 394zM382 824q-45 0 -66 -87q-2 -13 -16 -13q-9 0 -14.5 7
t-3.5 16q28 114 103 114q25 0 41 -13.5t30 -42.5q21 -46 50 -46q43 0 67 86q2 13 16 13q9 0 14.5 -7.5t3.5 -15.5q-31 -114 -104 -114q-25 0 -41 13.5t-30 42.5q-20 47 -50 47z" />
    <glyph glyph-name="Adieresis" unicode="&#xc4;" horiz-adv-x="647" 
d="M542 -3q-12 0 -20 7t-9 18l-26 142h-357l-95 -153q-9 -14 -24 -14q-12 0 -20.5 8.5t-8.5 20.5q0 8 4 15l383 606q12 23 41 23q19 0 32.5 -11.5t15.5 -28.5l114 -597q2 -14 -7 -25t-23 -11zM162 216h316l-71 394zM304 768q0 17 12.5 29.5t29.5 12.5q14 0 23.5 -10t9.5 -24
q0 -16 -12.5 -28.5t-28.5 -12.5q-14 0 -24 9.5t-10 23.5zM509 768q0 17 12 29.5t29 12.5q15 0 24.5 -10t9.5 -24q0 -16 -12.5 -28.5t-29.5 -12.5q-14 0 -23.5 9.5t-9.5 23.5z" />
    <glyph glyph-name="Aring" unicode="&#xc5;" horiz-adv-x="647" 
d="M542 -3q-12 0 -20 7t-9 18l-26 142h-357l-95 -153q-9 -14 -24 -14q-12 0 -20.5 8.5t-8.5 20.5q0 8 4 15l383 606q12 23 41 23q19 0 32.5 -11.5t15.5 -28.5l114 -597q2 -14 -7 -25t-23 -11zM162 216h316l-71 394zM458 907q38 0 62.5 -24.5t24.5 -62.5q0 -43 -31 -74
t-74 -31q-38 0 -62.5 24.5t-24.5 62.5q0 42 31 73q32 32 74 32zM457 875q-29 0 -50 -21t-21 -49q0 -26 15 -42t40 -16q29 0 50.5 20.5t21.5 49.5q0 26 -15.5 42t-40.5 16z" />
    <glyph glyph-name="AE" unicode="&#xc6;" horiz-adv-x="939" 
d="M969 641q0 -10 -7.5 -18t-18.5 -8h-347l-55 -247h329q11 0 18.5 -7.5t7.5 -18.5q0 -10 -7.5 -18t-18.5 -8h-341l-58 -264h336q11 0 18.5 -7.5t7.5 -18.5q0 -10 -7.5 -18t-18.5 -8h-370q-28 0 -28 24q0 8 1 10l29 130h-274l-132 -157q-7 -10 -20 -10q-10 0 -18 8t-8 18
q0 5 6 16l519 610q15 18 39 18h392q11 0 18.5 -7.5t7.5 -18.5zM450 216l86 391l-328 -391h242z" />
    <glyph glyph-name="Ccedilla" unicode="&#xc7;" horiz-adv-x="666" 
d="M687 546q0 -13 -8.5 -21.5t-21.5 -8.5q-17 0 -24 13q-65 97 -200 97q-76 2 -146.5 -41.5t-115 -125.5t-42.5 -180q0 -107 65.5 -173t175.5 -66q92 0 174 64q6 6 16 6q12 0 20 -8t8 -19q0 -12 -11 -21q-95 -74 -210 -74q-21 0 -27 1l-28 -46q15 12 34 12q27 0 42.5 -15
t15.5 -42q0 -39 -29 -63t-77 -24q-52 0 -90 27q-8 5 -8 15q0 8 5.5 13.5t12.5 5.5t12 -4q30 -24 71 -24q31 0 48.5 14t17.5 37q0 33 -40 33q-18 0 -31 -11q-5 -5 -11 -5q-7 0 -11.5 4.5t-4.5 10.5q0 7 3 11l32 55q-107 18 -172 95t-65 189q-1 85 30 161t83 128.5t119.5 82.5
t137.5 29q162 0 245 -115q5 -8 5 -17z" />
    <glyph glyph-name="Egrave" unicode="&#xc8;" horiz-adv-x="564" 
d="M35 25q0 7 1 9l134 605q6 28 34 28h365q11 0 18.5 -7.5t7.5 -18.5q0 -10 -7.5 -18t-18.5 -8h-347l-54 -247h328q11 0 18.5 -7.5t7.5 -18.5q0 -10 -7.5 -18t-18.5 -8h-340l-59 -264h336q11 0 18.5 -7.5t7.5 -18.5q0 -10 -7.5 -18t-18.5 -8h-369q-29 0 -29 25zM387 727
l-105 105q-6 8 -6 16q0 10 6 16t15 6q11 0 17 -8l98 -113q5 -5 5 -11q0 -7 -5 -12.5t-13 -5.5t-12 7z" />
    <glyph glyph-name="Eacute" unicode="&#xc9;" horiz-adv-x="564" 
d="M35 25q0 7 1 9l134 605q6 28 34 28h365q11 0 18.5 -7.5t7.5 -18.5q0 -10 -7.5 -18t-18.5 -8h-347l-54 -247h328q11 0 18.5 -7.5t7.5 -18.5q0 -10 -7.5 -18t-18.5 -8h-340l-59 -264h336q11 0 18.5 -7.5t7.5 -18.5q0 -10 -7.5 -18t-18.5 -8h-369q-29 0 -29 25zM412 720
q-6 0 -10.5 4.5t-4.5 9.5q0 9 7 13l151 117q8 5 13 5q8 0 13.5 -6t5.5 -13q0 -12 -9 -18l-154 -108q-4 -4 -12 -4z" />
    <glyph glyph-name="Ecircumflex" unicode="&#xca;" horiz-adv-x="564" 
d="M35 25q0 7 1 9l134 605q6 28 34 28h365q11 0 18.5 -7.5t7.5 -18.5q0 -10 -7.5 -18t-18.5 -8h-347l-54 -247h328q11 0 18.5 -7.5t7.5 -18.5q0 -10 -7.5 -18t-18.5 -8h-340l-59 -264h336q11 0 18.5 -7.5t7.5 -18.5q0 -10 -7.5 -18t-18.5 -8h-369q-29 0 -29 25zM491 729
l-59 107l-107 -111q-3 -5 -11 -5q-7 0 -11.5 5t-4.5 11t4 10l96 106q13 16 32 16h14q22 0 30 -20l48 -103q1 -1 1 -7q0 -18 -17 -18q-10 0 -15 9z" />
    <glyph glyph-name="Edieresis" unicode="&#xcb;" horiz-adv-x="564" 
d="M35 25q0 7 1 9l134 605q6 28 34 28h365q11 0 18.5 -7.5t7.5 -18.5q0 -10 -7.5 -18t-18.5 -8h-347l-54 -247h328q11 0 18.5 -7.5t7.5 -18.5q0 -10 -7.5 -18t-18.5 -8h-340l-59 -264h336q11 0 18.5 -7.5t7.5 -18.5q0 -10 -7.5 -18t-18.5 -8h-369q-29 0 -29 25zM278 768
q0 17 12.5 29.5t29.5 12.5q14 0 23.5 -10t9.5 -24q0 -16 -12.5 -28.5t-28.5 -12.5q-14 0 -24 9.5t-10 23.5zM483 768q0 17 12 29.5t29 12.5q15 0 24.5 -10t9.5 -24q0 -16 -12.5 -28.5t-29.5 -12.5q-14 0 -23.5 9.5t-9.5 23.5z" />
    <glyph glyph-name="Igrave" unicode="&#xcc;" horiz-adv-x="223" 
d="M36 31l136 617q6 22 27 22q14 0 22 -10.5t5 -23.5l-135 -617q-2 -9 -10 -15.5t-18 -6.5q-14 0 -22 10.5t-5 23.5zM199 727l-105 105q-6 8 -6 16q0 10 6 16t15 6q11 0 17 -8l98 -113q5 -5 5 -11q0 -7 -5 -12.5t-13 -5.5t-12 7z" />
    <glyph glyph-name="Iacute" unicode="&#xcd;" horiz-adv-x="223" 
d="M36 31l136 617q6 22 27 22q14 0 22 -10.5t5 -23.5l-135 -617q-2 -9 -10 -15.5t-18 -6.5q-14 0 -22 10.5t-5 23.5zM225 720q-6 0 -10.5 4.5t-4.5 9.5q0 9 7 13l151 117q8 5 13 5q8 0 13.5 -6t5.5 -13q0 -12 -9 -18l-154 -108q-4 -4 -12 -4z" />
    <glyph glyph-name="Icircumflex" unicode="&#xce;" horiz-adv-x="223" 
d="M36 31l136 617q6 22 27 22q14 0 22 -10.5t5 -23.5l-135 -617q-2 -9 -10 -15.5t-18 -6.5q-14 0 -22 10.5t-5 23.5zM303 729l-59 107l-107 -111q-3 -5 -11 -5q-7 0 -11.5 5t-4.5 11t4 10l96 106q13 16 32 16h14q22 0 30 -20l48 -103q1 -1 1 -7q0 -18 -17 -18q-10 0 -15 9z
" />
    <glyph glyph-name="Idieresis" unicode="&#xcf;" horiz-adv-x="223" 
d="M36 31l136 617q6 22 27 22q14 0 22 -10.5t5 -23.5l-135 -617q-2 -9 -10 -15.5t-18 -6.5q-14 0 -22 10.5t-5 23.5zM91 768q0 17 12.5 29.5t29.5 12.5q14 0 23.5 -10t9.5 -24q0 -16 -12.5 -28.5t-28.5 -12.5q-14 0 -24 9.5t-10 23.5zM296 768q0 17 12 29.5t29 12.5
q15 0 24.5 -10t9.5 -24q0 -16 -12.5 -28.5t-29.5 -12.5q-14 0 -23.5 9.5t-9.5 23.5z" />
    <glyph glyph-name="Eth" unicode="&#xd0;" horiz-adv-x="721" 
d="M685 383q1 -71 -26.5 -139.5t-79 -123.5t-132.5 -88t-177 -32h-177q-28 0 -28 24q0 8 1 10l61 275h-74q-10 0 -17.5 7.5t-7.5 17.5t7.5 17.5t17.5 7.5h85l62 280q6 28 33 28h180q111 2 192.5 -81.5t79.5 -202.5zM624 381q0 100 -63.5 167t-157.5 67h-151l-57 -256h150
q10 0 17.5 -7.5t7.5 -17.5t-7 -17.5t-18 -7.5h-161l-57 -257h153q149 -3 247.5 95t96.5 234z" />
    <glyph glyph-name="Ntilde" unicode="&#xd1;" horiz-adv-x="699" 
d="M497 18l-281 570l-125 -569q-2 -9 -10 -15.5t-18 -6.5q-14 0 -22 10.5t-5 23.5l134 608q7 31 38 31q24 0 36 -22l279 -560l125 560q6 22 27 22q14 0 22 -10.5t5 -23.5l-134 -610q-3 -12 -13.5 -20.5t-23.5 -8.5q-22 0 -34 21zM408 824q-45 0 -66 -87q-2 -13 -16 -13
q-9 0 -14.5 7t-3.5 16q28 114 103 114q25 0 41 -13.5t30 -42.5q21 -46 50 -46q43 0 67 86q2 13 16 13q9 0 14.5 -7.5t3.5 -15.5q-32 -114 -104 -114q-25 0 -41 13.5t-30 42.5q-20 47 -50 47z" />
    <glyph glyph-name="Ograve" unicode="&#xd2;" horiz-adv-x="764" 
d="M437 678q130 0 214.5 -78t84.5 -211q3 -165 -108 -284.5t-261 -116.5q-130 0 -215 78t-85 211q-3 165 108 284.5t262 116.5zM432 626q-122 3 -213.5 -100t-89.5 -247q0 -111 68 -175t173 -64q121 -3 214 100t90 247q0 110 -69 174.5t-173 64.5zM469 727l-105 105
q-6 7 -6 16q0 10 6 16t15 6q11 0 17 -8l98 -113q5 -5 5 -11q0 -7 -5 -12.5t-13 -5.5t-12 7z" />
    <glyph glyph-name="Oacute" unicode="&#xd3;" horiz-adv-x="764" 
d="M437 678q130 0 214.5 -78t84.5 -211q3 -165 -108 -284.5t-261 -116.5q-130 0 -215 78t-85 211q-3 165 108 284.5t262 116.5zM432 626q-122 3 -213.5 -100t-89.5 -247q0 -111 68 -175t173 -64q121 -3 214 100t90 247q0 110 -69 174.5t-173 64.5zM494 720q-6 0 -10.5 4.5
t-4.5 9.5q0 9 7 13l151 117q8 5 13 5q8 0 13.5 -6t5.5 -13q0 -12 -9 -18l-154 -108q-4 -4 -12 -4z" />
    <glyph glyph-name="Ocircumflex" unicode="&#xd4;" horiz-adv-x="764" 
d="M437 678q130 0 214.5 -78t84.5 -211q3 -165 -108 -284.5t-261 -116.5q-130 0 -215 78t-85 211q-3 165 108 284.5t262 116.5zM432 626q-122 3 -213.5 -100t-89.5 -247q0 -111 68 -175t173 -64q121 -3 214 100t90 247q0 110 -69 174.5t-173 64.5zM573 729l-59 107
l-107 -111q-3 -5 -11 -5q-7 0 -11.5 5t-4.5 11t4 10l96 106q13 16 32 16h14q22 0 30 -20l48 -103q1 -1 1 -7q0 -18 -17 -18q-10 0 -15 9z" />
    <glyph glyph-name="Otilde" unicode="&#xd5;" horiz-adv-x="764" 
d="M437 678q130 0 214.5 -78t84.5 -211q3 -165 -108 -284.5t-261 -116.5q-130 0 -215 78t-85 211q-3 165 108 284.5t262 116.5zM432 626q-122 3 -213.5 -100t-89.5 -247q0 -111 68 -175t173 -64q121 -3 214 100t90 247q0 110 -69 174.5t-173 64.5zM439 824q-45 0 -66 -87
q-2 -13 -16 -13q-9 0 -14.5 7t-3.5 16q29 114 103 114q25 0 41 -13.5t30 -42.5q21 -46 50 -46q43 0 67 86q2 13 16 13q9 0 14.5 -7.5t3.5 -15.5q-32 -114 -104 -114q-25 0 -41 13.5t-30 42.5q-20 47 -50 47z" />
    <glyph glyph-name="Odieresis" unicode="&#xd6;" horiz-adv-x="764" 
d="M437 678q130 0 214.5 -78t84.5 -211q3 -165 -108 -284.5t-261 -116.5q-130 0 -215 78t-85 211q-3 165 108 284.5t262 116.5zM432 626q-122 3 -213.5 -100t-89.5 -247q0 -111 68 -175t173 -64q121 -3 214 100t90 247q0 110 -69 174.5t-173 64.5zM361 768q0 17 12.5 29.5
t29.5 12.5q14 0 23.5 -10t9.5 -24q0 -16 -12.5 -28.5t-28.5 -12.5q-14 0 -24 9.5t-10 23.5zM566 768q0 17 12 29.5t29 12.5q15 0 24.5 -10t9.5 -24q0 -16 -12.5 -28.5t-29.5 -12.5q-14 0 -23.5 9.5t-9.5 23.5z" />
    <glyph glyph-name="multiply" unicode="&#xd7;" horiz-adv-x="496" 
d="M264 305l-173 -142q-5 -5 -13 -5t-14 6.5t-6 14.5t7 15l174 143l-106 136q-4 4 -4 13q0 8 6 14.5t15 6.5q8 0 16 -8l105 -136l174 142q5 5 13 5t14 -6.5t6 -14.5q0 -9 -8 -15l-173 -143l106 -137q4 -5 4 -12q0 -9 -6 -15t-15 -6q-8 0 -16 8z" />
    <glyph glyph-name="Oslash" unicode="&#xd8;" horiz-adv-x="764" 
d="M763 698q0 -8 -5 -13l-93 -98q71 -77 71 -198q3 -165 -108 -284.5t-261 -116.5q-124 0 -204 68l-93 -98q-6 -6 -13 -6q-16 0 -16 16q0 7 6 13l92 97q-72 78 -72 199q-3 165 108 284.5t262 116.5q122 0 204 -68l94 99q6 6 12 6q7 0 11.5 -5t4.5 -12zM180 122l421 445
q-67 59 -169 59q-122 3 -213.5 -100t-89.5 -247q0 -95 51 -157zM623 543l-420 -445q67 -58 167 -58q121 -3 214 100t90 247q0 95 -51 156z" />
    <glyph glyph-name="Ugrave" unicode="&#xd9;" horiz-adv-x="686" 
d="M86 256l86 392q6 22 27 22q13 0 22 -10.5t6 -23.5l-83 -379q-6 -24 -6 -45q0 -78 51 -125t138 -47q93 0 144.5 53t76.5 164l86 391q6 22 28 22q14 0 22 -10.5t5 -23.5l-83 -380q-31 -137 -95.5 -202.5t-183.5 -65.5q-114 0 -180 58.5t-66 158.5q0 26 5 51zM430 727
l-105 105q-6 8 -6 16q0 10 6 16t15 6q11 0 17 -8l98 -113q5 -5 5 -11q0 -7 -5 -12.5t-13 -5.5t-12 7z" />
    <glyph glyph-name="Uacute" unicode="&#xda;" horiz-adv-x="686" 
d="M86 256l86 392q6 22 27 22q13 0 22 -10.5t6 -23.5l-83 -379q-6 -24 -6 -45q0 -78 51 -125t138 -47q93 0 144.5 53t76.5 164l86 391q6 22 28 22q14 0 22 -10.5t5 -23.5l-83 -380q-31 -137 -95.5 -202.5t-183.5 -65.5q-114 0 -180 58.5t-66 158.5q0 26 5 51zM455 720
q-6 0 -10.5 4.5t-4.5 9.5q0 9 7 13l151 117q8 5 13 5q8 0 13.5 -6t5.5 -13q0 -12 -9 -18l-154 -108q-4 -4 -12 -4z" />
    <glyph glyph-name="Ucircumflex" unicode="&#xdb;" horiz-adv-x="686" 
d="M86 256l86 392q6 22 27 22q13 0 22 -10.5t6 -23.5l-83 -379q-6 -24 -6 -45q0 -78 51 -125t138 -47q93 0 144.5 53t76.5 164l86 391q6 22 28 22q14 0 22 -10.5t5 -23.5l-83 -380q-31 -137 -95.5 -202.5t-183.5 -65.5q-114 0 -180 58.5t-66 158.5q0 26 5 51zM534 729
l-59 107l-107 -111q-3 -5 -11 -5q-7 0 -11.5 5t-4.5 11t4 10l96 106q13 16 32 16h14q22 0 30 -20l48 -103q1 -1 1 -7q0 -18 -17 -18q-11 0 -15 9z" />
    <glyph glyph-name="Udieresis" unicode="&#xdc;" horiz-adv-x="686" 
d="M86 256l86 392q6 22 27 22q13 0 22 -10.5t6 -23.5l-83 -379q-6 -24 -6 -45q0 -78 51 -125t138 -47q93 0 144.5 53t76.5 164l86 391q6 22 28 22q14 0 22 -10.5t5 -23.5l-83 -380q-31 -137 -95.5 -202.5t-183.5 -65.5q-114 0 -180 58.5t-66 158.5q0 26 5 51zM322 768
q0 17 12.5 29.5t29.5 12.5q14 0 23.5 -10t9.5 -24q0 -16 -12.5 -28.5t-28.5 -12.5q-14 0 -24 9.5t-10 23.5zM527 768q0 17 12 29.5t29 12.5q15 0 24.5 -10t9.5 -24q0 -16 -12.5 -28.5t-29.5 -12.5q-14 0 -23.5 9.5t-9.5 23.5z" />
    <glyph glyph-name="Yacute" unicode="&#xdd;" horiz-adv-x="618" 
d="M657 624l-311 -339l-58 -266q-6 -22 -27 -22q-13 0 -21.5 10t-6.5 24l56 255l-163 343q-3 6 -3 12q0 12 8.5 20.5t20.5 8.5q18 0 26 -17l147 -315l292 322q7 10 20 10q11 0 19 -8.5t8 -19.5q0 -10 -7 -18zM422 720q-6 0 -10.5 4.5t-4.5 9.5q0 9 7 13l151 117q8 5 13 5
q8 0 13.5 -6t5.5 -13q0 -12 -9 -18l-154 -108q-4 -4 -12 -4z" />
    <glyph glyph-name="Thorn" unicode="&#xde;" 
d="M557 376q0 -90 -64.5 -156.5t-182.5 -66.5h-190l-29 -134q-2 -9 -10 -15.5t-18 -6.5q-14 0 -22 10.5t-5 23.5l136 617q6 22 27 22q14 0 22 -10.5t5 -23.5l-20 -93h181q71 0 120.5 -49t49.5 -118zM496 372q0 50 -36 84q-37 35 -87 35h-178l-63 -286h184q85 0 132.5 48.5
t47.5 118.5z" />
    <glyph glyph-name="germandbls" unicode="&#xdf;" horiz-adv-x="540" 
d="M331 361q63 -12 102 -56.5t39 -107.5q0 -23 -6 -47q-16 -72 -75 -117t-139 -45q-60 0 -110 27q-13 7 -13 21q0 10 7 17t17 7q8 0 19 -7q33 -19 80 -19q62 0 105.5 34.5t55.5 92.5q5 28 5 42q0 62 -44 98.5t-126 38.5q-8 0 -14 6t-6 16q0 19 20 21q89 4 138.5 48t49.5 103
q0 44 -30 70t-76 26q-59 0 -101.5 -38.5t-59.5 -111.5l-103 -462q-5 -21 -25 -21q-12 0 -19.5 9.5t-4.5 21.5l100 452q21 94 77 145.5t139 51.5q66 0 112.5 -38t46.5 -101q0 -15 -5 -40q-12 -51 -54 -87.5t-102 -49.5z" />
    <glyph glyph-name="agrave" unicode="&#xe0;" 
d="M537 455l-97 -438q-2 -20 -25 -20q-12 0 -20 9.5t-5 21.5l10 45q-66 -85 -166 -85q-86 0 -137.5 53.5t-51.5 144.5q-2 125 72 218t182 91q57 0 103 -25.5t71 -68.5l14 65q2 20 25 20q12 0 19.5 -9.5t5.5 -21.5zM412 128l51 232q-19 39 -62 63.5t-98 24.5q-85 0 -143 -76
t-58 -177q0 -74 40 -117t106 -43q48 0 92.5 26t71.5 67zM343 580l-105 105q-6 7 -6 16q0 10 6 16t15 6q11 0 17 -8l98 -113q5 -5 5 -11q0 -7 -5 -12.5t-13 -5.5t-12 7z" />
    <glyph glyph-name="aacute" unicode="&#xe1;" 
d="M537 455l-97 -438q-2 -20 -25 -20q-12 0 -20 9.5t-5 21.5l10 45q-66 -85 -166 -85q-86 0 -137.5 53.5t-51.5 144.5q-2 125 72 218t182 91q57 0 103 -25.5t71 -68.5l14 65q2 20 25 20q12 0 19.5 -9.5t5.5 -21.5zM412 128l51 232q-19 39 -62 63.5t-98 24.5q-85 0 -143 -76
t-58 -177q0 -74 40 -117t106 -43q48 0 92.5 26t71.5 67zM368 573q-6 0 -10.5 4.5t-4.5 9.5q0 9 7 13l151 117q8 5 13 5q8 0 13.5 -6t5.5 -13q0 -12 -9 -18l-154 -108q-4 -4 -12 -4z" />
    <glyph glyph-name="acircumflex" unicode="&#xe2;" 
d="M537 455l-97 -438q-2 -20 -25 -20q-12 0 -20 9.5t-5 21.5l10 45q-66 -85 -166 -85q-86 0 -137.5 53.5t-51.5 144.5q-2 125 72 218t182 91q57 0 103 -25.5t71 -68.5l14 65q2 20 25 20q12 0 19.5 -9.5t5.5 -21.5zM412 128l51 232q-19 39 -62 63.5t-98 24.5q-85 0 -143 -76
t-58 -177q0 -74 40 -117t106 -43q48 0 92.5 26t71.5 67zM447 582l-59 107l-107 -111q-3 -5 -11 -5q-7 0 -11.5 5t-4.5 11t4 10l96 106q13 16 32 16h14q22 0 30 -20l48 -103q1 -1 1 -7q0 -18 -17 -18q-10 0 -15 9z" />
    <glyph glyph-name="atilde" unicode="&#xe3;" 
d="M537 455l-97 -438q-2 -20 -25 -20q-12 0 -20 9.5t-5 21.5l10 45q-66 -85 -166 -85q-86 0 -137.5 53.5t-51.5 144.5q-2 125 72 218t182 91q57 0 103 -25.5t71 -68.5l14 65q2 20 25 20q12 0 19.5 -9.5t5.5 -21.5zM412 128l51 232q-19 39 -62 63.5t-98 24.5q-85 0 -143 -76
t-58 -177q0 -74 40 -117t106 -43q48 0 92.5 26t71.5 67zM313 677q-45 0 -66 -87q-2 -13 -16 -13q-9 0 -14.5 7t-3.5 16q29 114 103 114q25 0 41 -13.5t30 -42.5q21 -46 50 -46q43 0 67 86q2 13 16 13q9 0 14.5 -7.5t3.5 -15.5q-32 -114 -104 -114q-25 0 -41 13.5t-30 42.5
q-20 47 -50 47z" />
    <glyph glyph-name="adieresis" unicode="&#xe4;" 
d="M537 455l-97 -438q-2 -20 -25 -20q-12 0 -20 9.5t-5 21.5l10 45q-66 -85 -166 -85q-86 0 -137.5 53.5t-51.5 144.5q-2 125 72 218t182 91q57 0 103 -25.5t71 -68.5l14 65q2 20 25 20q12 0 19.5 -9.5t5.5 -21.5zM412 128l51 232q-19 39 -62 63.5t-98 24.5q-85 0 -143 -76
t-58 -177q0 -74 40 -117t106 -43q48 0 92.5 26t71.5 67zM235 621q0 17 12.5 29.5t29.5 12.5q14 0 23.5 -10t9.5 -24q0 -16 -12.5 -28.5t-28.5 -12.5q-14 0 -24 9.5t-10 23.5zM440 621q0 17 12 29.5t29 12.5q15 0 24.5 -10t9.5 -24q0 -16 -12.5 -28.5t-29.5 -12.5
q-14 0 -23.5 9.5t-9.5 23.5z" />
    <glyph glyph-name="aring" unicode="&#xe5;" 
d="M537 455l-97 -438q-2 -20 -25 -20q-12 0 -20 9.5t-5 21.5l10 45q-66 -85 -166 -85q-86 0 -137.5 53.5t-51.5 144.5q-2 125 72 218t182 91q57 0 103 -25.5t71 -68.5l14 65q2 20 25 20q12 0 19.5 -9.5t5.5 -21.5zM412 128l51 232q-19 39 -62 63.5t-98 24.5q-85 0 -143 -76
t-58 -177q0 -74 40 -117t106 -43q48 0 92.5 26t71.5 67zM390 760q38 0 62.5 -24.5t24.5 -62.5q0 -43 -31 -74t-74 -31q-38 0 -62.5 24.5t-24.5 62.5q0 42 31 73q32 32 74 32zM389 728q-29 0 -50 -21t-21 -49q0 -26 15 -42t40 -16q29 0 50.5 20.5t21.5 49.5q0 26 -15.5 42
t-40.5 16z" />
    <glyph glyph-name="ae" unicode="&#xe6;" horiz-adv-x="948" 
d="M900 288q0 -18 -3 -35q-3 -28 -33 -28h-375q-2 -16 -2 -28q0 -72 47.5 -118t129.5 -46q63 0 125 41q5 3 11 3q9 0 15.5 -6t6.5 -15q0 -11 -11 -19q-73 -49 -146 -49q-80 0 -132 40t-67 108l-26 -119q-2 -20 -25 -20q-12 0 -20 9.5t-5 21.5l10 45q-66 -85 -166 -85
q-86 0 -137.5 53.5t-51.5 144.5q-2 125 72 218t182 91q57 0 103 -25.5t71 -68.5l14 65q2 20 25 20q12 0 19.5 -9.5t5.5 -21.5l-13 -62q79 102 186 102q89 0 139.5 -56.5t50.5 -150.5zM850 288q0 74 -41 118t-115 44q-71 0 -129.5 -54.5t-70.5 -129.5h355q1 3 1 22zM412 128
l51 232q-19 39 -62 63.5t-98 24.5q-85 0 -143 -76t-58 -177q0 -74 40 -117t106 -43q48 0 92.5 26t71.5 67z" />
    <glyph glyph-name="ccedilla" unicode="&#xe7;" horiz-adv-x="494" 
d="M480 409q0 -10 -7.5 -17t-18.5 -7t-19 8q-40 55 -119 55q-94 0 -154.5 -73.5t-60.5 -173.5q0 -79 45.5 -122.5t119.5 -43.5q66 0 116 47q6 6 15 6q10 0 17 -7t7 -16q0 -11 -9 -18q-65 -59 -151 -59h-16l-27 -45q15 12 35 12q26 0 41.5 -15t15.5 -42q0 -38 -29 -62.5
t-76 -24.5q-53 0 -91 27q-8 5 -8 15q0 7 5.5 13t12.5 6t12 -4q30 -24 71 -24q31 0 48.5 14t17.5 37q0 33 -40 33q-17 0 -31 -11q-5 -5 -11 -5q-7 0 -11.5 4.5t-4.5 10.5q0 2 3 11l32 55q-76 14 -120 69t-44 140q-2 118 78 206.5t190 86.5q104 0 158 -68q8 -8 8 -18z" />
    <glyph glyph-name="egrave" unicode="&#xe8;" horiz-adv-x="567" 
d="M314 495q93 0 149 -59t56 -150q0 -16 -4 -33q-3 -28 -32 -28h-380q-2 -16 -2 -28q0 -73 47 -118.5t130 -45.5q69 0 131 41q3 3 10 3q9 0 15 -6.5t6 -14.5q0 -12 -10 -19q-76 -49 -154 -49q-106 0 -168 58.5t-62 154.5q-2 119 78 208t190 86zM469 288q0 73 -43 117.5
t-118 44.5q-71 0 -129.5 -54.5t-70.5 -129.5h360q1 3 1 22zM340 580l-105 105q-6 7 -6 16q0 10 6 16t15 6q11 0 17 -8l98 -113q5 -5 5 -11q0 -7 -5 -12.5t-13 -5.5t-12 7z" />
    <glyph glyph-name="eacute" unicode="&#xe9;" horiz-adv-x="567" 
d="M314 495q93 0 149 -59t56 -150q0 -16 -4 -33q-3 -28 -32 -28h-380q-2 -16 -2 -28q0 -73 47 -118.5t130 -45.5q69 0 131 41q3 3 10 3q9 0 15 -6.5t6 -14.5q0 -12 -10 -19q-76 -49 -154 -49q-106 0 -168 58.5t-62 154.5q-2 119 78 208t190 86zM469 288q0 73 -43 117.5
t-118 44.5q-71 0 -129.5 -54.5t-70.5 -129.5h360q1 3 1 22zM365 573q-6 0 -10.5 4.5t-4.5 9.5q0 9 7 13l151 117q8 5 13 5q8 0 13.5 -6t5.5 -13q0 -12 -9 -18l-154 -108q-4 -4 -12 -4z" />
    <glyph glyph-name="ecircumflex" unicode="&#xea;" horiz-adv-x="567" 
d="M314 495q93 0 149 -59t56 -150q0 -16 -4 -33q-3 -28 -32 -28h-380q-2 -16 -2 -28q0 -73 47 -118.5t130 -45.5q69 0 131 41q3 3 10 3q9 0 15 -6.5t6 -14.5q0 -12 -10 -19q-76 -49 -154 -49q-106 0 -168 58.5t-62 154.5q-2 119 78 208t190 86zM469 288q0 73 -43 117.5
t-118 44.5q-71 0 -129.5 -54.5t-70.5 -129.5h360q1 3 1 22zM444 582l-59 107l-107 -111q-3 -5 -11 -5q-7 0 -11.5 5t-4.5 11t4 10l96 106q13 16 32 16h14q22 0 30 -20l48 -103q1 -1 1 -7q0 -18 -17 -18q-11 0 -15 9z" />
    <glyph glyph-name="edieresis" unicode="&#xeb;" horiz-adv-x="567" 
d="M314 495q93 0 149 -59t56 -150q0 -16 -4 -33q-3 -28 -32 -28h-380q-2 -16 -2 -28q0 -73 47 -118.5t130 -45.5q69 0 131 41q3 3 10 3q9 0 15 -6.5t6 -14.5q0 -12 -10 -19q-76 -49 -154 -49q-106 0 -168 58.5t-62 154.5q-2 119 78 208t190 86zM469 288q0 73 -43 117.5
t-118 44.5q-71 0 -129.5 -54.5t-70.5 -129.5h360q1 3 1 22zM231 621q0 17 12.5 29.5t29.5 12.5q14 0 23.5 -10t9.5 -24q0 -16 -12.5 -28.5t-28.5 -12.5q-14 0 -24 9.5t-10 23.5zM436 621q0 17 12 29.5t29 12.5q15 0 24.5 -10t9.5 -24q0 -16 -12.5 -28.5t-29.5 -12.5
q-14 0 -23.5 9.5t-9.5 23.5z" />
    <glyph glyph-name="igrave" unicode="&#xec;" horiz-adv-x="214" 
d="M33 28l97 438q2 20 25 20q12 0 19.5 -9.5t5.5 -21.5l-97 -438q-2 -20 -25 -20q-12 0 -19.5 9.5t-5.5 21.5zM162 580l-105 105q-6 7 -6 16q0 10 6 16t15 6q11 0 17 -8l98 -113q5 -5 5 -11q0 -7 -5 -12.5t-13 -5.5t-12 7z" />
    <glyph glyph-name="iacute" unicode="&#xed;" horiz-adv-x="214" 
d="M33 28l97 438q2 20 25 20q12 0 19.5 -9.5t5.5 -21.5l-97 -438q-2 -20 -25 -20q-12 0 -19.5 9.5t-5.5 21.5zM188 573q-6 0 -10.5 4.5t-4.5 9.5q0 9 7 13l151 117q8 5 13 5q8 0 13.5 -6t5.5 -13q0 -12 -9 -18l-154 -108q-4 -4 -12 -4z" />
    <glyph glyph-name="icircumflex" unicode="&#xee;" horiz-adv-x="214" 
d="M33 28l97 438q2 20 25 20q12 0 19.5 -9.5t5.5 -21.5l-97 -438q-2 -20 -25 -20q-12 0 -19.5 9.5t-5.5 21.5zM266 582l-59 107l-107 -111q-3 -5 -11 -5q-7 0 -11.5 5t-4.5 11t4 10l96 106q13 16 32 16h14q22 0 30 -20l48 -103q1 -1 1 -7q0 -18 -17 -18q-11 0 -15 9z" />
    <glyph glyph-name="idieresis" unicode="&#xef;" horiz-adv-x="214" 
d="M33 28l97 438q2 20 25 20q12 0 19.5 -9.5t5.5 -21.5l-97 -438q-2 -20 -25 -20q-12 0 -19.5 9.5t-5.5 21.5zM54 621q0 17 12.5 29.5t29.5 12.5q14 0 23.5 -10t9.5 -24q0 -16 -12.5 -28.5t-28.5 -12.5q-14 0 -24 9.5t-10 23.5zM259 621q0 17 12 29.5t29 12.5q15 0 24.5 -10
t9.5 -24q0 -16 -12.5 -28.5t-29.5 -12.5q-14 0 -23.5 9.5t-9.5 23.5z" />
    <glyph glyph-name="eth" unicode="&#xf0;" 
d="M524 301q2 -129 -75 -222t-188 -91q-94 0 -154.5 58.5t-60.5 146.5q-2 119 74.5 207.5t178.5 86.5q54 0 99.5 -26.5t68.5 -78.5q-38 101 -122 187l-142 -42l-5 -1q-6 0 -11.5 5t-5.5 12q0 11 12 16l124 37q-28 26 -48 41q-10 9 -10 21t7.5 20t19.5 8q10 0 18 -5
q34 -27 74 -67l103 31l4 1q7 0 12.5 -5t5.5 -12q0 -11 -12 -16l-88 -26q121 -138 121 -286zM465 280q0 65 -42 112.5t-119 47.5q-82 0 -142 -70.5t-60 -169.5q0 -74 43 -119.5t117 -45.5q82 -2 143.5 72.5t59.5 172.5z" />
    <glyph glyph-name="ntilde" unicode="&#xf1;" horiz-adv-x="540" 
d="M484 377q0 -13 -5 -41l-70 -319q-2 -20 -25 -20q-12 0 -19.5 9.5t-5.5 21.5l66 300q5 25 5 38q0 82 -104 82q-85 0 -167 -84l-76 -347q-2 -20 -25 -20q-12 0 -19.5 9.5t-5.5 21.5l97 438q2 20 25 20q12 0 19.5 -10t4.5 -21l-10 -46q90 86 175 86q66 0 103 -31t37 -87z
M297 677q-45 0 -66 -87q-2 -13 -16 -13q-9 0 -14.5 7t-3.5 16q29 114 103 114q25 0 41 -13.5t30 -42.5q21 -46 50 -46q43 0 67 86q2 13 16 13q9 0 14.5 -7.5t3.5 -15.5q-32 -114 -104 -114q-25 0 -41 13.5t-30 42.5q-20 47 -50 47z" />
    <glyph glyph-name="ograve" unicode="&#xf2;" 
d="M311 495q97 0 155 -58t58 -154q2 -115 -78 -206.5t-188 -88.5q-97 0 -155 58t-58 154q-2 115 78 206.5t188 88.5zM310 448q-87 0 -147.5 -74.5t-60.5 -171.5q0 -78 41.5 -122.5t115.5 -44.5q87 0 147.5 74.5t60.5 171.5q0 78 -41.5 122.5t-115.5 44.5zM341 580l-105 105
q-6 7 -6 16q0 10 6 16t15 6q11 0 17 -8l98 -113q5 -5 5 -11q0 -7 -5 -12.5t-13 -5.5t-12 7z" />
    <glyph glyph-name="oacute" unicode="&#xf3;" 
d="M311 495q97 0 155 -58t58 -154q2 -115 -78 -206.5t-188 -88.5q-97 0 -155 58t-58 154q-2 115 78 206.5t188 88.5zM310 448q-87 0 -147.5 -74.5t-60.5 -171.5q0 -78 41.5 -122.5t115.5 -44.5q87 0 147.5 74.5t60.5 171.5q0 78 -41.5 122.5t-115.5 44.5zM366 573
q-6 0 -10.5 4.5t-4.5 9.5q0 9 7 13l151 117q8 5 13 5q8 0 13.5 -6t5.5 -13q0 -12 -9 -18l-154 -108q-4 -4 -12 -4z" />
    <glyph glyph-name="ocircumflex" unicode="&#xf4;" 
d="M311 495q97 0 155 -58t58 -154q2 -115 -78 -206.5t-188 -88.5q-97 0 -155 58t-58 154q-2 115 78 206.5t188 88.5zM310 448q-87 0 -147.5 -74.5t-60.5 -171.5q0 -78 41.5 -122.5t115.5 -44.5q87 0 147.5 74.5t60.5 171.5q0 78 -41.5 122.5t-115.5 44.5zM445 582l-59 107
l-107 -111q-3 -5 -11 -5q-7 0 -11.5 5t-4.5 11t4 10l96 106q13 16 32 16h14q22 0 30 -20l48 -103q1 -1 1 -7q0 -18 -17 -18q-10 0 -15 9z" />
    <glyph glyph-name="otilde" unicode="&#xf5;" 
d="M311 495q97 0 155 -58t58 -154q2 -115 -78 -206.5t-188 -88.5q-97 0 -155 58t-58 154q-2 115 78 206.5t188 88.5zM310 448q-87 0 -147.5 -74.5t-60.5 -171.5q0 -78 41.5 -122.5t115.5 -44.5q87 0 147.5 74.5t60.5 171.5q0 78 -41.5 122.5t-115.5 44.5zM311 677
q-45 0 -66 -87q-2 -13 -16 -13q-9 0 -14.5 7t-3.5 16q29 114 103 114q25 0 41 -13.5t30 -42.5q21 -46 50 -46q43 0 67 86q2 13 16 13q9 0 14.5 -7.5t3.5 -15.5q-32 -114 -104 -114q-25 0 -41 13.5t-30 42.5q-20 47 -50 47z" />
    <glyph glyph-name="odieresis" unicode="&#xf6;" 
d="M311 495q97 0 155 -58t58 -154q2 -115 -78 -206.5t-188 -88.5q-97 0 -155 58t-58 154q-2 115 78 206.5t188 88.5zM310 448q-87 0 -147.5 -74.5t-60.5 -171.5q0 -78 41.5 -122.5t115.5 -44.5q87 0 147.5 74.5t60.5 171.5q0 78 -41.5 122.5t-115.5 44.5zM233 621
q0 17 12.5 29.5t29.5 12.5q14 0 23.5 -10t9.5 -24q0 -16 -12.5 -28.5t-28.5 -12.5q-14 0 -24 9.5t-10 23.5zM438 621q0 17 12 29.5t29 12.5q15 0 24.5 -10t9.5 -24q0 -16 -12.5 -28.5t-29.5 -12.5q-14 0 -23.5 9.5t-9.5 23.5z" />
    <glyph glyph-name="divide" unicode="&#xf7;" horiz-adv-x="511" 
d="M279 528q0 17 13 29.5t30 12.5q15 0 25.5 -10.5t10.5 -25.5q0 -18 -12.5 -30t-30.5 -12q-15 0 -25.5 10.5t-10.5 25.5zM47 337q0 8 6.5 14.5t14.5 6.5h417q8 0 14 -6.5t6 -14.5t-6 -14.5t-14 -6.5h-417q-8 0 -14.5 6.5t-6.5 14.5zM193 136q0 17 12.5 29.5t30.5 12.5
q15 0 25.5 -10.5t10.5 -25.5q0 -18 -13 -30t-31 -12q-15 0 -25 10.5t-10 25.5z" />
    <glyph glyph-name="oslash" unicode="&#xf8;" 
d="M524 283q2 -115 -78 -206.5t-188 -88.5q-77 0 -130 37l-54 -67q-4 -6 -12 -6q-6 0 -10.5 4.5t-4.5 10.5t4 10l54 66q-60 57 -60 157q-2 115 78 206.5t188 88.5q77 0 133 -39l56 69q4 6 12 6q14 0 14 -14q0 -6 -4 -10l-57 -69q59 -56 59 -155zM140 85l271 331
q-41 32 -101 32q-87 0 -147.5 -74.5t-60.5 -171.5q0 -73 38 -117zM467 281q0 71 -36 115l-270 -331q39 -30 98 -30q87 0 147.5 74.5t60.5 171.5z" />
    <glyph glyph-name="ugrave" unicode="&#xf9;" horiz-adv-x="540" 
d="M506 455l-97 -438q-2 -20 -25 -20q-12 0 -19.5 10t-5.5 21l10 45q-88 -85 -174 -85q-66 0 -103 30.5t-37 85.5q0 15 5 43l70 319q2 20 25 20q12 0 19.5 -9.5t5.5 -21.5l-66 -299q-5 -25 -5 -38q0 -83 104 -83q87 0 166 84l77 347q2 20 25 20q12 0 19.5 -9.5t5.5 -21.5z
M326 580l-105 105q-6 7 -6 16q0 10 6 16t15 6q11 0 17 -8l98 -113q5 -5 5 -11q0 -7 -5 -12.5t-13 -5.5t-12 7z" />
    <glyph glyph-name="uacute" unicode="&#xfa;" horiz-adv-x="540" 
d="M506 455l-97 -438q-2 -20 -25 -20q-12 0 -19.5 10t-5.5 21l10 45q-88 -85 -174 -85q-66 0 -103 30.5t-37 85.5q0 15 5 43l70 319q2 20 25 20q12 0 19.5 -9.5t5.5 -21.5l-66 -299q-5 -25 -5 -38q0 -83 104 -83q87 0 166 84l77 347q2 20 25 20q12 0 19.5 -9.5t5.5 -21.5z
M352 573q-6 0 -10.5 4.5t-4.5 9.5q0 9 7 13l151 117q8 5 13 5q8 0 13.5 -6t5.5 -13q0 -12 -9 -18l-154 -108q-4 -4 -12 -4z" />
    <glyph glyph-name="ucircumflex" unicode="&#xfb;" horiz-adv-x="540" 
d="M506 455l-97 -438q-2 -20 -25 -20q-12 0 -19.5 10t-5.5 21l10 45q-88 -85 -174 -85q-66 0 -103 30.5t-37 85.5q0 15 5 43l70 319q2 20 25 20q12 0 19.5 -9.5t5.5 -21.5l-66 -299q-5 -25 -5 -38q0 -83 104 -83q87 0 166 84l77 347q2 20 25 20q12 0 19.5 -9.5t5.5 -21.5z
M430 582l-59 107l-107 -111q-3 -5 -11 -5q-7 0 -11.5 5t-4.5 11t4 10l96 106q13 16 32 16h14q22 0 30 -20l48 -103q1 -1 1 -7q0 -18 -17 -18q-11 0 -15 9z" />
    <glyph glyph-name="udieresis" unicode="&#xfc;" horiz-adv-x="540" 
d="M506 455l-97 -438q-2 -20 -25 -20q-12 0 -19.5 10t-5.5 21l10 45q-88 -85 -174 -85q-66 0 -103 30.5t-37 85.5q0 15 5 43l70 319q2 20 25 20q12 0 19.5 -9.5t5.5 -21.5l-66 -299q-5 -25 -5 -38q0 -83 104 -83q87 0 166 84l77 347q2 20 25 20q12 0 19.5 -9.5t5.5 -21.5z
M218 621q0 17 12.5 29.5t29.5 12.5q14 0 23.5 -10t9.5 -24q0 -16 -12.5 -28.5t-28.5 -12.5q-14 0 -24 9.5t-10 23.5zM423 621q0 17 12 29.5t29 12.5q15 0 24.5 -10t9.5 -24q0 -16 -12.5 -28.5t-29.5 -12.5q-14 0 -23.5 9.5t-9.5 23.5z" />
    <glyph glyph-name="yacute" unicode="&#xfd;" horiz-adv-x="481" 
d="M-9 -141q11 -4 30 -4q38 0 76 55l57 87l-88 456q-2 12 5.5 22.5t20.5 10.5q10 0 17.5 -6.5t9.5 -15.5l78 -403l263 413q8 12 22 12q11 0 18.5 -7.5t7.5 -18.5q0 -6 -4 -13l-358 -553q-58 -90 -135 -90q-14 0 -29 3q-22 5 -22 25q0 13 10 21t21 6zM323 573q-6 0 -10.5 4.5
t-4.5 9.5q0 9 7 13l151 117q8 5 13 5q8 0 13.5 -6t5.5 -13q0 -12 -9 -18l-154 -108q-4 -4 -12 -4z" />
    <glyph glyph-name="thorn" unicode="&#xfe;" horiz-adv-x="567" 
d="M97 82l-55 -249q-2 -20 -25 -20q-12 0 -20 9.5t-5 21.5l178 806q2 20 25 20q12 0 19.5 -9.5t4.5 -21.5l-49 -229q64 85 166 85q85 0 136.5 -54t51.5 -145q2 -124 -72 -217.5t-181 -90.5q-116 0 -174 94zM321 448q-47 0 -91.5 -26t-72.5 -67l-51 -232q19 -39 62 -63.5
t98 -24.5q86 -2 144.5 76t56.5 176q0 74 -40 117.5t-106 43.5z" />
    <glyph glyph-name="ydieresis" unicode="&#xff;" horiz-adv-x="481" 
d="M-9 -141q11 -4 30 -4q38 0 76 55l57 87l-88 456q-2 12 5.5 22.5t20.5 10.5q10 0 17.5 -6.5t9.5 -15.5l78 -403l263 413q8 12 22 12q11 0 18.5 -7.5t7.5 -18.5q0 -6 -4 -13l-358 -553q-58 -90 -135 -90q-14 0 -29 3q-22 5 -22 25q0 13 10 21t21 6zM189 621q0 17 12.5 29.5
t29.5 12.5q14 0 23.5 -10t9.5 -24q0 -16 -12.5 -28.5t-28.5 -12.5q-14 0 -24 9.5t-10 23.5zM394 621q0 17 12 29.5t29 12.5q15 0 24.5 -10t9.5 -24q0 -16 -12.5 -28.5t-29.5 -12.5q-14 0 -23.5 9.5t-9.5 23.5z" />
    <glyph glyph-name="Amacron" unicode="&#x100;" horiz-adv-x="647" 
d="M542 -3q-12 0 -20 7t-9 18l-26 142h-357l-95 -153q-9 -14 -24 -14q-12 0 -20.5 8.5t-8.5 20.5q0 8 4 15l383 606q12 23 41 23q19 0 32.5 -11.5t15.5 -28.5l114 -597q2 -14 -7 -25t-23 -11zM162 216h316l-71 394zM291 762q0 19 19 19h262q8 0 13.5 -5.5t5.5 -12.5
q0 -19 -19 -19h-262q-8 0 -13.5 5.5t-5.5 12.5z" />
    <glyph glyph-name="amacron" unicode="&#x101;" 
d="M537 455l-97 -438q-2 -20 -25 -20q-12 0 -20 9.5t-5 21.5l10 45q-66 -85 -166 -85q-86 0 -137.5 53.5t-51.5 144.5q-2 125 72 218t182 91q57 0 103 -25.5t71 -68.5l14 65q2 20 25 20q12 0 19.5 -9.5t5.5 -21.5zM412 128l51 232q-19 39 -62 63.5t-98 24.5q-85 0 -143 -76
t-58 -177q0 -74 40 -117t106 -43q48 0 92.5 26t71.5 67zM222 615q0 19 19 19h262q8 0 13.5 -5.5t5.5 -12.5q0 -19 -19 -19h-262q-8 0 -13.5 5.5t-5.5 12.5z" />
    <glyph glyph-name="Abreve" unicode="&#x102;" horiz-adv-x="647" 
d="M542 -3q-12 0 -20 7t-9 18l-26 142h-357l-95 -153q-9 -14 -24 -14q-12 0 -20.5 8.5t-8.5 20.5q0 8 4 15l383 606q12 23 41 23q19 0 32.5 -11.5t15.5 -28.5l114 -597q2 -14 -7 -25t-23 -11zM162 216h316l-71 394zM283 788q-4 5 -4 12q0 8 6 14t14 6q11 0 17 -8
q40 -60 121 -60q87 0 153 66q4 4 12 4q18 0 18 -18q0 -7 -6 -13q-83 -77 -183 -77q-99 0 -148 74z" />
    <glyph glyph-name="abreve" unicode="&#x103;" 
d="M537 455l-97 -438q-2 -20 -25 -20q-12 0 -20 9.5t-5 21.5l10 45q-66 -85 -166 -85q-86 0 -137.5 53.5t-51.5 144.5q-2 125 72 218t182 91q57 0 103 -25.5t71 -68.5l14 65q2 20 25 20q12 0 19.5 -9.5t5.5 -21.5zM412 128l51 232q-19 39 -62 63.5t-98 24.5q-85 0 -143 -76
t-58 -177q0 -74 40 -117t106 -43q48 0 92.5 26t71.5 67zM214 641q-4 5 -4 12q0 8 6 14t14 6q11 0 17 -8q41 -60 121 -60q87 0 153 66q4 4 12 4q18 0 18 -18q0 -7 -6 -13q-83 -77 -183 -77q-99 0 -148 74z" />
    <glyph glyph-name="Aogonek" unicode="&#x104;" horiz-adv-x="647" 
d="M440 -113q0 -33 39 -33q8 0 23 4l4 1q7 0 12.5 -5.5t5.5 -12.5q0 -13 -12 -17q-21 -10 -50 -10q-35 0 -56.5 16t-21.5 42q0 40 40 74q43 36 96 58l2 1q-7 6 -9 17l-26 142h-357l-95 -153q-9 -14 -24 -14q-12 0 -20.5 8.5t-8.5 20.5q0 8 4 15l383 606q12 23 41 23
q19 0 32.5 -11.5t15.5 -28.5l114 -597q2 -13 -5.5 -23.5t-19.5 -12.5q-107 -56 -107 -110zM162 216h316l-71 394z" />
    <glyph glyph-name="aogonek" unicode="&#x105;" 
d="M537 455l-97 -438q-1 -15 -21 -20q-107 -54 -107 -110q0 -33 39 -33q8 0 23 4l4 1q7 0 12.5 -5.5t5.5 -12.5q0 -13 -12 -17q-21 -10 -50 -10q-35 0 -56.5 16t-21.5 42q0 40 40 74q43 36 96 58l4 1q-9 11 -6 23l10 45q-66 -85 -166 -85q-86 0 -137.5 53.5t-51.5 144.5
q-2 125 72 218t182 91q57 0 103 -25.5t71 -68.5l14 65q2 20 25 20q12 0 19.5 -9.5t5.5 -21.5zM412 128l51 232q-19 39 -62 63.5t-98 24.5q-85 0 -143 -76t-58 -177q0 -74 40 -117t106 -43q48 0 92.5 26t71.5 67z" />
    <glyph glyph-name="Cacute" unicode="&#x106;" horiz-adv-x="666" 
d="M437 678q162 0 245 -115q5 -8 5 -17q0 -13 -8.5 -21.5t-21.5 -8.5q-17 0 -24 13q-65 97 -200 97q-76 2 -146.5 -41.5t-115 -125.5t-42.5 -180q0 -107 65.5 -173t175.5 -66q92 0 174 64q6 6 16 6q12 0 20 -8t8 -19q0 -12 -11 -21q-95 -74 -210 -74q-131 0 -215.5 80
t-84.5 209q-1 85 30 161t83 128.5t119.5 82.5t137.5 29zM498 720q-6 0 -10.5 4.5t-4.5 9.5q0 9 7 13l151 117q8 5 13 5q8 0 13.5 -6t5.5 -13q0 -12 -9 -18l-154 -108q-4 -4 -12 -4z" />
    <glyph glyph-name="cacute" unicode="&#x107;" horiz-adv-x="494" 
d="M314 495q104 0 158 -68q8 -8 8 -18t-7.5 -17t-18.5 -7t-19 8q-40 55 -119 55q-94 0 -154.5 -73.5t-60.5 -173.5q0 -79 45.5 -122.5t119.5 -43.5q66 0 116 47q6 6 15 6q10 0 17 -7t7 -16q0 -11 -9 -18q-65 -59 -151 -59q-96 0 -155.5 57.5t-59.5 156.5q-2 118 78 206.5
t190 86.5zM365 573q-6 0 -10.5 4.5t-4.5 9.5q0 9 7 13l151 117q8 5 13 5q8 0 13.5 -6t5.5 -13q0 -12 -9 -18l-154 -108q-4 -4 -12 -4z" />
    <glyph glyph-name="Ccircumflex" unicode="&#x108;" horiz-adv-x="666" 
d="M437 678q162 0 245 -115q5 -8 5 -17q0 -13 -8.5 -21.5t-21.5 -8.5q-17 0 -24 13q-65 97 -200 97q-76 2 -146.5 -41.5t-115 -125.5t-42.5 -180q0 -107 65.5 -173t175.5 -66q92 0 174 64q6 6 16 6q12 0 20 -8t8 -19q0 -12 -11 -21q-95 -74 -210 -74q-131 0 -215.5 80
t-84.5 209q-1 85 30 161t83 128.5t119.5 82.5t137.5 29zM577 729l-59 107l-107 -111q-3 -5 -11 -5q-7 0 -11.5 5t-4.5 11t4 10l96 106q13 16 32 16h14q22 0 30 -20l48 -103q1 -1 1 -7q0 -18 -17 -18q-10 0 -15 9z" />
    <glyph glyph-name="ccircumflex" unicode="&#x109;" horiz-adv-x="494" 
d="M314 495q104 0 158 -68q8 -8 8 -18t-7.5 -17t-18.5 -7t-19 8q-40 55 -119 55q-94 0 -154.5 -73.5t-60.5 -173.5q0 -79 45.5 -122.5t119.5 -43.5q66 0 116 47q6 6 15 6q10 0 17 -7t7 -16q0 -11 -9 -18q-65 -59 -151 -59q-96 0 -155.5 57.5t-59.5 156.5q-2 118 78 206.5
t190 86.5zM444 582l-59 107l-107 -111q-3 -5 -11 -5q-7 0 -11.5 5t-4.5 11t4 10l96 106q13 16 32 16h14q22 0 30 -20l48 -103q1 -1 1 -7q0 -18 -17 -18q-11 0 -15 9z" />
    <glyph glyph-name="Cdotaccent" unicode="&#x10a;" horiz-adv-x="666" 
d="M437 678q162 0 245 -115q5 -8 5 -17q0 -13 -8.5 -21.5t-21.5 -8.5q-17 0 -24 13q-65 97 -200 97q-76 2 -146.5 -41.5t-115 -125.5t-42.5 -180q0 -107 65.5 -173t175.5 -66q92 0 174 64q6 6 16 6q12 0 20 -8t8 -19q0 -12 -11 -21q-95 -74 -210 -74q-131 0 -215.5 80
t-84.5 209q-1 85 30 161t83 128.5t119.5 82.5t137.5 29zM463 766q0 17 12.5 29.5t30.5 12.5q14 0 24 -9.5t10 -24.5q0 -17 -13 -29.5t-30 -12.5q-14 0 -24 9.5t-10 24.5z" />
    <glyph glyph-name="cdotaccent" unicode="&#x10b;" horiz-adv-x="494" 
d="M314 495q104 0 158 -68q8 -8 8 -18t-7.5 -17t-18.5 -7t-19 8q-40 55 -119 55q-94 0 -154.5 -73.5t-60.5 -173.5q0 -79 45.5 -122.5t119.5 -43.5q66 0 116 47q6 6 15 6q10 0 17 -7t7 -16q0 -11 -9 -18q-65 -59 -151 -59q-96 0 -155.5 57.5t-59.5 156.5q-2 118 78 206.5
t190 86.5zM330 619q0 17 12.5 29.5t30.5 12.5q14 0 24 -9.5t10 -24.5q0 -17 -13 -29.5t-30 -12.5q-14 0 -24 9.5t-10 24.5z" />
    <glyph glyph-name="Ccaron" unicode="&#x10c;" horiz-adv-x="666" 
d="M437 678q162 0 245 -115q5 -8 5 -17q0 -13 -8.5 -21.5t-21.5 -8.5q-17 0 -24 13q-65 97 -200 97q-76 2 -146.5 -41.5t-115 -125.5t-42.5 -180q0 -107 65.5 -173t175.5 -66q92 0 174 64q6 6 16 6q12 0 20 -8t8 -19q0 -12 -11 -21q-95 -74 -210 -74q-131 0 -215.5 80
t-84.5 209q-1 85 30 161t83 128.5t119.5 82.5t137.5 29zM438 861l59 -107l107 111q3 5 11 5q7 0 11.5 -5t4.5 -11t-4 -10l-96 -106q-13 -16 -32 -16h-14q-22 0 -30 20l-48 103q-1 1 -1 7q0 18 17 18q11 0 15 -9z" />
    <glyph glyph-name="ccaron" unicode="&#x10d;" horiz-adv-x="494" 
d="M314 495q104 0 158 -68q8 -8 8 -18t-7.5 -17t-18.5 -7t-19 8q-40 55 -119 55q-94 0 -154.5 -73.5t-60.5 -173.5q0 -79 45.5 -122.5t119.5 -43.5q66 0 116 47q6 6 15 6q10 0 17 -7t7 -16q0 -11 -9 -18q-65 -59 -151 -59q-96 0 -155.5 57.5t-59.5 156.5q-2 118 78 206.5
t190 86.5zM305 714l59 -107l107 111q3 5 11 5q7 0 11.5 -5t4.5 -11t-4 -10l-96 -106q-13 -16 -32 -16h-14q-22 0 -30 20l-48 103q-1 1 -1 7q0 18 17 18q10 0 15 -9z" />
    <glyph glyph-name="Dcaron" unicode="&#x10e;" horiz-adv-x="692" 
d="M35 25q0 7 1 9l134 605q6 28 34 28h180q111 2 192 -81t79 -203q1 -71 -27 -139.5t-78.5 -123.5t-131.5 -88t-177 -32h-177q-29 0 -29 25zM595 381q0 100 -63.5 167t-158.5 67h-151l-125 -563h154q149 -3 247.5 95t96.5 234zM402 861l59 -107l107 111q3 5 11 5
q7 0 11.5 -5t4.5 -11t-4 -10l-96 -106q-13 -16 -32 -16h-14q-22 0 -30 20l-48 103q-1 1 -1 7q0 18 17 18q11 0 15 -9z" />
    <glyph glyph-name="dcaron" unicode="&#x10f;" horiz-adv-x="625" 
d="M577 639l-137 -622q-2 -20 -25 -20q-12 0 -20 9.5t-5 21.5l10 45q-66 -85 -166 -85q-86 0 -137.5 53.5t-51.5 144.5q-2 125 72 218t182 91q56 0 101.5 -25t72.5 -69l55 249q2 20 24 20q13 0 20.5 -9.5t4.5 -21.5zM412 128l51 232q-19 39 -62 63.5t-98 24.5
q-85 0 -143 -76t-58 -177q0 -74 40 -117t106 -43q48 0 92.5 26t71.5 67zM615 501q-7 0 -11.5 5t-4.5 11q0 9 7 13q48 33 60 73h-7q-12 0 -21.5 10t-9.5 23q0 18 13 30.5t30 12.5q18 0 28.5 -11.5t10.5 -32.5q0 -34 -23.5 -68.5t-59.5 -60.5q-7 -5 -12 -5z" />
    <glyph glyph-name="Dcroat" unicode="&#x110;" horiz-adv-x="721" 
d="M685 383q1 -71 -26.5 -139.5t-79 -123.5t-132.5 -88t-177 -32h-177q-28 0 -28 24q0 8 1 10l61 275h-74q-10 0 -17.5 7.5t-7.5 17.5t7.5 17.5t17.5 7.5h85l62 280q6 28 33 28h180q111 2 192.5 -81.5t79.5 -202.5zM624 381q0 100 -63.5 167t-157.5 67h-151l-57 -256h150
q10 0 17.5 -7.5t7.5 -17.5t-7 -17.5t-18 -7.5h-161l-57 -257h153q149 -3 247.5 95t96.5 234z" />
    <glyph glyph-name="dslash" unicode="&#x111;" horiz-adv-x="574" 
d="M617 557q0 -19 -19 -19h-43l-115 -521q-2 -20 -25 -20q-12 0 -20 9.5t-5 21.5l10 45q-66 -85 -166 -85q-86 0 -137.5 53.5t-51.5 144.5q-2 125 72 218t182 91q56 0 101.5 -25t72.5 -69l30 137h-157q-8 0 -13.5 5.5t-5.5 12.5q0 8 5.5 14t13.5 6h166l16 74q2 20 24 20
q13 0 20.5 -9.5t4.5 -21.5l-14 -63h35q19 0 19 -19zM412 128l51 232q-19 39 -62 63.5t-98 24.5q-85 0 -143 -76t-58 -177q0 -74 40 -117t106 -43q48 0 92.5 26t71.5 67z" />
    <glyph glyph-name="Emacron" unicode="&#x112;" horiz-adv-x="564" 
d="M35 25q0 7 1 9l134 605q6 28 34 28h365q11 0 18.5 -7.5t7.5 -18.5q0 -10 -7.5 -18t-18.5 -8h-347l-54 -247h328q11 0 18.5 -7.5t7.5 -18.5q0 -10 -7.5 -18t-18.5 -8h-340l-59 -264h336q11 0 18.5 -7.5t7.5 -18.5q0 -10 -7.5 -18t-18.5 -8h-369q-29 0 -29 25zM266 762
q0 19 19 19h262q8 0 13.5 -5.5t5.5 -12.5q0 -19 -19 -19h-262q-8 0 -13.5 5.5t-5.5 12.5z" />
    <glyph glyph-name="emacron" unicode="&#x113;" horiz-adv-x="567" 
d="M314 495q93 0 149 -59t56 -150q0 -16 -4 -33q-3 -28 -32 -28h-380q-2 -16 -2 -28q0 -73 47 -118.5t130 -45.5q69 0 131 41q3 3 10 3q9 0 15 -6.5t6 -14.5q0 -12 -10 -19q-76 -49 -154 -49q-106 0 -168 58.5t-62 154.5q-2 119 78 208t190 86zM469 288q0 73 -43 117.5
t-118 44.5q-71 0 -129.5 -54.5t-70.5 -129.5h360q1 3 1 22zM219 615q0 19 19 19h262q8 0 13.5 -5.5t5.5 -12.5q0 -19 -19 -19h-262q-8 0 -13.5 5.5t-5.5 12.5z" />
    <glyph glyph-name="Ebreve" unicode="&#x114;" horiz-adv-x="564" 
d="M35 25q0 7 1 9l134 605q6 28 34 28h365q11 0 18.5 -7.5t7.5 -18.5q0 -10 -7.5 -18t-18.5 -8h-347l-54 -247h328q11 0 18.5 -7.5t7.5 -18.5q0 -10 -7.5 -18t-18.5 -8h-340l-59 -264h336q11 0 18.5 -7.5t7.5 -18.5q0 -10 -7.5 -18t-18.5 -8h-369q-29 0 -29 25zM258 788
q-4 5 -4 12q0 8 6 14t14 6q11 0 17 -8q41 -60 121 -60q87 0 153 66q4 4 12 4q18 0 18 -18q0 -7 -6 -13q-83 -77 -183 -77q-99 0 -148 74z" />
    <glyph glyph-name="ebreve" unicode="&#x115;" horiz-adv-x="567" 
d="M314 495q93 0 149 -59t56 -150q0 -16 -4 -33q-3 -28 -32 -28h-380q-2 -16 -2 -28q0 -73 47 -118.5t130 -45.5q69 0 131 41q3 3 10 3q9 0 15 -6.5t6 -14.5q0 -12 -10 -19q-76 -49 -154 -49q-106 0 -168 58.5t-62 154.5q-2 119 78 208t190 86zM469 288q0 73 -43 117.5
t-118 44.5q-71 0 -129.5 -54.5t-70.5 -129.5h360q1 3 1 22zM211 641q-4 5 -4 12q0 8 6 14t14 6q11 0 17 -8q41 -60 121 -60q87 0 153 66q4 4 12 4q18 0 18 -18q0 -7 -6 -13q-83 -77 -183 -77q-99 0 -148 74z" />
    <glyph glyph-name="Edotaccent" unicode="&#x116;" horiz-adv-x="564" 
d="M35 25q0 7 1 9l134 605q6 28 34 28h365q11 0 18.5 -7.5t7.5 -18.5q0 -10 -7.5 -18t-18.5 -8h-347l-54 -247h328q11 0 18.5 -7.5t7.5 -18.5q0 -10 -7.5 -18t-18.5 -8h-340l-59 -264h336q11 0 18.5 -7.5t7.5 -18.5q0 -10 -7.5 -18t-18.5 -8h-369q-29 0 -29 25zM377 766
q0 17 12.5 29.5t30.5 12.5q14 0 24 -9.5t10 -24.5q0 -17 -13 -29.5t-30 -12.5q-14 0 -24 9.5t-10 24.5z" />
    <glyph glyph-name="edotaccent" unicode="&#x117;" horiz-adv-x="567" 
d="M314 495q93 0 149 -59t56 -150q0 -16 -4 -33q-3 -28 -32 -28h-380q-2 -16 -2 -28q0 -73 47 -118.5t130 -45.5q69 0 131 41q3 3 10 3q9 0 15 -6.5t6 -14.5q0 -12 -10 -19q-76 -49 -154 -49q-106 0 -168 58.5t-62 154.5q-2 119 78 208t190 86zM469 288q0 73 -43 117.5
t-118 44.5q-71 0 -129.5 -54.5t-70.5 -129.5h360q1 3 1 22zM330 619q0 17 12.5 29.5t30.5 12.5q14 0 24 -9.5t10 -24.5q0 -17 -13 -29.5t-30 -12.5q-14 0 -24 9.5t-10 24.5z" />
    <glyph glyph-name="Eogonek" unicode="&#x118;" horiz-adv-x="564" 
d="M595 641q0 -10 -7.5 -18t-18.5 -8h-347l-54 -247h328q11 0 18.5 -7.5t7.5 -18.5q0 -10 -7.5 -18t-18.5 -8h-340l-59 -264h336q11 0 18.5 -7.5t7.5 -18.5q0 -10 -7 -17.5t-17 -8.5q-112 -57 -112 -113q0 -33 39 -33q10 0 22 4l5 1q7 0 12.5 -5.5t5.5 -12.5q0 -13 -12 -17
q-21 -10 -50 -10q-35 0 -56.5 16t-21.5 42q0 35 35 69t91 59h-329q-29 0 -29 25q0 7 1 9l134 605q6 28 34 28h365q11 0 18.5 -7.5t7.5 -18.5z" />
    <glyph glyph-name="eogonek" unicode="&#x119;" horiz-adv-x="567" 
d="M320 -8q-25 -4 -44 -4q-106 0 -168 58.5t-62 154.5q-2 119 78 208t190 86q93 0 149 -59t56 -150q0 -16 -4 -33q-3 -28 -32 -28h-380q-2 -16 -2 -28q0 -73 47 -118.5t130 -45.5q71 0 130 41q4 3 11 3q9 0 15 -6t6 -15q0 -11 -10 -18q-96 -63 -126 -92.5t-30 -58.5
q0 -33 38 -33q8 0 23 4h4q19 0 19 -17q0 -11 -12 -17q-24 -10 -51 -10q-34 0 -55.5 15.5t-21.5 42.5q0 32 28.5 63.5t73.5 56.5zM469 288q0 73 -43 117.5t-118 44.5q-71 0 -129.5 -54.5t-70.5 -129.5h360q1 3 1 22z" />
    <glyph glyph-name="Ecaron" unicode="&#x11a;" horiz-adv-x="564" 
d="M35 25q0 7 1 9l134 605q6 28 34 28h365q11 0 18.5 -7.5t7.5 -18.5q0 -10 -7.5 -18t-18.5 -8h-347l-54 -247h328q11 0 18.5 -7.5t7.5 -18.5q0 -10 -7.5 -18t-18.5 -8h-340l-59 -264h336q11 0 18.5 -7.5t7.5 -18.5q0 -10 -7.5 -18t-18.5 -8h-369q-29 0 -29 25zM352 861
l59 -107l107 111q3 5 11 5q7 0 11.5 -5t4.5 -11t-4 -10l-96 -106q-13 -16 -32 -16h-14q-22 0 -30 20l-48 103q-1 1 -1 7q0 18 17 18q11 0 15 -9z" />
    <glyph glyph-name="ecaron" unicode="&#x11b;" horiz-adv-x="567" 
d="M314 495q93 0 149 -59t56 -150q0 -16 -4 -33q-3 -28 -32 -28h-380q-2 -16 -2 -28q0 -73 47 -118.5t130 -45.5q69 0 131 41q3 3 10 3q9 0 15 -6.5t6 -14.5q0 -12 -10 -19q-76 -49 -154 -49q-106 0 -168 58.5t-62 154.5q-2 119 78 208t190 86zM469 288q0 73 -43 117.5
t-118 44.5q-71 0 -129.5 -54.5t-70.5 -129.5h360q1 3 1 22zM305 714l59 -107l107 111q3 5 11 5q7 0 11.5 -5t4.5 -11t-4 -10l-96 -106q-13 -16 -32 -16h-14q-22 0 -30 20l-48 103q-1 1 -1 7q0 18 17 18q10 0 15 -9z" />
    <glyph glyph-name="Gcircumflex" unicode="&#x11c;" horiz-adv-x="711" 
d="M129 279q0 -108 66 -173.5t175 -65.5q108 0 194 80l35 160h-223q-10 0 -17.5 7.5t-7.5 17.5q0 11 7 18.5t18 7.5h257q29 0 29 -26q0 -6 -1 -8l-41 -183q-5 -23 -20 -35q-104 -91 -233 -91q-134 0 -217 81t-83 208q-2 111 50 204.5t138.5 146t184.5 50.5q158 0 240 -112
q6 -8 6 -16q0 -12 -8 -20.5t-20 -8.5q-15 0 -23 11q-66 94 -202 94q-120 3 -213.5 -100.5t-90.5 -246.5zM576 729l-59 107l-107 -111q-3 -5 -11 -5q-7 0 -11.5 5t-4.5 11t4 10l96 106q13 16 32 16h14q22 0 30 -20l48 -103q1 -1 1 -7q0 -18 -17 -18q-11 0 -15 9z" />
    <glyph glyph-name="gcircumflex" unicode="&#x11d;" horiz-adv-x="570" 
d="M536 455l-100 -450q-45 -201 -224 -201q-128 0 -192 64q-9 9 -9 19q0 11 7.5 18.5t18.5 7.5q10 0 17 -7q53 -57 157 -57q65 0 110.5 38.5t62.5 117.5l15 72q-67 -85 -171 -85q-83 0 -133 52.5t-50 148.5q-2 121 70 212.5t181 89.5q51 0 99.5 -26t76.5 -68l14 65
q5 20 25 20q12 0 19.5 -9.5t5.5 -21.5zM410 125l53 234q-22 40 -67.5 64.5t-97.5 24.5q-56 2 -102.5 -35.5t-71.5 -95t-24 -117.5q0 -75 40 -118.5t107 -43.5q43 0 87.5 24.5t75.5 62.5zM447 582l-59 107l-107 -111q-3 -5 -11 -5q-7 0 -11.5 5t-4.5 11t4 10l96 106
q13 16 32 16h14q22 0 30 -20l48 -103q1 -1 1 -7q0 -18 -17 -18q-10 0 -15 9z" />
    <glyph glyph-name="Gbreve" unicode="&#x11e;" horiz-adv-x="711" 
d="M129 279q0 -108 66 -173.5t175 -65.5q108 0 194 80l35 160h-223q-10 0 -17.5 7.5t-7.5 17.5q0 11 7 18.5t18 7.5h257q29 0 29 -26q0 -6 -1 -8l-41 -183q-5 -23 -20 -35q-104 -91 -233 -91q-134 0 -217 81t-83 208q-2 111 50 204.5t138.5 146t184.5 50.5q158 0 240 -112
q6 -8 6 -16q0 -12 -8 -20.5t-20 -8.5q-15 0 -23 11q-66 94 -202 94q-120 3 -213.5 -100.5t-90.5 -246.5zM343 788q-4 5 -4 12q0 8 6 14t14 6q11 0 17 -8q40 -60 121 -60q87 0 153 66q4 4 12 4q18 0 18 -18q0 -7 -6 -13q-83 -77 -183 -77q-99 0 -148 74z" />
    <glyph glyph-name="gbreve" unicode="&#x11f;" horiz-adv-x="570" 
d="M536 455l-100 -450q-45 -201 -224 -201q-128 0 -192 64q-9 9 -9 19q0 11 7.5 18.5t18.5 7.5q10 0 17 -7q53 -57 157 -57q65 0 110.5 38.5t62.5 117.5l15 72q-67 -85 -171 -85q-83 0 -133 52.5t-50 148.5q-2 121 70 212.5t181 89.5q51 0 99.5 -26t76.5 -68l14 65
q5 20 25 20q12 0 19.5 -9.5t5.5 -21.5zM410 125l53 234q-22 40 -67.5 64.5t-97.5 24.5q-56 2 -102.5 -35.5t-71.5 -95t-24 -117.5q0 -75 40 -118.5t107 -43.5q43 0 87.5 24.5t75.5 62.5zM214 641q-4 5 -4 12q0 8 6 14t14 6q11 0 17 -8q41 -60 121 -60q87 0 153 66q4 4 12 4
q18 0 18 -18q0 -7 -6 -13q-83 -77 -183 -77q-99 0 -148 74z" />
    <glyph glyph-name="Gdotaccent" unicode="&#x120;" horiz-adv-x="711" 
d="M129 279q0 -108 66 -173.5t175 -65.5q108 0 194 80l35 160h-223q-10 0 -17.5 7.5t-7.5 17.5q0 11 7 18.5t18 7.5h257q29 0 29 -26q0 -6 -1 -8l-41 -183q-5 -23 -20 -35q-104 -91 -233 -91q-134 0 -217 81t-83 208q-2 111 50 204.5t138.5 146t184.5 50.5q158 0 240 -112
q6 -8 6 -16q0 -12 -8 -20.5t-20 -8.5q-15 0 -23 11q-66 94 -202 94q-120 3 -213.5 -100.5t-90.5 -246.5zM462 766q0 17 12.5 29.5t30.5 12.5q14 0 24 -9.5t10 -24.5q0 -17 -13 -29.5t-30 -12.5q-14 0 -24 9.5t-10 24.5z" />
    <glyph glyph-name="gdotaccent" unicode="&#x121;" horiz-adv-x="570" 
d="M536 455l-100 -450q-45 -201 -224 -201q-128 0 -192 64q-9 9 -9 19q0 11 7.5 18.5t18.5 7.5q10 0 17 -7q53 -57 157 -57q65 0 110.5 38.5t62.5 117.5l15 72q-67 -85 -171 -85q-83 0 -133 52.5t-50 148.5q-2 121 70 212.5t181 89.5q51 0 99.5 -26t76.5 -68l14 65
q5 20 25 20q12 0 19.5 -9.5t5.5 -21.5zM410 125l53 234q-22 40 -67.5 64.5t-97.5 24.5q-56 2 -102.5 -35.5t-71.5 -95t-24 -117.5q0 -75 40 -118.5t107 -43.5q43 0 87.5 24.5t75.5 62.5zM333 619q0 17 12.5 29.5t30.5 12.5q14 0 24 -9.5t10 -24.5q0 -17 -13 -29.5t-30 -12.5
q-14 0 -24 9.5t-10 24.5z" />
    <glyph glyph-name="uni0122" unicode="&#x122;" horiz-adv-x="711" 
d="M129 279q0 -108 66 -173.5t175 -65.5q108 0 194 80l35 160h-223q-10 0 -17.5 7.5t-7.5 17.5q0 11 7 18.5t18 7.5h257q29 0 29 -26q0 -6 -1 -8l-41 -183q-5 -23 -20 -35q-104 -91 -233 -91q-134 0 -217 81t-83 208q-2 111 50 204.5t138.5 146t184.5 50.5q158 0 240 -112
q6 -8 6 -16q0 -12 -8 -20.5t-20 -8.5q-15 0 -23 11q-66 94 -202 94q-120 3 -213.5 -100.5t-90.5 -246.5zM251 -256q-7 0 -11.5 5t-4.5 11q0 9 7 13q48 33 60 73h-7q-12 0 -21.5 10t-9.5 23q0 18 13 30.5t30 12.5q18 0 28.5 -11.5t10.5 -32.5q0 -34 -23.5 -68.5t-59.5 -60.5
q-7 -5 -12 -5z" />
    <glyph glyph-name="uni0123" unicode="&#x123;" horiz-adv-x="570" 
d="M318 608q0 34 23.5 69.5t59.5 60.5q4 4 12 4q6 0 11 -4.5t5 -10.5q0 -8 -8 -13q-46 -31 -59 -73h6q13 0 22 -9.5t9 -23.5q0 -18 -13 -31t-30 -13t-27.5 11.5t-10.5 32.5zM536 455l-100 -450q-45 -201 -224 -201q-128 0 -192 64q-9 9 -9 19q0 11 7.5 18.5t18.5 7.5
q10 0 17 -7q53 -57 157 -57q65 0 110.5 38.5t62.5 117.5l15 72q-67 -85 -171 -85q-83 0 -133 52.5t-50 148.5q-2 121 70 212.5t181 89.5q51 0 99.5 -26t76.5 -68l14 65q5 20 25 20q12 0 19.5 -9.5t5.5 -21.5zM410 125l53 234q-22 40 -67.5 64.5t-97.5 24.5
q-56 2 -102.5 -35.5t-71.5 -95t-24 -117.5q0 -75 40 -118.5t107 -43.5q43 0 87.5 24.5t75.5 62.5z" />
    <glyph glyph-name="Hcircumflex" unicode="&#x124;" horiz-adv-x="703" 
d="M516 31l63 286h-423l-65 -298q-2 -9 -10 -15.5t-18 -6.5q-14 0 -22 10.5t-5 23.5l136 617q6 22 27 22q14 0 22 -10.5t5 -23.5l-58 -267h422l62 279q6 22 27 22q13 0 21.5 -10t6.5 -24l-136 -617q-2 -9 -10 -15.5t-18 -6.5q-13 0 -21.5 10.5t-5.5 23.5zM544 729l-59 107
l-107 -111q-3 -5 -11 -5q-7 0 -11.5 5t-4.5 11t4 10l96 106q13 16 32 16h14q22 0 30 -20l48 -103q1 -1 1 -7q0 -18 -17 -18q-11 0 -15 9z" />
    <glyph glyph-name="hcircumflex" unicode="&#x125;" horiz-adv-x="540" 
d="M359 28l66 300q6 27 6 35q0 42 -29 63.5t-79 21.5q-81 0 -164 -85l-76 -346q-2 -20 -25 -20q-12 0 -19.5 9.5t-5.5 21.5l137 622q2 20 25 20q12 0 19.5 -9.5t5.5 -21.5l-50 -229q85 85 174 85q65 0 103 -31t38 -87q0 -21 -6 -41l-70 -319q-2 -20 -25 -20q-12 0 -19.5 9.5
t-5.5 21.5zM461 729l-59 107l-107 -111q-3 -5 -11 -5q-7 0 -11.5 5t-4.5 11t4 10l96 106q13 16 32 16h14q22 0 30 -20l48 -103q1 -1 1 -7q0 -18 -17 -18q-10 0 -15 9z" />
    <glyph glyph-name="Hbar" unicode="&#x126;" horiz-adv-x="724" 
d="M774 520q0 -19 -18 -19h-68l-106 -482q-6 -22 -28 -22q-13 0 -21.5 10.5t-5.5 23.5l63 286h-423l-65 -298q-6 -22 -28 -22q-13 0 -21.5 10.5t-5.5 23.5l104 470h-62q-19 0 -19 19q0 8 6 13.5t13 5.5h70l24 109q2 9 9.5 15.5t17.5 6.5q13 0 21.5 -10t6.5 -24l-21 -97h422
l24 109q2 9 9.5 15.5t17.5 6.5q13 0 21.5 -10t6.5 -24l-21 -97h59q7 0 12.5 -5.5t5.5 -13.5zM602 369l29 132h-423l-29 -132h423z" />
    <glyph glyph-name="hbar" unicode="&#x127;" horiz-adv-x="541" 
d="M486 377q0 -9 -5 -41l-70 -319q-5 -20 -25 -20q-12 0 -20 9.5t-5 21.5l66 300q5 25 5 35q0 42 -28.5 63.5t-78.5 21.5q-84 0 -164 -85l-77 -346q-2 -20 -25 -20q-12 0 -19.5 9.5t-5.5 21.5l112 510h-51q-18 0 -18 19q0 8 5.5 13.5t12.5 5.5h60l16 74q2 20 25 20
q12 0 20 -9.5t5 -21.5l-14 -63h141q8 0 13.5 -6t5.5 -14q0 -7 -5.5 -12.5t-13.5 -5.5h-149l-28 -128q88 85 174 85q65 0 103 -31t38 -87z" />
    <glyph glyph-name="Itilde" unicode="&#x128;" horiz-adv-x="223" 
d="M36 31l136 617q6 22 27 22q14 0 22 -10.5t5 -23.5l-135 -617q-2 -9 -10 -15.5t-18 -6.5q-14 0 -22 10.5t-5 23.5zM170 824q-45 0 -66 -87q-2 -13 -16 -13q-9 0 -14.5 7t-3.5 16q28 114 103 114q25 0 41 -13.5t30 -42.5q21 -46 50 -46q43 0 67 86q2 13 16 13
q9 0 14.5 -7.5t3.5 -15.5q-31 -114 -104 -114q-25 0 -41 13.5t-30 42.5q-20 47 -50 47z" />
    <glyph glyph-name="itilde" unicode="&#x129;" horiz-adv-x="214" 
d="M33 28l97 438q2 20 25 20q12 0 19.5 -9.5t5.5 -21.5l-97 -438q-2 -20 -25 -20q-12 0 -19.5 9.5t-5.5 21.5zM133 677q-45 0 -66 -87q-2 -13 -16 -13q-9 0 -14.5 7t-3.5 16q29 114 103 114q25 0 41 -13.5t30 -42.5q21 -46 50 -46q43 0 67 86q2 13 16 13q9 0 14.5 -7.5
t3.5 -15.5q-32 -114 -104 -114q-25 0 -41 13.5t-30 42.5q-20 47 -50 47z" />
    <glyph glyph-name="Imacron" unicode="&#x12a;" horiz-adv-x="223" 
d="M36 31l136 617q6 22 27 22q14 0 22 -10.5t5 -23.5l-135 -617q-2 -9 -10 -15.5t-18 -6.5q-14 0 -22 10.5t-5 23.5zM79 762q0 19 19 19h262q8 0 13.5 -5.5t5.5 -12.5q0 -19 -19 -19h-262q-8 0 -13.5 5.5t-5.5 12.5z" />
    <glyph glyph-name="imacron" unicode="&#x12b;" horiz-adv-x="214" 
d="M33 28l97 438q2 20 25 20q12 0 19.5 -9.5t5.5 -21.5l-97 -438q-2 -20 -25 -20q-12 0 -19.5 9.5t-5.5 21.5zM41 615q0 19 19 19h262q8 0 13.5 -5.5t5.5 -12.5q0 -19 -19 -19h-262q-8 0 -13.5 5.5t-5.5 12.5z" />
    <glyph glyph-name="Ibreve" unicode="&#x12c;" horiz-adv-x="223" 
d="M36 31l136 617q6 22 27 22q14 0 22 -10.5t5 -23.5l-135 -617q-2 -9 -10 -15.5t-18 -6.5q-14 0 -22 10.5t-5 23.5zM71 788q-4 5 -4 12q0 8 6 14t14 6q11 0 17 -8q41 -60 121 -60q87 0 153 66q4 4 12 4q18 0 18 -18q0 -7 -6 -13q-83 -77 -183 -77q-99 0 -148 74z" />
    <glyph glyph-name="ibreve" unicode="&#x12d;" horiz-adv-x="214" 
d="M33 28l97 438q2 20 25 20q12 0 19.5 -9.5t5.5 -21.5l-97 -438q-2 -20 -25 -20q-12 0 -19.5 9.5t-5.5 21.5zM33 641q-4 5 -4 12q0 8 6 14t14 6q11 0 17 -8q41 -60 121 -60q87 0 153 66q4 4 12 4q18 0 18 -18q0 -7 -6 -13q-83 -77 -183 -77q-99 0 -148 74z" />
    <glyph glyph-name="Iogonek" unicode="&#x12e;" horiz-adv-x="223" 
d="M226 636l-135 -617q-6 -20 -24 -22q-107 -54 -107 -110q0 -33 39 -33q8 0 23 4l4 1q7 0 13 -5.5t6 -12.5q0 -11 -13 -17q-21 -10 -50 -10q-35 0 -56 16t-21 42q0 37 38 72t97 60l3 1q-10 10 -7 26l136 617q6 22 27 22q14 0 22 -10.5t5 -23.5z" />
    <glyph glyph-name="iogonek" unicode="&#x12f;" horiz-adv-x="214" 
d="M231 628q0 -18 -13.5 -31.5t-31.5 -13.5q-15 0 -25.5 10.5t-10.5 24.5q0 20 13.5 32.5t31.5 12.5q15 0 25.5 -10.5t10.5 -24.5zM180 455l-97 -438q-2 -18 -23 -20q-106 -54 -106 -110q0 -33 39 -33q8 0 23 4l4 1q7 0 12.5 -5.5t5.5 -12.5q0 -13 -12 -17q-21 -10 -50 -10
q-35 0 -56.5 16t-21.5 42q0 40 40 74q43 36 96 58l5 2q-8 8 -6 22l97 438q2 20 25 20q12 0 19.5 -9.5t5.5 -21.5z" />
    <glyph glyph-name="Idot" unicode="&#x130;" horiz-adv-x="223" 
d="M36 31l136 617q6 22 27 22q14 0 22 -10.5t5 -23.5l-135 -617q-2 -9 -10 -15.5t-18 -6.5q-14 0 -22 10.5t-5 23.5zM190 766q0 17 12.5 29.5t30.5 12.5q14 0 24 -9.5t10 -24.5q0 -17 -13 -29.5t-30 -12.5q-14 0 -24 9.5t-10 24.5z" />
    <glyph glyph-name="dotlessi" unicode="&#x131;" horiz-adv-x="214" 
d="M33 28l97 438q2 20 25 20q12 0 19.5 -9.5t5.5 -21.5l-97 -438q-2 -20 -25 -20q-12 0 -19.5 9.5t-5.5 21.5z" />
    <glyph glyph-name="IJ" unicode="&#x132;" horiz-adv-x="693" 
d="M36 31l136 617q6 22 27 22q14 0 22 -10.5t5 -23.5l-135 -617q-2 -9 -10 -15.5t-18 -6.5q-14 0 -22 10.5t-5 23.5zM210 77q0 11 8.5 19.5t19.5 8.5q12 0 19 -9q44 -56 119 -56q65 0 107 40t58 113l100 455q2 9 10 15.5t18 6.5q13 0 21.5 -10.5t5.5 -23.5l-97 -443
q-46 -205 -220 -205q-106 0 -160 70q-9 8 -9 19z" />
    <glyph glyph-name="ij" unicode="&#x133;" horiz-adv-x="427" 
d="M195 663q15 0 25.5 -10.5t10.5 -24.5q0 -18 -13.5 -31.5t-31.5 -13.5q-15 0 -25.5 10.5t-10.5 24.5q0 20 13.5 32.5t31.5 12.5zM33 28l97 438q2 20 25 20q12 0 19.5 -9.5t5.5 -21.5l-97 -438q-2 -20 -25 -20q-12 0 -19.5 9.5t-5.5 21.5zM364 618q0 20 13.5 32.5
t31.5 12.5q15 0 25.5 -10.5t10.5 -24.5q0 -18 -13.5 -31.5t-31.5 -13.5q-15 0 -25.5 10.5t-10.5 24.5zM82 -169q0 11 8.5 18t19.5 5q9 -4 27 -4q69 0 90 88l117 528q2 20 25 20q12 0 19.5 -9.5t4.5 -21.5l-114 -517q-29 -134 -139 -134q-22 0 -40 5t-18 22z" />
    <glyph glyph-name="Jcircumflex" unicode="&#x134;" horiz-adv-x="470" 
d="M-13 77q0 11 8.5 19.5t19.5 8.5t19 -9q44 -56 119 -56q65 0 107 40t58 113l100 455q6 22 28 22q13 0 21.5 -10.5t5.5 -23.5l-97 -443q-46 -205 -220 -205q-106 0 -160 70q-9 8 -9 19zM553 746l-59 107l-107 -111q-3 -5 -11 -5q-7 0 -11.5 5t-4.5 11t4 10l96 106
q13 16 32 16h14q22 0 30 -20l48 -103q1 -1 1 -7q0 -18 -17 -18q-10 0 -15 9z" />
    <glyph glyph-name="jcircumflex" unicode="&#x135;" horiz-adv-x="214" 
d="M-132 -169q0 11 8.5 18t19.5 5q9 -4 27 -4q69 0 90 88l117 528q2 20 25 20q12 0 19.5 -9.5t4.5 -21.5l-114 -517q-29 -134 -139 -134q-22 0 -40 5t-18 22zM266 582l-59 107l-107 -111q-3 -5 -11 -5q-7 0 -11.5 5t-4.5 11t4 10l96 106q13 16 32 16h14q22 0 30 -20l48 -103
q1 -1 1 -7q0 -18 -17 -18q-11 0 -15 9z" />
    <glyph glyph-name="uni0136" unicode="&#x136;" horiz-adv-x="586" 
d="M596 643q0 -12 -8 -18l-313 -276l213 -308q5 -8 5 -16q0 -11 -9 -19.5t-20 -8.5q-15 0 -25 13l-207 308l-94 -85l-47 -214q-2 -9 -10 -15.5t-18 -6.5q-14 0 -22 10.5t-5 23.5l136 617q6 22 27 22q14 0 22 -10.5t5 -23.5l-71 -327l397 354q7 7 18 7t18.5 -8t7.5 -19z
M173 -256q-7 0 -11.5 5t-4.5 11q0 9 7 13q48 33 60 73h-7q-12 0 -21.5 10t-9.5 23q0 18 13 30.5t30 12.5q18 0 28.5 -11.5t10.5 -32.5q0 -34 -23.5 -68.5t-59.5 -60.5q-7 -5 -12 -5z" />
    <glyph glyph-name="uni0137" unicode="&#x137;" horiz-adv-x="505" 
d="M500 445l-233 -180l148 -227q5 -8 5 -15q0 -11 -8.5 -18.5t-20.5 -7.5q-15 0 -23 14l-145 222l-112 -87l-28 -128q-5 -21 -25 -21q-12 0 -19.5 9.5t-5.5 21.5l137 622q2 20 25 20q12 0 19.5 -9.5t5.5 -21.5l-94 -427l344 269q8 5 15 5q10 0 16.5 -7t6.5 -16q0 -10 -8 -18
zM123 -256q-7 0 -11.5 5t-4.5 11q0 9 7 13q48 33 60 73h-7q-12 0 -21.5 10t-9.5 23q0 18 13 30.5t30 12.5q18 0 28.5 -11.5t10.5 -32.5q0 -34 -23.5 -68.5t-59.5 -60.5q-7 -5 -12 -5z" />
    <glyph glyph-name="kgreenlandic" unicode="&#x138;" horiz-adv-x="505" 
d="M500 445l-234 -180l149 -227q4 -7 4 -15q0 -11 -8.5 -18.5t-19.5 -7.5q-15 0 -23 14l-145 222l-112 -87l-28 -129q-5 -20 -25 -20q-12 0 -19.5 9.5t-5.5 21.5l97 438q2 20 25 20q12 0 19.5 -9.5t4.5 -21.5l-53 -243l344 269q8 5 15 5q10 0 16.5 -7t6.5 -16q0 -10 -8 -18z
" />
    <glyph glyph-name="Lacute" unicode="&#x139;" horiz-adv-x="517" 
d="M35 25q0 7 1 9l136 614q6 22 27 22q14 0 22 -10.5t5 -23.5l-129 -584h294q11 0 18.5 -7.5t7.5 -18.5q0 -10 -7.5 -18t-18.5 -8h-327q-29 0 -29 25zM225 720q-6 0 -10.5 4.5t-4.5 9.5q0 9 7 13l151 117q8 5 13 5q8 0 13.5 -6t5.5 -13q0 -12 -9 -18l-154 -108q-4 -4 -12 -4
z" />
    <glyph glyph-name="lacute" unicode="&#x13a;" horiz-adv-x="214" 
d="M33 28l137 622q2 20 25 20q12 0 19.5 -9.5t5.5 -21.5l-137 -622q-2 -20 -25 -20q-12 0 -19.5 9.5t-5.5 21.5zM221 720q-6 0 -10.5 4.5t-4.5 9.5q0 9 7 13l151 117q8 5 13 5q8 0 13.5 -6t5.5 -13q0 -12 -9 -18l-154 -108q-4 -4 -12 -4z" />
    <glyph glyph-name="uni013B" unicode="&#x13b;" horiz-adv-x="517" 
d="M35 25q0 7 1 9l136 614q6 22 27 22q14 0 22 -10.5t5 -23.5l-129 -584h294q11 0 18.5 -7.5t7.5 -18.5q0 -10 -7.5 -18t-18.5 -8h-327q-29 0 -29 25zM140 -256q-7 0 -11.5 5t-4.5 11q0 9 7 13q48 33 60 73h-7q-12 0 -21.5 10t-9.5 23q0 18 13 30.5t30 12.5q18 0 28.5 -11.5
t10.5 -32.5q0 -34 -23.5 -68.5t-59.5 -60.5q-7 -5 -12 -5z" />
    <glyph glyph-name="uni013C" unicode="&#x13c;" horiz-adv-x="214" 
d="M33 28l137 622q2 20 25 20q12 0 19.5 -9.5t5.5 -21.5l-137 -622q-2 -20 -25 -20q-12 0 -19.5 9.5t-5.5 21.5zM-27 -256q-7 0 -11.5 5t-4.5 11q0 9 7 13q48 33 60 73h-7q-12 0 -21.5 10t-9.5 23q0 18 13 30.5t30 12.5q18 0 28.5 -11.5t10.5 -32.5q0 -34 -23.5 -68.5
t-59.5 -60.5q-7 -5 -12 -5z" />
    <glyph glyph-name="Lcaron" unicode="&#x13d;" horiz-adv-x="517" 
d="M35 25q0 7 1 9l136 614q6 22 27 22q14 0 22 -10.5t5 -23.5l-129 -584h294q11 0 18.5 -7.5t7.5 -18.5q0 -10 -7.5 -18t-18.5 -8h-327q-29 0 -29 25zM313 501q-7 0 -11.5 5t-4.5 11q0 9 7 13q48 33 60 73h-7q-12 0 -21.5 10t-9.5 23q0 18 13 30.5t30 12.5q18 0 28.5 -11.5
t10.5 -32.5q0 -34 -23.5 -68.5t-59.5 -60.5q-7 -5 -12 -5z" />
    <glyph glyph-name="lcaron" unicode="&#x13e;" horiz-adv-x="264" 
d="M33 28l137 622q2 20 25 20q12 0 19.5 -9.5t5.5 -21.5l-137 -622q-2 -20 -25 -20q-12 0 -19.5 9.5t-5.5 21.5zM272 501q-7 0 -11.5 5t-4.5 11q0 9 7 13q48 33 60 73h-7q-12 0 -21.5 10t-9.5 23q0 18 13 30.5t30 12.5q18 0 28.5 -11.5t10.5 -32.5q0 -34 -23.5 -68.5
t-59.5 -60.5q-7 -5 -12 -5z" />
    <glyph glyph-name="Ldot" unicode="&#x13f;" horiz-adv-x="517" 
d="M35 25q0 7 1 9l136 614q6 22 27 22q14 0 22 -10.5t5 -23.5l-129 -584h294q11 0 18.5 -7.5t7.5 -18.5q0 -10 -7.5 -18t-18.5 -8h-327q-29 0 -29 25zM384 385q17 0 28.5 -11.5t11.5 -28.5q0 -19 -14 -33t-34 -14q-17 0 -29 11.5t-12 28.5q0 20 14.5 33.5t34.5 13.5z" />
    <glyph glyph-name="ldot" unicode="&#x140;" horiz-adv-x="273" 
d="M33 28l137 622q2 20 25 20q12 0 19.5 -9.5t5.5 -21.5l-137 -622q-2 -20 -25 -20q-12 0 -19.5 9.5t-5.5 21.5zM248 288q17 0 28.5 -11.5t11.5 -28.5q0 -19 -14 -33t-34 -14q-17 0 -29 11.5t-12 28.5q0 20 14.5 33.5t34.5 13.5z" />
    <glyph glyph-name="Lslash" unicode="&#x141;" horiz-adv-x="552" 
d="M452 26q0 -10 -7.5 -18t-18.5 -8h-327q-29 0 -29 26q0 6 1 8l56 253l-68 -35q-4 -2 -9 -2q-9 0 -15.5 6t-6.5 15q0 13 11 18l100 51l68 308q2 9 9.5 15.5t17.5 6.5q13 0 21.5 -10t6.5 -24l-58 -263l83 43q4 2 10 2q9 0 15 -5.5t6 -14.5q0 -12 -12 -19l-114 -59l-60 -268
h294q11 0 18.5 -7.5t7.5 -18.5z" />
    <glyph glyph-name="lslash" unicode="&#x142;" horiz-adv-x="277" 
d="M285 416q7 0 12.5 -5t5.5 -12q0 -13 -10 -17l-110 -56l-68 -309q-2 -20 -25 -20q-12 0 -20 9.5t-5 21.5l59 269l-84 -43q-4 -2 -9 -2q-7 0 -12 5t-5 12q0 13 10 17l110 56l68 308q5 20 25 20q12 0 19.5 -9.5t5.5 -21.5l-59 -267l83 42q4 2 9 2z" />
    <glyph glyph-name="Nacute" unicode="&#x143;" horiz-adv-x="699" 
d="M497 18l-281 570l-125 -569q-2 -9 -10 -15.5t-18 -6.5q-14 0 -22 10.5t-5 23.5l134 608q7 31 38 31q24 0 36 -22l279 -560l125 560q6 22 27 22q14 0 22 -10.5t5 -23.5l-134 -610q-3 -12 -13.5 -20.5t-23.5 -8.5q-22 0 -34 21zM463 720q-6 0 -10.5 4.5t-4.5 9.5q0 9 7 13
l151 117q8 5 13 5q8 0 13.5 -6t5.5 -13q0 -12 -9 -18l-154 -108q-4 -4 -12 -4z" />
    <glyph glyph-name="nacute" unicode="&#x144;" horiz-adv-x="540" 
d="M484 377q0 -13 -5 -41l-70 -319q-2 -20 -25 -20q-12 0 -19.5 9.5t-5.5 21.5l66 300q5 25 5 38q0 82 -104 82q-85 0 -167 -84l-76 -347q-2 -20 -25 -20q-12 0 -19.5 9.5t-5.5 21.5l97 438q2 20 25 20q12 0 19.5 -10t4.5 -21l-10 -46q90 86 175 86q66 0 103 -31t37 -87z
M352 573q-6 0 -10.5 4.5t-4.5 9.5q0 9 7 13l151 117q8 5 13 5q8 0 13.5 -6t5.5 -13q0 -12 -9 -18l-154 -108q-4 -4 -12 -4z" />
    <glyph glyph-name="uni0145" unicode="&#x145;" horiz-adv-x="699" 
d="M497 18l-281 570l-125 -569q-2 -9 -10 -15.5t-18 -6.5q-14 0 -22 10.5t-5 23.5l134 608q7 31 38 31q24 0 36 -22l279 -560l125 560q6 22 27 22q14 0 22 -10.5t5 -23.5l-134 -610q-3 -12 -13.5 -20.5t-23.5 -8.5q-22 0 -34 21zM207 -256q-7 0 -11.5 5t-4.5 11q0 9 7 13
q48 33 60 73h-7q-12 0 -21.5 10t-9.5 23q0 18 13 30.5t30 12.5q18 0 28.5 -11.5t10.5 -32.5q0 -34 -23.5 -68.5t-59.5 -60.5q-7 -5 -12 -5z" />
    <glyph glyph-name="uni0146" unicode="&#x146;" horiz-adv-x="540" 
d="M484 377q0 -13 -5 -41l-70 -319q-2 -20 -25 -20q-12 0 -19.5 9.5t-5.5 21.5l66 300q5 25 5 38q0 82 -104 82q-85 0 -167 -84l-76 -347q-2 -20 -25 -20q-12 0 -19.5 9.5t-5.5 21.5l97 438q2 20 25 20q12 0 19.5 -10t4.5 -21l-10 -46q90 86 175 86q66 0 103 -31t37 -87z
M136 -256q-7 0 -11.5 5t-4.5 11q0 9 7 13q48 33 60 73h-7q-12 0 -21.5 10t-9.5 23q0 18 13 30.5t30 12.5q18 0 28.5 -11.5t10.5 -32.5q0 -34 -23.5 -68.5t-59.5 -60.5q-7 -5 -12 -5z" />
    <glyph glyph-name="Ncaron" unicode="&#x147;" horiz-adv-x="699" 
d="M497 18l-281 570l-125 -569q-2 -9 -10 -15.5t-18 -6.5q-14 0 -22 10.5t-5 23.5l134 608q7 31 38 31q24 0 36 -22l279 -560l125 560q6 22 27 22q14 0 22 -10.5t5 -23.5l-134 -610q-3 -12 -13.5 -20.5t-23.5 -8.5q-22 0 -34 21zM402 861l59 -107l107 111q3 5 11 5
q7 0 11.5 -5t4.5 -11t-4 -10l-96 -106q-13 -16 -32 -16h-14q-22 0 -30 20l-48 103q-1 1 -1 7q0 18 17 18q11 0 15 -9z" />
    <glyph glyph-name="ncaron" unicode="&#x148;" horiz-adv-x="540" 
d="M484 377q0 -13 -5 -41l-70 -319q-2 -20 -25 -20q-12 0 -19.5 9.5t-5.5 21.5l66 300q5 25 5 38q0 82 -104 82q-85 0 -167 -84l-76 -347q-2 -20 -25 -20q-12 0 -19.5 9.5t-5.5 21.5l97 438q2 20 25 20q12 0 19.5 -10t4.5 -21l-10 -46q90 86 175 86q66 0 103 -31t37 -87z
M292 714l59 -107l107 111q3 5 11 5q7 0 11.5 -5t4.5 -11t-4 -10l-96 -106q-13 -16 -32 -16h-14q-22 0 -30 20l-48 103q-1 1 -1 7q0 18 17 18q11 0 15 -9z" />
    <glyph glyph-name="napostrophe" unicode="&#x149;" horiz-adv-x="540" 
d="M484 377q0 -13 -5 -41l-70 -319q-2 -20 -25 -20q-12 0 -19.5 9.5t-5.5 21.5l66 300q5 25 5 38q0 82 -104 82q-85 0 -167 -84l-76 -347q-2 -20 -25 -20q-12 0 -19.5 9.5t-5.5 21.5l97 438q2 20 25 20q12 0 19.5 -10t4.5 -21l-10 -46q90 86 175 86q66 0 103 -31t37 -87z
M154 556q-7 0 -11.5 5t-4.5 11q0 9 7 13q48 33 60 73h-7q-12 0 -21.5 10t-9.5 23q0 18 13 30.5t30 12.5q18 0 28.5 -11.5t10.5 -32.5q0 -34 -23.5 -68.5t-59.5 -60.5q-7 -5 -12 -5z" />
    <glyph glyph-name="Eng" unicode="&#x14a;" horiz-adv-x="699" 
d="M702 636l-139 -631q-49 -201 -219 -201q-106 0 -161 70q-8 8 -8 18t8 18t19 8t19 -8q40 -57 120 -57q127 0 164 149l-289 586l-125 -569q-2 -9 -10 -15.5t-18 -6.5q-14 0 -22 10.5t-5 23.5l134 608q7 31 38 31q24 0 36 -22l279 -560l125 560q6 22 27 22q14 0 22 -10.5
t5 -23.5z" />
    <glyph glyph-name="eng" unicode="&#x14b;" horiz-adv-x="540" 
d="M484 378q0 -14 -5 -42l-88 -398q-28 -134 -139 -134q-22 0 -39 5q-18 5 -18 22q0 11 8 18t19 5q9 -4 27 -4q71 0 90 88l86 390q5 25 5 38q0 82 -104 82q-85 0 -167 -84l-76 -347q-2 -20 -25 -20q-12 0 -19.5 9.5t-5.5 21.5l97 438q2 20 25 20q12 0 19.5 -10t4.5 -21
l-10 -46q90 86 175 86q66 0 103 -30.5t37 -86.5z" />
    <glyph glyph-name="Omacron" unicode="&#x14c;" horiz-adv-x="764" 
d="M437 678q130 0 214.5 -78t84.5 -211q3 -165 -108 -284.5t-261 -116.5q-130 0 -215 78t-85 211q-3 165 108 284.5t262 116.5zM432 626q-122 3 -213.5 -100t-89.5 -247q0 -111 68 -175t173 -64q121 -3 214 100t90 247q0 110 -69 174.5t-173 64.5zM348 762q0 19 19 19h262
q8 0 13.5 -5.5t5.5 -12.5q0 -19 -19 -19h-262q-8 0 -13.5 5.5t-5.5 12.5z" />
    <glyph glyph-name="omacron" unicode="&#x14d;" 
d="M311 495q97 0 155 -58t58 -154q2 -115 -78 -206.5t-188 -88.5q-97 0 -155 58t-58 154q-2 115 78 206.5t188 88.5zM310 448q-87 0 -147.5 -74.5t-60.5 -171.5q0 -78 41.5 -122.5t115.5 -44.5q87 0 147.5 74.5t60.5 171.5q0 78 -41.5 122.5t-115.5 44.5zM220 615
q0 19 19 19h262q8 0 13.5 -5.5t5.5 -12.5q0 -19 -19 -19h-262q-8 0 -13.5 5.5t-5.5 12.5z" />
    <glyph glyph-name="Obreve" unicode="&#x14e;" horiz-adv-x="764" 
d="M437 678q130 0 214.5 -78t84.5 -211q3 -165 -108 -284.5t-261 -116.5q-130 0 -215 78t-85 211q-3 165 108 284.5t262 116.5zM432 626q-122 3 -213.5 -100t-89.5 -247q0 -111 68 -175t173 -64q121 -3 214 100t90 247q0 110 -69 174.5t-173 64.5zM340 788q-4 5 -4 12
q0 8 6 14t14 6q11 0 17 -8q41 -60 121 -60q87 0 153 66q4 4 12 4q18 0 18 -18q0 -7 -6 -13q-83 -77 -183 -77q-99 0 -148 74z" />
    <glyph glyph-name="obreve" unicode="&#x14f;" 
d="M311 495q97 0 155 -58t58 -154q2 -115 -78 -206.5t-188 -88.5q-97 0 -155 58t-58 154q-2 115 78 206.5t188 88.5zM310 448q-87 0 -147.5 -74.5t-60.5 -171.5q0 -78 41.5 -122.5t115.5 -44.5q87 0 147.5 74.5t60.5 171.5q0 78 -41.5 122.5t-115.5 44.5zM212 641
q-4 5 -4 12q0 8 6 14t14 6q11 0 17 -8q41 -60 121 -60q87 0 153 66q4 4 12 4q18 0 18 -18q0 -7 -6 -13q-83 -77 -183 -77q-99 0 -148 74z" />
    <glyph glyph-name="Ohungarumlaut" unicode="&#x150;" horiz-adv-x="764" 
d="M437 678q130 0 214.5 -78t84.5 -211q3 -165 -108 -284.5t-261 -116.5q-130 0 -215 78t-85 211q-3 165 108 284.5t262 116.5zM432 626q-122 3 -213.5 -100t-89.5 -247q0 -111 68 -175t173 -64q121 -3 214 100t90 247q0 110 -69 174.5t-173 64.5zM411 735q0 5 4 9l107 119
q5 8 15 8q8 0 14 -6t6 -14q0 -9 -6 -15l-115 -112q-3 -4 -10 -4q-15 0 -15 15zM550 735q0 5 4 9l107 119q5 8 15 8q8 0 14 -6t6 -14q0 -9 -6 -15l-115 -112q-3 -4 -10 -4q-15 0 -15 15z" />
    <glyph glyph-name="ohungarumlaut" unicode="&#x151;" 
d="M311 495q97 0 155 -58t58 -154q2 -115 -78 -206.5t-188 -88.5q-97 0 -155 58t-58 154q-2 115 78 206.5t188 88.5zM310 448q-87 0 -147.5 -74.5t-60.5 -171.5q0 -78 41.5 -122.5t115.5 -44.5q87 0 147.5 74.5t60.5 171.5q0 78 -41.5 122.5t-115.5 44.5zM283 588q0 5 4 9
l107 119q5 8 15 8q8 0 14 -6t6 -14q0 -9 -6 -15l-115 -112q-3 -4 -10 -4q-15 0 -15 15zM422 588q0 5 4 9l107 119q5 8 15 8q8 0 14 -6t6 -14q0 -9 -6 -15l-115 -112q-3 -4 -10 -4q-15 0 -15 15z" />
    <glyph glyph-name="OE" unicode="&#x152;" horiz-adv-x="1115" 
d="M1145 641q0 -10 -7.5 -18t-18.5 -8h-347l-55 -247h329q11 0 18.5 -7.5t7.5 -18.5q0 -10 -7.5 -18t-18.5 -8h-341l-58 -264h336q10 0 17.5 -7.5t7.5 -18.5t-7.5 -18.5t-17.5 -7.5h-370q-29 0 -29 26q0 6 1 8l17 77q-94 -123 -254 -123q-124 0 -202.5 81.5t-78.5 207.5
q-2 84 28.5 159.5t82.5 128.5t121 83t143 29q92 0 157 -42.5t91 -130.5l29 135q6 28 34 28h366q11 0 18.5 -7.5t7.5 -18.5zM621 194l51 231q-13 95 -75 147.5t-158 52.5q-125 3 -219 -100t-91 -246q0 -109 65 -174t170 -65q77 0 146 41t111 113z" />
    <glyph glyph-name="oe" unicode="&#x153;" horiz-adv-x="975" 
d="M514 197q0 -71 46 -117q47 -47 129 -47q70 0 129 41q4 3 11 3q8 0 14.5 -6.5t6.5 -14.5q0 -12 -10 -19q-71 -49 -153 -49q-87 0 -145 47.5t-65 103.5q-23 -38 -50 -72q-64 -79 -171 -79q-96 0 -153.5 57t-57.5 155q-2 116 76 207t188 88q82 0 135 -49t58 -102
q33 58 87 105q55 46 136 46q89 0 146 -57.5t57 -151.5q0 -16 -3 -33q-1 -28 -33 -28h-376q-2 -14 -2 -28zM879 288q0 73 -42.5 117.5t-116.5 44.5t-131.5 -58t-67.5 -126h356q2 16 2 22zM102 202q0 -76 41.5 -121.5t113.5 -45.5q85 -2 146.5 73t59.5 173q0 80 -43 123.5
t-112 43.5q-85 0 -145.5 -73.5t-60.5 -172.5z" />
    <glyph glyph-name="Racute" unicode="&#x154;" horiz-adv-x="594" 
d="M364 279l120 -241q3 -8 3 -13q0 -12 -9 -20t-21 -8q-19 0 -27 19l-125 260h-158l-57 -257q-6 -22 -27 -22q-14 0 -22 10.5t-5 23.5l134 608q6 28 34 28h201q73 0 127 -46.5t54 -121.5q0 -93 -61 -154.5t-161 -65.5zM524 496q0 50 -38.5 84.5t-87.5 34.5h-176l-63 -287
h186q82 0 130.5 48t48.5 120zM413 720q-6 0 -10.5 4.5t-4.5 9.5q0 9 7 13l151 117q8 5 13 5q8 0 13.5 -6t5.5 -13q0 -12 -9 -18l-154 -108q-4 -4 -12 -4z" />
    <glyph glyph-name="racute" unicode="&#x155;" horiz-adv-x="317" 
d="M348 466q0 -12 -8 -19.5t-19 -7.5l-17 1q-40 0 -79.5 -25t-67.5 -63l-74 -335q-2 -20 -25 -20q-12 0 -19.5 9.5t-5.5 21.5l97 438q5 20 25 20q12 0 19.5 -9.5t4.5 -21.5l-11 -50q77 85 150 85q30 0 30 -24zM270 573q-6 0 -10.5 4.5t-4.5 9.5q0 9 7 13l151 117q8 5 13 5
q8 0 13.5 -6t5.5 -13q0 -12 -9 -18l-154 -108q-4 -4 -12 -4z" />
    <glyph glyph-name="uni0156" unicode="&#x156;" horiz-adv-x="594" 
d="M364 279l120 -241q3 -8 3 -13q0 -12 -9 -20t-21 -8q-19 0 -27 19l-125 260h-158l-57 -257q-6 -22 -27 -22q-14 0 -22 10.5t-5 23.5l134 608q6 28 34 28h201q73 0 127 -46.5t54 -121.5q0 -93 -61 -154.5t-161 -65.5zM524 496q0 50 -38.5 84.5t-87.5 34.5h-176l-63 -287
h186q82 0 130.5 48t48.5 120zM166 -256q-7 0 -11.5 5t-4.5 11q0 9 7 13q48 33 60 73h-7q-12 0 -21.5 10t-9.5 23q0 18 13 30.5t30 12.5q18 0 28.5 -11.5t10.5 -32.5q0 -34 -23.5 -68.5t-59.5 -60.5q-7 -5 -12 -5z" />
    <glyph glyph-name="uni0157" unicode="&#x157;" horiz-adv-x="317" 
d="M348 466q0 -12 -8 -19.5t-19 -7.5l-17 1q-40 0 -79.5 -25t-67.5 -63l-74 -335q-2 -20 -25 -20q-12 0 -19.5 9.5t-5.5 21.5l97 438q5 20 25 20q12 0 19.5 -9.5t4.5 -21.5l-11 -50q77 85 150 85q30 0 30 -24zM-26 -256q-7 0 -11.5 5t-4.5 11q0 9 7 13q48 33 60 73h-7
q-12 0 -21.5 10t-9.5 23q0 18 13 30.5t30 12.5q18 0 28.5 -11.5t10.5 -32.5q0 -34 -23.5 -68.5t-59.5 -60.5q-7 -5 -12 -5z" />
    <glyph glyph-name="Rcaron" unicode="&#x158;" horiz-adv-x="594" 
d="M364 279l120 -241q3 -8 3 -13q0 -12 -9 -20t-21 -8q-19 0 -27 19l-125 260h-158l-57 -257q-6 -22 -27 -22q-14 0 -22 10.5t-5 23.5l134 608q6 28 34 28h201q73 0 127 -46.5t54 -121.5q0 -93 -61 -154.5t-161 -65.5zM524 496q0 50 -38.5 84.5t-87.5 34.5h-176l-63 -287
h186q82 0 130.5 48t48.5 120zM353 861l59 -107l107 111q3 5 11 5q7 0 11.5 -5t4.5 -11t-4 -10l-96 -106q-13 -16 -32 -16h-14q-22 0 -30 20l-48 103q-1 1 -1 7q0 18 17 18q10 0 15 -9z" />
    <glyph glyph-name="rcaron" unicode="&#x159;" horiz-adv-x="317" 
d="M348 466q0 -12 -8 -19.5t-19 -7.5l-17 1q-40 0 -79.5 -25t-67.5 -63l-74 -335q-2 -20 -25 -20q-12 0 -19.5 9.5t-5.5 21.5l97 438q5 20 25 20q12 0 19.5 -9.5t4.5 -21.5l-11 -50q77 85 150 85q30 0 30 -24zM210 714l59 -107l107 111q3 5 11 5q7 0 11.5 -5t4.5 -11t-4 -10
l-96 -106q-13 -16 -32 -16h-14q-22 0 -30 20l-48 103q-1 1 -1 7q0 18 17 18q11 0 15 -9z" />
    <glyph glyph-name="Sacute" unicode="&#x15a;" horiz-adv-x="581" 
d="M32 105q0 12 9 21t21 9q14 0 21 -10q79 -85 201 -85q80 0 124 43.5t44 101.5q0 33 -20 56q-19 22 -46 37.5t-84 39.5q-54 22 -96 44q-87 49 -87 130q0 76 66 131t159 55q137 0 212 -83q9 -11 9 -21q0 -13 -8.5 -21.5t-21.5 -8.5t-20 9q-65 73 -176 73q-64 0 -111 -39
t-47 -89q0 -29 19 -51q18 -20 44.5 -34.5t81.5 -37.5q58 -24 99 -47q90 -50 90 -136q0 -83 -64 -143.5t-172 -60.5q-73 0 -136 26t-102 70q-9 8 -9 21zM397 720q-6 0 -10.5 4.5t-4.5 9.5q0 9 7 13l151 117q8 5 13 5q8 0 13.5 -6t5.5 -13q0 -12 -9 -18l-154 -108
q-4 -4 -12 -4z" />
    <glyph glyph-name="sacute" unicode="&#x15b;" horiz-adv-x="459" 
d="M16 74q0 10 7 17t17 7t17 -7q54 -59 146 -59q57 0 92.5 29t35.5 71q0 30 -25.5 49.5t-90.5 46.5q-43 17 -74 33q-68 37 -68 95q0 59 48 99t128 40q51 0 94 -17t68 -46q8 -6 8 -17q0 -10 -7 -17t-17 -7q-9 0 -16 7q-21 24 -57.5 38.5t-76.5 14.5q-54 0 -86.5 -24
t-32.5 -63q0 -28 24 -45.5t87 -43.5q55 -23 77 -35q70 -36 70 -100q0 -62 -50 -107t-132 -45q-116 0 -179 68q-7 7 -7 18zM304 573q-6 0 -10.5 4.5t-4.5 9.5q0 9 7 13l151 117q8 5 13 5q8 0 13.5 -6t5.5 -13q0 -12 -9 -18l-154 -108q-4 -4 -12 -4z" />
    <glyph glyph-name="Scircumflex" unicode="&#x15c;" horiz-adv-x="581" 
d="M32 105q0 12 9 21t21 9q14 0 21 -10q79 -85 201 -85q80 0 124 43.5t44 101.5q0 33 -20 56q-19 22 -46 37.5t-84 39.5q-54 22 -96 44q-87 49 -87 130q0 76 66 131t159 55q137 0 212 -83q9 -11 9 -21q0 -13 -8.5 -21.5t-21.5 -8.5t-20 9q-65 73 -176 73q-64 0 -111 -39
t-47 -89q0 -29 19 -51q18 -20 44.5 -34.5t81.5 -37.5q58 -24 99 -47q90 -50 90 -136q0 -83 -64 -143.5t-172 -60.5q-73 0 -136 26t-102 70q-9 8 -9 21zM475 729l-59 107l-107 -111q-3 -5 -11 -5q-7 0 -11.5 5t-4.5 11t4 10l96 106q13 16 32 16h14q22 0 30 -20l48 -103
q1 -1 1 -7q0 -18 -17 -18q-10 0 -15 9z" />
    <glyph glyph-name="scircumflex" unicode="&#x15d;" horiz-adv-x="459" 
d="M16 74q0 10 7 17t17 7t17 -7q54 -59 146 -59q57 0 92.5 29t35.5 71q0 30 -25.5 49.5t-90.5 46.5q-43 17 -74 33q-68 37 -68 95q0 59 48 99t128 40q51 0 94 -17t68 -46q8 -6 8 -17q0 -10 -7 -17t-17 -7q-9 0 -16 7q-21 24 -57.5 38.5t-76.5 14.5q-54 0 -86.5 -24
t-32.5 -63q0 -28 24 -45.5t87 -43.5q55 -23 77 -35q70 -36 70 -100q0 -62 -50 -107t-132 -45q-116 0 -179 68q-7 7 -7 18zM382 582l-59 107l-107 -111q-3 -5 -11 -5q-7 0 -11.5 5t-4.5 11t4 10l96 106q13 16 32 16h14q22 0 30 -20l48 -103q1 -1 1 -7q0 -18 -17 -18
q-11 0 -15 9z" />
    <glyph glyph-name="uni015E" unicode="&#x15e;" horiz-adv-x="581" 
d="M565 574q0 -13 -8.5 -21.5t-21.5 -8.5t-20 9q-65 73 -176 73q-64 0 -111 -39t-47 -89q0 -29 19 -51q18 -20 44.5 -34.5t81.5 -37.5q58 -24 99 -47q90 -50 90 -136q0 -83 -64 -143.5t-172 -60.5l-34 1l-27 -46q15 12 34 12q27 0 42.5 -15t15.5 -42q0 -39 -29 -63t-77 -24
q-52 0 -90 27q-8 5 -8 15q0 8 5.5 13.5t12.5 5.5t12 -4q30 -24 71 -24q31 0 48.5 14t17.5 37q0 33 -40 33q-18 0 -31 -11q-5 -5 -12 -5q-15 0 -15 15q0 3 2 11l34 56q-108 20 -170 90q-9 8 -9 21q0 12 9 21t21 9q14 0 21 -10q79 -85 201 -85q80 0 124 43.5t44 101.5
q0 33 -20 56q-19 22 -46 37.5t-84 39.5q-54 22 -96 44q-87 49 -87 130q0 76 66 131t159 55q137 0 212 -83q9 -11 9 -21z" />
    <glyph glyph-name="uni015F" unicode="&#x15f;" horiz-adv-x="459" 
d="M419 415q0 -10 -7 -17t-17 -7q-9 0 -16 7q-21 24 -57.5 38.5t-76.5 14.5q-54 0 -86.5 -24t-32.5 -63q0 -28 24 -45.5t87 -43.5q55 -23 77 -35q70 -36 70 -100q0 -62 -50 -107t-132 -45h-19l-27 -45q15 12 34 12q27 0 42.5 -15t15.5 -42q0 -39 -29 -63t-77 -24
q-52 0 -90 27q-8 5 -8 15q0 8 5.5 13.5t12.5 5.5t12 -4q30 -24 71 -24q31 0 48.5 14t17.5 37q0 33 -40 33q-18 0 -31 -11q-5 -5 -11 -5q-7 0 -11.5 4.5t-4.5 10.5q0 7 3 11l32 54q-78 14 -125 64q-7 7 -7 18q0 10 7 17t17 7t17 -7q54 -59 146 -59q57 0 92.5 29t35.5 71
q0 30 -25.5 49.5t-90.5 46.5q-43 17 -74 33q-68 37 -68 95q0 59 48 99t128 40q51 0 94 -17t68 -46q8 -6 8 -17z" />
    <glyph glyph-name="Scaron" unicode="&#x160;" horiz-adv-x="581" 
d="M32 105q0 12 9 21t21 9q14 0 21 -10q79 -85 201 -85q80 0 124 43.5t44 101.5q0 33 -20 56q-19 22 -46 37.5t-84 39.5q-54 22 -96 44q-87 49 -87 130q0 76 66 131t159 55q137 0 212 -83q9 -11 9 -21q0 -13 -8.5 -21.5t-21.5 -8.5t-20 9q-65 73 -176 73q-64 0 -111 -39
t-47 -89q0 -29 19 -51q18 -20 44.5 -34.5t81.5 -37.5q58 -24 99 -47q90 -50 90 -136q0 -83 -64 -143.5t-172 -60.5q-73 0 -136 26t-102 70q-9 8 -9 21zM336 861l59 -107l107 111q3 5 11 5q7 0 11.5 -5t4.5 -11t-4 -10l-96 -106q-13 -16 -32 -16h-14q-22 0 -30 20l-48 103
q-1 1 -1 7q0 18 17 18q11 0 15 -9z" />
    <glyph glyph-name="scaron" unicode="&#x161;" horiz-adv-x="459" 
d="M16 74q0 10 7 17t17 7t17 -7q54 -59 146 -59q57 0 92.5 29t35.5 71q0 30 -25.5 49.5t-90.5 46.5q-43 17 -74 33q-68 37 -68 95q0 59 48 99t128 40q51 0 94 -17t68 -46q8 -6 8 -17q0 -10 -7 -17t-17 -7q-9 0 -16 7q-21 24 -57.5 38.5t-76.5 14.5q-54 0 -86.5 -24
t-32.5 -63q0 -28 24 -45.5t87 -43.5q55 -23 77 -35q70 -36 70 -100q0 -62 -50 -107t-132 -45q-116 0 -179 68q-7 7 -7 18zM243 714l59 -107l107 111q3 5 11 5q7 0 11.5 -5t4.5 -11t-4 -10l-96 -106q-13 -16 -32 -16h-14q-22 0 -30 20l-48 103q-1 1 -1 7q0 18 17 18
q10 0 15 -9z" />
    <glyph glyph-name="uni0162" unicode="&#x162;" horiz-adv-x="564" 
d="M206 31l129 584h-189q-10 0 -18 8t-8 18q0 11 8 18.5t18 7.5h447q11 0 18.5 -7.5t7.5 -18.5q0 -10 -7.5 -18t-18.5 -8h-200l-132 -596q-2 -9 -10 -15.5t-18 -6.5q-13 0 -21.5 10.5t-5.5 23.5zM149 -256q-7 0 -11.5 5t-4.5 11q0 9 7 13q48 33 60 73h-7q-12 0 -21.5 10
t-9.5 23q0 18 13 30.5t30 12.5q18 0 28.5 -11.5t10.5 -32.5q0 -34 -23.5 -68.5t-59.5 -60.5q-7 -5 -12 -5z" />
    <glyph glyph-name="uni0163" unicode="&#x163;" horiz-adv-x="275" 
d="M292 460q0 -10 -6.5 -16.5t-16.5 -6.5h-82l-75 -335q-3 -14 -3 -24q0 -43 50 -43q17 0 33 9l6 1q15 0 20 -17l1 -5q0 -14 -12 -20q-27 -15 -56 -15q-46 0 -71.5 19.5t-25.5 55.5q0 18 4 31l76 343h-54q-10 0 -16.5 6.5t-6.5 16.5t6.5 16.5t16.5 6.5h64l26 115q5 20 24 20
q13 0 20.5 -9.5t5.5 -21.5l-23 -104h72q10 0 16.5 -6.5t6.5 -16.5zM20 -256q-7 0 -11.5 5t-4.5 11q0 9 7 13q48 33 60 73h-7q-12 0 -21.5 10t-9.5 23q0 18 13 30.5t30 12.5q18 0 28.5 -11.5t10.5 -32.5q0 -34 -23.5 -68.5t-59.5 -60.5q-7 -5 -12 -5z" />
    <glyph glyph-name="Tcaron" unicode="&#x164;" horiz-adv-x="564" 
d="M206 31l129 584h-189q-10 0 -18 8t-8 18q0 11 8 18.5t18 7.5h447q11 0 18.5 -7.5t7.5 -18.5q0 -10 -7.5 -18t-18.5 -8h-200l-132 -596q-2 -9 -10 -15.5t-18 -6.5q-13 0 -21.5 10.5t-5.5 23.5zM335 861l59 -107l107 111q3 5 11 5q7 0 11.5 -5t4.5 -11t-4 -10l-96 -106
q-13 -16 -32 -16h-14q-22 0 -30 20l-48 103q-1 1 -1 7q0 18 17 18q10 0 15 -9z" />
    <glyph glyph-name="tcaron" unicode="&#x165;" horiz-adv-x="285" 
d="M292 460q0 -10 -6.5 -16.5t-16.5 -6.5h-82l-75 -335q-3 -14 -3 -24q0 -43 50 -43q17 0 33 9l6 1q15 0 20 -17l1 -5q0 -14 -12 -20q-27 -15 -56 -15q-46 0 -71.5 19.5t-25.5 55.5q0 18 4 31l76 343h-54q-10 0 -16.5 6.5t-6.5 16.5t6.5 16.5t16.5 6.5h64l26 115q5 20 24 20
q13 0 20.5 -9.5t5.5 -21.5l-23 -104h72q10 0 16.5 -6.5t6.5 -16.5zM292 556q-7 0 -11.5 5t-4.5 11q0 9 7 13q48 33 60 73h-7q-12 0 -21.5 10t-9.5 23q0 18 13 30.5t30 12.5q18 0 28.5 -11.5t10.5 -32.5q0 -34 -23.5 -68.5t-59.5 -60.5q-7 -5 -12 -5z" />
    <glyph glyph-name="Tbar" unicode="&#x166;" horiz-adv-x="564" 
d="M619 641q0 -10 -7.5 -18t-18.5 -8h-200l-60 -270h137q19 0 19 -19q0 -7 -5.5 -12.5t-13.5 -5.5h-145l-64 -289q-2 -9 -10 -15.5t-18 -6.5q-13 0 -21.5 10.5t-5.5 23.5l61 277h-137q-19 0 -19 19q0 7 5.5 12.5t13.5 5.5h145l60 270h-189q-10 0 -18 8t-8 18q0 11 8 18.5
t18 7.5h447q11 0 18.5 -7.5t7.5 -18.5z" />
    <glyph glyph-name="tbar" unicode="&#x167;" horiz-adv-x="275" 
d="M292 460q0 -10 -6.5 -16.5t-16.5 -6.5h-82l-37 -165h50q18 0 18 -18q0 -19 -18 -19h-58l-30 -133q-3 -14 -3 -24q0 -43 50 -43q17 0 33 9l6 1q15 0 20 -17l1 -5q0 -14 -12 -20q-27 -15 -56 -15q-46 0 -71.5 19.5t-25.5 55.5q0 18 4 31l31 141h-60q-18 0 -18 19
q0 8 5.5 13t12.5 5h69l36 165h-54q-10 0 -16.5 6.5t-6.5 16.5t6.5 16.5t16.5 6.5h64l26 115q5 20 24 20q13 0 20.5 -9.5t5.5 -21.5l-23 -104h72q10 0 16.5 -6.5t6.5 -16.5z" />
    <glyph glyph-name="Utilde" unicode="&#x168;" horiz-adv-x="686" 
d="M86 256l86 392q6 22 27 22q13 0 22 -10.5t6 -23.5l-83 -379q-6 -24 -6 -45q0 -78 51 -125t138 -47q93 0 144.5 53t76.5 164l86 391q6 22 28 22q14 0 22 -10.5t5 -23.5l-83 -380q-31 -137 -95.5 -202.5t-183.5 -65.5q-114 0 -180 58.5t-66 158.5q0 26 5 51zM400 824
q-45 0 -66 -87q-2 -13 -16 -13q-9 0 -14.5 7t-3.5 16q28 114 103 114q25 0 41 -13.5t30 -42.5q21 -46 50 -46q43 0 67 86q2 13 16 13q9 0 14.5 -7.5t3.5 -15.5q-31 -114 -104 -114q-25 0 -41 13.5t-30 42.5q-20 47 -50 47z" />
    <glyph glyph-name="utilde" unicode="&#x169;" horiz-adv-x="540" 
d="M506 455l-97 -438q-2 -20 -25 -20q-12 0 -19.5 10t-5.5 21l10 45q-88 -85 -174 -85q-66 0 -103 30.5t-37 85.5q0 15 5 43l70 319q2 20 25 20q12 0 19.5 -9.5t5.5 -21.5l-66 -299q-5 -25 -5 -38q0 -83 104 -83q87 0 166 84l77 347q2 20 25 20q12 0 19.5 -9.5t5.5 -21.5z
M297 677q-45 0 -66 -87q-2 -13 -16 -13q-9 0 -14.5 7t-3.5 16q29 114 103 114q25 0 41 -13.5t30 -42.5q21 -46 50 -46q43 0 67 86q2 13 16 13q9 0 14.5 -7.5t3.5 -15.5q-32 -114 -104 -114q-25 0 -41 13.5t-30 42.5q-20 47 -50 47z" />
    <glyph glyph-name="Umacron" unicode="&#x16a;" horiz-adv-x="686" 
d="M86 256l86 392q6 22 27 22q13 0 22 -10.5t6 -23.5l-83 -379q-6 -24 -6 -45q0 -78 51 -125t138 -47q93 0 144.5 53t76.5 164l86 391q6 22 28 22q14 0 22 -10.5t5 -23.5l-83 -380q-31 -137 -95.5 -202.5t-183.5 -65.5q-114 0 -180 58.5t-66 158.5q0 26 5 51zM309 762
q0 19 19 19h262q8 0 13.5 -5.5t5.5 -12.5q0 -19 -19 -19h-262q-8 0 -13.5 5.5t-5.5 12.5z" />
    <glyph glyph-name="umacron" unicode="&#x16b;" horiz-adv-x="540" 
d="M506 455l-97 -438q-2 -20 -25 -20q-12 0 -19.5 10t-5.5 21l10 45q-88 -85 -174 -85q-66 0 -103 30.5t-37 85.5q0 15 5 43l70 319q2 20 25 20q12 0 19.5 -9.5t5.5 -21.5l-66 -299q-5 -25 -5 -38q0 -83 104 -83q87 0 166 84l77 347q2 20 25 20q12 0 19.5 -9.5t5.5 -21.5z
M205 615q0 19 19 19h262q8 0 13.5 -5.5t5.5 -12.5q0 -19 -19 -19h-262q-8 0 -13.5 5.5t-5.5 12.5z" />
    <glyph glyph-name="Ubreve" unicode="&#x16c;" horiz-adv-x="686" 
d="M86 256l86 392q6 22 27 22q13 0 22 -10.5t6 -23.5l-83 -379q-6 -24 -6 -45q0 -78 51 -125t138 -47q93 0 144.5 53t76.5 164l86 391q6 22 28 22q14 0 22 -10.5t5 -23.5l-83 -380q-31 -137 -95.5 -202.5t-183.5 -65.5q-114 0 -180 58.5t-66 158.5q0 26 5 51zM301 788
q-4 5 -4 12q0 8 6 14t14 6q11 0 17 -8q40 -60 121 -60q87 0 153 66q4 4 12 4q18 0 18 -18q0 -7 -6 -13q-83 -77 -183 -77q-99 0 -148 74z" />
    <glyph glyph-name="ubreve" unicode="&#x16d;" horiz-adv-x="540" 
d="M506 455l-97 -438q-2 -20 -25 -20q-12 0 -19.5 10t-5.5 21l10 45q-88 -85 -174 -85q-66 0 -103 30.5t-37 85.5q0 15 5 43l70 319q2 20 25 20q12 0 19.5 -9.5t5.5 -21.5l-66 -299q-5 -25 -5 -38q0 -83 104 -83q87 0 166 84l77 347q2 20 25 20q12 0 19.5 -9.5t5.5 -21.5z
M197 641q-4 5 -4 12q0 8 6 14t14 6q11 0 17 -8q40 -60 121 -60q87 0 153 66q4 4 12 4q18 0 18 -18q0 -7 -6 -13q-83 -77 -183 -77q-99 0 -148 74z" />
    <glyph glyph-name="Uring" unicode="&#x16e;" horiz-adv-x="686" 
d="M86 256l86 392q6 22 27 22q13 0 22 -10.5t6 -23.5l-83 -379q-6 -24 -6 -45q0 -78 51 -125t138 -47q93 0 144.5 53t76.5 164l86 391q6 22 28 22q14 0 22 -10.5t5 -23.5l-83 -380q-31 -137 -95.5 -202.5t-183.5 -65.5q-114 0 -180 58.5t-66 158.5q0 26 5 51zM477 907
q38 0 62.5 -24.5t24.5 -62.5q0 -43 -31 -74t-74 -31q-38 0 -62.5 24.5t-24.5 62.5q0 42 31 73q32 32 74 32zM476 875q-29 0 -50 -21t-21 -49q0 -26 15 -42t40 -16q29 0 50.5 20.5t21.5 49.5q0 26 -15.5 42t-40.5 16z" />
    <glyph glyph-name="uring" unicode="&#x16f;" horiz-adv-x="540" 
d="M506 455l-97 -438q-2 -20 -25 -20q-12 0 -19.5 10t-5.5 21l10 45q-88 -85 -174 -85q-66 0 -103 30.5t-37 85.5q0 15 5 43l70 319q2 20 25 20q12 0 19.5 -9.5t5.5 -21.5l-66 -299q-5 -25 -5 -38q0 -83 104 -83q87 0 166 84l77 347q2 20 25 20q12 0 19.5 -9.5t5.5 -21.5z
M373 760q38 0 62.5 -24.5t24.5 -62.5q0 -43 -31 -74t-74 -31q-38 0 -62.5 24.5t-24.5 62.5q0 42 31 73q32 32 74 32zM372 728q-29 0 -50 -21t-21 -49q0 -26 15 -42t40 -16q29 0 50.5 20.5t21.5 49.5q0 26 -15.5 42t-40.5 16z" />
    <glyph glyph-name="Uhungarumlaut" unicode="&#x170;" horiz-adv-x="686" 
d="M86 256l86 392q6 22 27 22q13 0 22 -10.5t6 -23.5l-83 -379q-6 -24 -6 -45q0 -78 51 -125t138 -47q93 0 144.5 53t76.5 164l86 391q6 22 28 22q14 0 22 -10.5t5 -23.5l-83 -380q-31 -137 -95.5 -202.5t-183.5 -65.5q-114 0 -180 58.5t-66 158.5q0 26 5 51zM371 735
q0 5 4 9l107 119q5 8 15 8q8 0 14 -6t6 -14q0 -9 -6 -15l-115 -112q-3 -4 -10 -4q-15 0 -15 15zM510 735q0 5 4 9l107 119q5 8 15 8q8 0 14 -6t6 -14q0 -9 -6 -15l-115 -112q-3 -4 -10 -4q-15 0 -15 15z" />
    <glyph glyph-name="uhungarumlaut" unicode="&#x171;" horiz-adv-x="540" 
d="M506 455l-97 -438q-2 -20 -25 -20q-12 0 -19.5 10t-5.5 21l10 45q-88 -85 -174 -85q-66 0 -103 30.5t-37 85.5q0 15 5 43l70 319q2 20 25 20q12 0 19.5 -9.5t5.5 -21.5l-66 -299q-5 -25 -5 -38q0 -83 104 -83q87 0 166 84l77 347q2 20 25 20q12 0 19.5 -9.5t5.5 -21.5z
M268 588q0 5 4 9l107 119q5 8 15 8q8 0 14 -6t6 -14q0 -9 -6 -15l-115 -112q-3 -4 -10 -4q-15 0 -15 15zM407 588q0 5 4 9l107 119q5 8 15 8q8 0 14 -6t6 -14q0 -9 -6 -15l-115 -112q-3 -4 -10 -4q-15 0 -15 15z" />
    <glyph glyph-name="Uogonek" unicode="&#x172;" horiz-adv-x="686" 
d="M334 -146q8 0 23 4l5 1q7 0 12.5 -5.5t5.5 -12.5q0 -11 -12 -17q-24 -10 -50 -10q-34 0 -56 15.5t-22 41.5q0 64 103 118q-5 -1 -22 -1q-111 1 -175.5 59.5t-64.5 157.5q0 26 5 51l86 392q6 22 27 22q13 0 22 -10.5t6 -23.5l-83 -379q-6 -24 -6 -45q0 -78 51 -125
t138 -47q93 0 144.5 53t76.5 164l86 391q6 22 28 22q14 0 22 -10.5t5 -23.5l-83 -380q-45 -205 -172 -250q-63 -24 -100.5 -56t-37.5 -64q0 -14 10 -23t28 -9z" />
    <glyph glyph-name="uogonek" unicode="&#x173;" horiz-adv-x="540" 
d="M506 455l-97 -438q-2 -18 -23 -20q-105 -55 -105 -110q0 -33 38 -33q8 0 23 4l5 1q7 0 12.5 -5.5t5.5 -12.5q0 -11 -12 -17q-24 -10 -50 -10q-35 0 -56.5 16t-21.5 42q0 40 40 74q43 36 96 58q1 1 5 1q-10 10 -7 23l10 45q-88 -85 -174 -85q-66 0 -103 30.5t-37 85.5
q0 15 5 43l70 319q2 20 25 20q12 0 19.5 -9.5t5.5 -21.5l-66 -299q-5 -25 -5 -38q0 -83 104 -83q87 0 166 84l77 347q2 20 25 20q12 0 19.5 -9.5t5.5 -21.5z" />
    <glyph glyph-name="Wcircumflex" unicode="&#x174;" horiz-adv-x="867" 
d="M538 35l-32 538l-277 -554q-12 -22 -36 -22q-16 0 -27 11t-12 27l-40 603q-1 13 8 22.5t23 9.5q13 0 22 -9t9 -20l29 -561l287 572q8 18 28 18q13 0 22 -8.5t10 -21.5l33 -560l284 574q7 16 26 16q12 0 21 -8t9 -20q0 -5 -4 -14l-308 -609q-12 -22 -36 -22
q-15 0 -26.5 11t-12.5 27zM624 729l-59 107l-107 -111q-3 -5 -11 -5q-7 0 -11.5 5t-4.5 11t4 10l96 106q13 16 32 16h14q22 0 30 -20l48 -103q1 -1 1 -7q0 -18 -17 -18q-11 0 -15 9z" />
    <glyph glyph-name="wcircumflex" unicode="&#x175;" horiz-adv-x="719" 
d="M439 26l-42 387l-220 -399q-8 -17 -28 -17q-12 0 -21 8.5t-10 20.5l-45 431q-2 11 6 20t20 9q20 0 26 -24l35 -389l221 398q7 15 25 15q24 0 29 -26l42 -387l214 400q7 13 23 13q25 0 25 -25q0 -7 -3 -13l-238 -434q-8 -17 -27 -17q-13 0 -22 8.5t-10 20.5zM516 582
l-59 107l-107 -111q-3 -5 -11 -5q-7 0 -11.5 5t-4.5 11t4 10l96 106q13 16 32 16h14q22 0 30 -20l48 -103q1 -1 1 -7q0 -18 -17 -18q-11 0 -15 9z" />
    <glyph glyph-name="Ycircumflex" unicode="&#x176;" horiz-adv-x="618" 
d="M657 624l-311 -339l-58 -266q-6 -22 -27 -22q-13 0 -21.5 10t-6.5 24l56 255l-163 343q-3 6 -3 12q0 12 8.5 20.5t20.5 8.5q18 0 26 -17l147 -315l292 322q7 10 20 10q11 0 19 -8.5t8 -19.5q0 -10 -7 -18zM501 729l-59 107l-107 -111q-3 -5 -11 -5q-7 0 -11.5 5t-4.5 11
t4 10l96 106q13 16 32 16h14q22 0 30 -20l48 -103q1 -1 1 -7q0 -18 -17 -18q-10 0 -15 9z" />
    <glyph glyph-name="ycircumflex" unicode="&#x177;" horiz-adv-x="481" 
d="M-9 -141q11 -4 30 -4q38 0 76 55l57 87l-88 456q-2 12 5.5 22.5t20.5 10.5q10 0 17.5 -6.5t9.5 -15.5l78 -403l263 413q8 12 22 12q11 0 18.5 -7.5t7.5 -18.5q0 -6 -4 -13l-358 -553q-58 -90 -135 -90q-14 0 -29 3q-22 5 -22 25q0 13 10 21t21 6zM401 582l-59 107
l-107 -111q-3 -5 -11 -5q-7 0 -11.5 5t-4.5 11t4 10l96 106q13 16 32 16h14q22 0 30 -20l48 -103q1 -1 1 -7q0 -18 -17 -18q-10 0 -15 9z" />
    <glyph glyph-name="Ydieresis" unicode="&#x178;" horiz-adv-x="618" 
d="M657 624l-311 -339l-58 -266q-6 -22 -27 -22q-13 0 -21.5 10t-6.5 24l56 255l-163 343q-3 6 -3 12q0 12 8.5 20.5t20.5 8.5q18 0 26 -17l147 -315l292 322q7 10 20 10q11 0 19 -8.5t8 -19.5q0 -10 -7 -18zM289 768q0 17 12.5 29.5t29.5 12.5q14 0 23.5 -10t9.5 -24
q0 -16 -12.5 -28.5t-28.5 -12.5q-14 0 -24 9.5t-10 23.5zM494 768q0 17 12 29.5t29 12.5q15 0 24.5 -10t9.5 -24q0 -16 -12.5 -28.5t-29.5 -12.5q-14 0 -23.5 9.5t-9.5 23.5z" />
    <glyph glyph-name="Zacute" unicode="&#x179;" horiz-adv-x="581" 
d="M0 31q0 7 8 20l521 564h-367q-10 0 -18 8t-8 18q0 11 8 18.5t18 7.5h420q13 0 22 -9t9 -22q0 -9 -8 -20l-521 -564h375q10 0 17.5 -7.5t7.5 -18.5t-7.5 -18.5t-17.5 -7.5h-428q-12 0 -21.5 9t-9.5 22zM404 720q-6 0 -10.5 4.5t-4.5 9.5q0 9 7 13l151 117q8 5 13 5
q8 0 13.5 -6t5.5 -13q0 -12 -9 -18l-154 -108q-4 -4 -12 -4z" />
    <glyph glyph-name="zacute" unicode="&#x17a;" horiz-adv-x="469" 
d="M5 26q0 11 7 18l369 393h-257q-9 0 -15.5 6.5t-6.5 15.5q0 10 6.5 17t15.5 7h309q11 0 18.5 -7.5t7.5 -18.5q0 -6 -7 -17l-372 -394h263q9 0 16 -6.5t7 -16.5t-7 -16.5t-16 -6.5h-313q-10 0 -17.5 7.5t-7.5 18.5zM317 573q-6 0 -10.5 4.5t-4.5 9.5q0 9 7 13l151 117
q8 5 13 5q8 0 13.5 -6t5.5 -13q0 -12 -9 -18l-154 -108q-4 -4 -12 -4z" />
    <glyph glyph-name="Zdotaccent" unicode="&#x17b;" horiz-adv-x="581" 
d="M0 31q0 7 8 20l521 564h-367q-10 0 -18 8t-8 18q0 11 8 18.5t18 7.5h420q13 0 22 -9t9 -22q0 -9 -8 -20l-521 -564h375q10 0 17.5 -7.5t7.5 -18.5t-7.5 -18.5t-17.5 -7.5h-428q-12 0 -21.5 9t-9.5 22zM369 766q0 17 12.5 29.5t30.5 12.5q14 0 24 -9.5t10 -24.5
q0 -17 -13 -29.5t-30 -12.5q-14 0 -24 9.5t-10 24.5z" />
    <glyph glyph-name="zdotaccent" unicode="&#x17c;" horiz-adv-x="469" 
d="M5 26q0 11 7 18l369 393h-257q-9 0 -15.5 6.5t-6.5 15.5q0 10 6.5 17t15.5 7h309q11 0 18.5 -7.5t7.5 -18.5q0 -6 -7 -17l-372 -394h263q9 0 16 -6.5t7 -16.5t-7 -16.5t-16 -6.5h-313q-10 0 -17.5 7.5t-7.5 18.5zM281 619q0 17 12.5 29.5t30.5 12.5q14 0 24 -9.5
t10 -24.5q0 -17 -13 -29.5t-30 -12.5q-14 0 -24 9.5t-10 24.5z" />
    <glyph glyph-name="Zcaron" unicode="&#x17d;" horiz-adv-x="581" 
d="M0 31q0 7 8 20l521 564h-367q-10 0 -18 8t-8 18q0 11 8 18.5t18 7.5h420q13 0 22 -9t9 -22q0 -9 -8 -20l-521 -564h375q10 0 17.5 -7.5t7.5 -18.5t-7.5 -18.5t-17.5 -7.5h-428q-12 0 -21.5 9t-9.5 22zM343 861l59 -107l107 111q3 5 11 5q7 0 11.5 -5t4.5 -11t-4 -10
l-96 -106q-13 -16 -32 -16h-14q-22 0 -30 20l-48 103q-1 1 -1 7q0 18 17 18q10 0 15 -9z" />
    <glyph glyph-name="zcaron" unicode="&#x17e;" horiz-adv-x="469" 
d="M5 26q0 11 7 18l369 393h-257q-9 0 -15.5 6.5t-6.5 15.5q0 10 6.5 17t15.5 7h309q11 0 18.5 -7.5t7.5 -18.5q0 -6 -7 -17l-372 -394h263q9 0 16 -6.5t7 -16.5t-7 -16.5t-16 -6.5h-313q-10 0 -17.5 7.5t-7.5 18.5zM256 714l59 -107l107 111q3 5 11 5q7 0 11.5 -5t4.5 -11
t-4 -10l-96 -106q-13 -16 -32 -16h-14q-22 0 -30 20l-48 103q-1 1 -1 7q0 18 17 18q11 0 15 -9z" />
    <glyph glyph-name="longs" unicode="&#x17f;" horiz-adv-x="265" 
d="M381 646q0 -11 -9.5 -18t-20.5 -3q-14 7 -40 7q-39 0 -62.5 -25.5t-35.5 -79.5l-113 -510q-2 -20 -25 -20q-12 0 -19.5 9.5t-4.5 21.5l89 409h-53q-10 0 -16.5 6.5t-6.5 15.5q0 10 6.5 17t16.5 7h63l10 44q34 150 150 150q30 0 57 -11q14 -5 14 -20z" />
    <glyph glyph-name="uni018F" unicode="&#x18f;" horiz-adv-x="748" 
d="M719 389q2 -112 -51.5 -206.5t-139 -145.5t-178.5 -49q-130 0 -210.5 79.5t-80.5 206.5q0 22 3 46q3 28 34 28h560q2 34 2 39q0 107 -65.5 173t-175.5 66q-92 0 -174 -64q-8 -6 -17 -6q-11 0 -19 8t-8 19t10 21q95 74 211 74q132 0 215.5 -80t83.5 -209zM648 297h-530
q-1 -6 -1 -26q0 -98 66.5 -164.5t170.5 -66.5q100 0 184.5 71.5t109.5 185.5z" />
    <glyph glyph-name="uni0192" unicode="&#x192;" horiz-adv-x="422" 
d="M446 633q0 -10 -7.5 -17.5t-18.5 -7.5q-8 0 -12 3q-19 14 -46 14q-77 0 -101 -102l-48 -214h130q10 0 17 -7t7 -17t-7 -17.5t-17 -7.5h-140l-89 -401q-2 -10 -10 -16.5t-18 -6.5q-14 0 -22 10.5t-5 23.5l86 390h-53q-10 0 -17 7.5t-7 17.5t7 17t17 7h63l49 221
q34 147 149 147q47 0 81 -23q12 -10 12 -21z" />
    <glyph glyph-name="uni019D" unicode="&#x19d;" horiz-adv-x="699" 
d="M675 670q14 0 22 -10.5t5 -23.5l-134 -610q-3 -12 -13.5 -20.5t-23.5 -8.5q-22 0 -34 21l-281 570l-128 -579q-46 -205 -220 -205q-32 0 -52 6q-22 6 -22 26q0 12 10 20t21 6q20 -6 41 -6q65 0 107 40t58 113l139 630q7 31 38 31q24 0 36 -22l279 -560l125 560
q6 22 27 22z" />
    <glyph glyph-name="Ohorn" unicode="&#x1a0;" horiz-adv-x="764" 
d="M696 546q40 -68 40 -157q3 -165 -108 -284.5t-261 -116.5q-130 0 -215 78t-85 211q-3 165 108 284.5t262 116.5q75 0 138 -28t103 -79q24 13 42.5 34.5t24.5 42.5h-6q-13 0 -21.5 9t-8.5 23q0 17 12 29t29 12q16 0 26.5 -11t10.5 -31q0 -37 -26.5 -74.5t-64.5 -58.5z
M674 387q0 110 -69 174.5t-173 64.5q-122 3 -213.5 -100t-89.5 -247q0 -111 68 -175t173 -64q121 -3 214 100t90 247z" />
    <glyph glyph-name="ohorn" unicode="&#x1a1;" 
d="M483 418q41 -56 41 -135q2 -115 -78 -206.5t-188 -88.5q-97 0 -155 58t-58 154q-2 115 78 206.5t188 88.5q94 0 151 -54q49 34 60 73h-7q-12 0 -21 9.5t-9 22.5q0 17 12.5 29t29.5 12q16 0 26.5 -11t10.5 -31q0 -34 -23 -69.5t-58 -57.5zM467 281q0 78 -41.5 122.5
t-115.5 44.5q-87 0 -147.5 -74.5t-60.5 -171.5q0 -78 41.5 -122.5t115.5 -44.5q87 0 147.5 74.5t60.5 171.5z" />
    <glyph glyph-name="Uhorn" unicode="&#x1af;" horiz-adv-x="686" 
d="M678 583l-72 -327q-31 -137 -95.5 -202.5t-183.5 -65.5q-114 0 -180 58.5t-66 158.5q0 21 5 51l86 392q6 22 27 22q13 0 22 -10.5t6 -23.5l-83 -379q-6 -24 -6 -45q0 -78 51 -125t138 -47q93 0 144.5 53t76.5 164l86 391q6 22 28 22q14 0 22 -10.5t5 -23.5l-4 -18
q85 42 99 95h-7q-12 0 -21 9.5t-9 22.5q0 18 12.5 30t29.5 12q16 0 26.5 -11.5t10.5 -31.5q0 -48 -41 -92t-107 -69z" />
    <glyph glyph-name="uhorn" unicode="&#x1b0;" horiz-adv-x="540" 
d="M492 390l-83 -373q-2 -20 -25 -20q-12 0 -19.5 10t-5.5 21l10 45q-88 -85 -174 -85q-66 0 -103 30.5t-37 85.5q0 15 5 43l70 319q2 20 25 20q12 0 19.5 -9.5t5.5 -21.5l-66 -299q-5 -25 -5 -38q0 -83 104 -83q87 0 166 84l77 347q2 20 25 20q12 0 19.5 -9.5t5.5 -21.5
l-6 -28q77 41 87 89h-6q-12 0 -21 9.5t-9 22.5q0 17 12 29.5t29 12.5q16 0 26.5 -11.5t10.5 -31.5q0 -46 -37.5 -88t-99.5 -69z" />
    <glyph glyph-name="Gcaron" unicode="&#x1e6;" horiz-adv-x="711" 
d="M129 279q0 -108 66 -173.5t175 -65.5q108 0 194 80l35 160h-223q-10 0 -17.5 7.5t-7.5 17.5q0 11 7 18.5t18 7.5h257q29 0 29 -26q0 -6 -1 -8l-41 -183q-5 -23 -20 -35q-104 -91 -233 -91q-134 0 -217 81t-83 208q-2 111 50 204.5t138.5 146t184.5 50.5q158 0 240 -112
q6 -8 6 -16q0 -12 -8 -20.5t-20 -8.5q-15 0 -23 11q-66 94 -202 94q-120 3 -213.5 -100.5t-90.5 -246.5zM437 861l59 -107l107 111q3 5 11 5q7 0 11.5 -5t4.5 -11t-4 -10l-96 -106q-13 -16 -32 -16h-14q-22 0 -30 20l-48 103q-1 1 -1 7q0 18 17 18q10 0 15 -9z" />
    <glyph glyph-name="gcaron" unicode="&#x1e7;" horiz-adv-x="570" 
d="M536 455l-100 -450q-45 -201 -224 -201q-128 0 -192 64q-9 9 -9 19q0 11 7.5 18.5t18.5 7.5q10 0 17 -7q53 -57 157 -57q65 0 110.5 38.5t62.5 117.5l15 72q-67 -85 -171 -85q-83 0 -133 52.5t-50 148.5q-2 121 70 212.5t181 89.5q51 0 99.5 -26t76.5 -68l14 65
q5 20 25 20q12 0 19.5 -9.5t5.5 -21.5zM410 125l53 234q-22 40 -67.5 64.5t-97.5 24.5q-56 2 -102.5 -35.5t-71.5 -95t-24 -117.5q0 -75 40 -118.5t107 -43.5q43 0 87.5 24.5t75.5 62.5zM308 714l59 -107l107 111q3 5 11 5q7 0 11.5 -5t4.5 -11t-4 -10l-96 -106
q-13 -16 -32 -16h-14q-22 0 -30 20l-48 103q-1 1 -1 7q0 18 17 18q11 0 15 -9z" />
    <glyph glyph-name="uni01EA" unicode="&#x1ea;" horiz-adv-x="764" 
d="M336 -113q0 -33 38 -33q8 0 23 4l5 1q7 0 12.5 -5.5t5.5 -12.5q0 -11 -12 -17q-24 -10 -50 -10q-35 0 -56.5 16t-21.5 42q0 63 102 116h-15q-130 0 -215 78t-85 211q-3 165 108 284.5t262 116.5q130 0 214.5 -78t84.5 -211q0 -146 -85 -256.5t-213 -137.5
q-102 -53 -102 -108zM370 40q121 -3 214 100t90 247q0 110 -69 174.5t-173 64.5q-122 3 -213.5 -100t-89.5 -247q0 -111 68 -175t173 -64z" />
    <glyph glyph-name="uni01EB" unicode="&#x1eb;" 
d="M216 -113q0 -33 39 -33q7 0 22 4l5 1q7 0 12.5 -5.5t5.5 -12.5q0 -13 -12 -17q-24 -10 -50 -10q-35 0 -56.5 16t-21.5 42q0 63 101 116h-3q-97 0 -155 58t-58 154q-2 115 78 206.5t188 88.5q97 0 155 -58t58 -154q0 -100 -58 -182.5t-147 -104.5q-103 -54 -103 -109z
M259 35q87 0 147.5 74.5t60.5 171.5q0 78 -41.5 122.5t-115.5 44.5q-87 0 -147.5 -74.5t-60.5 -171.5q0 -78 41.5 -122.5t115.5 -44.5z" />
    <glyph glyph-name="Aringacute" unicode="&#x1fa;" horiz-adv-x="647" 
d="M542 -3q-12 0 -20 7t-9 18l-26 142h-357l-95 -153q-9 -14 -24 -14q-12 0 -20.5 8.5t-8.5 20.5q0 8 4 15l383 606q12 23 41 23q19 0 32.5 -11.5t15.5 -28.5l114 -597q2 -14 -7 -25t-23 -11zM162 216h316l-71 394zM458 907q38 0 62.5 -24.5t24.5 -62.5q0 -43 -31 -74
t-74 -31q-38 0 -62.5 24.5t-24.5 62.5q0 42 31 73q32 32 74 32zM457 875q-29 0 -50 -21t-21 -49q0 -26 15 -42t40 -16q29 0 50.5 20.5t21.5 49.5q0 26 -15.5 42t-40.5 16zM483 932q-6 0 -10.5 4.5t-4.5 9.5q0 9 7 13l151 117q8 5 13 5q8 0 13.5 -6t5.5 -13q0 -12 -9 -18
l-154 -108q-4 -4 -12 -4z" />
    <glyph glyph-name="aringacute" unicode="&#x1fb;" 
d="M537 455l-97 -438q-2 -20 -25 -20q-12 0 -20 9.5t-5 21.5l10 45q-66 -85 -166 -85q-86 0 -137.5 53.5t-51.5 144.5q-2 125 72 218t182 91q57 0 103 -25.5t71 -68.5l14 65q2 20 25 20q12 0 19.5 -9.5t5.5 -21.5zM412 128l51 232q-19 39 -62 63.5t-98 24.5q-85 0 -143 -76
t-58 -177q0 -74 40 -117t106 -43q48 0 92.5 26t71.5 67zM390 760q38 0 62.5 -24.5t24.5 -62.5q0 -43 -31 -74t-74 -31q-38 0 -62.5 24.5t-24.5 62.5q0 42 31 73q32 32 74 32zM389 728q-29 0 -50 -21t-21 -49q0 -26 15 -42t40 -16q29 0 50.5 20.5t21.5 49.5q0 26 -15.5 42
t-40.5 16zM414 785q-6 0 -10.5 4.5t-4.5 9.5q0 9 7 13l151 117q8 5 13 5q8 0 13.5 -6t5.5 -13q0 -12 -9 -18l-154 -108q-4 -4 -12 -4z" />
    <glyph glyph-name="AEacute" unicode="&#x1fc;" horiz-adv-x="939" 
d="M969 641q0 -10 -7.5 -18t-18.5 -8h-347l-55 -247h329q11 0 18.5 -7.5t7.5 -18.5q0 -10 -7.5 -18t-18.5 -8h-341l-58 -264h336q11 0 18.5 -7.5t7.5 -18.5q0 -10 -7.5 -18t-18.5 -8h-370q-28 0 -28 24q0 8 1 10l29 130h-274l-132 -157q-7 -10 -20 -10q-10 0 -18 8t-8 18
q0 5 6 16l519 610q15 18 39 18h392q11 0 18.5 -7.5t7.5 -18.5zM450 216l86 391l-328 -391h242zM597 720q-6 0 -10.5 4.5t-4.5 9.5q0 9 7 13l151 117q8 5 13 5q8 0 13.5 -6t5.5 -13q0 -12 -9 -18l-154 -108q-4 -4 -12 -4z" />
    <glyph glyph-name="aeacute" unicode="&#x1fd;" horiz-adv-x="948" 
d="M900 288q0 -18 -3 -35q-3 -28 -33 -28h-375q-2 -16 -2 -28q0 -72 47.5 -118t129.5 -46q63 0 125 41q5 3 11 3q9 0 15.5 -6t6.5 -15q0 -11 -11 -19q-73 -49 -146 -49q-80 0 -132 40t-67 108l-26 -119q-2 -20 -25 -20q-12 0 -20 9.5t-5 21.5l10 45q-66 -85 -166 -85
q-86 0 -137.5 53.5t-51.5 144.5q-2 125 72 218t182 91q57 0 103 -25.5t71 -68.5l14 65q2 20 25 20q12 0 19.5 -9.5t5.5 -21.5l-13 -62q79 102 186 102q89 0 139.5 -56.5t50.5 -150.5zM850 288q0 74 -41 118t-115 44q-71 0 -129.5 -54.5t-70.5 -129.5h355q1 3 1 22zM412 128
l51 232q-19 39 -62 63.5t-98 24.5q-85 0 -143 -76t-58 -177q0 -74 40 -117t106 -43q48 0 92.5 26t71.5 67zM545 573q-6 0 -10.5 4.5t-4.5 9.5q0 9 7 13l151 117q8 5 13 5q8 0 13.5 -6t5.5 -13q0 -12 -9 -18l-154 -108q-4 -4 -12 -4z" />
    <glyph glyph-name="Oslashacute" unicode="&#x1fe;" horiz-adv-x="764" 
d="M763 698q0 -8 -5 -13l-93 -98q71 -77 71 -198q3 -165 -108 -284.5t-261 -116.5q-124 0 -204 68l-93 -98q-6 -6 -13 -6q-16 0 -16 16q0 7 6 13l92 97q-72 78 -72 199q-3 165 108 284.5t262 116.5q122 0 204 -68l94 99q6 6 12 6q7 0 11.5 -5t4.5 -12zM180 122l421 445
q-67 59 -169 59q-122 3 -213.5 -100t-89.5 -247q0 -95 51 -157zM623 543l-420 -445q67 -58 167 -58q121 -3 214 100t90 247q0 95 -51 156zM494 720q-6 0 -10.5 4.5t-4.5 9.5q0 9 7 13l151 117q8 5 13 5q8 0 13.5 -6t5.5 -13q0 -12 -9 -18l-154 -108q-4 -4 -12 -4z" />
    <glyph glyph-name="oslashacute" unicode="&#x1ff;" 
d="M524 283q2 -115 -78 -206.5t-188 -88.5q-77 0 -130 37l-54 -67q-4 -6 -12 -6q-6 0 -10.5 4.5t-4.5 10.5t4 10l54 66q-60 57 -60 157q-2 115 78 206.5t188 88.5q77 0 133 -39l56 69q4 6 12 6q14 0 14 -14q0 -6 -4 -10l-57 -69q59 -56 59 -155zM140 85l271 331
q-41 32 -101 32q-87 0 -147.5 -74.5t-60.5 -171.5q0 -73 38 -117zM467 281q0 71 -36 115l-270 -331q39 -30 98 -30q87 0 147.5 74.5t60.5 171.5zM366 573q-6 0 -10.5 4.5t-4.5 9.5q0 9 7 13l151 117q8 5 13 5q8 0 13.5 -6t5.5 -13q0 -12 -9 -18l-154 -108q-4 -4 -12 -4z" />
    <glyph glyph-name="uni0218" unicode="&#x218;" horiz-adv-x="581" 
d="M32 105q0 12 9 21t21 9q14 0 21 -10q79 -85 201 -85q80 0 124 43.5t44 101.5q0 33 -20 56q-19 22 -46 37.5t-84 39.5q-54 22 -96 44q-87 49 -87 130q0 76 66 131t159 55q137 0 212 -83q9 -11 9 -21q0 -13 -8.5 -21.5t-21.5 -8.5t-20 9q-65 73 -176 73q-64 0 -111 -39
t-47 -89q0 -29 19 -51q18 -20 44.5 -34.5t81.5 -37.5q58 -24 99 -47q90 -50 90 -136q0 -83 -64 -143.5t-172 -60.5q-73 0 -136 26t-102 70q-9 8 -9 21zM150 -256q-7 0 -11.5 5t-4.5 11q0 9 7 13q48 33 60 73h-7q-12 0 -21.5 10t-9.5 23q0 18 13 30.5t30 12.5
q18 0 28.5 -11.5t10.5 -32.5q0 -34 -23.5 -68.5t-59.5 -60.5q-7 -5 -12 -5z" />
    <glyph glyph-name="uni0219" unicode="&#x219;" horiz-adv-x="459" 
d="M16 74q0 10 7 17t17 7t17 -7q54 -59 146 -59q57 0 92.5 29t35.5 71q0 30 -25.5 49.5t-90.5 46.5q-43 17 -74 33q-68 37 -68 95q0 59 48 99t128 40q51 0 94 -17t68 -46q8 -6 8 -17q0 -10 -7 -17t-17 -7q-9 0 -16 7q-21 24 -57.5 38.5t-76.5 14.5q-54 0 -86.5 -24
t-32.5 -63q0 -28 24 -45.5t87 -43.5q55 -23 77 -35q70 -36 70 -100q0 -62 -50 -107t-132 -45q-116 0 -179 68q-7 7 -7 18zM88 -256q-7 0 -11.5 5t-4.5 11q0 9 7 13q48 33 60 73h-7q-12 0 -21.5 10t-9.5 23q0 18 13 30.5t30 12.5q18 0 28.5 -11.5t10.5 -32.5
q0 -34 -23.5 -68.5t-59.5 -60.5q-7 -5 -12 -5z" />
    <glyph glyph-name="uni021A" unicode="&#x21a;" horiz-adv-x="564" 
d="M206 31l129 584h-189q-10 0 -18 8t-8 18q0 11 8 18.5t18 7.5h447q11 0 18.5 -7.5t7.5 -18.5q0 -10 -7.5 -18t-18.5 -8h-200l-132 -596q-2 -9 -10 -15.5t-18 -6.5q-13 0 -21.5 10.5t-5.5 23.5zM149 -256q-7 0 -11.5 5t-4.5 11q0 9 7 13q48 33 60 73h-7q-12 0 -21.5 10
t-9.5 23q0 18 13 30.5t30 12.5q18 0 28.5 -11.5t10.5 -32.5q0 -34 -23.5 -68.5t-59.5 -60.5q-7 -5 -12 -5z" />
    <glyph glyph-name="uni021B" unicode="&#x21b;" horiz-adv-x="275" 
d="M292 460q0 -10 -6.5 -16.5t-16.5 -6.5h-82l-75 -335q-3 -14 -3 -24q0 -43 50 -43q17 0 33 9l6 1q15 0 20 -17l1 -5q0 -14 -12 -20q-27 -15 -56 -15q-46 0 -71.5 19.5t-25.5 55.5q0 18 4 31l76 343h-54q-10 0 -16.5 6.5t-6.5 16.5t6.5 16.5t16.5 6.5h64l26 115q5 20 24 20
q13 0 20.5 -9.5t5.5 -21.5l-23 -104h72q10 0 16.5 -6.5t6.5 -16.5zM20 -256q-7 0 -11.5 5t-4.5 11q0 9 7 13q48 33 60 73h-7q-12 0 -21.5 10t-9.5 23q0 18 13 30.5t30 12.5q18 0 28.5 -11.5t10.5 -32.5q0 -34 -23.5 -68.5t-59.5 -60.5q-7 -5 -12 -5z" />
    <glyph glyph-name="uni0232" unicode="&#x232;" horiz-adv-x="618" 
d="M657 624l-311 -339l-58 -266q-6 -22 -27 -22q-13 0 -21.5 10t-6.5 24l56 255l-163 343q-3 6 -3 12q0 12 8.5 20.5t20.5 8.5q18 0 26 -17l147 -315l292 322q7 10 20 10q11 0 19 -8.5t8 -19.5q0 -10 -7 -18zM276 762q0 19 19 19h262q8 0 13.5 -5.5t5.5 -12.5q0 -19 -19 -19
h-262q-8 0 -13.5 5.5t-5.5 12.5z" />
    <glyph glyph-name="uni0233" unicode="&#x233;" horiz-adv-x="481" 
d="M-9 -141q11 -4 30 -4q38 0 76 55l57 87l-88 456q-2 12 5.5 22.5t20.5 10.5q10 0 17.5 -6.5t9.5 -15.5l78 -403l263 413q8 12 22 12q11 0 18.5 -7.5t7.5 -18.5q0 -6 -4 -13l-358 -553q-58 -90 -135 -90q-14 0 -29 3q-22 5 -22 25q0 13 10 21t21 6zM176 615q0 19 19 19h262
q8 0 13.5 -5.5t5.5 -12.5q0 -19 -19 -19h-262q-8 0 -13.5 5.5t-5.5 12.5z" />
    <glyph glyph-name="uni0237" unicode="&#x237;" horiz-adv-x="214" 
d="M-132 -169q0 11 8.5 18t19.5 5q9 -4 27 -4q69 0 90 88l117 528q2 20 25 20q12 0 19.5 -9.5t4.5 -21.5l-114 -517q-29 -134 -139 -134q-22 0 -40 5t-18 22z" />
    <glyph glyph-name="uni0259" unicode="&#x259;" horiz-adv-x="567" 
d="M251 -12q-93 0 -148.5 59t-55.5 150q0 18 3 33q3 29 33 29h380l1 27q0 73 -47 118.5t-130 45.5q-69 0 -130 -41q-5 -3 -10 -3q-10 0 -16 6.5t-6 15.5q0 11 10 18q76 49 155 49q106 0 168 -58.5t62 -154.5q2 -118 -78.5 -207t-190.5 -87zM96 195q0 -73 43 -117.5
t118 -44.5q71 0 129.5 54.5t70.5 129.5h-359q-2 -14 -2 -22z" />
    <glyph glyph-name="uni0272" unicode="&#x272;" horiz-adv-x="540" 
d="M484 379q0 -21 -5 -43l-70 -319q-2 -20 -25 -20q-12 0 -19.5 9.5t-5.5 21.5l66 300q4 17 4 37q0 83 -103 83q-85 0 -167 -84l-94 -426q-28 -134 -139 -134q-22 0 -40 5t-18 22q0 11 8.5 18t19.5 5q9 -4 27 -4q69 0 90 88l117 528q5 20 25 20q12 0 19.5 -9.5t4.5 -21.5
l-10 -46q90 86 175 86q65 0 102.5 -30.5t37.5 -85.5z" />
    <glyph glyph-name="uni02B0" unicode="&#x2b0;" horiz-adv-x="392" 
d="M306 349l41 184l2 20q0 59 -71 59q-48 0 -104 -54l-47 -218q-2 -17 -21 -17q-9 0 -15.5 8t-4.5 18l88 398q2 16 20 16q10 0 16.5 -8t4.5 -17l-32 -145q50 55 115 55q46 0 71.5 -20.5t25.5 -57.5q0 -15 -4 -32l-44 -198q-1 -7 -7 -12t-13 -5q-10 0 -16.5 8t-4.5 18z" />
    <glyph glyph-name="uni02BC" unicode="&#x2bc;" horiz-adv-x="219" 
d="M140 486q-7 0 -12 5t-5 12q0 9 8 15q48 31 62 75h-7q-14 0 -24 10.5t-10 25.5q0 20 14 34t33 14t31 -12.5t12 -35.5q0 -36 -26.5 -76t-65.5 -65q-4 -2 -10 -2z" />
    <glyph glyph-name="circumflex" unicode="&#x2c6;" horiz-adv-x="250" 
d="M278 562l-59 107l-107 -111q-3 -5 -11 -5q-7 0 -11.5 5t-4.5 11t4 10l96 106q13 16 32 16h14q22 0 30 -20l48 -103q1 -1 1 -7q0 -18 -17 -18q-11 0 -15 9z" />
    <glyph glyph-name="caron" unicode="&#x2c7;" horiz-adv-x="250" 
d="M142 694l59 -107l107 111q3 5 11 5q7 0 11.5 -5t4.5 -11t-4 -10l-96 -106q-13 -16 -32 -16h-14q-22 0 -30 20l-48 103q-1 1 -1 7q0 18 17 18q11 0 15 -9z" />
    <glyph glyph-name="uni02C9" unicode="&#x2c9;" horiz-adv-x="363" 
d="M113 609q0 8 5.5 14t12.5 6h262q8 0 13.5 -6t5.5 -14q0 -7 -5.5 -12.5t-13.5 -5.5h-262q-7 0 -12.5 5.5t-5.5 12.5z" />
    <glyph glyph-name="uni02CB" unicode="&#x2cb;" horiz-adv-x="216" 
d="M239 560l-105 105q-6 7 -6 16q0 10 6 16t15 6q11 0 17 -8l98 -113q5 -5 5 -11q0 -7 -5 -12.5t-13 -5.5t-12 7z" />
    <glyph glyph-name="breve" unicode="&#x2d8;" horiz-adv-x="351" 
d="M95 621q-4 5 -4 12q0 8 6 14t14 6q11 0 17 -8q40 -60 121 -60q87 0 153 66q4 4 12 4q18 0 18 -18q0 -7 -6 -13q-83 -77 -183 -77q-99 0 -148 74z" />
    <glyph glyph-name="dotaccent" unicode="&#x2d9;" horiz-adv-x="113" 
d="M98 599q0 17 12.5 29.5t30.5 12.5q14 0 24 -9.5t10 -24.5q0 -17 -13 -29.5t-30 -12.5q-14 0 -24 9.5t-10 24.5z" />
    <glyph glyph-name="ring" unicode="&#x2da;" horiz-adv-x="233" 
d="M214 740q38 0 62.5 -24.5t24.5 -62.5q0 -43 -31 -74t-74 -31q-38 0 -62.5 24.5t-24.5 62.5q0 42 31 73q32 32 74 32zM213 708q-29 0 -50 -21t-21 -49q0 -26 15 -42t40 -16q29 0 50.5 20.5t21.5 49.5q0 26 -15.5 42t-40.5 16z" />
    <glyph glyph-name="ogonek" unicode="&#x2db;" horiz-adv-x="186" 
d="M65 -176q-24 -10 -50 -10q-35 0 -56.5 16t-21.5 42q0 40 40 74q43 36 96 58q18 6 31 6q18 0 4 -8q-115 -58 -115 -115q0 -33 39 -33q7 0 22 4l5 1q7 0 12.5 -5.5t5.5 -12.5q0 -13 -12 -17z" />
    <glyph glyph-name="tilde" unicode="&#x2dc;" horiz-adv-x="307" 
d="M175 657q-45 0 -66 -87q-2 -13 -16 -13q-9 0 -14.5 7t-3.5 16q29 114 103 114q25 0 41 -13.5t30 -42.5q21 -46 50 -46q43 0 67 86q2 13 16 13q9 0 14.5 -7.5t3.5 -15.5q-32 -114 -104 -114q-25 0 -41 13.5t-30 42.5q-20 47 -50 47z" />
    <glyph glyph-name="hungarumlaut" unicode="&#x2dd;" horiz-adv-x="291" 
d="M82 568q0 5 4 9l107 119q5 8 15 8q8 0 14 -6t6 -14q0 -9 -6 -15l-115 -112q-3 -4 -10 -4q-15 0 -15 15zM221 568q0 5 4 9l107 119q5 8 15 8q8 0 14 -6t6 -14q0 -9 -6 -15l-115 -112q-3 -4 -10 -4q-15 0 -15 15z" />
    <glyph glyph-name="gravecomb" unicode="&#x300;" horiz-adv-x="0" 
d="M23 560l-105 105q-6 7 -6 16q0 10 6 16t15 6q11 0 17 -8l98 -113q5 -5 5 -11q0 -7 -5 -12.5t-13 -5.5t-12 7z" />
    <glyph glyph-name="acutecomb" unicode="&#x301;" horiz-adv-x="0" 
d="M-112 553q-6 0 -10.5 4.5t-4.5 9.5q0 9 7 13l151 117q8 5 13 5q8 0 13.5 -6t5.5 -13q0 -12 -9 -18l-154 -108q-4 -4 -12 -4z" />
    <glyph glyph-name="uni0302" unicode="&#x302;" horiz-adv-x="0" 
d="M28 562l-59 107l-107 -111q-3 -5 -11 -5q-7 0 -11.5 5t-4.5 11t4 10l96 106q13 16 32 16h14q22 0 30 -20l48 -103q1 -1 1 -7q0 -18 -17 -18q-11 0 -15 9z" />
    <glyph glyph-name="tildecomb" unicode="&#x303;" horiz-adv-x="0" 
d="M-132 657q-45 0 -66 -87q-2 -13 -16 -13q-9 0 -14.5 7t-3.5 16q28 114 103 114q25 0 41 -13.5t30 -42.5q21 -46 50 -46q43 0 67 86q2 13 16 13q9 0 14.5 -7.5t3.5 -15.5q-32 -114 -104 -114q-25 0 -41 13.5t-30 42.5q-20 47 -50 47z" />
    <glyph glyph-name="uni0304" unicode="&#x304;" horiz-adv-x="0" 
d="M-253 595q0 19 19 19h262q8 0 13.5 -5.5t5.5 -12.5q0 -19 -19 -19h-262q-8 0 -13.5 5.5t-5.5 12.5z" />
    <glyph glyph-name="uni0306" unicode="&#x306;" horiz-adv-x="0" 
d="M-256 621q-4 5 -4 12q0 8 6 14t14 6q11 0 17 -8q41 -60 121 -60q87 0 153 66q4 4 12 4q18 0 18 -18q0 -7 -6 -13q-83 -77 -183 -77q-99 0 -148 74z" />
    <glyph glyph-name="uni0307" unicode="&#x307;" horiz-adv-x="0" 
d="M-15 599q0 17 12.5 29.5t30.5 12.5q14 0 24 -9.5t10 -24.5q0 -17 -13 -29.5t-30 -12.5q-14 0 -24 9.5t-10 24.5z" />
    <glyph glyph-name="uni0308" unicode="&#x308;" horiz-adv-x="0" 
d="M-264 601q0 17 12.5 29.5t29.5 12.5q14 0 23.5 -10t9.5 -24q0 -16 -12.5 -28.5t-28.5 -12.5q-14 0 -24 9.5t-10 23.5zM-59 601q0 17 12 29.5t29 12.5q15 0 24.5 -10t9.5 -24q0 -16 -12.5 -28.5t-29.5 -12.5q-14 0 -23.5 9.5t-9.5 23.5z" />
    <glyph glyph-name="uni0309" unicode="&#x309;" horiz-adv-x="0" 
d="M20 571q0 5 3 10q22 27 22 58q0 18 -13.5 30.5t-31.5 12.5q-31 0 -52 -31q-3 -8 -14 -8q-8 0 -13 5.5t-5 12.5q0 6 4 11q31 44 82 44q35 0 58.5 -20.5t23.5 -54.5q0 -41 -34 -81q-3 -6 -13 -6q-7 0 -12 5t-5 12z" />
    <glyph glyph-name="uni030A" unicode="&#x30a;" horiz-adv-x="0" 
d="M-19 740q38 0 62.5 -24.5t24.5 -62.5q0 -43 -31 -74t-74 -31q-38 0 -62.5 24.5t-24.5 62.5q0 41 32 73t73 32zM-20 708q-29 0 -50 -21t-21 -49q0 -26 15 -42t40 -16q29 0 50.5 20.5t21.5 49.5q0 26 -15.5 42t-40.5 16z" />
    <glyph glyph-name="uni030B" unicode="&#x30b;" horiz-adv-x="0" 
d="M-209 568q0 5 4 9l107 119q5 8 15 8q8 0 14 -6t6 -14q0 -9 -6 -15l-115 -112q-3 -4 -10 -4q-15 0 -15 15zM-70 568q0 5 4 9l107 119q5 8 15 8q8 0 14 -6t6 -14q0 -9 -6 -15l-115 -112q-3 -4 -10 -4q-15 0 -15 15z" />
    <glyph glyph-name="uni030C" unicode="&#x30c;" horiz-adv-x="0" 
d="M-108 694l59 -107l107 111q3 5 11 5q7 0 11.5 -5t4.5 -11t-4 -10l-96 -106q-13 -16 -32 -16h-14q-22 0 -30 20l-48 103q-1 1 -1 7q0 18 17 18q11 0 15 -9z" />
    <glyph glyph-name="dotbelowcomb" unicode="&#x323;" horiz-adv-x="0" 
d="M-174 -123q0 17 12.5 29.5t29.5 12.5q15 0 25 -9.5t10 -24.5q0 -17 -13 -29.5t-30 -12.5q-15 0 -24.5 10t-9.5 24z" />
    <glyph glyph-name="uni0326" unicode="&#x326;" horiz-adv-x="0" 
d="M-244 -256q-7 0 -11.5 5t-4.5 11q0 9 7 13q48 33 60 73h-7q-12 0 -21.5 10t-9.5 23q0 18 13 30.5t30 12.5q18 0 28.5 -11.5t10.5 -32.5q0 -34 -23.5 -68.5t-59.5 -60.5q-7 -5 -12 -5z" />
    <glyph glyph-name="uni0327" unicode="&#x327;" horiz-adv-x="0" 
d="M-282 -147q0 8 5.5 13.5t12.5 5.5t12 -4q30 -24 71 -24q31 0 48.5 14t17.5 37q0 33 -40 33q-17 0 -31 -11q-5 -5 -11 -5q-7 0 -11.5 4.5t-4.5 10.5q0 7 3 11l43 73h38l-41 -68q15 12 34 12q27 0 42.5 -15t15.5 -42q0 -38 -29 -62.5t-76 -24.5q-53 0 -91 27q-8 5 -8 15z
" />
    <glyph glyph-name="uni0328" unicode="&#x328;" horiz-adv-x="0" 
d="M-121 -176q-24 -10 -50 -10q-35 0 -56.5 16t-21.5 42q0 40 40 74q43 36 96 58q18 6 31 6q18 0 4 -8q-115 -58 -115 -115q0 -33 39 -33q7 0 22 4l5 1q7 0 12.5 -5.5t5.5 -12.5q0 -13 -12 -17z" />
    <glyph glyph-name="uni037E" unicode="&#x37e;" horiz-adv-x="219" 
d="M158 490q17 0 28.5 -11.5t11.5 -28.5q0 -20 -14 -33.5t-34 -13.5q-17 0 -28.5 11.5t-11.5 28.5q0 19 14 33t34 14zM7 -114q-7 0 -12 5.5t-5 12.5q0 9 8 15q50 32 62 75h-7q-14 0 -24 10.5t-10 25.5q0 20 14 34t33 14t31 -12.5t12 -35.5q0 -38 -26 -77t-66 -64
q-5 -3 -10 -3z" />
    <glyph glyph-name="tonos" unicode="&#x384;" horiz-adv-x="117" 
d="M96 590l52 163q7 20 26 20q11 0 19.5 -8.5t8.5 -19.5q0 -6 -4 -13l-75 -152q-5 -9 -13 -9t-12 6t-2 13z" />
    <glyph glyph-name="dieresistonos" unicode="&#x385;" horiz-adv-x="363" 
d="M233 590l52 163q7 20 26 20q12 0 20 -8.5t8 -19.5q0 -6 -4 -13l-75 -152q-4 -9 -13 -9q-8 0 -12 6t-2 13zM98 601q0 17 12 29.5t29 12.5q14 0 23.5 -10t9.5 -24q0 -16 -12 -28.5t-29 -12.5q-14 0 -23.5 9.5t-9.5 23.5zM352 601q0 17 12.5 29.5t29.5 12.5q14 0 23.5 -10
t9.5 -24q0 -16 -12.5 -28.5t-29.5 -12.5q-14 0 -23.5 9.5t-9.5 23.5z" />
    <glyph glyph-name="Alphatonos" unicode="&#x386;" horiz-adv-x="647" 
d="M542 -3q-12 0 -20 7t-9 18l-26 142h-357l-95 -153q-9 -14 -24 -14q-12 0 -20.5 8.5t-8.5 20.5q0 8 4 15l383 606q12 23 41 23q19 0 32.5 -11.5t15.5 -28.5l114 -597q2 -14 -7 -25t-23 -11zM162 216h316l-71 394zM146 493l52 163q7 20 26 20q11 0 19.5 -8.5t8.5 -19.5
q0 -6 -4 -13l-75 -152q-5 -9 -13 -9t-12 6t-2 13z" />
    <glyph glyph-name="Epsilontonos" unicode="&#x388;" horiz-adv-x="600" 
d="M72 25q0 7 1 9l134 605q6 28 34 28h365q11 0 18.5 -7.5t7.5 -18.5q0 -10 -7.5 -18t-18.5 -8h-347l-54 -247h328q11 0 18.5 -7.5t7.5 -18.5q0 -10 -7.5 -18t-18.5 -8h-340l-59 -264h336q11 0 18.5 -7.5t7.5 -18.5q0 -10 -7.5 -18t-18.5 -8h-369q-29 0 -29 25zM41 493
l52 163q7 20 26 20q11 0 19.5 -8.5t8.5 -19.5q0 -6 -4 -13l-75 -152q-4 -9 -13 -9q-8 0 -12 6t-2 13z" />
    <glyph glyph-name="Etatonos" unicode="&#x389;" horiz-adv-x="740" 
d="M553 31l63 286h-423l-65 -298q-6 -22 -28 -22q-14 0 -22 10.5t-5 23.5l136 617q2 9 9.5 15.5t17.5 6.5q14 0 22 -10.5t5 -23.5l-58 -267h422l62 279q2 9 9.5 15.5t17.5 6.5q13 0 21.5 -10t6.5 -24l-136 -617q-6 -22 -28 -22q-13 0 -21.5 10.5t-5.5 23.5zM41 493l52 163
q7 20 26 20q11 0 19.5 -8.5t8.5 -19.5q0 -6 -4 -13l-75 -152q-4 -9 -13 -9q-8 0 -12 6t-2 13z" />
    <glyph glyph-name="Iotatonos" unicode="&#x38a;" horiz-adv-x="260" 
d="M73 31l136 617q2 9 9.5 15.5t17.5 6.5q14 0 22 -10.5t5 -23.5l-135 -617q-6 -22 -28 -22q-14 0 -22 10.5t-5 23.5zM41 493l52 163q7 20 26 20q11 0 19.5 -8.5t8.5 -19.5q0 -6 -4 -13l-75 -152q-4 -9 -13 -9q-8 0 -12 6t-2 13z" />
    <glyph glyph-name="Omicrontonos" unicode="&#x38c;" horiz-adv-x="778" 
d="M451 678q130 0 214.5 -78t84.5 -211q3 -165 -108 -284.5t-261 -116.5q-130 0 -215 78t-85 211q-3 165 108 284.5t262 116.5zM446 626q-122 3 -213.5 -100t-89.5 -247q0 -111 68 -175t173 -64q121 -3 214 100t90 247q0 110 -69 174.5t-173 64.5zM41 493l52 163q7 20 26 20
q11 0 19.5 -8.5t8.5 -19.5q0 -6 -4 -13l-75 -152q-4 -9 -13 -9q-8 0 -12 6t-2 13z" />
    <glyph glyph-name="Upsilontonos" unicode="&#x38e;" horiz-adv-x="680" 
d="M719 624l-311 -339l-58 -266q-6 -22 -27 -22q-13 0 -21.5 10t-6.5 24l56 255l-163 343q-3 6 -3 12q0 12 8.5 20.5t20.5 8.5q18 0 26 -17l147 -315l292 322q7 10 20 10q11 0 19 -8.5t8 -19.5q0 -10 -7 -18zM41 493l52 163q7 20 26 20q11 0 19.5 -8.5t8.5 -19.5
q0 -6 -4 -13l-75 -152q-4 -9 -13 -9q-8 0 -12 6t-2 13z" />
    <glyph glyph-name="Omegatonos" unicode="&#x38f;" horiz-adv-x="780" 
d="M658 26q0 -10 -7.5 -18t-18.5 -8h-177q-11 0 -19.5 8.5t-8.5 19.5q0 22 21 29q103 26 171.5 118t68.5 211q0 109 -65 174t-171 65q-129 2 -219 -101.5t-88 -244.5q0 -141 116 -217q14 -9 14 -27q0 -14 -10 -24.5t-24 -10.5h-173q-10 0 -18 8t-8 18q0 11 8 18.5t18 7.5
h139q-120 88 -120 237q-2 99 45 189.5t133 146t188 53.5q134 0 215.5 -78.5t81.5 -211.5q0 -120 -62 -206q-61 -85 -156 -130h100q11 0 18.5 -7.5t7.5 -18.5zM41 493l52 163q7 20 26 20q11 0 19.5 -8.5t8.5 -19.5q0 -6 -4 -13l-75 -152q-4 -9 -13 -9q-8 0 -12 6t-2 13z" />
    <glyph glyph-name="iotadieresistonos" unicode="&#x390;" horiz-adv-x="227" 
d="M47 93l83 373q5 20 25 20q12 0 19.5 -10t5.5 -21l-79 -356q-3 -13 -3 -26q0 -35 32 -37q6 0 10 -3q15 -5 15 -20q0 -22 -21 -24q-3 -1 -16 -1q-76 0 -76 69q0 11 5 36zM178 610l52 163q7 20 26 20q12 0 20 -8.5t8 -19.5q0 -6 -4 -13l-75 -152q-5 -9 -13 -9t-12 6t-2 13z
M43 621q0 17 12 29.5t29 12.5q14 0 23.5 -10t9.5 -24q0 -16 -12 -28.5t-29 -12.5q-14 0 -23.5 9.5t-9.5 23.5zM297 621q0 17 12.5 29.5t29.5 12.5q14 0 23.5 -10t9.5 -24q0 -16 -12.5 -28.5t-29.5 -12.5q-14 0 -23.5 9.5t-9.5 23.5z" />
    <glyph glyph-name="Alpha" unicode="&#x391;" horiz-adv-x="647" 
d="M542 -3q-12 0 -20 7t-9 18l-26 142h-357l-95 -153q-9 -14 -24 -14q-12 0 -20.5 8.5t-8.5 20.5q0 8 4 15l383 606q12 23 41 23q19 0 32.5 -11.5t15.5 -28.5l114 -597q2 -14 -7 -25t-23 -11zM162 216h316l-71 394z" />
    <glyph glyph-name="Beta" unicode="&#x392;" horiz-adv-x="614" 
d="M35 25q0 7 1 9l134 605q6 28 34 28h229q70 0 117.5 -42.5t47.5 -108.5q0 -69 -45.5 -120.5t-109.5 -59.5q42 -10 69.5 -50t27.5 -88q0 -84 -59.5 -141t-166.5 -57h-250q-29 0 -29 25zM420 615h-198l-54 -247h218q73 0 111 40t38 102q0 45 -33.5 75t-81.5 30zM359 316
h-203l-59 -264h220q75 0 119.5 43.5t44.5 105.5q0 51 -33 83t-89 32z" />
    <glyph glyph-name="Gamma" unicode="&#x393;" horiz-adv-x="539" 
d="M36 31l134 608q6 28 34 28h365q11 0 18.5 -7.5t7.5 -18.5q0 -10 -7.5 -18t-18.5 -8h-347l-131 -596q-2 -9 -10 -15.5t-18 -6.5q-14 0 -22 10.5t-5 23.5z" />
    <glyph glyph-name="uni0394" unicode="&#x394;" horiz-adv-x="647" 
d="M-21 20q0 8 6 18l384 609q12 23 41 23q19 0 32.5 -11.5t15.5 -28.5l113 -596q1 -2 1 -9q0 -25 -29 -25h-537q-27 0 -27 20zM406 606l-347 -554h449z" />
    <glyph glyph-name="Epsilon" unicode="&#x395;" horiz-adv-x="564" 
d="M35 25q0 7 1 9l134 605q6 28 34 28h365q11 0 18.5 -7.5t7.5 -18.5q0 -10 -7.5 -18t-18.5 -8h-347l-54 -247h328q11 0 18.5 -7.5t7.5 -18.5q0 -10 -7.5 -18t-18.5 -8h-340l-59 -264h336q11 0 18.5 -7.5t7.5 -18.5q0 -10 -7.5 -18t-18.5 -8h-369q-29 0 -29 25z" />
    <glyph glyph-name="Zeta" unicode="&#x396;" horiz-adv-x="581" 
d="M0 31q0 7 8 20l521 564h-367q-10 0 -18 8t-8 18q0 11 8 18.5t18 7.5h420q13 0 22 -9t9 -22q0 -9 -8 -20l-521 -564h375q10 0 17.5 -7.5t7.5 -18.5t-7.5 -18.5t-17.5 -7.5h-428q-12 0 -21.5 9t-9.5 22z" />
    <glyph glyph-name="Eta" unicode="&#x397;" horiz-adv-x="703" 
d="M516 31l63 286h-423l-65 -298q-2 -9 -10 -15.5t-18 -6.5q-14 0 -22 10.5t-5 23.5l136 617q6 22 27 22q14 0 22 -10.5t5 -23.5l-58 -267h422l62 279q6 22 27 22q13 0 21.5 -10t6.5 -24l-136 -617q-2 -9 -10 -15.5t-18 -6.5q-13 0 -21.5 10.5t-5.5 23.5z" />
    <glyph glyph-name="Theta" unicode="&#x398;" horiz-adv-x="764" 
d="M437 678q130 0 214.5 -78t84.5 -211q3 -165 -108 -284.5t-261 -116.5q-130 0 -215 78t-85 211q-3 165 108 284.5t262 116.5zM432 626q-122 3 -213.5 -100t-89.5 -247q0 -111 68 -175t173 -64q121 -3 214 100t90 247q0 110 -69 174.5t-173 64.5zM197 342q0 11 8 18.5
t18 7.5h353q11 0 18.5 -7.5t7.5 -18.5q0 -10 -7.5 -18t-18.5 -8h-353q-10 0 -18 8t-8 18z" />
    <glyph glyph-name="Iota" unicode="&#x399;" horiz-adv-x="223" 
d="M36 31l136 617q6 22 27 22q14 0 22 -10.5t5 -23.5l-135 -617q-2 -9 -10 -15.5t-18 -6.5q-14 0 -22 10.5t-5 23.5z" />
    <glyph glyph-name="Kappa" unicode="&#x39a;" horiz-adv-x="586" 
d="M596 643q0 -12 -8 -18l-313 -276l213 -308q5 -8 5 -16q0 -11 -9 -19.5t-20 -8.5q-15 0 -25 13l-207 308l-94 -85l-47 -214q-2 -9 -10 -15.5t-18 -6.5q-14 0 -22 10.5t-5 23.5l136 617q6 22 27 22q14 0 22 -10.5t5 -23.5l-71 -327l397 354q7 7 18 7t18.5 -8t7.5 -19z" />
    <glyph glyph-name="Lambda" unicode="&#x39b;" horiz-adv-x="647" 
d="M512 23l-106 583l-369 -595q-9 -14 -25 -14q-13 0 -21 8.5t-8 20.5q0 9 4 16l382 605q12 23 41 23q19 0 32.5 -11.5t15.5 -28.5l114 -597q2 -14 -7 -25t-24 -11q-24 0 -29 26z" />
    <glyph glyph-name="Mu" unicode="&#x39c;" horiz-adv-x="790" 
d="M602 31l125 567l-369 -594q-4 -9 -15 -9q-15 0 -19 16l-106 587l-127 -579q-2 -9 -10 -15.5t-18 -6.5q-14 0 -22 10.5t-5 23.5l132 600q4 17 17.5 28t30.5 11q18 0 32 -11.5t17 -29.5l95 -530l339 548q14 23 41 23q21 0 35 -14.5t14 -35.5l-1 -9l-131 -592
q-2 -9 -10 -15.5t-18 -6.5q-13 0 -21.5 10.5t-5.5 23.5z" />
    <glyph glyph-name="Nu" unicode="&#x39d;" horiz-adv-x="699" 
d="M497 18l-281 570l-125 -569q-2 -9 -10 -15.5t-18 -6.5q-14 0 -22 10.5t-5 23.5l134 608q7 31 38 31q24 0 36 -22l279 -560l125 560q6 22 27 22q14 0 22 -10.5t5 -23.5l-134 -610q-3 -12 -13.5 -20.5t-23.5 -8.5q-22 0 -34 21z" />
    <glyph glyph-name="Xi" unicode="&#x39e;" horiz-adv-x="611" 
d="M144 641q0 11 8 18.5t18 7.5h447q11 0 18.5 -7.5t7.5 -18.5q0 -10 -7.5 -18t-18.5 -8h-447q-10 0 -18 8t-8 18zM85 342q0 11 7.5 18.5t17.5 7.5h434q11 0 18.5 -7.5t7.5 -18.5q0 -10 -7.5 -18t-18.5 -8h-434q-10 0 -17.5 7.5t-7.5 18.5zM8 26q0 11 8 18.5t18 7.5h447
q11 0 18.5 -7.5t7.5 -18.5q0 -10 -7.5 -18t-18.5 -8h-447q-10 0 -18 8t-8 18z" />
    <glyph glyph-name="Omicron" unicode="&#x39f;" horiz-adv-x="764" 
d="M437 678q130 0 214.5 -78t84.5 -211q3 -165 -108 -284.5t-261 -116.5q-130 0 -215 78t-85 211q-3 165 108 284.5t262 116.5zM432 626q-122 3 -213.5 -100t-89.5 -247q0 -111 68 -175t173 -64q121 -3 214 100t90 247q0 110 -69 174.5t-173 64.5z" />
    <glyph glyph-name="Pi" unicode="&#x3a0;" horiz-adv-x="703" 
d="M516 31l128 584h-422l-131 -596q-2 -9 -10 -15.5t-18 -6.5q-14 0 -22 10.5t-5 23.5l134 608q6 28 34 28h475q28 0 28 -24q0 -8 -1 -10l-135 -614q-2 -9 -10 -15.5t-18 -6.5q-13 0 -21.5 10.5t-5.5 23.5z" />
    <glyph glyph-name="Rho" unicode="&#x3a1;" 
d="M36 31l134 608q6 28 34 28h206q76 0 125.5 -49t49.5 -118q0 -90 -64 -156.5t-183 -66.5h-190l-57 -258q-2 -9 -10 -15.5t-18 -6.5q-14 0 -22 10.5t-5 23.5zM524 496q0 48 -35.5 83.5t-87.5 35.5h-179l-63 -286h186q83 0 131 48t48 119z" />
    <glyph glyph-name="Sigma" unicode="&#x3a3;" horiz-adv-x="534" 
d="M91 52h321q11 0 18.5 -7.5t7.5 -18.5q0 -10 -7.5 -18t-18.5 -8h-366q-14 0 -24.5 10t-10.5 24q0 13 12 25l303 287l-174 262q-7 10 -7 22q0 15 11 26t26 11h366q11 0 18.5 -7.5t7.5 -18.5q0 -10 -7.5 -18t-18.5 -8h-338l168 -253q7 -7 7 -19q0 -14 -13 -24z" />
    <glyph glyph-name="Tau" unicode="&#x3a4;" horiz-adv-x="564" 
d="M206 31l129 584h-189q-10 0 -18 8t-8 18q0 11 8 18.5t18 7.5h447q11 0 18.5 -7.5t7.5 -18.5q0 -10 -7.5 -18t-18.5 -8h-200l-132 -596q-2 -9 -10 -15.5t-18 -6.5q-13 0 -21.5 10.5t-5.5 23.5z" />
    <glyph glyph-name="Upsilon" unicode="&#x3a5;" horiz-adv-x="618" 
d="M657 624l-311 -339l-58 -266q-6 -22 -27 -22q-13 0 -21.5 10t-6.5 24l56 255l-163 343q-3 6 -3 12q0 12 8.5 20.5t20.5 8.5q18 0 26 -17l147 -315l292 322q7 10 20 10q11 0 19 -8.5t8 -19.5q0 -10 -7 -18z" />
    <glyph glyph-name="Phi" unicode="&#x3a6;" horiz-adv-x="785" 
d="M382 64l-11 -46q-5 -21 -27 -21q-13 0 -21.5 10.5t-5.5 23.5l8 35q-121 8 -186.5 68.5t-65.5 159.5q-3 123 107.5 214.5t266.5 93.5l11 47q5 21 27 21q13 0 21.5 -10.5t5.5 -23.5l-8 -36q119 -8 185 -69t66 -159q2 -121 -108 -213.5t-265 -94.5zM337 118l98 431
q-132 -7 -216.5 -79.5t-84.5 -175.5q0 -76 54 -123.5t149 -52.5zM694 372q0 76 -53.5 123.5t-148.5 53.5l-98 -431q130 6 215 78.5t85 175.5z" />
    <glyph glyph-name="Chi" unicode="&#x3a7;" horiz-adv-x="645" 
d="M674 642q0 -13 -8 -19l-286 -285l175 -299q4 -7 4 -15q0 -11 -8.5 -19t-20.5 -8q-16 0 -25 15l-169 290l-296 -297q-8 -8 -20 -8t-20 8.5t-8 19.5q0 13 8 19l305 303l-164 280q-4 7 -4 14q0 11 9 20t20 9q17 0 26 -16l157 -272l277 279q9 9 20 9t19.5 -8.5t8.5 -19.5z
" />
    <glyph glyph-name="Psi" unicode="&#x3a8;" horiz-adv-x="766" 
d="M747 670q14 0 22 -10.5t5 -23.5l-59 -257q-25 -112 -112 -181q-86 -69 -217 -74l-24 -106q-1 -9 -9 -15t-18 -6q-13 0 -21.5 10.5t-6.5 23.5l22 94q-219 16 -219 199q0 38 10 79l57 245q5 22 27 22q14 0 22 -10.5t5 -23.5l-55 -243q-7 -24 -7 -65q0 -67 43.5 -106
t128.5 -45l107 472q5 21 28 21q13 0 21 -10.5t6 -23.5l-105 -459q105 7 173 63t89 153l59 255q2 22 28 22z" />
    <glyph glyph-name="uni03A9" unicode="&#x3a9;" horiz-adv-x="764" 
d="M642 26q0 -10 -7.5 -18t-18.5 -8h-177q-11 0 -19.5 8.5t-8.5 19.5q0 22 21 29q103 26 171.5 118t68.5 211q0 109 -65 174t-171 65q-129 2 -219 -101.5t-88 -244.5q0 -141 116 -217q14 -9 14 -27q0 -14 -10 -24.5t-24 -10.5h-173q-10 0 -18 8t-8 18q0 11 8 18.5t18 7.5
h139q-120 88 -120 237q-2 99 45 189.5t133 146t188 53.5q134 0 215.5 -78.5t81.5 -211.5q0 -120 -62 -206q-61 -85 -156 -130h100q11 0 18.5 -7.5t7.5 -18.5z" />
    <glyph glyph-name="Iotadieresis" unicode="&#x3aa;" horiz-adv-x="223" 
d="M36 31l136 617q6 22 27 22q14 0 22 -10.5t5 -23.5l-135 -617q-2 -9 -10 -15.5t-18 -6.5q-14 0 -22 10.5t-5 23.5zM91 768q0 17 12.5 29.5t29.5 12.5q14 0 23.5 -10t9.5 -24q0 -16 -12.5 -28.5t-28.5 -12.5q-14 0 -24 9.5t-10 23.5zM296 768q0 17 12 29.5t29 12.5
q15 0 24.5 -10t9.5 -24q0 -16 -12.5 -28.5t-29.5 -12.5q-14 0 -23.5 9.5t-9.5 23.5z" />
    <glyph glyph-name="Upsilondieresis" unicode="&#x3ab;" horiz-adv-x="618" 
d="M657 624l-311 -339l-58 -266q-6 -22 -27 -22q-13 0 -21.5 10t-6.5 24l56 255l-163 343q-3 6 -3 12q0 12 8.5 20.5t20.5 8.5q18 0 26 -17l147 -315l292 322q7 10 20 10q11 0 19 -8.5t8 -19.5q0 -10 -7 -18zM289 768q0 17 12.5 29.5t29.5 12.5q14 0 23.5 -10t9.5 -24
q0 -16 -12.5 -28.5t-28.5 -12.5q-14 0 -24 9.5t-10 23.5zM494 768q0 17 12 29.5t29 12.5q15 0 24.5 -10t9.5 -24q0 -16 -12.5 -28.5t-29.5 -12.5q-14 0 -23.5 9.5t-9.5 23.5z" />
    <glyph glyph-name="alphatonos" unicode="&#x3ac;" horiz-adv-x="585" 
d="M537 455l-79 -356q-3 -13 -3 -24q0 -36 33 -39q6 0 10 -3q15 -6 15 -20q0 -10 -6.5 -16.5t-14.5 -7.5q-4 -1 -17 -1q-74 0 -74 69l2 22q-69 -91 -169 -91q-86 0 -137.5 53.5t-51.5 144.5q-2 125 72 218t182 91q57 0 103 -25.5t71 -68.5l14 65q2 20 25 20q12 0 19.5 -9.5
t5.5 -21.5zM412 128l51 232q-19 39 -62 63.5t-98 24.5q-85 0 -143 -76t-58 -177q0 -74 40 -117t106 -43q47 0 92 26.5t72 66.5zM356 610l52 163q7 20 26 20q11 0 19.5 -8.5t8.5 -19.5q0 -6 -4 -13l-75 -152q-5 -9 -13 -9t-12 6t-2 13z" />
    <glyph glyph-name="epsilontonos" unicode="&#x3ad;" horiz-adv-x="486" 
d="M26 122q0 55 41.5 92t110.5 39q-38 7 -64 35t-26 70q0 57 48 97t142 40q120 0 186 -79q6 -6 6 -16t-6.5 -17t-16.5 -7t-18 8q-52 66 -152 66q-60 0 -97.5 -26t-37.5 -69q0 -41 36.5 -64.5t97.5 -23.5h47q8 0 14.5 -6.5t6.5 -15.5t-6.5 -15.5t-14.5 -6.5h-86
q-153 0 -153 -92q0 -43 41 -71t110 -28q72 0 134 41q4 4 12 4q10 0 16.5 -7t6.5 -16q0 -16 -10 -20q-64 -46 -159 -46q-97 0 -153 39t-56 95zM326 610l52 163q7 20 26 20q11 0 19.5 -8.5t8.5 -19.5q0 -6 -4 -13l-75 -152q-5 -9 -13 -9t-12 6t-2 13z" />
    <glyph glyph-name="etatonos" unicode="&#x3ae;" horiz-adv-x="540" 
d="M485 377q0 -15 -6 -41l-112 -503q-2 -20 -25 -20q-12 0 -19.5 9.5t-5.5 21.5l108 484q6 27 6 35q0 42 -29 63.5t-79 21.5q-82 0 -164 -84l-76 -347q-2 -20 -25 -20q-12 0 -19.5 9.5t-5.5 21.5l97 438q2 20 25 20q12 0 19.5 -10t4.5 -21l-10 -46q90 86 175 86
q65 0 103 -31t38 -87zM339 610l52 163q7 20 26 20q11 0 19.5 -8.5t8.5 -19.5q0 -6 -4 -13l-75 -152q-4 -9 -13 -9q-8 0 -12 6t-2 13z" />
    <glyph glyph-name="iotatonos" unicode="&#x3af;" horiz-adv-x="227" 
d="M47 93l83 373q5 20 25 20q12 0 19.5 -10t5.5 -21l-79 -356q-3 -13 -3 -26q0 -35 32 -37q6 0 10 -3q15 -5 15 -20q0 -22 -21 -24q-3 -1 -16 -1q-76 0 -76 69q0 11 5 36zM176 610l52 163q7 20 26 20q11 0 19.5 -8.5t8.5 -19.5q0 -6 -4 -13l-75 -152q-5 -9 -13 -9t-12 6
t-2 13z" />
    <glyph glyph-name="upsilondieresistonos" unicode="&#x3b0;" horiz-adv-x="555" 
d="M75 214l58 252q5 20 25 20q12 0 19.5 -9.5t4.5 -21.5l-55 -245q-8 -40 -8 -62q0 -54 29.5 -83.5t85.5 -29.5q93 -2 161 84.5t66 200.5q0 77 -29 133q0 2 -1 5l-1 5q0 11 8 18.5t19 7.5q18 0 24 -17q33 -64 33 -152q2 -135 -81 -234.5t-199 -97.5q-81 0 -124 41.5
t-43 115.5q0 35 8 69zM341 610l52 163q7 20 26 20q12 0 20 -8.5t8 -19.5q0 -6 -4 -13l-75 -152q-4 -9 -13 -9q-8 0 -12 6t-2 13zM206 621q0 17 12 29.5t29 12.5q14 0 23.5 -10t9.5 -24q0 -16 -12 -28.5t-29 -12.5q-14 0 -23.5 9.5t-9.5 23.5zM460 621q0 17 12.5 29.5
t29.5 12.5q14 0 23.5 -10t9.5 -24q0 -16 -12.5 -28.5t-29.5 -12.5q-14 0 -23.5 9.5t-9.5 23.5z" />
    <glyph glyph-name="alpha" unicode="&#x3b1;" horiz-adv-x="585" 
d="M537 455l-79 -356q-3 -13 -3 -24q0 -36 33 -39q6 0 10 -3q15 -6 15 -20q0 -10 -6.5 -16.5t-14.5 -7.5q-4 -1 -17 -1q-74 0 -74 69l2 22q-69 -91 -169 -91q-86 0 -137.5 53.5t-51.5 144.5q-2 125 72 218t182 91q57 0 103 -25.5t71 -68.5l14 65q2 20 25 20q12 0 19.5 -9.5
t5.5 -21.5zM412 128l51 232q-19 39 -62 63.5t-98 24.5q-85 0 -143 -76t-58 -177q0 -74 40 -117t106 -43q47 0 92 26.5t72 66.5z" />
    <glyph glyph-name="beta" unicode="&#x3b2;" 
d="M96 76l-55 -243q-5 -20 -25 -20q-12 0 -19.5 9.5t-5.5 21.5l140 614q26 111 97 164q71 55 160 55q83 0 131 -39t48 -109q0 -76 -55.5 -125t-123.5 -59q43 -4 82 -40q38 -35 38 -98q0 -92 -73.5 -155.5t-174.5 -63.5q-118 0 -164 88zM453 208q0 53 -39.5 81.5t-104.5 28.5
q-30 0 -30 25t36 25q81 0 137.5 41.5t56.5 113.5q0 49 -34.5 78t-91.5 29q-67 0 -124 -45.5t-76 -126.5l-77 -337q15 -38 55.5 -62t93.5 -24q88 0 143 49t55 124z" />
    <glyph glyph-name="gamma" unicode="&#x3b3;" horiz-adv-x="481" 
d="M496 454q-32 -113 -106 -230q-73 -116 -176 -220l-39 -171q-5 -20 -25 -20q-12 0 -19.5 9.5t-5.5 21.5l27 119q17 76 17 154q0 190 -89 330q-4 5 -4 12q0 10 7.5 18.5t19.5 8.5q15 0 22 -12q43 -61 69 -155q26 -93 26 -183q0 -41 -4 -66q80 83 142 188q65 107 90 209
q1 8 8 13.5t16 5.5q13 0 20.5 -10.5t3.5 -21.5z" />
    <glyph glyph-name="delta" unicode="&#x3b4;" 
d="M232 535q0 -28 23.5 -46.5t84.5 -43.5q57 -23 92 -45q88 -51 88 -155q2 -99 -75 -179.5t-189 -77.5q-100 0 -156.5 56.5t-56.5 137.5q0 84 57 152q56 67 149 100q-70 37 -70 99q0 58 57.5 102t140.5 44q99 0 149 -54q8 -8 8 -18t-7 -16.5t-17 -6.5q-8 0 -16 6
q-39 45 -119 45q-62 0 -102.5 -29.5t-40.5 -70.5zM313 405l-13 5q-95 -27 -147.5 -86.5t-52.5 -137.5q0 -63 42 -107t117 -44q86 0 147 63t61 144q0 47 -22 76q-20 28 -47.5 45.5t-84.5 41.5z" />
    <glyph glyph-name="epsilon" unicode="&#x3b5;" horiz-adv-x="486" 
d="M26 122q0 55 41.5 92t110.5 39q-38 7 -64 35t-26 70q0 57 48 97t142 40q120 0 186 -79q6 -6 6 -16t-6.5 -17t-16.5 -7t-18 8q-52 66 -152 66q-60 0 -97.5 -26t-37.5 -69q0 -41 36.5 -64.5t97.5 -23.5h47q8 0 14.5 -6.5t6.5 -15.5t-6.5 -15.5t-14.5 -6.5h-86
q-153 0 -153 -92q0 -43 41 -71t110 -28q72 0 134 41q4 4 12 4q10 0 16.5 -7t6.5 -16q0 -16 -10 -20q-64 -46 -159 -46q-97 0 -153 39t-56 95z" />
    <glyph glyph-name="zeta" unicode="&#x3b6;" horiz-adv-x="491" 
d="M41 169q0 245 420 452h-278q-9 0 -16.5 6.5t-7.5 15.5q0 10 7.5 17t16.5 7h330q25 0 25 -25q0 -15 -14 -23q-216 -111 -320.5 -217t-104.5 -223q0 -65 49.5 -98.5t138.5 -33.5q54 0 77.5 -14t23.5 -47q0 -50 -63 -136q-7 -10 -20 -10q-10 0 -17.5 7t-7.5 17q0 8 6 15
q44 58 44 89q0 18 -14 25t-45 7q-108 0 -169 44t-61 125z" />
    <glyph glyph-name="eta" unicode="&#x3b7;" horiz-adv-x="540" 
d="M485 377q0 -15 -6 -41l-112 -503q-2 -20 -25 -20q-12 0 -19.5 9.5t-5.5 21.5l108 484q6 27 6 35q0 42 -29 63.5t-79 21.5q-82 0 -164 -84l-76 -347q-2 -20 -25 -20q-12 0 -19.5 9.5t-5.5 21.5l97 438q2 20 25 20q12 0 19.5 -10t4.5 -21l-10 -46q90 86 175 86
q65 0 103 -31t38 -87z" />
    <glyph glyph-name="theta" unicode="&#x3b8;" 
d="M557 422q0 -103 -37 -202q-36 -101 -104 -167q-68 -65 -157 -65q-97 0 -148.5 67.5t-51.5 188.5q0 103 37 202q38 101 105 167t158 66q97 0 147.5 -68t50.5 -189zM129 359h368q5 45 5 70q0 96 -36.5 149.5t-111.5 53.5q-77 0 -138.5 -79t-86.5 -194zM488 312h-369
q-5 -35 -5 -75q0 -96 36.5 -149t111.5 -53q80 0 140 80t86 197z" />
    <glyph glyph-name="iota" unicode="&#x3b9;" horiz-adv-x="227" 
d="M47 93l83 373q5 20 25 20q12 0 19.5 -10t5.5 -21l-79 -356q-3 -13 -3 -26q0 -35 32 -37q6 0 10 -3q15 -5 15 -20q0 -22 -21 -24q-3 -1 -16 -1q-76 0 -76 69q0 11 5 36z" />
    <glyph glyph-name="kappa" unicode="&#x3ba;" horiz-adv-x="505" 
d="M500 445l-234 -180l149 -227q4 -7 4 -15q0 -11 -8.5 -18.5t-19.5 -7.5q-15 0 -23 14l-145 222l-112 -87l-28 -129q-5 -20 -25 -20q-12 0 -19.5 9.5t-5.5 21.5l97 438q2 20 25 20q12 0 19.5 -9.5t4.5 -21.5l-53 -243l344 269q8 5 15 5q10 0 16.5 -7t6.5 -16q0 -10 -8 -18z
" />
    <glyph glyph-name="lambda" unicode="&#x3bb;" horiz-adv-x="481" 
d="M304 588l110 -558q2 -12 -6 -22.5t-21 -10.5q-10 0 -17.5 6.5t-8.5 15.5l-78 403l-264 -413q-6 -12 -21 -12q-11 0 -18 7t-7 17q0 8 4 15l291 450l-18 86q-7 32 -19.5 45t-36.5 14q-15 0 -25 -2q-10 -1 -17.5 6t-7.5 17q0 17 19 22q15 4 37 4q87 -1 104 -90z" />
    <glyph glyph-name="uni03BC" unicode="&#x3bc;" horiz-adv-x="553" 
d="M16 -187q-13 0 -20.5 9.5t-4.5 21.5l140 622q5 20 25 20q12 0 19.5 -9.5t5.5 -21.5l-67 -299q-5 -25 -5 -37q0 -42 26 -64t69 -22q44 0 93 24q50 24 81 58l77 351q2 20 25 20q12 0 19.5 -9.5t5.5 -21.5l-78 -356q-3 -13 -3 -26q0 -35 32 -37q5 0 10 -3q15 -5 15 -20
q0 -22 -21 -24q-3 -1 -16 -1q-74 0 -74 69q0 13 1 17q-88 -86 -182 -86q-75 0 -101 56l-48 -211q-5 -20 -24 -20z" />
    <glyph glyph-name="nu" unicode="&#x3bd;" horiz-adv-x="481" 
d="M151 31l-82 421q-2 14 6.5 24t21.5 10q25 0 27 -23l77 -409q91 95 156 202.5t91 210.5q1 8 8.5 13.5t16.5 5.5q13 0 20.5 -10.5t3.5 -21.5q-32 -112 -104 -226q-73 -117 -171 -218q-10 -13 -30 -13q-15 0 -26.5 9.5t-14.5 24.5z" />
    <glyph glyph-name="xi" unicode="&#x3be;" horiz-adv-x="491" 
d="M529 643q0 -9 -7.5 -15.5t-16.5 -6.5h-172q-63 -14 -111.5 -60.5t-48.5 -94.5q0 -47 39.5 -73t103.5 -26h115q9 0 16 -6.5t7 -16.5t-7 -16.5t-16 -6.5h-120q-95 0 -157 -43q-62 -44 -62 -124q0 -107 195 -107q54 0 77.5 -14t23.5 -47q0 -53 -64 -136q-7 -10 -19 -10
q-10 0 -16.5 7t-6.5 16q0 7 4 14q44 62 44 91q0 32 -52 32q-244 0 -244 147q0 82 57 132t131 60q-45 7 -76 38.5t-31 80.5q0 50 45 97t106 66h-82q-9 0 -16.5 7t-7.5 16q0 10 7.5 16.5t16.5 6.5h321q9 0 16.5 -7t7.5 -17z" />
    <glyph glyph-name="omicron" unicode="&#x3bf;" 
d="M311 495q97 0 155 -58t58 -154q2 -115 -78 -206.5t-188 -88.5q-97 0 -155 58t-58 154q-2 115 78 206.5t188 88.5zM310 448q-87 0 -147.5 -74.5t-60.5 -171.5q0 -78 41.5 -122.5t115.5 -44.5q87 0 147.5 74.5t60.5 171.5q0 78 -41.5 122.5t-115.5 44.5z" />
    <glyph glyph-name="pi" unicode="&#x3c0;" horiz-adv-x="561" 
d="M603 460q0 -10 -7 -16.5t-16 -6.5h-65l-95 -420q-5 -20 -25 -20q-12 0 -19.5 9.5t-5.5 21.5l93 409h-274l-96 -420q-5 -20 -24 -20q-13 0 -20.5 9.5t-4.5 21.5l92 409h-53q-10 0 -16.5 6.5t-6.5 16.5t6.5 16.5t16.5 6.5h497q9 0 16 -6.5t7 -16.5z" />
    <glyph glyph-name="rho" unicode="&#x3c1;" horiz-adv-x="567" 
d="M97 82l-56 -249q-5 -20 -25 -20q-12 0 -19.5 9.5t-5.5 21.5l90 398q25 115 94 184t167 69q86 0 134 -55.5t48 -146.5q2 -121 -72 -214.5t-181 -90.5q-56 0 -101.5 25t-72.5 69zM337 448q-74 0 -128 -56.5t-76 -149.5l-27 -119q19 -39 62 -63.5t98 -24.5q86 -2 144.5 76
t56.5 176q0 71 -34 116t-96 45z" />
    <glyph glyph-name="uni03C2" unicode="&#x3c2;" horiz-adv-x="479" 
d="M314 495q104 0 158 -68q8 -8 8 -18t-7.5 -17t-18.5 -7t-19 8q-40 55 -119 55q-94 0 -154.5 -73.5t-60.5 -173.5q0 -154 187 -154q98 0 98 -62q0 -50 -64 -135q-7 -10 -19 -10q-9 0 -16 6.5t-7 16.5q0 5 5 13q47 62 47 91q0 18 -15 25.5t-48 7.5q-106 0 -164.5 51
t-58.5 151q-2 118 78 206.5t190 86.5z" />
    <glyph glyph-name="sigma" unicode="&#x3c3;" 
d="M47 200q-2 114 87 199.5t221 83.5h218q10 0 16.5 -6.5t6.5 -16.5t-6.5 -17t-16.5 -7h-113q62 -59 62 -156q2 -114 -77 -204.5t-187 -87.5q-96 0 -153.5 58t-57.5 154zM394 436h-47q-108 0 -176 -70.5t-68 -163.5q0 -77 41.5 -122t114.5 -45q86 0 147.5 74.5t61.5 169.5
q0 54 -20 96t-54 61z" />
    <glyph glyph-name="tau" unicode="&#x3c4;" horiz-adv-x="463" 
d="M487 459q0 -9 -7 -15.5t-16 -6.5h-161l-75 -335q-3 -12 -3 -21q0 -46 50 -46q17 0 33 9q11 4 19.5 -3.5t8.5 -17.5q0 -13 -13 -20q-27 -15 -56 -15q-96 0 -96 77q0 14 3 29l76 343h-150q-9 0 -16 6.5t-7 15.5q0 10 7 17t16 7h364q9 0 16 -7t7 -17z" />
    <glyph glyph-name="upsilon" unicode="&#x3c5;" horiz-adv-x="555" 
d="M75 214l58 252q5 20 25 20q12 0 19.5 -9.5t4.5 -21.5l-55 -245q-8 -40 -8 -62q0 -54 29.5 -83.5t85.5 -29.5q93 -2 161 84.5t66 200.5q0 77 -29 133q0 2 -1 5l-1 5q0 11 8 18.5t19 7.5q18 0 24 -17q33 -64 33 -152q2 -135 -81 -234.5t-199 -97.5q-81 0 -124 41.5
t-43 115.5q0 35 8 69z" />
    <glyph glyph-name="phi" unicode="&#x3c6;" horiz-adv-x="682" 
d="M311 -12l-33 -155q-5 -20 -25 -20q-12 0 -20 9.5t-5 21.5l32 149q-89 10 -151 66q-61 55 -61 152q0 197 204 277q8 2 9 2q10 0 17 -7t7 -17q0 -14 -14 -22q-166 -67 -166 -231q0 -74 45.5 -119.5t119.5 -54.5l95 432q5 24 27 24q103 0 172 -62t69 -161
q0 -57 -19.5 -107.5t-57.5 -90.5t-101 -63t-144 -23zM577 271q0 75 -49 122.5t-117 49.5l-89 -408q121 0 188 67t67 169z" />
    <glyph glyph-name="chi" unicode="&#x3c7;" horiz-adv-x="479" 
d="M491 460q0 -10 -6 -17l-234 -286l112 -310q2 -8 2 -9q0 -10 -8.5 -17.5t-19.5 -7.5q-19 0 -26 19l-97 278l-232 -287q-8 -10 -19 -10t-18.5 8t-7.5 18t6 16l249 306l-105 291q-4 12 4.5 23t21.5 11q19 0 26 -19l91 -259l216 268q7 10 19 10q11 0 18.5 -8t7.5 -18z" />
    <glyph glyph-name="psi" unicode="&#x3c8;" horiz-adv-x="704" 
d="M645 486q12 0 19.5 -9.5t5.5 -21.5l-54 -251q-22 -100 -98.5 -157.5t-194.5 -58.5l-33 -155q-5 -20 -25 -20q-12 0 -20 9.5t-6 21.5l33 149q-85 10 -142 61q-55 49 -55 121q0 36 11 89l45 202q2 20 25 20q12 0 19.5 -9.5t5.5 -21.5l-43 -196q-11 -49 -11 -82
q0 -51 43 -90t112 -48l134 611q5 20 25 20q12 0 19.5 -9.5t4.5 -21.5l-132 -604q93 1 154 48.5t79 131.5l54 251q5 20 25 20z" />
    <glyph glyph-name="omega" unicode="&#x3c9;" horiz-adv-x="771" 
d="M367 139q-26 -67 -71 -109t-102 -42q-73 0 -111 50t-38 136q0 80 39.5 170t111.5 144q5 5 16 5q9 0 16.5 -7t7.5 -17q0 -7 -8 -18q-60 -51 -94 -125t-34 -150q0 -141 100 -141q55 0 96.5 56.5t63.5 150.5l24 106q1 9 8.5 15t16.5 6q12 0 19.5 -10t5.5 -22l-22 -95
q-9 -40 -9 -78q0 -129 103 -129q44 -2 83.5 39.5t62.5 107.5t22 134q0 82 -31 137q-3 5 -3 12q0 11 8 19t18 8q16 0 24 -15q38 -68 38 -160q2 -127 -67 -229.5t-155 -99.5q-76 0 -107 43q-31 44 -32 108z" />
    <glyph glyph-name="iotadieresis" unicode="&#x3ca;" horiz-adv-x="227" 
d="M47 93l83 373q5 20 25 20q12 0 19.5 -10t5.5 -21l-79 -356q-3 -13 -3 -26q0 -35 32 -37q6 0 10 -3q15 -5 15 -20q0 -22 -21 -24q-3 -1 -16 -1q-76 0 -76 69q0 11 5 36zM55 621q0 17 12.5 29.5t29.5 12.5q14 0 23.5 -10t9.5 -24q0 -16 -12.5 -28.5t-28.5 -12.5
q-14 0 -24 9.5t-10 23.5zM260 621q0 17 12 29.5t29 12.5q15 0 24.5 -10t9.5 -24q0 -16 -12.5 -28.5t-29.5 -12.5q-14 0 -23.5 9.5t-9.5 23.5z" />
    <glyph glyph-name="upsilondieresis" unicode="&#x3cb;" horiz-adv-x="555" 
d="M75 214l58 252q5 20 25 20q12 0 19.5 -9.5t4.5 -21.5l-55 -245q-8 -40 -8 -62q0 -54 29.5 -83.5t85.5 -29.5q93 -2 161 84.5t66 200.5q0 77 -29 133q0 2 -1 5l-1 5q0 11 8 18.5t19 7.5q18 0 24 -17q33 -64 33 -152q2 -135 -81 -234.5t-199 -97.5q-81 0 -124 41.5
t-43 115.5q0 35 8 69zM218 621q0 17 12.5 29.5t29.5 12.5q14 0 23.5 -10t9.5 -24q0 -16 -12.5 -28.5t-28.5 -12.5q-14 0 -24 9.5t-10 23.5zM423 621q0 17 12 29.5t29 12.5q15 0 24.5 -10t9.5 -24q0 -16 -12.5 -28.5t-29.5 -12.5q-14 0 -23.5 9.5t-9.5 23.5z" />
    <glyph glyph-name="omicrontonos" unicode="&#x3cc;" 
d="M311 495q97 0 155 -58t58 -154q2 -115 -78 -206.5t-188 -88.5q-97 0 -155 58t-58 154q-2 115 78 206.5t188 88.5zM310 448q-87 0 -147.5 -74.5t-60.5 -171.5q0 -78 41.5 -122.5t115.5 -44.5q87 0 147.5 74.5t60.5 171.5q0 78 -41.5 122.5t-115.5 44.5zM353 610l52 163
q7 20 26 20q11 0 19.5 -8.5t8.5 -19.5q0 -6 -4 -13l-75 -152q-4 -9 -13 -9q-8 0 -12 6t-2 13z" />
    <glyph glyph-name="upsilontonos" unicode="&#x3cd;" horiz-adv-x="555" 
d="M75 214l58 252q5 20 25 20q12 0 19.5 -9.5t4.5 -21.5l-55 -245q-8 -40 -8 -62q0 -54 29.5 -83.5t85.5 -29.5q93 -2 161 84.5t66 200.5q0 77 -29 133q0 2 -1 5l-1 5q0 11 8 18.5t19 7.5q18 0 24 -17q33 -64 33 -152q2 -135 -81 -234.5t-199 -97.5q-81 0 -124 41.5
t-43 115.5q0 35 8 69zM339 610l52 163q7 20 26 20q11 0 19.5 -8.5t8.5 -19.5q0 -6 -4 -13l-75 -152q-4 -9 -13 -9q-8 0 -12 6t-2 13z" />
    <glyph glyph-name="omegatonos" unicode="&#x3ce;" horiz-adv-x="771" 
d="M367 139q-26 -67 -71 -109t-102 -42q-73 0 -111 50t-38 136q0 80 39.5 170t111.5 144q5 5 16 5q9 0 16.5 -7t7.5 -17q0 -7 -8 -18q-60 -51 -94 -125t-34 -150q0 -141 100 -141q55 0 96.5 56.5t63.5 150.5l24 106q1 9 8.5 15t16.5 6q12 0 19.5 -10t5.5 -22l-22 -95
q-9 -40 -9 -78q0 -129 103 -129q44 -2 83.5 39.5t62.5 107.5t22 134q0 82 -31 137q-3 5 -3 12q0 11 8 19t18 8q16 0 24 -15q38 -68 38 -160q2 -127 -67 -229.5t-155 -99.5q-76 0 -107 43q-31 44 -32 108zM451 610l52 163q7 20 26 20q11 0 19.5 -8.5t8.5 -19.5q0 -6 -4 -13
l-75 -152q-4 -9 -13 -9q-8 0 -12 6t-2 13z" />
    <glyph glyph-name="uni0401" unicode="&#x401;" horiz-adv-x="564" 
d="M35 25q0 7 1 9l134 605q6 28 34 28h365q11 0 18.5 -7.5t7.5 -18.5q0 -10 -7.5 -18t-18.5 -8h-347l-54 -247h328q11 0 18.5 -7.5t7.5 -18.5q0 -10 -7.5 -18t-18.5 -8h-340l-59 -264h336q11 0 18.5 -7.5t7.5 -18.5q0 -10 -7.5 -18t-18.5 -8h-369q-29 0 -29 25zM278 768
q0 17 12.5 29.5t29.5 12.5q14 0 23.5 -10t9.5 -24q0 -16 -12.5 -28.5t-28.5 -12.5q-14 0 -24 9.5t-10 23.5zM483 768q0 17 12 29.5t29 12.5q15 0 24.5 -10t9.5 -24q0 -16 -12.5 -28.5t-29.5 -12.5q-14 0 -23.5 9.5t-9.5 23.5z" />
    <glyph glyph-name="uni0402" unicode="&#x402;" horiz-adv-x="773" 
d="M446 15q0 10 6.5 17.5t16.5 8.5q137 8 163 140l1 6q4 15 4 38q0 59 -42 92t-116 33q-76 0 -154 -35l-64 -296q-2 -9 -10 -15.5t-18 -6.5q-13 0 -21.5 10.5t-5.5 23.5l128 584h-188q-11 0 -19 8t-8 18t8 18t19 8h446q11 0 18.5 -7.5t7.5 -18.5q0 -10 -7.5 -18t-18.5 -8
h-200l-56 -253q73 40 159 40q92 0 146.5 -47t54.5 -123q0 -15 -5 -45l-1 -6q-23 -110 -97 -155q-51 -37 -122 -37q-10 0 -17.5 7.5t-7.5 18.5z" />
    <glyph glyph-name="uni0403" unicode="&#x403;" horiz-adv-x="539" 
d="M36 31l134 608q6 28 34 28h365q11 0 18.5 -7.5t7.5 -18.5q0 -10 -7.5 -18t-18.5 -8h-347l-131 -596q-2 -9 -10 -15.5t-18 -6.5q-14 0 -22 10.5t-5 23.5zM417 720q-7 0 -11.5 5t-4.5 11q0 7 6 13l153 117q4 4 13 4q8 0 14 -6t6 -14q0 -10 -9 -16l-158 -111q-3 -3 -9 -3z
" />
    <glyph glyph-name="uni0404" unicode="&#x404;" horiz-adv-x="672" 
d="M687 546q0 -12 -8.5 -21t-21.5 -9q-17 0 -24 13q-65 97 -200 97q-101 0 -185.5 -71.5t-109.5 -186.5h383q11 0 18.5 -7.5t7.5 -18.5q0 -10 -7.5 -18t-18.5 -8h-390q-2 -32 -2 -37q0 -107 65.5 -173t175.5 -66q92 0 174 64q6 6 16 6q12 0 20 -8t8 -19q0 -12 -11 -21
q-95 -74 -210 -74q-131 0 -215.5 80t-84.5 209q-1 85 30 161t83 128.5t119.5 82.5t137.5 29q162 0 245 -115q5 -7 5 -17z" />
    <glyph glyph-name="uni0405" unicode="&#x405;" horiz-adv-x="581" 
d="M32 105q0 12 9 21t21 9q14 0 21 -10q79 -85 201 -85q80 0 124 43.5t44 101.5q0 33 -20 56q-19 22 -46 37.5t-84 39.5q-54 22 -96 44q-87 49 -87 130q0 76 66 131t159 55q137 0 212 -83q9 -11 9 -21q0 -13 -8.5 -21.5t-21.5 -8.5t-20 9q-65 73 -176 73q-64 0 -111 -39
t-47 -89q0 -29 19 -51q18 -20 44.5 -34.5t81.5 -37.5q58 -24 99 -47q90 -50 90 -136q0 -83 -64 -143.5t-172 -60.5q-73 0 -136 26t-102 70q-9 8 -9 21z" />
    <glyph glyph-name="uni0406" unicode="&#x406;" horiz-adv-x="223" 
d="M36 31l136 617q6 22 27 22q14 0 22 -10.5t5 -23.5l-135 -617q-2 -9 -10 -15.5t-18 -6.5q-14 0 -22 10.5t-5 23.5z" />
    <glyph glyph-name="uni0407" unicode="&#x407;" horiz-adv-x="223" 
d="M36 31l136 617q6 22 27 22q14 0 22 -10.5t5 -23.5l-135 -617q-2 -9 -10 -15.5t-18 -6.5q-14 0 -22 10.5t-5 23.5zM91 768q0 17 12.5 29.5t29.5 12.5q14 0 23.5 -10t9.5 -24q0 -16 -12.5 -28.5t-28.5 -12.5q-14 0 -24 9.5t-10 23.5zM296 768q0 17 12 29.5t29 12.5
q15 0 24.5 -10t9.5 -24q0 -16 -12.5 -28.5t-29.5 -12.5q-14 0 -23.5 9.5t-9.5 23.5z" />
    <glyph glyph-name="uni0408" unicode="&#x408;" horiz-adv-x="470" 
d="M-13 77q0 11 8.5 19.5t19.5 8.5t19 -9q44 -56 119 -56q65 0 107 40t58 113l100 455q6 22 28 22q13 0 21.5 -10.5t5.5 -23.5l-97 -443q-46 -205 -220 -205q-106 0 -160 70q-9 8 -9 19z" />
    <glyph glyph-name="uni0409" unicode="&#x409;" horiz-adv-x="1051" 
d="M758 0h-214q-29 0 -29 26q0 6 1 8l128 581h-269l-40 -128q-60 -190 -110 -292q-52 -106 -99 -151q-47 -44 -98 -54q-14 -2 -18 -2q-12 0 -20 7.5t-8 19.5q0 21 23 27q48 5 86.5 41.5t86 135t104.5 272.5l48 150q8 26 35 26h313q28 0 28 -24q0 -7 -1 -10l-53 -243h185
q79 0 124 -43t45 -111q0 -16 -3 -32q-13 -84 -78.5 -144t-166.5 -60zM640 338l-63 -286h186q78 0 130 51t52 125q0 50 -32 80t-87 30h-186z" />
    <glyph glyph-name="uni040A" unicode="&#x40a;" horiz-adv-x="1051" 
d="M515 26q0 6 1 8l62 283h-422l-66 -298q-6 -22 -27 -22q-14 0 -22 10.5t-5 23.5l135 617q2 9 9.5 15.5t17.5 6.5q14 0 22 -10.5t5 -23.5l-58 -267h422l62 279q2 9 9.5 15.5t17.5 6.5q13 0 21.5 -10t6.5 -24l-59 -267h196q74 0 117 -40.5t43 -105.5q0 -88 -64.5 -155.5
t-169.5 -67.5h-225q-29 0 -29 26zM636 317l-59 -265h198q64 0 109.5 38t56.5 99q2 12 2 26q0 46 -30 74t-80 28h-197z" />
    <glyph glyph-name="uni040B" unicode="&#x40b;" horiz-adv-x="781" 
d="M639 234q0 116 -160 116q-76 0 -154 -35l-64 -296q-2 -9 -10 -15.5t-18 -6.5q-13 0 -21.5 10.5t-5.5 23.5l128 584h-188q-11 0 -19 8t-8 18t8 18t19 8h446q11 0 18.5 -7.5t7.5 -18.5q0 -10 -7.5 -18t-18.5 -8h-200l-56 -253q73 40 159 40q96 0 148.5 -38.5t52.5 -117.5
q0 -34 -7 -63l-35 -164q-6 -22 -27 -22q-14 0 -22.5 10.5t-5.5 23.5l34 152q6 29 6 51z" />
    <glyph glyph-name="uni040C" unicode="&#x40c;" horiz-adv-x="586" 
d="M596 643q0 -12 -8 -18l-313 -276l213 -308q5 -8 5 -16q0 -11 -9 -19.5t-20 -8.5q-15 0 -25 13l-207 308l-94 -85l-47 -214q-2 -9 -10 -15.5t-18 -6.5q-14 0 -22 10.5t-5 23.5l136 617q6 22 27 22q14 0 22 -10.5t5 -23.5l-71 -327l397 354q7 7 18 7t18.5 -8t7.5 -19z
M428 720q-7 0 -11.5 5t-4.5 11q0 7 6 13l153 117q4 4 13 4q8 0 14 -6t6 -14q0 -10 -9 -16l-158 -111q-3 -3 -9 -3z" />
    <glyph glyph-name="uni040E" unicode="&#x40e;" horiz-adv-x="616" 
d="M668 641q0 -8 -5 -16l-365 -512q-47 -67 -90 -96t-99 -29q-19 0 -34 5q-22 5 -22 26q0 13 11 21.5t23 5.5q13 -6 31 -6q36 0 62 20q26 22 69 79l35 47l-167 445q-1 2 -1 9q0 12 8.5 21t20.5 9q21 0 26 -19l152 -415l293 422q9 12 24 12q12 0 20 -8.5t8 -20.5zM278 776
q-6 6 -6 14t6.5 14.5t14.5 6.5q12 0 16 -7q41 -49 111 -49q64 0 116 52q8 5 14 5q8 0 14 -6t6 -14q0 -6 -6 -14q-67 -64 -148 -64q-87 0 -138 62z" />
    <glyph glyph-name="uni040F" unicode="&#x40f;" horiz-adv-x="690" 
d="M693 636l-134 -608q-6 -28 -33 -28h-209l-24 -109q-6 -21 -25 -21q-12 0 -19.5 9.5t-5.5 21.5l22 99h-201q-29 0 -29 25q0 7 1 9l135 614q2 9 9.5 15.5t17.5 6.5q14 0 22 -10.5t5 -23.5l-128 -584h410l131 596q6 22 27 22q13 0 21.5 -10t6.5 -24z" />
    <glyph glyph-name="uni0410" unicode="&#x410;" horiz-adv-x="647" 
d="M542 -3q-12 0 -20 7t-9 18l-26 142h-357l-95 -153q-9 -14 -24 -14q-12 0 -20.5 8.5t-8.5 20.5q0 8 4 15l383 606q12 23 41 23q19 0 32.5 -11.5t15.5 -28.5l114 -597q2 -14 -7 -25t-23 -11zM162 216h316l-71 394z" />
    <glyph glyph-name="uni0411" unicode="&#x411;" 
d="M587 641q0 -10 -7.5 -18t-18.5 -8h-339l-50 -225h177q75 0 125 -49t50 -118q0 -90 -63.5 -156.5t-181.5 -66.5h-215q-29 0 -29 25q0 7 1 9l133 605q6 28 34 28h358q11 0 18.5 -7.5t7.5 -18.5zM160 338l-63 -286h187q83 0 131 48t48 119q0 48 -35.5 83.5t-87.5 35.5h-180z
" />
    <glyph glyph-name="uni0412" unicode="&#x412;" horiz-adv-x="614" 
d="M35 25q0 7 1 9l134 605q6 28 34 28h229q70 0 117.5 -42.5t47.5 -108.5q0 -69 -45.5 -120.5t-109.5 -59.5q42 -10 69.5 -50t27.5 -88q0 -84 -59.5 -141t-166.5 -57h-250q-29 0 -29 25zM420 615h-198l-54 -247h218q73 0 111 40t38 102q0 45 -33.5 75t-81.5 30zM359 316
h-203l-59 -264h220q75 0 119.5 43.5t44.5 105.5q0 51 -33 83t-89 32z" />
    <glyph glyph-name="uni0413" unicode="&#x413;" horiz-adv-x="539" 
d="M36 31l134 608q6 28 34 28h365q11 0 18.5 -7.5t7.5 -18.5q0 -10 -7.5 -18t-18.5 -8h-347l-131 -596q-2 -9 -10 -15.5t-18 -6.5q-14 0 -22 10.5t-5 23.5z" />
    <glyph glyph-name="uni0414" unicode="&#x414;" horiz-adv-x="717" 
d="M693 643q0 -8 -1 -10l-127 -581h37q29 0 29 -25q0 -7 -1 -9l-27 -124q-5 -20 -25 -20q-12 0 -19.5 9.5t-4.5 21.5l20 95h-541l-24 -106q-2 -20 -24 -20q-12 0 -20 9.5t-5 21.5l26 119q6 28 34 28h23q46 34 102 136q56 103 132 322l46 132q7 25 35 25h307q28 0 28 -24z
M507 52l124 563h-265l-38 -110q-72 -213 -123 -313q-49 -97 -94 -140h396z" />
    <glyph glyph-name="uni0415" unicode="&#x415;" horiz-adv-x="564" 
d="M35 25q0 7 1 9l134 605q6 28 34 28h365q11 0 18.5 -7.5t7.5 -18.5q0 -10 -7.5 -18t-18.5 -8h-347l-54 -247h328q11 0 18.5 -7.5t7.5 -18.5q0 -10 -7.5 -18t-18.5 -8h-340l-59 -264h336q11 0 18.5 -7.5t7.5 -18.5q0 -10 -7.5 -18t-18.5 -8h-369q-29 0 -29 25z" />
    <glyph glyph-name="uni0416" unicode="&#x416;" horiz-adv-x="883" 
d="M884 623l-305 -285l205 -298q5 -8 5 -15q0 -11 -8 -19.5t-20 -8.5q-16 0 -23 13l-209 310h-43l-66 -301q-6 -22 -27 -22q-14 0 -22 10.5t-5 23.5l63 289h-43l-337 -315q-8 -8 -19 -8t-19 8t-8 19q0 12 8 20l338 310l-185 274q-4 4 -4 14q0 12 7.5 20t19.5 8q16 0 23 -13
l191 -291h38l62 282q2 9 9.5 15.5t17.5 6.5q14 0 22 -10.5t5 -23.5l-59 -270h40l308 295q11 9 20 9q11 0 19.5 -8t8.5 -19q0 -9 -8 -20z" />
    <glyph glyph-name="uni0417" unicode="&#x417;" horiz-adv-x="573" 
d="M13 120q0 12 7.5 20t19.5 8q15 0 23 -11q27 -45 78 -71t114 -26q84 0 135 44.5t51 115.5q0 53 -46 85t-125 32h-70q-11 0 -18.5 8t-7.5 19q0 10 7.5 17.5t18.5 7.5h115q75 0 130 36.5t55 100.5q0 51 -47.5 85t-124.5 34q-95 0 -164 -57q-4 -4 -14 -4t-17.5 7.5t-7.5 17.5
q0 13 9 20q82 68 197 68q100 0 164 -44q63 -43 63 -122q0 -72 -59 -119.5t-132 -52.5q56 -9 93.5 -48t37.5 -94q0 -87 -68.5 -148t-174.5 -61q-81 0 -144 31q-64 31 -93 85q-5 7 -5 16z" />
    <glyph glyph-name="uni0418" unicode="&#x418;" horiz-adv-x="699" 
d="M37 37l135 611q6 22 27 22q14 0 22.5 -11t5.5 -24l-120 -544l536 568q9 11 25 11t26 -13t7 -28l-135 -610q-6 -22 -27 -22q-14 0 -22.5 11t-5.5 24l122 553l-541 -578q-7 -10 -24 -10q-15 0 -24.5 12.5t-6.5 27.5z" />
    <glyph glyph-name="uni0419" unicode="&#x419;" horiz-adv-x="699" 
d="M37 37l135 611q6 22 27 22q14 0 22.5 -11t5.5 -24l-120 -544l536 568q9 11 25 11t26 -13t7 -28l-135 -610q-6 -22 -27 -22q-14 0 -22.5 11t-5.5 24l122 553l-541 -578q-7 -10 -24 -10q-15 0 -24.5 12.5t-6.5 27.5zM326 777q-6 6 -6 14t6.5 14.5t14.5 6.5q12 0 16 -7
q41 -49 111 -49q64 0 116 52q8 5 14 5q8 0 14 -6t6 -14q0 -7 -6 -14q-67 -64 -148 -64q-87 0 -138 62z" />
    <glyph glyph-name="uni041A" unicode="&#x41a;" horiz-adv-x="586" 
d="M596 643q0 -12 -8 -18l-313 -276l213 -308q5 -8 5 -16q0 -11 -9 -19.5t-20 -8.5q-15 0 -25 13l-207 308l-94 -85l-47 -214q-2 -9 -10 -15.5t-18 -6.5q-14 0 -22 10.5t-5 23.5l136 617q6 22 27 22q14 0 22 -10.5t5 -23.5l-71 -327l397 354q7 7 18 7t18.5 -8t7.5 -19z" />
    <glyph glyph-name="uni041B" unicode="&#x41b;" horiz-adv-x="703" 
d="M516 31l128 584h-269l-40 -128q-60 -190 -110 -292q-52 -106 -99 -151q-47 -44 -98 -54q-14 -2 -18 -2q-12 0 -20 7.5t-8 19.5q0 21 23 27q48 5 86.5 41.5t86 135t104.5 272.5l48 150q8 26 35 26h313q28 0 28 -24q0 -8 -1 -10l-134 -614q-2 -9 -10 -15.5t-18 -6.5
q-13 0 -21.5 10.5t-5.5 23.5z" />
    <glyph glyph-name="uni041C" unicode="&#x41c;" horiz-adv-x="790" 
d="M602 31l125 567l-369 -594q-4 -9 -15 -9q-15 0 -19 16l-106 587l-127 -579q-2 -9 -10 -15.5t-18 -6.5q-14 0 -22 10.5t-5 23.5l132 600q4 17 17.5 28t30.5 11q18 0 32 -11.5t17 -29.5l95 -530l339 548q14 23 41 23q21 0 35 -14.5t14 -35.5l-1 -9l-131 -592
q-2 -9 -10 -15.5t-18 -6.5q-13 0 -21.5 10.5t-5.5 23.5z" />
    <glyph glyph-name="uni041D" unicode="&#x41d;" horiz-adv-x="703" 
d="M516 31l63 286h-423l-65 -298q-2 -9 -10 -15.5t-18 -6.5q-14 0 -22 10.5t-5 23.5l136 617q6 22 27 22q14 0 22 -10.5t5 -23.5l-58 -267h422l62 279q6 22 27 22q13 0 21.5 -10t6.5 -24l-136 -617q-2 -9 -10 -15.5t-18 -6.5q-13 0 -21.5 10.5t-5.5 23.5z" />
    <glyph glyph-name="uni041E" unicode="&#x41e;" horiz-adv-x="764" 
d="M437 678q130 0 214.5 -78t84.5 -211q3 -165 -108 -284.5t-261 -116.5q-130 0 -215 78t-85 211q-3 165 108 284.5t262 116.5zM432 626q-122 3 -213.5 -100t-89.5 -247q0 -111 68 -175t173 -64q121 -3 214 100t90 247q0 110 -69 174.5t-173 64.5z" />
    <glyph glyph-name="uni041F" unicode="&#x41f;" horiz-adv-x="703" 
d="M516 31l128 584h-422l-131 -596q-2 -9 -10 -15.5t-18 -6.5q-14 0 -22 10.5t-5 23.5l134 608q6 28 34 28h475q28 0 28 -24q0 -8 -1 -10l-135 -614q-2 -9 -10 -15.5t-18 -6.5q-13 0 -21.5 10.5t-5.5 23.5z" />
    <glyph glyph-name="uni0420" unicode="&#x420;" 
d="M36 31l134 608q6 28 34 28h206q76 0 125.5 -49t49.5 -118q0 -90 -64 -156.5t-183 -66.5h-190l-57 -258q-2 -9 -10 -15.5t-18 -6.5q-14 0 -22 10.5t-5 23.5zM524 496q0 48 -35.5 83.5t-87.5 35.5h-179l-63 -286h186q83 0 131 48t48 119z" />
    <glyph glyph-name="uni0421" unicode="&#x421;" horiz-adv-x="666" 
d="M437 678q162 0 245 -115q5 -8 5 -17q0 -13 -8.5 -21.5t-21.5 -8.5q-17 0 -24 13q-65 97 -200 97q-76 2 -146.5 -41.5t-115 -125.5t-42.5 -180q0 -107 65.5 -173t175.5 -66q92 0 174 64q6 6 16 6q12 0 20 -8t8 -19q0 -12 -11 -21q-95 -74 -210 -74q-131 0 -215.5 80
t-84.5 209q-1 85 30 161t83 128.5t119.5 82.5t137.5 29z" />
    <glyph glyph-name="uni0422" unicode="&#x422;" horiz-adv-x="564" 
d="M206 31l129 584h-189q-10 0 -18 8t-8 18q0 11 8 18.5t18 7.5h447q11 0 18.5 -7.5t7.5 -18.5q0 -10 -7.5 -18t-18.5 -8h-200l-132 -596q-2 -9 -10 -15.5t-18 -6.5q-13 0 -21.5 10.5t-5.5 23.5z" />
    <glyph glyph-name="uni0423" unicode="&#x423;" horiz-adv-x="616" 
d="M668 641q0 -8 -5 -16l-365 -512q-47 -67 -90 -96t-99 -29q-19 0 -34 5q-22 5 -22 26q0 13 11 21.5t23 5.5q13 -6 31 -6q36 0 62 20q26 22 69 79l35 47l-167 445q-1 2 -1 9q0 12 8.5 21t20.5 9q21 0 26 -19l152 -415l293 422q9 12 24 12q12 0 20 -8.5t8 -20.5z" />
    <glyph glyph-name="uni0424" unicode="&#x424;" horiz-adv-x="785" 
d="M382 64l-11 -46q-5 -21 -27 -21q-13 0 -21.5 10.5t-5.5 23.5l8 35q-121 8 -186.5 68.5t-65.5 159.5q-3 123 107.5 214.5t266.5 93.5l11 47q5 21 27 21q13 0 21.5 -10.5t5.5 -23.5l-8 -36q119 -8 185 -69t66 -159q2 -121 -108 -213.5t-265 -94.5zM337 118l98 431
q-132 -7 -216.5 -79.5t-84.5 -175.5q0 -76 54 -123.5t149 -52.5zM694 372q0 76 -53.5 123.5t-148.5 53.5l-98 -431q130 6 215 78.5t85 175.5z" />
    <glyph glyph-name="uni0425" unicode="&#x425;" horiz-adv-x="645" 
d="M674 642q0 -13 -8 -19l-286 -285l175 -299q4 -7 4 -15q0 -11 -8.5 -19t-20.5 -8q-16 0 -25 15l-169 290l-296 -297q-8 -8 -20 -8t-20 8.5t-8 19.5q0 13 8 19l305 303l-164 280q-4 7 -4 14q0 11 9 20t20 9q17 0 26 -16l157 -272l277 279q9 9 20 9t19.5 -8.5t8.5 -19.5z
" />
    <glyph glyph-name="uni0426" unicode="&#x426;" horiz-adv-x="717" 
d="M693 636l-127 -584h37q29 0 29 -25q0 -7 -1 -9l-28 -124q-5 -20 -25 -20q-11 0 -19 9.5t-5 21.5l21 95h-511q-29 0 -29 25q0 7 1 9l135 614q2 9 9.5 15.5t17.5 6.5q14 0 22 -10.5t5 -23.5l-127 -584h410l130 596q6 22 27 22q13 0 21.5 -10t6.5 -24z" />
    <glyph glyph-name="uni0427" unicode="&#x427;" horiz-adv-x="595" 
d="M408 31l60 274q-73 -40 -159 -40q-202 0 -202 156q0 34 7 63l36 164q6 22 27 22q14 0 22 -10.5t5 -23.5l-33 -152q-6 -27 -6 -50q0 -117 159 -117q79 0 154 35l65 296q2 9 9.5 15.5t17.5 6.5q14 0 22 -10.5t5 -23.5l-134 -617q-2 -9 -10 -15.5t-18 -6.5q-14 0 -22 10.5
t-5 23.5z" />
    <glyph glyph-name="uni0428" unicode="&#x428;" horiz-adv-x="962" 
d="M964 636l-133 -608q-6 -28 -34 -28h-733q-29 0 -29 25q0 7 1 9l135 614q2 9 9.5 15.5t17.5 6.5q14 0 22 -10.5t5 -23.5l-128 -584h312l131 596q6 22 28 22q13 0 21.5 -10.5t5.5 -23.5l-128 -584h312l131 596q6 22 27 22q14 0 22 -10.5t5 -23.5z" />
    <glyph glyph-name="uni0429" unicode="&#x429;" horiz-adv-x="988" 
d="M964 636l-126 -584h37q29 0 29 -26q0 -6 -1 -8l-28 -124q-5 -20 -25 -20q-12 0 -19.5 9.5t-4.5 21.5l20 95h-782q-29 0 -29 25q0 7 1 9l135 614q2 9 9.5 15.5t17.5 6.5q14 0 22 -10.5t5 -23.5l-127 -584h312l130 596q6 22 28 22q13 0 21.5 -10.5t5.5 -23.5l-127 -584h312
l130 596q6 22 27 22q14 0 22 -10.5t5 -23.5z" />
    <glyph glyph-name="uni042A" unicode="&#x42a;" horiz-adv-x="741" 
d="M205 26q0 6 1 8l128 581h-188q-11 0 -19 8t-8 18t8 18t19 8h222q28 0 28 -24q0 -7 -1 -10l-53 -243h177q76 0 125.5 -49t49.5 -118q0 -90 -64 -156.5t-182 -66.5h-214q-29 0 -29 26zM331 338l-64 -286h186q84 0 132 48t48 119q0 48 -36 83.5t-88 35.5h-178z" />
    <glyph glyph-name="uni042B" unicode="&#x42b;" horiz-adv-x="754" 
d="M225 636l-53 -246h176q76 0 126 -49t50 -118q0 -90 -64 -156.5t-182 -66.5h-214q-29 0 -29 25q0 7 1 9l135 614q2 9 9.5 15.5t17.5 6.5q14 0 22 -10.5t5 -23.5zM567 31l135 617q6 22 27 22q14 0 22 -10.5t5 -23.5l-134 -617q-6 -22 -28 -22q-14 0 -22 10.5t-5 23.5z
M160 338l-63 -286h186q84 0 132 48t48 119q0 48 -36 83.5t-89 35.5h-178z" />
    <glyph glyph-name="uni042C" unicode="&#x42c;" 
d="M225 636l-53 -246h176q76 0 126 -49t50 -118q0 -90 -64 -156.5t-182 -66.5h-214q-29 0 -29 25q0 7 1 9l135 614q2 9 9.5 15.5t17.5 6.5q14 0 22 -10.5t5 -23.5zM160 338l-63 -286h186q84 0 132 48t48 119q0 48 -36 83.5t-89 35.5h-178z" />
    <glyph glyph-name="uni042D" unicode="&#x42d;" horiz-adv-x="672" 
d="M643 389q0 -172 -111 -288q-107 -113 -258 -113q-165 0 -245 115q-6 7 -6 18q0 12 8.5 21t21.5 9q15 0 24 -14q67 -97 201 -97q120 0 211 97q66 71 86 179h-374q-10 0 -18 8t-8 18q0 11 8 18.5t18 7.5h379v11q0 22 -1 27q-6 101 -70 160.5t-169 59.5q-92 0 -174 -64
q-8 -6 -16 -6q-11 0 -19.5 8t-8.5 19q0 12 11 21q97 74 211 74q131 0 215 -80t84 -209z" />
    </font>
</defs>
</svg>
