<?xml version="1.0" standalone="no"?>
<!DOCTYPE svg PUBLIC "-//W3C//DTD SVG 1.1//EN" "http://www.w3.org/Graphics/SVG/1.1/DTD/svg11.dtd" >
<svg xmlns="http://www.w3.org/2000/svg" xmlns:xlink="http://www.w3.org/1999/xlink" version="1.1">
<metadata>
Created by FontForge 20170731 at Tue Dec 25 03:00:00 2018
 By Aleksey,,,
Copyright (c) 2018 by Mark Simonson. All rights reserved.
</metadata>
<defs>
<font id="ProximaSoft-MediumIt" horiz-adv-x="559" >
  <font-face 
    font-family="Proxima Soft Medium"
    font-weight="500"
    font-style="italic"
    font-stretch="normal"
    units-per-em="1000"
    panose-1="2 0 5 6 3 0 0 2 0 4"
    ascent="790"
    descent="-210"
    x-height="483"
    cap-height="667"
    bbox="-293 -326 1159.05 1082"
    underline-thickness="64"
    underline-position="-344"
    slope="-12.5"
    unicode-range="U+000D-FB04"
  />
<missing-glyph horiz-adv-x="500" 
d="M94 -28v718q0 62 62 62h227q62 0 62 -62v-718q0 -62 -62 -62h-227q-62 0 -62 62zM413 722h-288v-782h288v782z" />
    <glyph glyph-name="f_f_j" unicode="ffj" horiz-adv-x="824" 
d="M404 634q0 -15 -11 -26t-26 -11q-2 0 -10 2q-11 4 -29 4q-65 0 -84 -88l-6 -32h54q16 0 27.5 -12t11.5 -28t-11.5 -27.5t-27.5 -11.5h-72l-83 -375q-3 -15 -15 -24.5t-28 -9.5q-18 0 -30.5 12.5t-12.5 30.5q0 8 1 10l78 356h-36q-16 0 -27.5 11.5t-11.5 27.5t11.5 28
t27.5 12h54l6 32q37 162 165 162q35 0 59 -9q26 -7 26 -34zM700 634q0 -15 -11 -26t-26 -11q-2 0 -10 2q-11 4 -29 4q-65 0 -84 -88l-6 -32h54q16 0 27.5 -12t11.5 -28t-11.5 -27.5t-27.5 -11.5h-72l-83 -375q-3 -15 -15 -24.5t-28 -9.5q-18 0 -30.5 12.5t-12.5 30.5
q0 8 1 10l78 356h-36q-16 0 -27.5 11.5t-11.5 27.5t11.5 28t27.5 12h54l6 32q37 162 165 162q35 0 59 -9q26 -7 26 -34zM735 629q0 28 20 46.5t45 18.5q22 0 37.5 -15t15.5 -35q0 -28 -20 -46.5t-45 -18.5q-22 0 -37.5 14.5t-15.5 35.5zM463 -156q0 17 12.5 28t29.5 10
q3 -1 13 -1q62 0 82 81l109 492q3 15 15 24.5t28 9.5q18 0 30.5 -12.5t12.5 -30.5q0 -8 -1 -10l-104 -473q-36 -158 -163 -158q-21 0 -31 3q-15 2 -24 12t-9 25z" />
    <glyph glyph-name="f_j" unicode="fj" horiz-adv-x="529" 
d="M404 634q0 -15 -11 -26t-26 -11q-2 0 -10 2q-11 4 -29 4q-65 0 -84 -88l-6 -32h54q16 0 27.5 -12t11.5 -28t-11.5 -27.5t-27.5 -11.5h-72l-83 -375q-3 -15 -15 -24.5t-28 -9.5q-18 0 -30.5 12.5t-12.5 30.5q0 8 1 10l78 356h-36q-16 0 -27.5 11.5t-11.5 27.5t11.5 28
t27.5 12h54l6 32q37 162 165 162q35 0 59 -9q26 -7 26 -34zM440 629q0 28 20 46.5t45 18.5q22 0 37.5 -15t15.5 -35q0 -28 -20 -46.5t-45 -18.5q-22 0 -37.5 14.5t-15.5 35.5zM168 -156q0 17 12.5 28t29.5 10q3 -1 13 -1q63 0 82 81l109 492q3 15 15 24.5t28 9.5
q18 0 30.5 -12.5t12.5 -30.5q0 -8 -1 -10l-104 -473q-36 -158 -163 -158q-20 0 -31 3q-15 2 -24 12t-9 25z" />
    <glyph glyph-name="f_f" unicode="ff" horiz-adv-x="591" 
d="M404 634q0 -15 -11 -26t-26 -11q-2 0 -10 2q-11 4 -29 4q-65 0 -84 -88l-6 -32h54q16 0 27.5 -12t11.5 -28t-11.5 -27.5t-27.5 -11.5h-72l-83 -375q-3 -15 -15 -24.5t-28 -9.5q-18 0 -30.5 12.5t-12.5 30.5q0 8 1 10l78 356h-36q-16 0 -27.5 11.5t-11.5 27.5t11.5 28
t27.5 12h54l6 32q37 162 165 162q35 0 59 -9q26 -7 26 -34zM700 634q0 -15 -11 -26t-26 -11q-2 0 -10 2q-11 4 -29 4q-65 0 -84 -88l-6 -32h54q16 0 27.5 -12t11.5 -28t-11.5 -27.5t-27.5 -11.5h-72l-83 -375q-3 -15 -15 -24.5t-28 -9.5q-18 0 -30.5 12.5t-12.5 30.5
q0 8 1 10l78 356h-36q-16 0 -27.5 11.5t-11.5 27.5t11.5 28t27.5 12h54l6 32q37 162 165 162q35 0 59 -9q26 -7 26 -34z" />
    <glyph glyph-name="fi" unicode="fi" horiz-adv-x="529" 
d="M404 634q0 -15 -11 -26t-26 -11q-2 0 -10 2q-11 4 -29 4q-65 0 -84 -88l-6 -32h54q16 0 27.5 -12t11.5 -28t-11.5 -27.5t-27.5 -11.5h-72l-83 -375q-3 -15 -15 -24.5t-28 -9.5q-18 0 -30.5 12.5t-12.5 30.5q0 8 1 10l78 356h-36q-16 0 -27.5 11.5t-11.5 27.5t11.5 28
t27.5 12h54l6 32q37 162 165 162q35 0 59 -9q26 -7 26 -34zM505 694q22 0 37.5 -15t15.5 -35q0 -28 -20 -46.5t-45 -18.5q-22 0 -37.5 14.5t-15.5 35.5q0 28 20 46.5t45 18.5zM324 38q0 8 1 10l89 406q3 15 15 24.5t28 9.5q19 0 31.5 -13t12.5 -31q0 -7 -1 -9l-90 -406
q-3 -15 -15 -24.5t-27 -9.5q-19 0 -31.5 12.5t-12.5 30.5z" />
    <glyph glyph-name="fl" unicode="fl" horiz-adv-x="529" 
d="M404 634q0 -15 -11 -26t-26 -11q-2 0 -10 2q-11 4 -29 4q-65 0 -84 -88l-6 -32h54q16 0 27.5 -12t11.5 -28t-11.5 -27.5t-27.5 -11.5h-72l-83 -375q-3 -15 -15 -24.5t-28 -9.5q-18 0 -30.5 12.5t-12.5 30.5q0 8 1 10l78 356h-36q-16 0 -27.5 11.5t-11.5 27.5t11.5 28
t27.5 12h54l6 32q37 162 165 162q35 0 59 -9q26 -7 26 -34zM323 39q0 7 1 9l130 590q3 15 15 24.5t28 9.5q19 0 31.5 -13t12.5 -31q0 -7 -1 -9l-130 -590q-3 -15 -15 -24.5t-28 -9.5q-19 0 -31.5 13t-12.5 31z" />
    <glyph glyph-name="f_f_i" unicode="ffi" horiz-adv-x="824" 
d="M404 634q0 -15 -11 -26t-26 -11q-2 0 -10 2q-11 4 -29 4q-65 0 -84 -88l-6 -32h54q16 0 27.5 -12t11.5 -28t-11.5 -27.5t-27.5 -11.5h-72l-83 -375q-3 -15 -15 -24.5t-28 -9.5q-18 0 -30.5 12.5t-12.5 30.5q0 8 1 10l78 356h-36q-16 0 -27.5 11.5t-11.5 27.5t11.5 28
t27.5 12h54l6 32q37 162 165 162q35 0 59 -9q26 -7 26 -34zM700 634q0 -15 -11 -26t-26 -11q-2 0 -10 2q-11 4 -29 4q-65 0 -84 -88l-6 -32h54q16 0 27.5 -12t11.5 -28t-11.5 -27.5t-27.5 -11.5h-72l-83 -375q-3 -15 -15 -24.5t-28 -9.5q-18 0 -30.5 12.5t-12.5 30.5
q0 8 1 10l78 356h-36q-16 0 -27.5 11.5t-11.5 27.5t11.5 28t27.5 12h54l6 32q37 162 165 162q35 0 59 -9q26 -7 26 -34zM800 694q22 0 37.5 -15t15.5 -35q0 -28 -20 -46.5t-45 -18.5q-22 0 -37.5 14.5t-15.5 35.5q0 28 20 46.5t45 18.5zM619 38q0 8 1 10l89 406
q3 15 15 24.5t28 9.5q19 0 31.5 -13t12.5 -31q0 -7 -1 -9l-90 -406q-3 -15 -15 -24.5t-27 -9.5q-19 0 -31.5 12.5t-12.5 30.5z" />
    <glyph glyph-name="f_f_l" unicode="ffl" horiz-adv-x="824" 
d="M404 634q0 -15 -11 -26t-26 -11q-2 0 -10 2q-11 4 -29 4q-65 0 -84 -88l-6 -32h54q16 0 27.5 -12t11.5 -28t-11.5 -27.5t-27.5 -11.5h-72l-83 -375q-3 -15 -15 -24.5t-28 -9.5q-18 0 -30.5 12.5t-12.5 30.5q0 8 1 10l78 356h-36q-16 0 -27.5 11.5t-11.5 27.5t11.5 28
t27.5 12h54l6 32q37 162 165 162q35 0 59 -9q26 -7 26 -34zM700 634q0 -15 -11 -26t-26 -11q-2 0 -10 2q-11 4 -29 4q-65 0 -84 -88l-6 -32h54q16 0 27.5 -12t11.5 -28t-11.5 -27.5t-27.5 -11.5h-72l-83 -375q-3 -15 -15 -24.5t-28 -9.5q-18 0 -30.5 12.5t-12.5 30.5
q0 8 1 10l78 356h-36q-16 0 -27.5 11.5t-11.5 27.5t11.5 28t27.5 12h54l6 32q37 162 165 162q35 0 59 -9q26 -7 26 -34zM618 39q0 7 1 9l130 590q3 15 15 24.5t28 9.5q19 0 31.5 -13t12.5 -31q0 -7 -1 -9l-130 -590q-3 -15 -15 -24.5t-28 -9.5q-19 0 -31.5 13t-12.5 31z" />
    <glyph glyph-name="f_b" unicode="fb" horiz-adv-x="874" 
d="M404 634q0 -15 -11 -26t-26 -11q-2 0 -10 2q-11 4 -29 4q-65 0 -84 -88l-6 -32h54q16 0 27.5 -12t11.5 -28t-11.5 -27.5t-27.5 -11.5h-72l-83 -375q-3 -15 -15 -24.5t-28 -9.5q-18 0 -30.5 12.5t-12.5 30.5q0 8 1 10l78 356h-36q-16 0 -27.5 11.5t-11.5 27.5t11.5 28
t27.5 12h54l6 32q37 162 165 162q35 0 59 -9q26 -7 26 -34zM837 295q2 -120 -71 -214.5t-183 -92.5q-111 0 -163 84l-10 -43q-4 -15 -15.5 -24.5t-27.5 -9.5q-19 0 -31.5 13t-12.5 31q0 7 1 9l130 590q3 15 15 24.5t28 9.5q18 0 30.5 -12.5t12.5 -30.5q0 -8 -1 -10l-44 -203
q64 79 156 79q85 0 135.5 -53.5t50.5 -146.5zM742 278q0 62 -35 99.5t-91 37.5q-40 0 -76.5 -21t-61.5 -55l-44 -200q40 -71 137 -71q73 0 122 63t49 147z" />
    <glyph glyph-name="f_h" unicode="fh" horiz-adv-x="856" 
d="M404 634q0 -15 -11 -26t-26 -11q-2 0 -10 2q-11 4 -29 4q-65 0 -84 -88l-6 -32h54q16 0 27.5 -12t11.5 -28t-11.5 -27.5t-27.5 -11.5h-72l-83 -375q-3 -15 -15 -24.5t-28 -9.5q-18 0 -30.5 12.5t-12.5 30.5q0 8 1 10l78 356h-36q-16 0 -27.5 11.5t-11.5 27.5t11.5 28
t27.5 12h54l6 32q37 162 165 162q35 0 59 -9q26 -7 26 -34zM650 39q0 7 1 9l57 262q5 22 5 32q0 36 -25.5 54.5t-69.5 18.5q-70 0 -139 -71l-69 -315q-3 -15 -15 -24.5t-28 -9.5q-19 0 -31.5 13t-12.5 31q0 7 1 9l130 590q3 15 15 24.5t28 9.5q19 0 31.5 -13t12.5 -31
q0 -7 -1 -9l-45 -204q85 80 168 80q67 0 106.5 -32t39.5 -89q0 -12 -5 -40l-67 -305q-3 -15 -15 -24.5t-28 -9.5q-19 0 -31.5 13t-12.5 31z" />
    <glyph glyph-name="f_k" unicode="fk" horiz-adv-x="816" 
d="M404 634q0 -15 -11 -26t-26 -11q-2 0 -10 2q-11 4 -29 4q-65 0 -84 -88l-6 -32h54q16 0 27.5 -12t11.5 -28t-11.5 -27.5t-27.5 -11.5h-72l-83 -375q-3 -15 -15 -24.5t-28 -9.5q-18 0 -30.5 12.5t-12.5 30.5q0 8 1 10l78 356h-36q-16 0 -27.5 11.5t-11.5 27.5t11.5 28
t27.5 12h54l6 32q37 162 165 162q35 0 59 -9q26 -7 26 -34zM814 449q0 -18 -13 -28l-199 -157l130 -199q8 -14 8 -24q0 -19 -15 -32.5t-35 -13.5q-25 0 -41 25l-122 192l-94 -77l-23 -105q-4 -15 -16 -25t-27 -10q-18 0 -31 13t-13 30q0 8 1 10l130 590q3 15 15 24.5t28 9.5
q19 0 31.5 -13t12.5 -31q0 -7 -1 -9l-83 -377l293 237q10 9 25 9q17 0 28 -11t11 -28z" />
    <glyph glyph-name=".notdef" horiz-adv-x="500" 
d="M94 -28v718q0 62 62 62h227q62 0 62 -62v-718q0 -62 -62 -62h-227q-62 0 -62 62zM413 722h-288v-782h288v782z" />
    <glyph glyph-name=".null" horiz-adv-x="0" 
 />
    <glyph glyph-name="nonmarkingreturn" horiz-adv-x="333" 
 />
    <glyph glyph-name="CR" unicode="&#xd;" horiz-adv-x="0" 
 />
    <glyph glyph-name="space" unicode=" " horiz-adv-x="258" 
 />
    <glyph glyph-name="exclam" unicode="!" horiz-adv-x="238" 
d="M76 236l73 393q3 19 17.5 31t33.5 12q22 0 37.5 -15.5t15.5 -36.5l-2 -14l-100 -387q-3 -12 -13.5 -20.5t-23.5 -8.5q-17 0 -29 14t-9 32zM82 114q23 0 39.5 -16.5t16.5 -41.5q0 -27 -20 -47t-48 -20q-24 0 -40.5 17t-16.5 41q0 28 20 47.5t49 19.5z" />
    <glyph glyph-name="quotedbl" unicode="&#x22;" horiz-adv-x="361" 
d="M117 422l15 192q2 27 19 45t42 18q19 0 32.5 -13.5t13.5 -34.5q0 -10 -6 -25l-70 -192q-7 -16 -22 -16q-10 0 -17.5 7.5t-6.5 18.5zM274 422l15 192q1 27 18.5 45t42.5 18q19 0 32.5 -13.5t13.5 -34.5q0 -10 -6 -25l-70 -192q-7 -16 -22 -16q-11 0 -18 7.5t-6 18.5z" />
    <glyph glyph-name="numbersign" unicode="#" horiz-adv-x="598" 
d="M619 458q0 -13 -9 -21.5t-21 -8.5h-95l-105 -190h63q13 0 22 -9t9 -22q0 -12 -9 -21t-22 -9h-97l-92 -166q-9 -16 -27 -16q-13 0 -22 9t-9 22q0 8 4 15l75 136h-105l-92 -166q-9 -16 -27 -16q-13 0 -22 9t-9 22q0 8 4 15l75 136h-58q-12 0 -21.5 9t-9.5 22q0 12 9.5 21
t21.5 9h92l106 190h-61q-12 0 -21 8.5t-9 21.5t9 21.5t21 8.5h94l93 168q9 16 27 16q14 0 22.5 -9.5t8.5 -22.5q0 -8 -3 -14l-77 -138h105l93 168q9 16 27 16q13 0 22 -9t9 -21q0 -9 -4 -16l-77 -138h62q12 0 21 -8.5t9 -21.5zM318 238l106 190h-105l-106 -190h105z" />
    <glyph glyph-name="dollar" unicode="$" horiz-adv-x="599" 
d="M414 578l-44 -196q88 -35 131 -75t43 -103q0 -89 -68.5 -152.5t-180.5 -63.5h-12l-15 -66q-5 -27 -34 -27q-16 0 -26.5 13t-7.5 29l13 59q-100 20 -167 79q-17 17 -17 38q0 20 14.5 34.5t34.5 14.5q19 0 33 -13q51 -48 122 -64l49 217q-90 35 -132 73.5t-42 100.5
q0 82 68.5 141.5t174.5 59.5h15l15 69q7 27 33 27q16 0 26.5 -13t7.5 -29l-14 -63q77 -18 132 -64q18 -15 18 -38q0 -20 -14 -34t-34 -14t-31 11q-38 32 -91 49zM305 408l41 181h-8q-51 0 -87.5 -29t-36.5 -68q0 -26 22 -45t69 -39zM347 276l-45 -199h1q64 0 99 33t35 77
q0 28 -22 48.5t-68 40.5z" />
    <glyph glyph-name="percent" unicode="%" horiz-adv-x="739" 
d="M266 677q64 0 108 -38t44 -98q0 -84 -53 -139t-127 -55q-65 0 -108 37q-44 38 -44 99q0 84 53 139t127 55zM97 18q0 6 5 14l543 632q5 8 18 8q10 0 16.5 -6.5t6.5 -16.5q0 -7 -6 -15l-543 -631q-6 -8 -18 -8q-8 0 -15 7t-7 16zM263 618q-44 0 -76.5 -37t-32.5 -92
q0 -36 24.5 -60t61.5 -24q44 0 76.5 37.5t32.5 92.5q0 35 -24.5 59t-61.5 24zM539 318q64 0 108 -38q45 -38 45 -98q0 -84 -53.5 -139t-126.5 -55q-65 0 -109 37q-44 38 -44 99q0 84 53 139t127 55zM537 259q-44 0 -76.5 -37t-32.5 -92q0 -36 24.5 -60t61.5 -24
q44 0 76.5 37.5t32.5 92.5q0 35 -24.5 59t-61.5 24z" />
    <glyph glyph-name="ampersand" unicode="&#x26;" horiz-adv-x="643" 
d="M579 263q0 -12 -7 -22q-51 -74 -100 -124l16 -18l26 -28q14 -14 14 -31q0 -18 -14 -31.5t-32 -13.5q-20 0 -32 12q-15 15 -45 50q-93 -69 -187 -69q-93 0 -149 44.5t-56 124.5q0 89 51 138q53 52 143 87q-21 61 -21 112q0 75 56.5 129t133.5 54q69 0 112 -33t43 -91
q0 -54 -29 -92q-28 -34 -68 -56t-115 -49q18 -38 47 -88q31 -55 61 -93q48 51 82 108q11 18 32 18q17 0 27.5 -11t10.5 -27zM295 414q81 29 116.5 57t35.5 73q0 30 -19 47.5t-49 17.5q-39 0 -69.5 -31.5t-30.5 -82.5q0 -37 16 -81zM360 113q-55 69 -72 101q-38 67 -56 107
q-60 -28 -90 -64t-30 -88q0 -50 33.5 -79t85.5 -29q61 0 129 52z" />
    <glyph glyph-name="quotesingle" unicode="'" horiz-adv-x="206" 
d="M117 422l15 192q2 27 19 45t42 18q19 0 32.5 -13.5t13.5 -34.5q0 -10 -6 -25l-70 -192q-7 -16 -22 -16q-10 0 -17.5 7.5t-6.5 18.5z" />
    <glyph glyph-name="parenleft" unicode="(" horiz-adv-x="262" 
d="M74 -164q-50 120 -50 259q0 147 62.5 294t177.5 274q9 11 26 11q15 0 25 -10t10 -24q0 -12 -7 -22q-199 -263 -199 -552q0 -97 31 -203q1 -3 1 -10q0 -18 -12 -29.5t-28 -11.5q-26 0 -37 24z" />
    <glyph glyph-name="parenright" unicode=")" horiz-adv-x="262" 
d="M186 650q51 -117 51 -259q0 -147 -62.5 -294t-179.5 -274q-9 -11 -24 -11t-25 10.5t-10 24.5t7 21q199 263 199 552q0 97 -31 203q-1 3 -1 11q0 17 11.5 28.5t27.5 11.5q26 0 37 -24z" />
    <glyph glyph-name="asterisk" unicode="*" horiz-adv-x="343" 
d="M182 408l25 91l-90 -42q-8 -2 -9 -2q-9 0 -16.5 6.5t-7.5 16.5q0 15 16 22l95 34l-70 49q-10 6 -10 20q0 10 7 17.5t17 7.5q11 0 17 -6l66 -57l16 97q5 20 25 20q11 0 18.5 -9.5t3.5 -21.5l-24 -90l90 41q4 2 9 2q9 0 16 -6.5t7 -15.5q0 -17 -14 -22l-95 -35l69 -47
q10 -7 10 -21q0 -11 -7.5 -18.5t-17.5 -7.5t-17 6l-65 57l-16 -96q-5 -21 -24 -21q-12 0 -19.5 10t-4.5 21z" />
    <glyph glyph-name="plus" unicode="+" horiz-adv-x="500" 
d="M297 307l-42 -190q-5 -25 -31 -25q-16 0 -26 12t-6 27l39 176h-156q-12 0 -21 8.5t-9 21.5t9 21.5t21 8.5h170l40 184q1 10 10.5 17.5t20.5 7.5q15 0 25 -12.5t7 -26.5l-38 -170h156q12 0 21.5 -9t9.5 -21t-9.5 -21t-21.5 -9h-169z" />
    <glyph glyph-name="comma" unicode="," horiz-adv-x="238" 
d="M18 -121q-10 0 -17.5 7t-7.5 18q0 13 11 21q52 35 66 72h-9q-20 0 -34 14t-14 36q0 27 20.5 47t47.5 20t43.5 -17.5t16.5 -47.5q0 -44 -31 -90t-79 -76q-4 -4 -13 -4z" />
    <glyph glyph-name="hyphen" unicode="-" horiz-adv-x="300" 
d="M25 242q0 16 11.5 27.5t27.5 11.5h170q16 0 27.5 -11.5t11.5 -27.5t-11.5 -27.5t-27.5 -11.5h-170q-16 0 -27.5 11.5t-11.5 27.5z" />
    <glyph glyph-name="period" unicode="." horiz-adv-x="238" 
d="M82 114q23 0 39.5 -16.5t16.5 -41.5q0 -27 -20 -47t-48 -20q-24 0 -40.5 17t-16.5 41q0 28 20 47.5t49 19.5z" />
    <glyph glyph-name="slash" unicode="/" horiz-adv-x="306" 
d="M-41 7q0 7 4 14l364 654q8 17 27 17q14 0 23 -9t9 -22q0 -9 -4 -16l-364 -654q-10 -16 -28 -16q-14 0 -22.5 9.5t-8.5 22.5z" />
    <glyph glyph-name="zero" unicode="0" horiz-adv-x="614" 
d="M374 677q105 0 164 -69.5t59 -191.5q1 -77 -22.5 -154.5t-64.5 -139t-102 -99t-129 -35.5q-106 0 -165.5 70t-59.5 192q-2 104 38.5 202.5t116 162.5t165.5 62zM364 588q-59 3 -108.5 -52t-75 -134.5t-24.5 -156.5q0 -80 33 -124t100 -44q58 -3 107.5 52t75 135t24.5 157
q0 167 -132 167z" />
    <glyph glyph-name="one" unicode="1" horiz-adv-x="359" 
d="M142 44q0 8 1 11l106 481l-106 -91q-11 -8 -24 -8q-16 0 -27 11t-11 27q0 17 14 29l188 156q12 12 32 12q21 0 36 -15.5t15 -36.5q0 -8 -1 -11l-126 -576q-4 -16 -17.5 -27t-30.5 -11q-20 0 -34.5 14.5t-14.5 34.5z" />
    <glyph glyph-name="two" unicode="2" horiz-adv-x="587" 
d="M7 59q0 31 29 51q146 86 241 150q193 132 193 231q0 45 -37.5 71.5t-98.5 26.5q-79 0 -141 -41q-7 -7 -22 -7q-17 0 -29.5 12.5t-12.5 30.5q0 22 19 35q85 58 192 58q100 0 168 -48t68 -132q0 -101 -105 -199q-102 -96 -295 -210h261q18 0 31.5 -12.5t13.5 -30.5
q0 -19 -13.5 -32t-31.5 -13h-371q-24 0 -41.5 17t-17.5 42z" />
    <glyph glyph-name="three" unicode="3" horiz-adv-x="563" 
d="M15 91q-11 13 -11 30q0 20 13 34t33 14t35 -15q64 -77 172 -77q68 0 107.5 34.5t39.5 91.5q0 43 -36.5 68t-103.5 25h-19q-18 0 -31 13t-13 32q0 18 13.5 31t31.5 13h60q68 0 110 27.5t42 79.5q0 42 -40.5 69t-105.5 27q-73 0 -138 -41q-9 -6 -20 -6q-17 0 -29 12t-12 29
q0 22 17 33q82 62 190 62q109 0 174.5 -45.5t65.5 -124.5q0 -68 -55 -115.5t-125 -53.5q55 -13 88.5 -51t33.5 -93q0 -86 -70 -146t-175 -60q-73 0 -138 27.5t-104 75.5z" />
    <glyph glyph-name="four" unicode="4" horiz-adv-x="565" 
d="M529 204q0 -18 -13 -31t-31 -13h-60l-28 -127q-4 -16 -17.5 -27t-30.5 -11q-21 0 -35 14.5t-14 34.5q0 8 1 10l23 106h-253q-22 0 -38.5 16.5t-16.5 38.5q0 21 13 37l344 392q25 28 62 28q35 0 58 -24t23 -61q0 -12 -1 -15l-71 -324h41q18 0 31 -13t13 -31zM343 248
l73 328l-291 -328h218z" />
    <glyph glyph-name="five" unicode="5" horiz-adv-x="595" 
d="M44 115q0 19 14 33.5t34 14.5t35 -15q56 -71 160 -71q66 0 110.5 42t44.5 103q0 54 -39 85t-105 31q-63 0 -114 -34q-14 -8 -28 -8q-21 0 -35.5 15t-14.5 35q0 8 1 11l58 263q11 47 58 47h325q18 0 30.5 -13t12.5 -32q0 -18 -12.5 -30.5t-30.5 -12.5h-293l-44 -202
q56 44 138 44q84 0 140.5 -50.5t56.5 -137.5q2 -100 -75 -173.5t-188 -71.5q-149 0 -227 96q-12 14 -12 31z" />
    <glyph glyph-name="six" unicode="6" horiz-adv-x="596" 
d="M387 677q107 0 178 -65q17 -17 17 -36t-14 -33t-34 -14q-16 0 -30 11q-48 48 -123 48q-83 0 -137 -66t-78 -160q-6 -14 -7 -22q33 34 84 57.5t103 23.5q90 0 147 -48t57 -130q2 -102 -76.5 -179.5t-185.5 -75.5q-113 0 -175.5 65.5t-62.5 183.5q0 103 39 205
q39 103 115 168q76 67 183 67zM303 339q-83 0 -154 -73q-2 -22 -2 -44q0 -66 38 -105.5t104 -39.5t111.5 45.5t45.5 107.5q0 50 -39.5 79.5t-103.5 29.5z" />
    <glyph glyph-name="seven" unicode="7" horiz-adv-x="523" 
d="M102 42q0 14 8 27l340 510h-298q-18 0 -31 12.5t-13 30.5q0 19 13 32t31 13h392q18 0 29.5 -12t11.5 -30q0 -15 -7 -22l-388 -587q-15 -21 -40 -21q-21 0 -34.5 14t-13.5 33z" />
    <glyph glyph-name="eight" unicode="8" horiz-adv-x="588" 
d="M222 355q-49 19 -80 55.5t-31 82.5q0 86 72.5 135t171.5 49q98 0 168 -45t70 -121q0 -68 -50 -115t-135 -62q54 -26 87.5 -66t33.5 -89q0 -83 -74.5 -137t-179.5 -54q-108 0 -179 44q-70 45 -70 129q0 70 53 122t143 72zM349 587q-59 0 -98.5 -28.5t-39.5 -75.5
q0 -35 36 -63q36 -27 78 -36q74 5 117 34t43 76q0 39 -39.5 66t-96.5 27zM306 300q-75 -4 -125 -38q-50 -33 -50 -84q0 -47 41 -74t107 -27q59 0 104 31.5t45 79.5q0 40 -38 70t-84 42z" />
    <glyph glyph-name="nine" unicode="9" horiz-adv-x="596" 
d="M246 -11q-108 0 -176 65q-17 17 -17 37q0 19 13.5 32t33.5 13q16 0 30 -11q47 -47 123 -47q82 0 136 65q54 64 80 160l6 22q-32 -34 -83.5 -57.5t-103.5 -23.5q-90 0 -147.5 49t-57.5 130q-2 101 77.5 179t185.5 76q113 0 175.5 -65.5t62.5 -183.5q1 -105 -37 -205
t-118 -169t-183 -66zM330 326q85 0 155 73q2 24 2 44q0 66 -38.5 106t-103.5 40q-66 0 -112 -45.5t-46 -107.5q0 -50 39.5 -80t103.5 -30z" />
    <glyph glyph-name="colon" unicode=":" horiz-adv-x="238" 
d="M164 490q25 0 41.5 -16.5t16.5 -40.5q0 -28 -20.5 -48t-48.5 -20q-24 0 -40.5 17t-16.5 41q0 27 20.5 47t47.5 20zM82 114q23 0 39.5 -16.5t16.5 -41.5q0 -27 -20 -47t-48 -20q-24 0 -40.5 17t-16.5 41q0 28 20 47.5t49 19.5z" />
    <glyph glyph-name="semicolon" unicode=";" horiz-adv-x="238" 
d="M164 490q25 0 41.5 -16.5t16.5 -40.5q0 -28 -20.5 -48t-48.5 -20q-24 0 -40.5 17t-16.5 41q0 27 20.5 47t47.5 20zM18 -121q-10 0 -17.5 7t-7.5 18q0 13 11 21q52 35 66 72h-9q-20 0 -34 14t-14 36q0 27 20.5 47t47.5 20t43.5 -17.5t16.5 -47.5q0 -44 -31 -90t-79 -76
q-4 -4 -13 -4z" />
    <glyph glyph-name="less" unicode="&#x3c;" horiz-adv-x="500" 
d="M44 330q0 31 28 43l423 185q6 3 13 3q13 0 22 -9t9 -22q0 -21 -20 -28l-400 -172l314 -163q18 -8 18 -29q0 -13 -9.5 -23t-23.5 -10q-12 0 -16 3l-333 180q-25 13 -25 42z" />
    <glyph glyph-name="equal" unicode="=" horiz-adv-x="500" 
d="M65 430q0 13 9 21.5t21 8.5h392q12 0 21 -8.5t9 -21.5t-9 -21.5t-21 -8.5h-392q-12 0 -21 8.5t-9 21.5zM23 237q0 13 9 22t21 9h391q12 0 21 -9t9 -22q0 -12 -9 -20.5t-21 -8.5h-391q-12 0 -21 8.5t-9 20.5z" />
    <glyph glyph-name="greater" unicode="&#x3e;" horiz-adv-x="500" 
d="M32 109q-13 0 -22 9t-9 22q0 21 19 28l400 169l-314 165q-18 8 -18 30q0 14 10 23.5t24 9.5q10 0 15 -3l334 -181q25 -13 25 -42q0 -31 -29 -43l-423 -184q-4 -3 -12 -3z" />
    <glyph glyph-name="question" unicode="?" horiz-adv-x="460" 
d="M168 229q-6 15 -6 32q0 36 17 62q16 25 38 41t68 40q56 29 79 51.5t23 55.5q0 36 -29 57t-81 21q-61 0 -117 -38q-10 -7 -22 -7q-17 0 -28.5 12t-11.5 29q0 23 18 34q77 58 174 58q89 0 146.5 -40.5t57.5 -106.5q0 -46 -21 -79q-19 -30 -45.5 -50t-78.5 -47
q-56 -29 -78 -49.5t-22 -50.5q0 -5 3 -11l1 -6q0 -17 -13 -29t-31 -12q-16 0 -27.5 9.5t-13.5 23.5zM187 114q24 0 40.5 -16.5t16.5 -41.5q0 -27 -20 -47t-48 -20q-24 0 -40.5 17t-16.5 41q0 28 20 47.5t48 19.5z" />
    <glyph glyph-name="at" unicode="@" horiz-adv-x="783" 
d="M767 324q0 -109 -54.5 -174t-125.5 -65q-40 0 -65 22.5t-28 56.5l-1 6q-27 -39 -68.5 -62t-85.5 -23q-69 0 -111.5 45.5t-42.5 118.5q-2 98 71.5 174.5t161.5 74.5q44 0 77.5 -20t49.5 -53l6 32q7 31 39 31q17 0 28.5 -11.5t11.5 -28.5q0 -6 -1 -8l-46 -220
q-2 -16 -2 -22q0 -23 12.5 -36.5t31.5 -13.5q38 0 71 45.5t33 130.5q0 122 -78 200t-203 78q-91 2 -175.5 -49t-134 -134.5t-47.5 -172.5q0 -120 81.5 -200.5t203.5 -80.5q99 0 175 49q6 2 8 2q6 0 11 -4.5t5 -11.5q0 -10 -8 -15q-91 -55 -195 -55q-132 -2 -225.5 91
t-91.5 223q-2 102 54 194.5t149.5 147t193.5 52.5q136 2 226.5 -91t88.5 -223zM504 233l28 133q-10 28 -36 47.5t-61 19.5q-68 0 -116.5 -54.5t-48.5 -123.5q0 -48 25.5 -76.5t70.5 -28.5q80 0 138 83z" />
    <glyph glyph-name="A" unicode="A" horiz-adv-x="666" 
d="M596 55l1 -8q0 -22 -15 -37t-36 -15q-19 0 -33.5 12t-17.5 31l-16 100h-331l-71 -119q-13 -24 -42 -24q-20 0 -34.5 14.5t-14.5 34.5q0 8 8 26l347 561q25 41 73 41q32 0 56 -20.5t29 -50.5zM202 227h264l-55 350z" />
    <glyph glyph-name="B" unicode="B" horiz-adv-x="638" 
d="M31 43q0 1 2 15l124 562q11 47 58 47h243q76 0 124.5 -44t48.5 -111q0 -68 -45.5 -119.5t-108.5 -57.5q43 -12 70 -50.5t27 -86.5q0 -82 -60 -140t-169 -58h-265q-49 0 -49 43zM432 579h-184l-43 -195h199q58 0 89 31.5t31 80.5q0 35 -27 59t-65 24zM375 296h-190
l-46 -208h202q60 0 96 34t36 84q0 40 -26.5 65t-71.5 25z" />
    <glyph glyph-name="C" unicode="C" horiz-adv-x="663" 
d="M434 678q162 0 249 -114q9 -14 9 -30q0 -22 -14.5 -36.5t-35.5 -14.5q-27 0 -41 22q-59 84 -172 84q-107 2 -189 -86.5t-80 -214.5q0 -94 59 -152.5t156 -58.5q79 0 150 56q14 11 29 11q20 0 33.5 -13.5t13.5 -32.5q0 -20 -18 -36q-93 -74 -214 -74q-134 -2 -224.5 81.5
t-88.5 212.5q-2 112 51.5 204.5t141 142.5t185.5 49z" />
    <glyph glyph-name="D" unicode="D" horiz-adv-x="705" 
d="M31 43q0 1 2 15l124 562q11 47 58 47h185q113 2 198.5 -81.5t82.5 -203.5q1 -72 -26 -140t-78 -123t-134.5 -87.5t-185.5 -31.5h-177q-49 0 -49 43zM576 376q0 86 -55.5 144.5t-138.5 58.5h-134l-109 -491h136q132 -2 217.5 83.5t83.5 204.5z" />
    <glyph glyph-name="E" unicode="E" horiz-adv-x="573" 
d="M31 43q0 1 2 15l124 562q11 47 58 47h350q18 0 31 -13t13 -32q0 -18 -13 -30.5t-31 -12.5h-317l-43 -195h290q18 0 31 -12.5t13 -31.5q0 -18 -13 -31t-31 -13h-310l-46 -208h298q18 0 31 -12.5t13 -30.5q0 -19 -13 -32t-31 -13h-357q-49 0 -49 43z" />
    <glyph glyph-name="F" unicode="F" horiz-adv-x="556" 
d="M31 44q0 8 1 10l125 566q11 47 58 47h350q18 0 31 -13t13 -32q0 -18 -13 -30.5t-31 -12.5h-317l-43 -195h290q18 0 31 -12.5t13 -31.5q0 -18 -13 -31t-31 -13h-310l-57 -263q-4 -16 -17.5 -27t-30.5 -11q-21 0 -35 14.5t-14 34.5z" />
    <glyph glyph-name="G" unicode="G" horiz-adv-x="715" 
d="M673 307q0 -12 -1 -15l-35 -156q-7 -36 -33 -59q-101 -89 -235 -89q-135 -2 -225 81.5t-88 212.5q-3 166 111 282.5t275 113.5q147 0 234 -103q11 -14 11 -31q0 -20 -14 -35t-34 -15q-24 0 -39 18q-61 77 -171 77q-106 2 -188.5 -87.5t-80.5 -213.5q0 -94 59 -152.5
t156 -58.5q90 0 163 65l26 120h-164q-18 0 -30.5 13t-12.5 31q0 19 12.5 31.5t30.5 12.5h224q49 0 49 -43z" />
    <glyph glyph-name="H" unicode="H" horiz-adv-x="717" 
d="M500 44q0 8 1 11l54 243h-369l-58 -265q-4 -16 -17.5 -27t-30.5 -11q-21 0 -35 14.5t-14 35.5q0 8 1 10l128 579q4 16 17 27t31 11q19 0 33.5 -14.5t14.5 -34.5q0 -8 -1 -11l-49 -225h368l54 247q4 16 17.5 27t30.5 11q20 0 34.5 -14.5t14.5 -34.5q0 -8 -1 -11l-127 -579
q-4 -16 -17.5 -27t-30.5 -11q-20 0 -34.5 14.5t-14.5 34.5z" />
    <glyph glyph-name="I" unicode="I" horiz-adv-x="249" 
d="M31 45q0 8 1 10l128 579q4 16 17 27t31 11q19 0 33.5 -14.5t14.5 -34.5q0 -8 -1 -11l-127 -579q-4 -16 -17.5 -27t-30.5 -11q-21 0 -35 14.5t-14 35.5z" />
    <glyph glyph-name="J" unicode="J" horiz-adv-x="478" 
d="M-14 76q0 19 13.5 32.5t32.5 13.5q18 0 28 -10q41 -35 94 -35q56 0 92 34t49 96l94 427q4 16 17 27t31 11q19 0 33.5 -14.5t14.5 -34.5q0 -8 -1 -11l-89 -406q-49 -218 -235 -218q-94 0 -155 53q-19 13 -19 35z" />
    <glyph glyph-name="K" unicode="K" horiz-adv-x="611" 
d="M622 627q0 -21 -13 -31l-281 -245l190 -280q7 -10 7 -27q0 -20 -14.5 -34.5t-35.5 -14.5q-29 0 -42 24l-182 276l-82 -76l-41 -186q-4 -16 -17.5 -27t-30.5 -11q-21 0 -35 14.5t-14 35.5q0 8 1 10l128 579q4 16 17 27t31 11q19 0 33.5 -14.5t14.5 -34.5q0 -8 -1 -11
l-59 -268l352 316q12 12 31 12q18 0 30.5 -13t12.5 -32z" />
    <glyph glyph-name="L" unicode="L" horiz-adv-x="517" 
d="M31 43q0 1 2 15l127 576q4 16 17 27t31 11q19 0 33.5 -14.5t14.5 -34.5q0 -8 -1 -11l-116 -524h253q18 0 31 -12.5t13 -30.5q0 -19 -13 -32t-31 -13h-312q-49 0 -49 43z" />
    <glyph glyph-name="M" unicode="M" horiz-adv-x="822" 
d="M605 44q0 8 1 11l107 491l-329 -538q-9 -14 -25 -14q-23 0 -28 24l-91 528l-112 -513q-4 -16 -17.5 -27t-30.5 -11q-21 0 -35 14.5t-14 34.5q0 8 1 10l122 553q6 28 28.5 46.5t52.5 18.5t53 -20t28 -49l74 -433l283 463q24 39 69 39q34 0 57 -23.5t23 -58.5q0 -12 -1 -15
l-120 -542q-4 -16 -17 -27t-31 -11q-19 0 -33.5 14.5t-14.5 34.5z" />
    <glyph glyph-name="N" unicode="N" horiz-adv-x="714" 
d="M474 32l-236 503l-110 -502q-4 -16 -17.5 -27t-30.5 -11q-21 0 -35 14.5t-14 35.5q0 8 1 10l124 563q5 24 24 39t44 15q44 0 62 -40l231 -488l108 490q4 16 17.5 27t30.5 11q21 0 35 -14.5t14 -35.5q0 -8 -1 -10l-125 -567q-4 -22 -22.5 -36t-41.5 -14q-40 0 -58 37z" />
    <glyph glyph-name="O" unicode="O" horiz-adv-x="765" 
d="M434 678q136 0 224.5 -80t88.5 -213q2 -107 -49 -199.5t-139 -146t-190 -51.5q-136 0 -224.5 80.5t-88.5 213.5q-2 106 49 198.5t139 146t190 51.5zM428 589q-108 2 -189 -87.5t-79 -213.5q0 -97 61 -154t154 -57q108 -2 189 87.5t79 213.5q0 97 -61 154t-154 57z" />
    <glyph glyph-name="P" unicode="P" horiz-adv-x="597" 
d="M31 45q0 8 1 10l125 565q11 47 58 47h211q86 0 138.5 -51t52.5 -125q0 -93 -66.5 -163.5t-194.5 -70.5h-179l-49 -224q-4 -16 -17.5 -27t-30.5 -11q-21 0 -35 14.5t-14 35.5zM513 482q0 40 -29.5 68.5t-73.5 28.5h-162l-52 -234h168q68 0 108.5 39t40.5 98z" />
    <glyph glyph-name="Q" unicode="Q" horiz-adv-x="765" 
d="M596 65l12 -17q10 -13 10 -29q0 -21 -19 -34q-12 -9 -27 -9q-23 0 -39 25l-13 19q-72 -32 -151 -32q-136 0 -224.5 80.5t-88.5 213.5q-2 106 49 198.5t139 146t190 51.5q136 0 224.5 -80t88.5 -213q0 -97 -40 -180.5t-111 -139.5zM493 215l50 -72q100 92 100 235
q0 97 -61 154t-154 57q-108 2 -189 -87.5t-79 -213.5q0 -97 61 -154t154 -57q49 0 92 18l-48 70q-8 13 -8 26q0 23 21 36q14 8 27 8q23 0 34 -20z" />
    <glyph glyph-name="R" unicode="R" horiz-adv-x="618" 
d="M418 263l100 -198q5 -10 5 -21q0 -20 -15.5 -34.5t-36.5 -14.5q-31 0 -47 33l-107 229h-141l-49 -224q-3 -16 -16.5 -27t-30.5 -11q-21 0 -35 14.5t-14 34.5q0 8 1 10l125 566q11 47 58 47h209q79 0 136.5 -50t57.5 -128q0 -91 -55 -152q-56 -62 -145 -74zM513 480
q0 41 -31.5 70t-74.5 29h-159l-52 -234h168q68 0 108.5 38t40.5 97z" />
    <glyph glyph-name="S" unicode="S" horiz-adv-x="590" 
d="M24 113q0 20 14.5 34.5t34.5 14.5q19 0 33 -13q78 -72 192 -72q64 0 99 33t35 77q0 25 -18 44q-16 17 -39.5 29.5t-76.5 33.5q-59 23 -101 44q-94 49 -94 138q0 82 69.5 141.5t173.5 59.5q130 0 215 -73q18 -15 18 -38q0 -20 -14 -34t-34 -14q-18 0 -31 11
q-68 60 -167 60q-51 0 -87 -29t-36 -68q0 -31 28.5 -51.5t102.5 -49.5q59 -21 101 -45q97 -49 97 -142q0 -89 -68 -152.5t-181 -63.5q-151 0 -248 87q-18 17 -18 38z" />
    <glyph glyph-name="T" unicode="T" horiz-adv-x="573" 
d="M194 44q0 8 1 11l115 524h-157q-18 0 -31 12.5t-13 31.5q0 18 13 31t31 13h434q18 0 30.5 -13t12.5 -31q0 -19 -12.5 -31.5t-30.5 -12.5h-177l-120 -546q-4 -16 -17 -27t-31 -11q-19 0 -33.5 14.5t-14.5 34.5z" />
    <glyph glyph-name="U" unicode="U" horiz-adv-x="710" 
d="M78 261l82 373q4 16 17 27t31 11q20 0 34.5 -14.5t14.5 -34.5q0 -8 -1 -11l-76 -349q-5 -18 -5 -39q0 -66 44.5 -107t121.5 -41q82 0 129 47t68 140l82 371q4 16 17 27t31 11q20 0 34.5 -14.5t14.5 -34.5q0 -8 -1 -11l-77 -350q-30 -138 -100.5 -206t-197.5 -68
q-126 0 -197 60t-71 165q0 18 5 48z" />
    <glyph glyph-name="V" unicode="V" horiz-adv-x="666" 
d="M205 66l-97 544l-1 8q0 22 15.5 38t38.5 16q19 0 34 -13t18 -32l84 -518l325 538q13 25 43 25q22 0 36.5 -14.5t14.5 -34.5q0 -14 -8 -28l-345 -559q-26 -41 -74 -41q-31 0 -55 20.5t-29 50.5z" />
    <glyph glyph-name="W" unicode="W" horiz-adv-x="893" 
d="M528 59l-22 456l-236 -482q-18 -38 -61 -38q-26 0 -45 18.5t-21 44.5l-37 557q-1 24 15 40.5t39 16.5q22 0 37.5 -15.5t16.5 -36.5l18 -488l253 512q13 28 44 28q20 0 34.5 -13.5t15.5 -33.5l25 -493l246 511q12 29 45 29q22 0 36.5 -14.5t14.5 -34.5q0 -12 -6 -24
l-286 -567q-18 -37 -60 -37q-27 0 -46 18.5t-20 45.5z" />
    <glyph glyph-name="X" unicode="X" horiz-adv-x="656" 
d="M683 626q0 -22 -13 -32l-258 -258l159 -268q7 -10 7 -24q0 -20 -15.5 -34.5t-36.5 -14.5q-28 0 -43 26l-149 251l-263 -263q-17 -14 -34 -14q-19 0 -32.5 13.5t-13.5 32.5q0 21 13 32l276 276l-148 249q-7 10 -7 24q0 20 16 35t36 15q28 0 44 -27l137 -234l244 246
q15 15 34 15t33 -13.5t14 -32.5z" />
    <glyph glyph-name="Y" unicode="Y" horiz-adv-x="632" 
d="M656 596l-283 -317l-54 -246q-4 -16 -17 -27t-30 -11q-20 0 -34.5 14.5t-14.5 34.5q0 8 1 11l49 224l-146 324q-4 8 -4 21q0 20 14.5 34t34.5 14q33 0 45 -30l120 -273l251 287q12 16 34 16q19 0 32.5 -13.5t13.5 -32.5q0 -15 -12 -30z" />
    <glyph glyph-name="Z" unicode="Z" horiz-adv-x="587" 
d="M-1 50q0 19 13 35l459 494h-301q-18 0 -31.5 12.5t-13.5 30.5q0 19 13.5 32t31.5 13h399q21 0 35.5 -14.5t14.5 -36.5q0 -21 -13 -34l-460 -494h310q18 0 31 -12.5t13 -31.5q0 -18 -13 -31t-31 -13h-406q-21 0 -36 14.5t-15 35.5z" />
    <glyph glyph-name="bracketleft" unicode="[" horiz-adv-x="254" 
d="M-46 -154q0 6 1 8l177 795q2 12 13 20.5t23 8.5h133q13 0 22 -9.5t9 -22.5t-9 -22.5t-22 -9.5h-110l-163 -740h94q13 0 22 -9.5t9 -22.5t-9 -22.5t-22 -9.5h-132q-15 0 -25.5 10.5t-10.5 25.5z" />
    <glyph glyph-name="backslash" unicode="\" horiz-adv-x="306" 
d="M136 692q13 0 22.5 -8.5t10.5 -21.5l74 -649q2 -15 -8.5 -26.5t-25.5 -11.5q-14 0 -23.5 8.5t-10.5 21.5l-73 649q-2 15 8.5 26.5t25.5 11.5z" />
    <glyph glyph-name="bracketright" unicode="]" horiz-adv-x="254" 
d="M-79 -158q0 13 9.5 22.5t21.5 9.5h110l164 740h-95q-13 0 -22 9.5t-9 22.5t9 22.5t22 9.5h133q18 0 28 -13t7 -31l-177 -795q-3 -12 -13.5 -20.5t-22.5 -8.5h-134q-12 0 -21.5 9.5t-9.5 22.5z" />
    <glyph glyph-name="asciicircum" unicode="^" horiz-adv-x="434" 
d="M363 352l-64 251l-181 -262q-7 -13 -25 -13q-13 0 -21.5 8.5t-8.5 21.5q0 10 5 18l197 275q15 21 40 21q17 0 30 -10t17 -26l73 -267q1 -2 1 -9q0 -13 -9.5 -22.5t-22.5 -9.5q-26 0 -31 24z" />
    <glyph glyph-name="underscore" unicode="_" horiz-adv-x="564" 
d="M-77 -72q0 13 9.5 22.5t22.5 9.5h514q13 0 22.5 -9.5t9.5 -22.5t-9.5 -22.5t-22.5 -9.5h-514q-13 0 -22.5 9.5t-9.5 22.5z" />
    <glyph glyph-name="grave" unicode="`" horiz-adv-x="233" 
d="M230 562l-82 87q-10 11 -10 24q0 14 9 23t23 9q16 0 25 -12l75 -95q8 -8 8 -18q0 -11 -8 -19.5t-19 -8.5t-21 10z" />
    <glyph glyph-name="a" unicode="a" horiz-adv-x="578" 
d="M550 444q0 -7 -1 -9l-90 -406q-3 -15 -15 -24.5t-28 -9.5q-19 0 -31.5 13t-12.5 31q0 7 1 9l5 19q-64 -79 -156 -79q-85 0 -135.5 53t-50.5 146q-2 121 71 215.5t183 92.5q53 0 96 -22.5t67 -61.5l10 43q9 34 43 34q19 0 31.5 -13t12.5 -31zM394 143l45 200
q-18 33 -54.5 52.5t-82.5 19.5q-73 0 -122 -63t-49 -148q0 -62 34.5 -99t91.5 -37q39 0 76 21t61 54z" />
    <glyph glyph-name="b" unicode="b" horiz-adv-x="578" 
d="M541 295q2 -120 -71 -214.5t-183 -92.5q-111 0 -163 84l-10 -43q-4 -15 -15.5 -24.5t-27.5 -9.5q-19 0 -31.5 13t-12.5 31q0 7 1 9l130 590q3 15 15 24.5t28 9.5q18 0 30.5 -12.5t12.5 -30.5q0 -8 -1 -10l-44 -203q64 79 156 79q85 0 135.5 -53.5t50.5 -146.5zM446 278
q0 62 -35 99.5t-91 37.5q-40 0 -76.5 -21t-61.5 -55l-44 -200q40 -71 137 -71q73 0 122 63t49 147z" />
    <glyph glyph-name="c" unicode="c" horiz-adv-x="496" 
d="M311 495q100 0 157 -57q14 -12 14 -32q0 -17 -13 -29.5t-30 -12.5t-30 12q-36 39 -97 39q-80 0 -131.5 -61t-51.5 -147q0 -65 39.5 -102t103.5 -37q51 0 92 33q10 8 24 8q16 0 27.5 -11.5t11.5 -27.5q0 -20 -16 -32q-65 -50 -148 -50q-101 0 -163.5 59t-62.5 158
q-2 117 80 205t194 85z" />
    <glyph glyph-name="d" unicode="d" horiz-adv-x="578" 
d="M590 629q0 -8 -1 -10l-130 -590q-3 -15 -15 -24.5t-28 -9.5q-19 0 -31.5 13t-12.5 31q0 7 1 9l5 19q-64 -79 -156 -79q-85 0 -135.5 53t-50.5 146q-2 121 71 215.5t183 92.5q53 0 96 -22.5t68 -62.5l50 228q3 15 15 24.5t27 9.5q19 0 31.5 -12.5t12.5 -30.5zM394 143
l45 200q-18 33 -54.5 52.5t-82.5 19.5q-73 0 -122 -63t-49 -148q0 -62 34.5 -99t91.5 -37q39 0 76 21t61 54z" />
    <glyph glyph-name="e" unicode="e" horiz-adv-x="560" 
d="M310 495q94 0 152.5 -59t58.5 -154q0 -11 -2 -21q-2 -49 -55 -49h-335q-2 -16 -2 -20q0 -53 42 -91.5t114 -38.5q56 0 108 28q6 3 15 3q14 0 24.5 -10t10.5 -25q0 -20 -18 -30q-70 -40 -146 -40q-111 0 -175.5 58t-64.5 157q-2 118 79 206t194 86zM440 293
q0 57 -36.5 92.5t-100.5 35.5q-59 0 -106.5 -43t-58.5 -101h301q1 2 1 16z" />
    <glyph glyph-name="f" unicode="f" horiz-adv-x="296" 
d="M404 634q0 -15 -11 -26t-26 -11q-2 0 -10 2q-11 4 -29 4q-65 0 -84 -88l-6 -32h54q16 0 27.5 -12t11.5 -28t-11.5 -27.5t-27.5 -11.5h-72l-83 -375q-3 -15 -15 -24.5t-28 -9.5q-18 0 -30.5 12.5t-12.5 30.5q0 8 1 10l78 356h-36q-16 0 -27.5 11.5t-11.5 27.5t11.5 28
t27.5 12h54l6 32q37 162 165 162q35 0 59 -9q26 -7 26 -34z" />
    <glyph glyph-name="g" unicode="g" horiz-adv-x="577" 
d="M548 444q0 -8 -1 -10l-92 -415q-23 -111 -86.5 -163t-156.5 -52q-124 0 -193 56q-16 13 -16 32q0 17 12 28.5t28 11.5q14 0 25 -8q52 -46 142 -46q125 0 155 141l13 58q-63 -79 -159 -79q-83 0 -133 51.5t-50 147.5q-2 117 70 209t181 89q47 0 93 -23.5t72 -61.5l10 44
q3 14 15 24t28 10q18 0 30.5 -13t12.5 -31zM394 149l43 191q-19 35 -57 55t-84 20q-72 0 -119.5 -61t-47.5 -142q0 -62 35 -98.5t94 -36.5q36 0 73.5 20t62.5 52z" />
    <glyph glyph-name="h" unicode="h" horiz-adv-x="560" 
d="M354 39q0 7 1 9l57 262q5 22 5 32q0 36 -25.5 54.5t-69.5 18.5q-70 0 -139 -71l-69 -315q-3 -15 -15 -24.5t-28 -9.5q-19 0 -31.5 13t-12.5 31q0 7 1 9l130 590q3 15 15 24.5t28 9.5q19 0 31.5 -13t12.5 -31q0 -7 -1 -9l-45 -204q85 80 168 80q67 0 106.5 -32t39.5 -89
q0 -12 -5 -40l-67 -305q-3 -15 -15 -24.5t-28 -9.5q-19 0 -31.5 13t-12.5 31z" />
    <glyph glyph-name="i" unicode="i" horiz-adv-x="233" 
d="M209 694q22 0 37.5 -15t15.5 -35q0 -28 -20 -46.5t-45 -18.5q-22 0 -37.5 14.5t-15.5 35.5q0 28 20 46.5t45 18.5zM28 38q0 8 1 10l89 406q3 15 15 24.5t28 9.5q19 0 31.5 -13t12.5 -31q0 -7 -1 -9l-90 -406q-3 -15 -15 -24.5t-27 -9.5q-19 0 -31.5 12.5t-12.5 30.5z" />
    <glyph glyph-name="j" unicode="j" horiz-adv-x="233" 
d="M144 629q0 28 20 46.5t45 18.5q22 0 37.5 -15t15.5 -35q0 -28 -20 -46.5t-45 -18.5q-22 0 -37.5 14.5t-15.5 35.5zM-128 -156q0 17 12.5 28t29.5 10q3 -1 13 -1q63 0 82 81l109 492q3 15 15 24.5t28 9.5q18 0 30.5 -12.5t12.5 -30.5q0 -8 -1 -10l-104 -473
q-36 -158 -163 -158q-20 0 -31 3q-15 2 -24 12t-9 25z" />
    <glyph glyph-name="k" unicode="k" horiz-adv-x="520" 
d="M518 449q0 -18 -13 -28l-199 -157l130 -199q8 -14 8 -24q0 -19 -15 -32.5t-35 -13.5q-25 0 -41 25l-122 192l-94 -77l-23 -105q-4 -15 -15.5 -25t-27.5 -10q-18 0 -31 13t-13 30q0 8 1 10l130 590q3 15 15 24.5t28 9.5q19 0 31.5 -13t12.5 -31q0 -7 -1 -9l-83 -377
l293 237q10 9 25 9q17 0 28 -11t11 -28z" />
    <glyph glyph-name="l" unicode="l" horiz-adv-x="233" 
d="M27 39q0 7 1 9l130 590q3 15 15 24.5t28 9.5q19 0 31.5 -13t12.5 -31q0 -7 -1 -9l-130 -590q-3 -15 -15 -24.5t-28 -9.5q-19 0 -31.5 13t-12.5 31z" />
    <glyph glyph-name="m" unicode="m" horiz-adv-x="820" 
d="M773 373q0 -22 -4 -39l-67 -305q-4 -15 -16 -24.5t-27 -9.5q-19 0 -32 13t-13 31q0 7 1 9l60 273q3 12 3 23q0 32 -22 51.5t-56 19.5q-62 0 -123 -70l-69 -316q-3 -15 -15.5 -24.5t-28.5 -9.5q-18 0 -30.5 13t-12.5 31q0 7 1 9l60 273q3 13 3 25q0 33 -21 51t-59 18
q-59 0 -122 -70l-69 -316q-3 -15 -15 -24.5t-27 -9.5q-19 0 -32 13t-13 31q0 7 1 9l90 406q3 15 15 24.5t28 9.5q18 0 30.5 -13t12.5 -31q0 -8 -1 -10l-4 -20q68 81 151 81q55 0 90.5 -30t35.5 -57v-2q74 89 168 89q60 0 94.5 -33t34.5 -89z" />
    <glyph glyph-name="n" unicode="n" 
d="M513 374q0 -15 -5 -40l-68 -305q-3 -15 -15 -24.5t-27 -9.5q-19 0 -32 13t-13 31q0 7 1 9l58 262q4 15 4 33q0 72 -86 72q-77 0 -147 -70l-69 -316q-3 -15 -15 -24.5t-27 -9.5q-19 0 -32 13t-13 31q0 7 1 9l90 406q3 15 15 24.5t28 9.5q18 0 30.5 -13t12.5 -31
q0 -8 -1 -10l-4 -19q85 80 168 80q69 0 107.5 -32t38.5 -89z" />
    <glyph glyph-name="o" unicode="o" horiz-adv-x="572" 
d="M308 495q104 0 165.5 -60t61.5 -156q2 -115 -79 -204.5t-194 -86.5q-104 0 -166 59q-60 60 -60 157q-2 115 79 204.5t193 86.5zM306 415q-73 0 -124.5 -62.5t-51.5 -144.5q0 -65 36 -102.5t99 -37.5q73 0 124.5 62.5t51.5 144.5q0 65 -36 102.5t-99 37.5z" />
    <glyph glyph-name="p" unicode="p" horiz-adv-x="575" 
d="M541 295q2 -120 -71 -214.5t-183 -92.5q-53 0 -96 22.5t-68 62.5l-50 -228q-3 -15 -15 -24.5t-27 -9.5q-19 0 -31.5 12.5t-12.5 30.5q0 8 1 10l130 590q3 14 15 24t28 10q18 0 30.5 -13t12.5 -31q0 -8 -1 -10l-5 -19q66 80 157 80q85 0 135.5 -53.5t50.5 -146.5zM446 278
q0 62 -35 99.5t-91 37.5q-40 0 -76.5 -21t-61.5 -55l-44 -200q40 -71 137 -71q73 0 122 63t49 147z" />
    <glyph glyph-name="q" unicode="q" horiz-adv-x="575" 
d="M549 445q0 -8 -1 -10l-130 -590q-3 -15 -15 -24.5t-28 -9.5q-18 0 -30.5 12.5t-12.5 30.5q0 8 1 10l44 203q-63 -79 -155 -79q-85 0 -135.5 53t-50.5 146q-2 121 71 215.5t183 92.5q53 0 96 -22.5t67 -61.5l10 43q9 34 43 34q18 0 30.5 -12.5t12.5 -30.5zM394 143l45 200
q-18 33 -54.5 52.5t-82.5 19.5q-73 0 -122 -63t-49 -148q0 -62 34.5 -99t91.5 -37q39 0 76 21t61 54z" />
    <glyph glyph-name="r" unicode="r" horiz-adv-x="338" 
d="M371 450q0 -18 -13 -31t-31 -12h-12q-37 0 -73 -20.5t-61 -52.5l-67 -305q-3 -15 -15 -24.5t-27 -9.5q-19 0 -32 13t-13 31q0 7 1 9l90 406q3 14 15 24t28 10q18 0 30.5 -13t12.5 -31q0 -8 -1 -10l-6 -23q71 78 130 78q44 0 44 -39z" />
    <glyph glyph-name="s" unicode="s" horiz-adv-x="468" 
d="M12 80q0 17 12 28.5t28 11.5q15 0 26 -8q59 -52 139 -52q44 0 71.5 21.5t27.5 53.5q0 23 -23 39t-79 36q-45 16 -78 32q-72 37 -72 101t51 108t137 44q97 0 165 -55q16 -12 16 -30q0 -16 -11.5 -27.5t-27.5 -11.5q-13 0 -24 8q-53 43 -121 43q-43 0 -69 -18.5t-26 -46.5
q0 -22 20 -34.5t78 -35.5q48 -17 79 -33q75 -37 75 -105t-53.5 -114.5t-141.5 -46.5q-110 0 -184 59q-15 12 -15 33z" />
    <glyph glyph-name="t" unicode="t" horiz-adv-x="306" 
d="M326 444q0 -16 -11 -27.5t-27 -11.5h-72l-61 -274q-3 -12 -3 -21q0 -42 49 -42q4 0 12 2q16 2 28 -8.5t13 -27.5q0 -28 -24 -36q-24 -10 -53 -10q-58 0 -89.5 22.5t-31.5 66.5q0 18 4 33l66 295h-37q-16 0 -27 11.5t-11 27.5t11 27.5t27 11.5h54l23 103q3 15 15 24.5
t27 9.5q19 0 32 -13t13 -31q0 -7 -1 -9l-19 -84h55q16 0 27 -11.5t11 -27.5z" />
    <glyph glyph-name="u" unicode="u" 
d="M531 444q0 -7 -1 -9l-90 -406q-3 -15 -15 -24.5t-27 -9.5q-19 0 -31.5 13t-12.5 31q0 8 1 10l4 19q-85 -80 -168 -80q-67 0 -106 31.5t-39 87.5q0 14 5 42l67 305q3 15 15 24.5t28 9.5q19 0 31.5 -13t12.5 -31q0 -7 -1 -9l-58 -262q-4 -15 -4 -33q0 -72 87 -72
q76 0 146 70l69 316q3 15 15 24.5t28 9.5q19 0 31.5 -13t12.5 -31z" />
    <glyph glyph-name="v" unicode="v" horiz-adv-x="497" 
d="M518 445q0 -12 -7 -22l-252 -396q-19 -32 -57 -32q-24 0 -43 15.5t-23 39.5l-73 384l-1 8q0 18 13.5 32t32.5 14q17 0 29.5 -11t15.5 -27l60 -346l226 364q11 20 37 20q18 0 30 -12.5t12 -30.5z" />
    <glyph glyph-name="w" unicode="w" horiz-adv-x="744" 
d="M432 49l-32 322l-187 -345q-18 -31 -52 -31q-23 0 -40 15.5t-19 38.5l-36 390q-2 19 11.5 34t32.5 15q18 0 30 -11.5t14 -29.5l25 -332l191 347q15 26 45 26q19 0 34 -13t17 -33l34 -327l182 350q11 23 38 23q18 0 30 -12t12 -30q0 -11 -5 -21l-213 -399q-18 -31 -52 -31
q-24 0 -41 15.5t-19 38.5z" />
    <glyph glyph-name="x" unicode="x" horiz-adv-x="491" 
d="M495 449q0 -18 -11 -26l-183 -178l114 -186q7 -10 7 -22q0 -17 -14 -29.5t-32 -12.5q-26 0 -39 25l-101 169l-185 -182q-12 -12 -29 -12q-16 0 -27 11t-11 27q0 17 10 27l194 190l-104 174q-5 8 -5 20q0 18 13.5 31t31.5 13q25 0 40 -25l93 -156l171 169q12 12 28 12
q17 0 28 -11t11 -28z" />
    <glyph glyph-name="y" unicode="y" horiz-adv-x="497" 
d="M5 -112q4 0 13 -1t14 -1q37 0 68 45l43 66l-81 437q-4 20 10 37t36 17q17 0 29.5 -11t15.5 -27l60 -346l226 364q11 20 37 20q18 0 30 -12.5t12 -30.5q0 -12 -7 -22l-328 -515q-36 -55 -73 -79.5t-88 -24.5q-11 0 -21 2q-16 2 -27 13.5t-11 26.5q0 18 12.5 30t29.5 12z
" />
    <glyph glyph-name="z" unicode="z" horiz-adv-x="474" 
d="M-1 42q0 16 12 28l321 334h-204q-16 0 -27.5 11.5t-11.5 27.5t11.5 28t27.5 12h301q17 0 28.5 -11.5t11.5 -28.5q0 -12 -11 -28l-325 -337h211q16 0 27.5 -11.5t11.5 -27.5t-11.5 -27.5t-27.5 -11.5h-303q-17 0 -29.5 12t-12.5 30z" />
    <glyph glyph-name="braceleft" unicode="{" horiz-adv-x="268" 
d="M-12 -77q0 15 3 28l44 196q2 16 2 17q0 34 -22 47q-16 12 -16 30q0 13 8 22.5t19 11.5q38 9 52 66l43 195q16 69 58.5 105.5t106.5 36.5h30q13 0 22 -9.5t9 -22.5t-9 -22.5t-22 -9.5h-44q-64 0 -82 -78l-48 -210q-16 -73 -65 -89q29 -15 29 -55q0 -19 -4 -34l-43 -196
q-2 -16 -2 -21q0 -25 16.5 -41t40.5 -16h23q13 0 22 -9.5t9 -22.5t-9 -22.5t-22 -9.5h-30q-47 0 -84 32q-35 32 -35 81z" />
    <glyph glyph-name="bar" unicode="|" horiz-adv-x="212" 
d="M94 7v653q0 13 9.5 22.5t22.5 9.5t22.5 -9.5t9.5 -22.5v-653q0 -13 -9.5 -22.5t-22.5 -9.5t-22.5 9.5t-9.5 22.5z" />
    <glyph glyph-name="braceright" unicode="}" horiz-adv-x="268" 
d="M279 565q0 -15 -3 -28l-44 -196q-2 -16 -2 -17q0 -34 22 -47q16 -12 16 -30q0 -12 -7.5 -22t-18.5 -12q-39 -9 -53 -66l-43 -195q-16 -69 -58.5 -105.5t-106.5 -36.5h-30q-12 0 -21.5 9.5t-9.5 22.5t9.5 22.5t21.5 9.5h44q65 0 83 78l47 210q16 73 65 89q-29 15 -29 55
q0 19 4 34l43 196q2 16 2 21q0 25 -16 41t-41 16h-23q-13 0 -22 9.5t-9 22.5t9 22.5t22 9.5h30q48 0 83 -32q36 -32 36 -81z" />
    <glyph glyph-name="asciitilde" unicode="~" horiz-adv-x="505" 
d="M562 629q-55 -209 -174 -209q-52 2 -70.5 28.5t-27.5 85.5q-7 42 -15.5 57t-30.5 15q-32 0 -60.5 -44.5t-47.5 -120.5q-2 -10 -11 -17t-19 -7q-16 0 -25.5 13t-5.5 27q53 209 173 209q28 -2 45.5 -9t28 -24.5t14.5 -32.5t11 -48q6 -40 14.5 -56.5t30.5 -16.5q32 0 60 44
t49 122q2 10 11 17t19 7q16 0 25.5 -13t5.5 -27z" />
    <glyph glyph-name="uni00A0" unicode="&#xa0;" horiz-adv-x="258" 
 />
    <glyph glyph-name="exclamdown" unicode="&#xa1;" horiz-adv-x="238" 
d="M153 369q-24 0 -40.5 16.5t-16.5 40.5q0 28 20.5 48t47.5 20q25 0 41.5 -17t16.5 -41q0 -28 -20.5 -47.5t-48.5 -19.5zM159 246l-73 -392q-4 -19 -18 -31t-33 -12q-23 0 -38 14.5t-15 36.5q0 1 2 15l100 386q3 12 13.5 20.5t23.5 8.5q17 0 29 -14t9 -32z" />
    <glyph glyph-name="cent" unicode="&#xa2;" horiz-adv-x="496" 
d="M482 406q0 -17 -13 -29.5t-30 -12.5t-30 12q-22 25 -56 34l-76 -342q48 2 87 33q10 8 24 8q16 0 27.5 -11.5t11.5 -27.5q0 -20 -16 -32q-65 -50 -148 -50h-3l-16 -67q-5 -26 -32 -26q-16 0 -26 13t-7 28l14 60q-73 18 -114.5 73.5t-41.5 135.5q-2 115 77 202t189 88
l12 49q2 11 11.5 18.5t20.5 7.5q16 0 25.5 -13t6.5 -28l-9 -40q59 -12 98 -51q14 -12 14 -32zM211 78l74 335q-70 -10 -113 -69t-43 -137q0 -97 82 -129z" />
    <glyph glyph-name="sterling" unicode="&#xa3;" horiz-adv-x="527" 
d="M540 571q0 -19 -13.5 -33.5t-33.5 -14.5q-24 0 -39 20q-33 51 -107 51q-60 0 -102 -40t-42 -102q0 -33 29 -90q5 -7 17 -32h111q13 0 22 -9t9 -22t-9 -22t-22 -9h-98q0 -47 -35 -96q-36 -48 -75 -70q26 10 54 10q36 0 78 -18q50 -18 74 -18q26 0 51 13q8 4 19 4
q17 0 29 -12t12 -29q0 -21 -19 -34q-46 -31 -99 -31q-45 0 -116 25q-45 15 -88 15q-31 0 -91 -27q-6 -3 -14 -3q-15 0 -25.5 10.5t-10.5 25.5q0 20 20 31q60 32 100 83q41 53 41 102q0 15 -1 19h-107q-13 0 -22 9t-9 22t9 22t22 9h84l-12 22q-37 62 -37 109q0 88 73.5 152
t175.5 64q122 0 185 -74q12 -15 12 -32z" />
    <glyph glyph-name="currency" unicode="&#xa4;" horiz-adv-x="605" 
d="M636 555q0 -19 -13 -29l-75 -61q25 -46 25 -103q0 -111 -77 -188l38 -47q9 -11 9 -24q0 -17 -11.5 -28.5t-27.5 -11.5q-19 0 -31 15l-38 49q-59 -34 -130 -34q-91 0 -153 47l-78 -62q-11 -8 -23 -8q-16 0 -28 11.5t-12 27.5q0 18 13 28l77 62q-25 44 -25 102
q0 113 75 190l-40 51q-8 11 -8 24q0 16 11.5 27.5t28.5 11.5q19 0 31 -16l40 -50q60 33 130 33q92 0 153 -48l75 61q9 9 26 9q16 0 27 -11.5t11 -27.5zM309 174q71 0 121 54.5t50 126.5q0 60 -37.5 97.5t-104.5 37.5q-73 0 -121.5 -54.5t-48.5 -127.5q0 -59 37.5 -96.5
t103.5 -37.5z" />
    <glyph glyph-name="yen" unicode="&#xa5;" horiz-adv-x="632" 
d="M670 626q0 -16 -11 -30l-230 -257h169q12 0 21.5 -8.5t9.5 -20.5q0 -13 -9.5 -22t-21.5 -9h-222l-22 -99h209q12 0 21 -9t9 -21t-9 -21t-21 -9h-222l-19 -87q-4 -16 -17.5 -27t-30.5 -11q-20 0 -34.5 14.5t-14.5 34.5q0 8 1 11l15 65h-215q-12 0 -21 9t-9 21t9 21t21 9
h228l22 99h-214q-12 0 -21 9t-9 22q0 12 9 20.5t21 8.5h187l-120 264q-4 8 -4 21q0 20 14.5 34t34.5 14q32 0 46 -30l120 -273l250 287q13 16 34 16q19 0 32.5 -13.5t13.5 -32.5z" />
    <glyph glyph-name="brokenbar" unicode="&#xa6;" horiz-adv-x="212" 
d="M94 398v262q0 13 9.5 22.5t22.5 9.5t22.5 -9.5t9.5 -22.5v-262q0 -13 -9.5 -22.5t-22.5 -9.5t-22.5 9.5t-9.5 22.5zM94 7v262q0 13 9.5 22.5t22.5 9.5t22.5 -9.5t9.5 -22.5v-262q0 -13 -9.5 -22.5t-22.5 -9.5t-22.5 9.5t-9.5 22.5z" />
    <glyph glyph-name="section" unicode="&#xa7;" horiz-adv-x="472" 
d="M389 78q0 -65 -53.5 -112t-138.5 -47q-113 0 -192 56q-15 11 -15 31q0 16 10.5 26.5t26.5 10.5q13 0 24 -9q58 -50 145 -50q45 0 74 23t29 59q0 26 -22.5 42t-80.5 38q-41 15 -76 32q-69 37 -69 104q0 51 36.5 88t103.5 50q-86 35 -86 108q0 62 52 105.5t134 43.5
q107 0 173 -51q15 -13 15 -28t-10.5 -25.5t-25.5 -10.5q-13 0 -21 8q-50 42 -128 42q-44 0 -72 -21t-28 -52q0 -26 23.5 -42.5t80.5 -35.5q41 -15 60.5 -24t42 -25t32 -36.5t11.5 -50.5q0 -50 -32 -89t-89 -56q66 -37 66 -102zM141 298q0 -31 25 -49t87 -40q49 14 74 40
t25 57q0 29 -21.5 48t-65.5 34q-60 -8 -92 -32t-32 -58z" />
    <glyph glyph-name="dieresis" unicode="&#xa8;" horiz-adv-x="416" 
d="M134 612q0 23 18 40.5t41 17.5q20 0 33.5 -13.5t13.5 -33.5q0 -23 -18 -40.5t-41 -17.5q-20 0 -33.5 14t-13.5 33zM342 612q0 23 18 40.5t41 17.5q20 0 33.5 -13.5t13.5 -33.5q0 -23 -18 -40.5t-41 -17.5q-20 0 -33.5 14t-13.5 33z" />
    <glyph glyph-name="copyright" unicode="&#xa9;" horiz-adv-x="778" 
d="M64 334q-3 139 101.5 243t242.5 102q140 2 244.5 -102t101.5 -243q3 -139 -101.5 -243.5t-244.5 -101.5q-138 -3 -242.5 101.5t-101.5 243.5zM722 334q2 126 -93 220.5t-221 92.5q-126 2 -220 -92.5t-92 -220.5q-2 -126 92 -220.5t220 -92.5q126 -2 221 92.5t93 220.5z
M199 307q-2 97 71.5 169.5t163.5 70.5q102 0 147 -67q5 -5 5 -12q0 -8 -5.5 -14t-13.5 -6q-12 0 -18 9q-36 55 -117 55q-73 0 -133 -60.5t-60 -143.5q0 -64 42 -108t110 -44q52 0 104 38q5 4 10 4q18 0 18 -17q0 -9 -7 -16q-59 -44 -126 -44q-86 0 -138.5 53t-52.5 133z" />
    <glyph glyph-name="ordfeminine" unicode="&#xaa;" horiz-adv-x="411" 
d="M433 605l-57 -258q-6 -26 -33 -26q-15 0 -25.5 12.5t-6.5 27.5l2 10q-44 -53 -104 -53q-55 0 -90 36t-35 98q0 80 49.5 138t119.5 58q73 0 111 -52l5 23q5 26 32 26q16 0 26 -12.5t6 -27.5zM324 417l31 137q-27 40 -87 40q-47 0 -80 -40t-33 -95q0 -41 22 -64t59 -23
q49 0 88 45z" />
    <glyph glyph-name="guillemotleft" unicode="&#xab;" horiz-adv-x="464" 
d="M142 74l-86 128q-11 17 -11 32q0 23 22 42l159 141q8 8 20 8q13 0 22 -8.5t9 -21.5q0 -12 -11 -23l-150 -134l84 -126q6 -10 6 -20q0 -14 -10.5 -24t-24.5 -10q-17 0 -29 16zM299 74l-86 128q-11 17 -11 32q0 23 22 42l159 141q8 8 20 8q13 0 22 -8.5t9 -21.5
q0 -12 -11 -23l-150 -134l84 -126q6 -10 6 -20q0 -14 -10.5 -24t-24.5 -10q-17 0 -29 16z" />
    <glyph glyph-name="logicalnot" unicode="&#xac;" horiz-adv-x="507" 
d="M437 203q-14 0 -23.5 11.5t-5.5 25.5l35 160h-348q-12 0 -21 8.5t-9 21.5t9 21.5t21 8.5h364q49 0 49 -42l-2 -16l-39 -175q-1 -10 -10 -17t-20 -7z" />
    <glyph glyph-name="uni00AD" unicode="&#xad;" horiz-adv-x="300" 
d="M25 242q0 16 11.5 27.5t27.5 11.5h170q16 0 27.5 -11.5t11.5 -27.5t-11.5 -27.5t-27.5 -11.5h-170q-16 0 -27.5 11.5t-11.5 27.5z" />
    <glyph glyph-name="registered" unicode="&#xae;" horiz-adv-x="494" 
d="M84 465q0 88 62 150t150 62t150 -62t62 -150t-62.5 -150t-150.5 -62q-87 0 -149 62t-62 150zM478 465q0 76 -53.5 129t-129.5 53q-75 0 -128.5 -53t-53.5 -129q0 -75 53.5 -129t128.5 -54t129 54t54 129zM326 350l-39 89h-46l-19 -87q-1 -13 -14 -13q-8 0 -13 6t-3 15
l45 209q6 17 21 17h75q30 0 50 -17.5t20 -46.5q0 -34 -24.5 -58t-55.5 -24l35 -77q1 -1 1 -6q0 -7 -4.5 -12.5t-11.5 -5.5q-12 0 -17 11zM327 557h-60l-20 -88h67q24 0 39.5 14.5t15.5 35.5q0 18 -11.5 28t-30.5 10z" />
    <glyph glyph-name="overscore" unicode="&#xaf;" horiz-adv-x="363" 
d="M99 596q0 12 8 20t19 8h269q11 0 19.5 -8t8.5 -19q0 -12 -8.5 -20t-19.5 -8h-269q-11 0 -19 8t-8 19z" />
    <glyph glyph-name="degree" unicode="&#xb0;" horiz-adv-x="296" 
d="M90 551q0 52 37 89t88 37q52 0 89 -37t37 -89t-37 -89q-36 -36 -89 -36q-52 0 -89 36q-36 38 -36 89zM145 551q0 -29 20 -50t49 -21t51 21t22 50t-21.5 50.5t-50.5 21.5t-49.5 -21.5t-20.5 -50.5z" />
    <glyph glyph-name="plusminus" unicode="&#xb1;" horiz-adv-x="500" 
d="M300 324l-42 -191q-5 -25 -31 -25q-16 0 -25.5 12.5t-6.5 26.5l39 177h-156q-12 0 -21 9t-9 21q0 13 9 21.5t21 8.5h170l41 184q5 25 31 25q15 0 24.5 -12t6.5 -27l-38 -170h157q12 0 21 -8.5t9 -20.5q0 -13 -9 -22t-21 -9h-170zM-23 30q0 12 8.5 21t20.5 9h392
q12 0 21 -9t9 -21q0 -13 -9 -21.5t-21 -8.5h-392q-12 0 -20.5 8.5t-8.5 21.5z" />
    <glyph glyph-name="uni00B2" unicode="&#xb2;" horiz-adv-x="350" 
d="M62 456q0 19 17 30q93 52 155 93q112 75 112 132q0 27 -22.5 43t-57.5 16q-49 0 -95 -31q-4 -4 -15 -4q-12 0 -20 8t-8 20q0 13 12 23q56 41 128 41q65 0 107.5 -29.5t42.5 -81.5q0 -55 -57 -108t-186 -130h163q12 0 20 -8.5t8 -19.5q0 -12 -8 -20.5t-20 -8.5h-242
q-14 0 -24 10t-10 25z" />
    <glyph glyph-name="uni00B3" unicode="&#xb3;" horiz-adv-x="370" 
d="M96 465q-10 10 -10 23t9 22t22 9t22 -9q39 -39 101 -39q37 0 59.5 20.5t22.5 51.5q0 24 -24.5 39t-65.5 15h-8q-10 0 -18.5 9t-8.5 20t8 19t19 8l45 -1q41 0 63.5 16.5t22.5 45.5q0 26 -25.5 41t-63.5 15q-48 0 -88 -27q-8 -5 -15 -5q-10 0 -17.5 8t-7.5 19q0 13 11 21
q62 41 123 41q69 0 112 -28t43 -76q0 -42 -30.5 -70t-81.5 -32q34 -7 56 -30.5t22 -55.5q0 -48 -41.5 -84.5t-108.5 -36.5q-96 0 -147 51z" />
    <glyph glyph-name="acute" unicode="&#xb4;" horiz-adv-x="233" 
d="M121 551q-9 0 -16 7t-7 15q0 11 9 20l126 103q7 7 20 7q12 0 19.5 -8t7.5 -20q0 -17 -12 -24l-131 -95q-8 -5 -16 -5z" />
    <glyph glyph-name="uni00B5" unicode="&#xb5;" horiz-adv-x="572" 
d="M28 -189q-19 0 -31.5 13t-12.5 31q0 8 1 10l133 589q3 14 15 24t28 10q19 0 31.5 -13t12.5 -31q0 -8 -1 -10l-59 -261q-4 -15 -4 -32q0 -36 22.5 -55t61.5 -19q38 0 78.5 19.5t68.5 49.5l70 318q3 15 15 24.5t28 9.5q19 0 31.5 -13t12.5 -31q0 -7 -1 -9l-69 -313
q-3 -12 -3 -22q0 -25 22 -29q7 -1 15 -7q17 -12 17 -34q0 -16 -10.5 -27.5t-25.5 -13.5q-4 -1 -19 -1q-47 0 -70 21.5t-22 64.5q-79 -86 -168 -86q-63 0 -83 42l-41 -185q-3 -14 -15 -24t-28 -10z" />
    <glyph glyph-name="paragraph" unicode="&#xb6;" horiz-adv-x="449" 
d="M264 -75l153 692h-86l-156 -703q-5 -19 -24 -19q-11 0 -18.5 9.5t-4.5 20.5l88 398q-57 0 -97 44.5t-40 111.5q0 73 57 130.5t137 57.5h145q49 0 49 -42l-2 -16l-154 -695q-5 -19 -24 -19q-11 0 -18.5 9.5t-4.5 20.5z" />
    <glyph glyph-name="middot" unicode="&#xb7;" horiz-adv-x="238" 
d="M125 307q23 0 39.5 -16.5t16.5 -41.5q0 -27 -20 -47t-48 -20q-24 0 -40.5 17t-16.5 41q0 28 20 47.5t49 19.5z" />
    <glyph glyph-name="cedilla" unicode="&#xb8;" horiz-adv-x="209" 
d="M-84 -146q0 10 7 17t17 7q7 0 14 -4q32 -23 69 -23q27 0 43 12t16 31q0 13 -9.5 20.5t-25.5 7.5q-14 0 -26 -9q-8 -5 -16 -5q-9 0 -14.5 5.5t-5.5 12.5q0 11 4 16l41 69h50l-40 -65q16 11 33 11q26 0 42 -16t16 -44q0 -40 -30.5 -65t-78.5 -25q-54 0 -95 27q-11 6 -11 20
z" />
    <glyph glyph-name="uni00B9" unicode="&#xb9;" horiz-adv-x="250" 
d="M166 458l59 268l-61 -51q-8 -6 -18 -6q-11 0 -19 8t-8 19q0 15 10 21l123 101q11 8 22 8q16 0 27 -13t8 -30l-75 -340q-3 -11 -12.5 -19t-21.5 -8q-17 0 -27.5 13t-6.5 29z" />
    <glyph glyph-name="ordmasculine" unicode="&#xba;" horiz-adv-x="405" 
d="M267 648q69 0 111.5 -40t42.5 -104q0 -76 -54.5 -131t-130.5 -55q-69 0 -111 39.5t-42 103.5q0 77 54.5 132t129.5 55zM266 591q-51 0 -82 -40q-31 -38 -31 -91q0 -39 23 -62.5t62 -23.5q50 0 82 39q31 40 31 92q0 38 -23.5 62t-61.5 24z" />
    <glyph glyph-name="guillemotright" unicode="&#xbb;" horiz-adv-x="464" 
d="M167 409l86 -128q11 -17 11 -32q0 -23 -22 -42l-159 -141q-8 -8 -20 -8q-13 0 -22 8.5t-9 21.5q0 12 11 23l150 134l-84 126q-6 11 -6 20q0 14 10.5 24t24.5 10q17 0 29 -16zM324 409l86 -128q11 -17 11 -32q0 -23 -22 -42l-159 -141q-8 -8 -20 -8q-13 0 -22 8.5t-9 21.5
q0 12 11 23l150 134l-84 126q-6 11 -6 20q0 14 10.5 24t24.5 10q17 0 29 -16z" />
    <glyph glyph-name="onequarter" unicode="&#xbc;" horiz-adv-x="732" 
d="M132 304l59 268l-61 -51q-8 -6 -18 -6q-11 0 -19 8t-8 19q0 15 10 21l123 101q11 8 22 8q16 0 27 -13t8 -30l-75 -340q-3 -11 -12.5 -19t-21.5 -8q-17 0 -27.5 13t-6.5 29zM100 -5q-10 0 -16.5 6.5t-6.5 16.5q0 8 6 15l541 631q6 8 18 8q10 0 17 -7t7 -16q0 -8 -6 -16
l-542 -630q-6 -8 -18 -8zM699 124q0 -11 -8.5 -19.5t-19.5 -8.5h-38l-17 -74q-2 -11 -11.5 -19t-21.5 -8q-14 0 -24 9.5t-10 23.5q0 6 1 8l13 60h-165q-12 0 -20.5 8.5t-8.5 20.5q0 11 6 19l215 242q16 19 42 19q23 0 39 -16.5t16 -39.5q0 -8 -1 -11l-41 -185h26
q11 0 19.5 -8.5t8.5 -20.5zM575 153l41 182l-166 -182h125z" />
    <glyph glyph-name="onehalf" unicode="&#xbd;" horiz-adv-x="774" 
d="M132 304l59 268l-61 -51q-8 -6 -18 -6q-11 0 -19 8t-8 19q0 15 10 21l123 101q11 8 22 8q16 0 27 -13t8 -30l-75 -340q-3 -11 -12.5 -19t-21.5 -8q-17 0 -27.5 13t-6.5 29zM100 -5q-10 0 -16.5 6.5t-6.5 16.5q0 8 6 15l541 631q6 8 18 8q10 0 17 -7t7 -16q0 -8 -6 -16
l-542 -630q-6 -8 -18 -8zM393 35q0 19 17 30q93 52 155 93q112 75 112 132q0 27 -22.5 43t-57.5 16q-49 0 -95 -31q-4 -4 -15 -4q-12 0 -20 8t-8 20t12 23q56 41 128 41q65 0 107.5 -29.5t42.5 -81.5q0 -55 -57 -108t-186 -130h163q12 0 20 -8.5t8 -19.5q0 -12 -8 -20.5
t-20 -8.5h-242q-14 0 -24 10t-10 25z" />
    <glyph glyph-name="threequarters" unicode="&#xbe;" horiz-adv-x="823" 
d="M62 311q-10 10 -10 23t9 22t22 9t22 -9q39 -39 101 -39q37 0 59.5 20.5t22.5 51.5q0 24 -24.5 39t-65.5 15h-8q-10 0 -18.5 9t-8.5 20t8 19t19 8l45 -1q41 0 63.5 16.5t22.5 45.5q0 26 -25.5 41t-63.5 15q-48 0 -88 -27q-8 -5 -15 -5q-10 0 -17.5 8t-7.5 19q0 13 11 21
q62 41 123 41q69 0 112 -28t43 -76q0 -42 -30.5 -70t-81.5 -32q34 -7 56 -30.5t22 -55.5q0 -48 -41.5 -84.5t-108.5 -36.5q-96 0 -147 51zM190 -5q-10 0 -16.5 6.5t-6.5 16.5q0 8 6 15l541 631q6 8 18 8q10 0 17 -7t7 -16q0 -8 -6 -16l-542 -630q-6 -8 -18 -8zM790 124
q0 -11 -8.5 -19.5t-19.5 -8.5h-38l-17 -74q-2 -11 -11.5 -19t-21.5 -8q-14 0 -24 9.5t-10 23.5q0 6 1 8l13 60h-165q-12 0 -20.5 8.5t-8.5 20.5q0 11 6 19l215 242q16 19 42 19q23 0 39 -16.5t16 -39.5q0 -8 -1 -11l-41 -185h26q11 0 19.5 -8.5t8.5 -20.5zM666 153l41 182
l-166 -182h125z" />
    <glyph glyph-name="questiondown" unicode="&#xbf;" horiz-adv-x="395" 
d="M271 368q-24 0 -40.5 17t-16.5 41q0 28 20 47.5t48 19.5q24 0 40.5 -17t16.5 -40q0 -28 -20 -48t-48 -20zM290 253q6 -15 6 -32q-1 -28 -9 -48t-27.5 -37.5t-35 -27.5t-51.5 -30q-56 -29 -79.5 -51t-23.5 -56q0 -35 29.5 -56t81.5 -21q64 0 117 38q10 6 21 6q17 0 29 -12
t12 -29q0 -22 -18 -33q-77 -59 -174 -59q-89 0 -146.5 40.5t-57.5 106.5q0 46 21 78q19 31 45.5 51t78.5 47l55 31q45 29 45 69q0 5 -3 11q-1 1 -1 7q0 16 13 28t30 12q35 0 42 -33z" />
    <glyph glyph-name="Agrave" unicode="&#xc0;" horiz-adv-x="666" 
d="M596 55l1 -8q0 -22 -15 -37t-36 -15q-19 0 -33.5 12t-17.5 31l-16 100h-331l-71 -119q-13 -24 -42 -24q-20 0 -34.5 14.5t-14.5 34.5q0 8 8 26l347 561q25 41 73 41q32 0 56 -20.5t29 -50.5zM202 227h264l-55 350zM415 729l-82 87q-10 11 -10 24q0 14 9 23t23 9
q16 0 25 -12l75 -95q8 -8 8 -18q0 -11 -8 -19.5t-19 -8.5t-21 10z" />
    <glyph glyph-name="Aacute" unicode="&#xc1;" horiz-adv-x="666" 
d="M596 55l1 -8q0 -22 -15 -37t-36 -15q-19 0 -33.5 12t-17.5 31l-16 100h-331l-71 -119q-13 -24 -42 -24q-20 0 -34.5 14.5t-14.5 34.5q0 8 8 26l347 561q25 41 73 41q32 0 56 -20.5t29 -50.5zM202 227h264l-55 350zM441 718q-9 0 -16 7t-7 15q0 11 9 20l126 103q7 7 20 7
q12 0 19.5 -8t7.5 -20q0 -16 -12 -24l-131 -95q-8 -5 -16 -5z" />
    <glyph glyph-name="Acircumflex" unicode="&#xc2;" horiz-adv-x="666" 
d="M596 55l1 -8q0 -22 -15 -37t-36 -15q-19 0 -33.5 12t-17.5 31l-16 100h-331l-71 -119q-13 -24 -42 -24q-20 0 -34.5 14.5t-14.5 34.5q0 8 8 26l347 561q25 41 73 41q32 0 56 -20.5t29 -50.5zM202 227h264l-55 350zM516 731l-53 93l-98 -99q-4 -7 -16 -7q-23 0 -23 23
q0 9 6 15l76 87q21 24 49 24h29q29 0 38 -23l40 -88q2 -10 2 -11q0 -11 -8 -19t-19 -8q-16 0 -23 13z" />
    <glyph glyph-name="Atilde" unicode="&#xc3;" horiz-adv-x="666" 
d="M596 55l1 -8q0 -22 -15 -37t-36 -15q-19 0 -33.5 12t-17.5 31l-16 100h-331l-71 -119q-13 -24 -42 -24q-20 0 -34.5 14.5t-14.5 34.5q0 8 8 26l347 561q25 41 73 41q32 0 56 -20.5t29 -50.5zM202 227h264l-55 350zM390 806q-36 0 -53 -65q-5 -19 -24 -19q-13 0 -20.5 10
t-4.5 22q32 107 108 107q25 0 40 -10.5t32 -36.5q23 -38 48 -38q34 0 53 65q5 19 24 19q13 0 20.5 -10.5t4.5 -22.5q-31 -106 -108 -106q-25 0 -40 10.5t-32 36.5q-23 38 -48 38z" />
    <glyph glyph-name="Adieresis" unicode="&#xc4;" horiz-adv-x="666" 
d="M596 55l1 -8q0 -22 -15 -37t-36 -15q-19 0 -33.5 12t-17.5 31l-16 100h-331l-71 -119q-13 -24 -42 -24q-20 0 -34.5 14.5t-14.5 34.5q0 8 8 26l347 561q25 41 73 41q32 0 56 -20.5t29 -50.5zM202 227h264l-55 350zM298 779q0 23 18 40.5t41 17.5q20 0 33.5 -13.5
t13.5 -33.5q0 -23 -18 -40.5t-41 -17.5q-20 0 -33.5 14t-13.5 33zM506 779q0 23 18 40.5t41 17.5q20 0 33.5 -13.5t13.5 -33.5q0 -23 -18 -40.5t-41 -17.5q-20 0 -33.5 14t-13.5 33z" />
    <glyph glyph-name="Aring" unicode="&#xc5;" horiz-adv-x="666" 
d="M596 55l1 -8q0 -22 -15 -37t-36 -15q-19 0 -33.5 12t-17.5 31l-16 100h-331l-71 -119q-13 -24 -42 -24q-20 0 -34.5 14.5t-14.5 34.5q0 8 8 26l347 561q25 41 73 41q32 0 56 -20.5t29 -50.5zM202 227h264l-55 350zM467 908q41 0 66.5 -25.5t25.5 -66.5q0 -44 -33 -77
t-77 -33q-41 0 -66.5 26t-25.5 66q0 44 33 77t77 33zM464 862q-24 0 -42.5 -18t-18.5 -42q0 -22 13.5 -36t35.5 -14q25 0 43 17.5t18 42.5q0 23 -13.5 36.5t-35.5 13.5z" />
    <glyph glyph-name="AE" unicode="&#xc6;" horiz-adv-x="953" 
d="M990 622q0 -18 -13 -30.5t-31 -12.5h-317l-43 -195h290q18 0 31 -12.5t13 -31.5q0 -18 -13 -31t-31 -13h-310l-46 -208h298q18 0 31 -12.5t13 -30.5q0 -19 -13 -32t-31 -13h-357q-49 0 -49 43q0 1 2 15l17 80h-258l-102 -127q-13 -16 -34 -16q-18 0 -30.5 13t-12.5 31
q0 14 10 27l479 570q25 31 65 31h398q18 0 31 -13t13 -32zM451 227l76 349l-282 -349h206z" />
    <glyph glyph-name="Ccedilla" unicode="&#xc7;" horiz-adv-x="663" 
d="M692 534q0 -22 -14.5 -36.5t-35.5 -14.5q-27 0 -41 22q-59 84 -172 84q-107 2 -189 -86.5t-80 -214.5q0 -94 59 -152.5t156 -58.5q79 0 150 56q14 11 29 11q20 0 33.5 -13.5t13.5 -32.5q0 -20 -18 -36q-93 -74 -214 -74q-21 0 -27 1l-26 -43q16 11 32 11q26 0 42.5 -16.5
t16.5 -43.5q0 -40 -31 -65t-79 -25q-55 0 -95 27q-11 8 -11 20q0 10 7 17t17 7q9 0 14 -4q32 -23 70 -23q27 0 42.5 12t15.5 31q0 13 -9.5 20.5t-25.5 7.5q-14 0 -26 -9q-7 -5 -15 -5q-9 0 -15 5.5t-6 12.5q0 11 4 16l31 53q-107 21 -173 98.5t-66 188.5q-2 112 51.5 204.5
t141 142.5t185.5 49q162 0 249 -114q9 -14 9 -30z" />
    <glyph glyph-name="Egrave" unicode="&#xc8;" horiz-adv-x="573" 
d="M31 43q0 1 2 15l124 562q11 47 58 47h350q18 0 31 -13t13 -32q0 -18 -13 -30.5t-31 -12.5h-317l-43 -195h290q18 0 31 -12.5t13 -31.5q0 -18 -13 -31t-31 -13h-310l-46 -208h298q18 0 31 -12.5t13 -30.5q0 -19 -13 -32t-31 -13h-357q-49 0 -49 43zM387 729l-82 87
q-10 11 -10 24q0 14 9 23t23 9q16 0 25 -12l75 -95q8 -8 8 -18q0 -11 -8 -19.5t-19 -8.5t-21 10z" />
    <glyph glyph-name="Eacute" unicode="&#xc9;" horiz-adv-x="573" 
d="M31 43q0 1 2 15l124 562q11 47 58 47h350q18 0 31 -13t13 -32q0 -18 -13 -30.5t-31 -12.5h-317l-43 -195h290q18 0 31 -12.5t13 -31.5q0 -18 -13 -31t-31 -13h-310l-46 -208h298q18 0 31 -12.5t13 -30.5q0 -19 -13 -32t-31 -13h-357q-49 0 -49 43zM412 718q-9 0 -16 7
t-7 15q0 11 9 20l126 103q7 7 20 7q12 0 19.5 -8t7.5 -20q0 -16 -12 -24l-131 -95q-8 -5 -16 -5z" />
    <glyph glyph-name="Ecircumflex" unicode="&#xca;" horiz-adv-x="573" 
d="M31 43q0 1 2 15l124 562q11 47 58 47h350q18 0 31 -13t13 -32q0 -18 -13 -30.5t-31 -12.5h-317l-43 -195h290q18 0 31 -12.5t13 -31.5q0 -18 -13 -31t-31 -13h-310l-46 -208h298q18 0 31 -12.5t13 -30.5q0 -19 -13 -32t-31 -13h-357q-49 0 -49 43zM487 731l-53 93
l-98 -99q-4 -7 -16 -7q-23 0 -23 23q0 9 6 15l76 87q21 24 49 24h29q29 0 38 -23l40 -88q2 -10 2 -11q0 -11 -8 -19t-19 -8q-16 0 -23 13z" />
    <glyph glyph-name="Edieresis" unicode="&#xcb;" horiz-adv-x="573" 
d="M31 43q0 1 2 15l124 562q11 47 58 47h350q18 0 31 -13t13 -32q0 -18 -13 -30.5t-31 -12.5h-317l-43 -195h290q18 0 31 -12.5t13 -31.5q0 -18 -13 -31t-31 -13h-310l-46 -208h298q18 0 31 -12.5t13 -30.5q0 -19 -13 -32t-31 -13h-357q-49 0 -49 43zM269 779q0 23 18 40.5
t41 17.5q20 0 33.5 -13.5t13.5 -33.5q0 -23 -18 -40.5t-41 -17.5q-20 0 -33.5 14t-13.5 33zM477 779q0 23 18 40.5t41 17.5q20 0 33.5 -13.5t13.5 -33.5q0 -23 -18 -40.5t-41 -17.5q-20 0 -33.5 14t-13.5 33z" />
    <glyph glyph-name="Igrave" unicode="&#xcc;" horiz-adv-x="249" 
d="M31 45q0 8 1 10l128 579q4 16 17 27t31 11q19 0 33.5 -14.5t14.5 -34.5q0 -8 -1 -11l-127 -579q-4 -16 -17.5 -27t-30.5 -11q-21 0 -35 14.5t-14 35.5zM207 729l-82 87q-10 11 -10 24q0 14 9 23t23 9q16 0 25 -12l75 -95q8 -8 8 -18q0 -11 -8 -19.5t-19 -8.5t-21 10z" />
    <glyph glyph-name="Iacute" unicode="&#xcd;" horiz-adv-x="249" 
d="M31 45q0 8 1 10l128 579q4 16 17 27t31 11q19 0 33.5 -14.5t14.5 -34.5q0 -8 -1 -11l-127 -579q-4 -16 -17.5 -27t-30.5 -11q-21 0 -35 14.5t-14 35.5zM233 718q-9 0 -16 7t-7 15q0 11 9 20l126 103q7 7 20 7q12 0 19.5 -8t7.5 -20q0 -16 -12 -24l-131 -95q-8 -5 -16 -5z
" />
    <glyph glyph-name="Icircumflex" unicode="&#xce;" horiz-adv-x="249" 
d="M31 45q0 8 1 10l128 579q4 16 17 27t31 11q19 0 33.5 -14.5t14.5 -34.5q0 -8 -1 -11l-127 -579q-4 -16 -17.5 -27t-30.5 -11q-21 0 -35 14.5t-14 35.5zM308 731l-53 93l-98 -99q-4 -7 -16 -7q-23 0 -23 23q0 9 6 15l76 87q21 24 49 24h29q29 0 38 -23l40 -88q2 -10 2 -11
q0 -11 -8 -19t-19 -8q-16 0 -23 13z" />
    <glyph glyph-name="Idieresis" unicode="&#xcf;" horiz-adv-x="249" 
d="M31 45q0 8 1 10l128 579q4 16 17 27t31 11q19 0 33.5 -14.5t14.5 -34.5q0 -8 -1 -11l-127 -579q-4 -16 -17.5 -27t-30.5 -11q-21 0 -35 14.5t-14 35.5zM90 779q0 23 18 40.5t41 17.5q20 0 33.5 -13.5t13.5 -33.5q0 -23 -18 -40.5t-41 -17.5q-20 0 -33.5 14t-13.5 33z
M298 779q0 23 18 40.5t41 17.5q20 0 33.5 -13.5t13.5 -33.5q0 -23 -18 -40.5t-41 -17.5q-20 0 -33.5 14t-13.5 33z" />
    <glyph glyph-name="Eth" unicode="&#xd0;" horiz-adv-x="732" 
d="M708 382q1 -72 -26 -140t-78 -123t-134.5 -87.5t-185.5 -31.5h-177q-49 0 -49 43q0 1 2 15l52 235h-46q-17 0 -29 12t-12 29t12 29t29 12h64l54 245q11 47 58 47h185q113 2 198.5 -81.5t82.5 -203.5zM603 376q0 86 -55.5 144.5t-138.5 58.5h-134l-45 -204h117
q17 0 29 -12.5t12 -29.5t-12 -28.5t-29 -11.5h-135l-46 -205h136q132 -2 217.5 83.5t83.5 204.5z" />
    <glyph glyph-name="Ntilde" unicode="&#xd1;" horiz-adv-x="714" 
d="M474 32l-236 503l-110 -502q-4 -16 -17.5 -27t-30.5 -11q-21 0 -35 14.5t-14 35.5q0 8 1 10l124 563q5 24 24 39t44 15q44 0 62 -40l231 -488l108 490q4 16 17.5 27t30.5 11q21 0 35 -14.5t14 -35.5q0 -8 -1 -10l-125 -567q-4 -22 -22.5 -36t-41.5 -14q-40 0 -58 37z
M414 806q-36 0 -53 -65q-5 -19 -24 -19q-13 0 -20.5 10t-4.5 22q32 107 108 107q25 0 40 -10.5t32 -36.5q23 -38 48 -38q34 0 53 65q5 19 24 19q13 0 20.5 -10.5t4.5 -22.5q-31 -106 -108 -106q-25 0 -40 10.5t-32 36.5q-23 38 -48 38z" />
    <glyph glyph-name="Ograve" unicode="&#xd2;" horiz-adv-x="765" 
d="M434 678q136 0 224.5 -80t88.5 -213q2 -107 -49 -199.5t-139 -146t-190 -51.5q-136 0 -224.5 80.5t-88.5 213.5q-2 106 49 198.5t139 146t190 51.5zM428 589q-108 2 -189 -87.5t-79 -213.5q0 -97 61 -154t154 -57q108 -2 189 87.5t79 213.5q0 97 -61 154t-154 57z
M463 729l-82 87q-10 11 -10 24q0 14 9 23t23 9q16 0 25 -12l75 -95q8 -8 8 -18q0 -11 -8 -19.5t-19 -8.5t-21 10z" />
    <glyph glyph-name="Oacute" unicode="&#xd3;" horiz-adv-x="765" 
d="M434 678q136 0 224.5 -80t88.5 -213q2 -107 -49 -199.5t-139 -146t-190 -51.5q-136 0 -224.5 80.5t-88.5 213.5q-2 106 49 198.5t139 146t190 51.5zM428 589q-108 2 -189 -87.5t-79 -213.5q0 -97 61 -154t154 -57q108 -2 189 87.5t79 213.5q0 97 -61 154t-154 57z
M488 718q-9 0 -16 7t-7 15q0 11 9 20l126 103q7 7 20 7q12 0 19.5 -8t7.5 -20q0 -16 -12 -24l-131 -95q-8 -5 -16 -5z" />
    <glyph glyph-name="Ocircumflex" unicode="&#xd4;" horiz-adv-x="765" 
d="M434 678q136 0 224.5 -80t88.5 -213q2 -107 -49 -199.5t-139 -146t-190 -51.5q-136 0 -224.5 80.5t-88.5 213.5q-2 106 49 198.5t139 146t190 51.5zM428 589q-108 2 -189 -87.5t-79 -213.5q0 -97 61 -154t154 -57q108 -2 189 87.5t79 213.5q0 97 -61 154t-154 57z
M563 731l-53 93l-98 -99q-4 -7 -16 -7q-23 0 -23 23q0 9 6 15l76 87q21 24 49 24h29q29 0 38 -23l40 -88q2 -10 2 -11q0 -11 -8 -19t-19 -8q-16 0 -23 13z" />
    <glyph glyph-name="Otilde" unicode="&#xd5;" horiz-adv-x="765" 
d="M434 678q136 0 224.5 -80t88.5 -213q2 -107 -49 -199.5t-139 -146t-190 -51.5q-136 0 -224.5 80.5t-88.5 213.5q-2 106 49 198.5t139 146t190 51.5zM428 589q-108 2 -189 -87.5t-79 -213.5q0 -97 61 -154t154 -57q108 -2 189 87.5t79 213.5q0 97 -61 154t-154 57z
M437 806q-36 0 -53 -65q-5 -19 -24 -19q-13 0 -20.5 10t-4.5 22q32 107 108 107q25 0 40 -10.5t32 -36.5q23 -38 48 -38q34 0 53 65q5 19 24 19q13 0 20.5 -10.5t4.5 -22.5q-31 -106 -108 -106q-25 0 -40 10.5t-32 36.5q-23 38 -48 38z" />
    <glyph glyph-name="Odieresis" unicode="&#xd6;" horiz-adv-x="765" 
d="M434 678q136 0 224.5 -80t88.5 -213q2 -107 -49 -199.5t-139 -146t-190 -51.5q-136 0 -224.5 80.5t-88.5 213.5q-2 106 49 198.5t139 146t190 51.5zM428 589q-108 2 -189 -87.5t-79 -213.5q0 -97 61 -154t154 -57q108 -2 189 87.5t79 213.5q0 97 -61 154t-154 57z
M346 779q0 23 18 40.5t41 17.5q20 0 33.5 -13.5t13.5 -33.5q0 -23 -18 -40.5t-41 -17.5q-20 0 -33.5 14t-13.5 33zM554 779q0 23 18 40.5t41 17.5q20 0 33.5 -13.5t13.5 -33.5q0 -23 -18 -40.5t-41 -17.5q-20 0 -33.5 14t-13.5 33z" />
    <glyph glyph-name="multiply" unicode="&#xd7;" horiz-adv-x="500" 
d="M264 291l-162 -132q-7 -7 -18 -7q-12 0 -21 8.5t-9 21.5t11 22l163 134l-97 124q-6 8 -6 19q0 13 9 22t22 9q14 0 24 -12l95 -123l162 132q11 7 19 7q12 0 20.5 -9t8.5 -21q0 -14 -11 -23l-162 -133l97 -125q6 -11 6 -19q0 -13 -8.5 -21.5t-21.5 -8.5q-15 0 -24 12z" />
    <glyph glyph-name="Oslash" unicode="&#xd8;" horiz-adv-x="765" 
d="M765 693q0 -11 -8 -19l-85 -89q75 -80 75 -200q2 -107 -49 -199.5t-139 -146t-190 -51.5q-117 0 -203 62l-84 -89q-9 -9 -19 -9q-9 0 -15.5 6.5t-6.5 15.5q0 10 8 18l83 88q-76 81 -76 202q-2 106 49 198.5t139 146t190 51.5q119 0 204 -63l86 91q9 9 19 9q9 0 15.5 -6.5
t6.5 -15.5zM202 154l368 389q-58 46 -142 46q-108 2 -189 -87.5t-79 -213.5q0 -78 42 -134zM602 510l-368 -388q57 -45 141 -45q108 -2 189 87.5t79 213.5q0 77 -41 132z" />
    <glyph glyph-name="Ugrave" unicode="&#xd9;" horiz-adv-x="710" 
d="M78 261l82 373q4 16 17 27t31 11q20 0 34.5 -14.5t14.5 -34.5q0 -8 -1 -11l-76 -349q-5 -18 -5 -39q0 -66 44.5 -107t121.5 -41q82 0 129 47t68 140l82 371q4 16 17 27t31 11q20 0 34.5 -14.5t14.5 -34.5q0 -8 -1 -11l-77 -350q-30 -138 -100.5 -206t-197.5 -68
q-126 0 -197 60t-71 165q0 18 5 48zM437 729l-82 87q-10 11 -10 24q0 14 9 23t23 9q16 0 25 -12l75 -95q8 -8 8 -18q0 -11 -8 -19.5t-19 -8.5t-21 10z" />
    <glyph glyph-name="Uacute" unicode="&#xda;" horiz-adv-x="710" 
d="M78 261l82 373q4 16 17 27t31 11q20 0 34.5 -14.5t14.5 -34.5q0 -8 -1 -11l-76 -349q-5 -18 -5 -39q0 -66 44.5 -107t121.5 -41q82 0 129 47t68 140l82 371q4 16 17 27t31 11q20 0 34.5 -14.5t14.5 -34.5q0 -8 -1 -11l-77 -350q-30 -138 -100.5 -206t-197.5 -68
q-126 0 -197 60t-71 165q0 18 5 48zM462 718q-9 0 -16 7t-7 15q0 11 9 20l126 103q7 7 20 7q12 0 19.5 -8t7.5 -20q0 -16 -12 -24l-131 -95q-8 -5 -16 -5z" />
    <glyph glyph-name="Ucircumflex" unicode="&#xdb;" horiz-adv-x="710" 
d="M78 261l82 373q4 16 17 27t31 11q20 0 34.5 -14.5t14.5 -34.5q0 -8 -1 -11l-76 -349q-5 -18 -5 -39q0 -66 44.5 -107t121.5 -41q82 0 129 47t68 140l82 371q4 16 17 27t31 11q20 0 34.5 -14.5t14.5 -34.5q0 -8 -1 -11l-77 -350q-30 -138 -100.5 -206t-197.5 -68
q-126 0 -197 60t-71 165q0 18 5 48zM537 731l-53 93l-98 -99q-4 -7 -16 -7q-23 0 -23 23q0 9 6 15l76 87q21 24 49 24h29q29 0 38 -23l40 -88q2 -10 2 -11q0 -11 -8 -19t-19 -8q-16 0 -23 13z" />
    <glyph glyph-name="Udieresis" unicode="&#xdc;" horiz-adv-x="710" 
d="M78 261l82 373q4 16 17 27t31 11q20 0 34.5 -14.5t14.5 -34.5q0 -8 -1 -11l-76 -349q-5 -18 -5 -39q0 -66 44.5 -107t121.5 -41q82 0 129 47t68 140l82 371q4 16 17 27t31 11q20 0 34.5 -14.5t14.5 -34.5q0 -8 -1 -11l-77 -350q-30 -138 -100.5 -206t-197.5 -68
q-126 0 -197 60t-71 165q0 18 5 48zM320 779q0 23 18 40.5t41 17.5q20 0 33.5 -13.5t13.5 -33.5q0 -23 -18 -40.5t-41 -17.5q-20 0 -33.5 14t-13.5 33zM528 779q0 23 18 40.5t41 17.5q20 0 33.5 -13.5t13.5 -33.5q0 -23 -18 -40.5t-41 -17.5q-20 0 -33.5 14t-13.5 33z" />
    <glyph glyph-name="Yacute" unicode="&#xdd;" horiz-adv-x="632" 
d="M656 596l-283 -317l-54 -246q-4 -16 -17 -27t-30 -11q-20 0 -34.5 14.5t-14.5 34.5q0 8 1 11l49 224l-146 324q-4 8 -4 21q0 20 14.5 34t34.5 14q33 0 45 -30l120 -273l251 287q12 16 34 16q19 0 32.5 -13.5t13.5 -32.5q0 -15 -12 -30zM424 718q-9 0 -16 7t-7 15
q0 11 9 20l126 103q7 7 20 7q12 0 19.5 -8t7.5 -20q0 -16 -12 -24l-131 -95q-8 -5 -16 -5z" />
    <glyph glyph-name="Thorn" unicode="&#xde;" horiz-adv-x="597" 
d="M591 375q0 -94 -67.5 -163.5t-192.5 -69.5h-180l-23 -109q-4 -16 -17.5 -27t-30.5 -11q-21 0 -35 14.5t-14 34.5q0 8 1 10l128 580q4 16 17 27t31 11q19 0 33.5 -14.5t14.5 -34.5q0 -8 -1 -11l-13 -61h171q75 0 126.5 -51.5t51.5 -124.5zM487 366q0 41 -30 68.5t-73 27.5
h-162l-51 -232h166q69 0 109.5 39t40.5 97z" />
    <glyph glyph-name="germandbls" unicode="&#xdf;" horiz-adv-x="569" 
d="M390 355q56 -17 89 -60.5t33 -101.5q0 -15 -5 -43q-17 -74 -76 -118t-140 -44q-53 0 -100 21q-23 12 -23 35q0 16 11.5 28t27.5 12q11 0 24 -7q30 -12 60 -12q48 0 82.5 28t44.5 76q4 15 4 35q0 50 -34.5 80.5t-100.5 36.5q-14 1 -23.5 11.5t-9.5 25.5q0 14 9.5 24.5
t23.5 11.5q64 4 102 30.5t47 70.5q2 18 2 21q0 37 -26 59t-65 22q-110 0 -144 -148l-93 -419q-4 -15 -16 -24.5t-27 -9.5q-18 0 -31 13t-13 30q0 8 1 10l89 400q24 112 87.5 170t154.5 58q74 0 125.5 -42t51.5 -109q0 -22 -4 -39q-11 -47 -48 -82.5t-90 -49.5z" />
    <glyph glyph-name="agrave" unicode="&#xe0;" horiz-adv-x="578" 
d="M550 444q0 -7 -1 -9l-90 -406q-3 -15 -15 -24.5t-28 -9.5q-19 0 -31.5 13t-12.5 31q0 7 1 9l5 19q-64 -79 -156 -79q-85 0 -135.5 53t-50.5 146q-2 121 71 215.5t183 92.5q53 0 96 -22.5t67 -61.5l10 43q9 34 43 34q19 0 31.5 -13t12.5 -31zM394 143l45 200
q-18 33 -54.5 52.5t-82.5 19.5q-73 0 -122 -63t-49 -148q0 -62 34.5 -99t91.5 -37q39 0 76 21t61 54zM342 582l-82 87q-10 11 -10 24q0 14 9 23t23 9q16 0 25 -12l75 -95q8 -8 8 -18q0 -11 -8 -19.5t-19 -8.5t-21 10z" />
    <glyph glyph-name="aacute" unicode="&#xe1;" horiz-adv-x="578" 
d="M550 444q0 -7 -1 -9l-90 -406q-3 -15 -15 -24.5t-28 -9.5q-19 0 -31.5 13t-12.5 31q0 7 1 9l5 19q-64 -79 -156 -79q-85 0 -135.5 53t-50.5 146q-2 121 71 215.5t183 92.5q53 0 96 -22.5t67 -61.5l10 43q9 34 43 34q19 0 31.5 -13t12.5 -31zM394 143l45 200
q-18 33 -54.5 52.5t-82.5 19.5q-73 0 -122 -63t-49 -148q0 -62 34.5 -99t91.5 -37q39 0 76 21t61 54zM367 571q-9 0 -16 7t-7 15q0 11 9 20l126 103q7 7 20 7q12 0 19.5 -8t7.5 -20q0 -17 -12 -24l-131 -95q-8 -5 -16 -5z" />
    <glyph glyph-name="acircumflex" unicode="&#xe2;" horiz-adv-x="578" 
d="M550 444q0 -7 -1 -9l-90 -406q-3 -15 -15 -24.5t-28 -9.5q-19 0 -31.5 13t-12.5 31q0 7 1 9l5 19q-64 -79 -156 -79q-85 0 -135.5 53t-50.5 146q-2 121 71 215.5t183 92.5q53 0 96 -22.5t67 -61.5l10 43q9 34 43 34q19 0 31.5 -13t12.5 -31zM394 143l45 200
q-18 33 -54.5 52.5t-82.5 19.5q-73 0 -122 -63t-49 -148q0 -62 34.5 -99t91.5 -37q39 0 76 21t61 54zM442 584l-53 93l-98 -99q-4 -7 -16 -7q-23 0 -23 23q0 9 6 15l76 87q21 24 49 24h29q29 0 38 -23l40 -88q2 -10 2 -11q0 -11 -8 -19t-19 -8q-16 0 -23 13z" />
    <glyph glyph-name="atilde" unicode="&#xe3;" horiz-adv-x="578" 
d="M550 444q0 -7 -1 -9l-90 -406q-3 -15 -15 -24.5t-28 -9.5q-19 0 -31.5 13t-12.5 31q0 7 1 9l5 19q-64 -79 -156 -79q-85 0 -135.5 53t-50.5 146q-2 121 71 215.5t183 92.5q53 0 96 -22.5t67 -61.5l10 43q9 34 43 34q19 0 31.5 -13t12.5 -31zM394 143l45 200
q-18 33 -54.5 52.5t-82.5 19.5q-73 0 -122 -63t-49 -148q0 -62 34.5 -99t91.5 -37q39 0 76 21t61 54zM316 659q-36 0 -53 -65q-5 -19 -24 -19q-13 0 -20.5 10t-4.5 22q32 107 108 107q25 0 40 -10.5t32 -36.5q23 -38 48 -38q34 0 53 65q5 19 24 19q13 0 20.5 -10.5
t4.5 -22.5q-31 -106 -108 -106q-25 0 -40 10.5t-32 36.5q-23 38 -48 38z" />
    <glyph glyph-name="adieresis" unicode="&#xe4;" horiz-adv-x="578" 
d="M550 444q0 -7 -1 -9l-90 -406q-3 -15 -15 -24.5t-28 -9.5q-19 0 -31.5 13t-12.5 31q0 7 1 9l5 19q-64 -79 -156 -79q-85 0 -135.5 53t-50.5 146q-2 121 71 215.5t183 92.5q53 0 96 -22.5t67 -61.5l10 43q9 34 43 34q19 0 31.5 -13t12.5 -31zM394 143l45 200
q-18 33 -54.5 52.5t-82.5 19.5q-73 0 -122 -63t-49 -148q0 -62 34.5 -99t91.5 -37q39 0 76 21t61 54zM225 632q0 23 18 40.5t41 17.5q20 0 33.5 -13.5t13.5 -33.5q0 -23 -18 -40.5t-41 -17.5q-20 0 -33.5 14t-13.5 33zM433 632q0 23 18 40.5t41 17.5q20 0 33.5 -13.5
t13.5 -33.5q0 -23 -18 -40.5t-41 -17.5q-20 0 -33.5 14t-13.5 33z" />
    <glyph glyph-name="aring" unicode="&#xe5;" horiz-adv-x="578" 
d="M550 444q0 -7 -1 -9l-90 -406q-3 -15 -15 -24.5t-28 -9.5q-19 0 -31.5 13t-12.5 31q0 7 1 9l5 19q-64 -79 -156 -79q-85 0 -135.5 53t-50.5 146q-2 121 71 215.5t183 92.5q53 0 96 -22.5t67 -61.5l10 43q9 34 43 34q19 0 31.5 -13t12.5 -31zM394 143l45 200
q-18 33 -54.5 52.5t-82.5 19.5q-73 0 -122 -63t-49 -148q0 -62 34.5 -99t91.5 -37q39 0 76 21t61 54zM394 761q41 0 66.5 -25.5t25.5 -66.5q0 -44 -33 -77t-77 -33q-41 0 -66.5 26t-25.5 66q0 44 33 77t77 33zM391 715q-24 0 -42.5 -18t-18.5 -42q0 -22 13.5 -36t35.5 -14
q25 0 43 17.5t18 42.5q0 23 -13.5 36.5t-35.5 13.5z" />
    <glyph glyph-name="ae" unicode="&#xe6;" horiz-adv-x="931" 
d="M894 288q0 -21 -1 -28q-5 -48 -57 -48h-332q-1 -3 -1 -20q0 -53 41.5 -90.5t113.5 -37.5q53 0 103 26q7 4 16 4q15 0 25.5 -10t10.5 -25q0 -21 -19 -31q-68 -40 -133 -40q-145 0 -185 119l-17 -78q-3 -15 -15 -24.5t-28 -9.5q-19 0 -31.5 13t-12.5 31q0 7 1 9l5 19
q-64 -79 -156 -79q-85 0 -135.5 53t-50.5 146q-2 121 71 215.5t183 92.5q53 0 96.5 -22.5t67.5 -62.5l9 43q3 16 15 25.5t28 9.5q19 0 31.5 -12.5t12.5 -30.5q0 -8 -1 -10l-6 -27q73 87 168 87q87 0 135 -55t48 -152zM811 293q0 58 -34.5 93t-98.5 35q-59 0 -106.5 -43
t-58.5 -101h297q1 2 1 16zM394 143l45 200q-18 33 -54.5 52.5t-82.5 19.5q-73 0 -122 -63t-49 -148q0 -62 34.5 -99t91.5 -37q39 0 76 21t61 54z" />
    <glyph glyph-name="ccedilla" unicode="&#xe7;" horiz-adv-x="496" 
d="M482 406q0 -17 -13 -29.5t-30 -12.5t-30 12q-36 39 -97 39q-80 0 -131.5 -61t-51.5 -147q0 -65 39.5 -102t103.5 -37q51 0 92 33q10 8 24 8q16 0 27.5 -11.5t11.5 -27.5q0 -20 -16 -32q-65 -50 -148 -50h-10l-26 -42q16 11 33 11q26 0 42.5 -16.5t16.5 -43.5
q0 -40 -31 -65t-79 -25q-55 0 -95 27q-11 8 -11 20q0 10 7 17t17 7q7 0 14 -4q32 -23 70 -23q27 0 42.5 12t15.5 31q0 13 -9.5 20.5t-25.5 7.5q-14 0 -26 -9q-7 -5 -16 -5t-14.5 5.5t-5.5 12.5q0 11 4 16l31 51q-79 16 -124.5 72.5t-45.5 139.5q-2 117 80 205t194 85
q100 0 157 -57q14 -12 14 -32z" />
    <glyph glyph-name="egrave" unicode="&#xe8;" horiz-adv-x="560" 
d="M310 495q94 0 152.5 -59t58.5 -154q0 -11 -2 -21q-2 -49 -55 -49h-335q-2 -16 -2 -20q0 -53 42 -91.5t114 -38.5q56 0 108 28q6 3 15 3q14 0 24.5 -10t10.5 -25q0 -20 -18 -30q-70 -40 -146 -40q-111 0 -175.5 58t-64.5 157q-2 118 79 206t194 86zM440 293
q0 57 -36.5 92.5t-100.5 35.5q-59 0 -106.5 -43t-58.5 -101h301q1 2 1 16zM335 582l-82 87q-10 11 -10 24q0 14 9 23t23 9q16 0 25 -12l75 -95q8 -8 8 -18q0 -11 -8 -19.5t-19 -8.5t-21 10z" />
    <glyph glyph-name="eacute" unicode="&#xe9;" horiz-adv-x="560" 
d="M310 495q94 0 152.5 -59t58.5 -154q0 -11 -2 -21q-2 -49 -55 -49h-335q-2 -16 -2 -20q0 -53 42 -91.5t114 -38.5q56 0 108 28q6 3 15 3q14 0 24.5 -10t10.5 -25q0 -20 -18 -30q-70 -40 -146 -40q-111 0 -175.5 58t-64.5 157q-2 118 79 206t194 86zM440 293
q0 57 -36.5 92.5t-100.5 35.5q-59 0 -106.5 -43t-58.5 -101h301q1 2 1 16zM360 571q-9 0 -16 7t-7 15q0 11 9 20l126 103q7 7 20 7q12 0 19.5 -8t7.5 -20q0 -17 -12 -24l-131 -95q-8 -5 -16 -5z" />
    <glyph glyph-name="ecircumflex" unicode="&#xea;" horiz-adv-x="560" 
d="M310 495q94 0 152.5 -59t58.5 -154q0 -11 -2 -21q-2 -49 -55 -49h-335q-2 -16 -2 -20q0 -53 42 -91.5t114 -38.5q56 0 108 28q6 3 15 3q14 0 24.5 -10t10.5 -25q0 -20 -18 -30q-70 -40 -146 -40q-111 0 -175.5 58t-64.5 157q-2 118 79 206t194 86zM440 293
q0 57 -36.5 92.5t-100.5 35.5q-59 0 -106.5 -43t-58.5 -101h301q1 2 1 16zM435 584l-53 93l-98 -99q-4 -7 -16 -7q-23 0 -23 23q0 9 6 15l76 87q21 24 49 24h29q29 0 38 -23l40 -88q2 -10 2 -11q0 -11 -8 -19t-19 -8q-16 0 -23 13z" />
    <glyph glyph-name="edieresis" unicode="&#xeb;" horiz-adv-x="560" 
d="M310 495q94 0 152.5 -59t58.5 -154q0 -11 -2 -21q-2 -49 -55 -49h-335q-2 -16 -2 -20q0 -53 42 -91.5t114 -38.5q56 0 108 28q6 3 15 3q14 0 24.5 -10t10.5 -25q0 -20 -18 -30q-70 -40 -146 -40q-111 0 -175.5 58t-64.5 157q-2 118 79 206t194 86zM440 293
q0 57 -36.5 92.5t-100.5 35.5q-59 0 -106.5 -43t-58.5 -101h301q1 2 1 16zM217 632q0 23 18 40.5t41 17.5q20 0 33.5 -13.5t13.5 -33.5q0 -23 -18 -40.5t-41 -17.5q-20 0 -33.5 14t-13.5 33zM425 632q0 23 18 40.5t41 17.5q20 0 33.5 -13.5t13.5 -33.5q0 -23 -18 -40.5
t-41 -17.5q-20 0 -33.5 14t-13.5 33z" />
    <glyph glyph-name="igrave" unicode="&#xec;" horiz-adv-x="233" 
d="M28 38q0 8 1 10l89 406q3 15 15 24.5t28 9.5q19 0 31.5 -13t12.5 -31q0 -7 -1 -9l-90 -406q-3 -15 -15 -24.5t-27 -9.5q-19 0 -31.5 12.5t-12.5 30.5zM167 582l-82 87q-10 11 -10 24q0 14 9 23t23 9q16 0 25 -12l75 -95q8 -8 8 -18q0 -11 -8 -19.5t-19 -8.5t-21 10z" />
    <glyph glyph-name="iacute" unicode="&#xed;" horiz-adv-x="233" 
d="M28 38q0 8 1 10l89 406q3 15 15 24.5t28 9.5q19 0 31.5 -13t12.5 -31q0 -7 -1 -9l-90 -406q-3 -15 -15 -24.5t-27 -9.5q-19 0 -31.5 12.5t-12.5 30.5zM192 571q-9 0 -16 7t-7 15q0 11 9 20l126 103q7 7 20 7q12 0 19.5 -8t7.5 -20q0 -17 -12 -24l-131 -95q-8 -5 -16 -5z
" />
    <glyph glyph-name="icircumflex" unicode="&#xee;" horiz-adv-x="233" 
d="M28 38q0 8 1 10l89 406q3 15 15 24.5t28 9.5q19 0 31.5 -13t12.5 -31q0 -7 -1 -9l-90 -406q-3 -15 -15 -24.5t-27 -9.5q-19 0 -31.5 12.5t-12.5 30.5zM267 584l-53 93l-98 -99q-4 -7 -16 -7q-23 0 -23 23q0 9 6 15l76 87q21 24 49 24h29q29 0 38 -23l40 -88q2 -10 2 -11
q0 -11 -8 -19t-19 -8q-16 0 -23 13z" />
    <glyph glyph-name="idieresis" unicode="&#xef;" horiz-adv-x="233" 
d="M28 38q0 8 1 10l89 406q3 15 15 24.5t28 9.5q19 0 31.5 -13t12.5 -31q0 -7 -1 -9l-90 -406q-3 -15 -15 -24.5t-27 -9.5q-19 0 -31.5 12.5t-12.5 30.5zM50 632q0 23 18 40.5t41 17.5q20 0 33.5 -13.5t13.5 -33.5q0 -23 -18 -40.5t-41 -17.5q-20 0 -33.5 14t-13.5 33z
M258 632q0 23 18 40.5t41 17.5q20 0 33.5 -13.5t13.5 -33.5q0 -23 -18 -40.5t-41 -17.5q-20 0 -33.5 14t-13.5 33z" />
    <glyph glyph-name="eth" unicode="&#xf0;" horiz-adv-x="572" 
d="M538 303q2 -130 -77 -223.5t-196 -91.5q-102 0 -166 58.5t-64 148.5q-2 113 73 196.5t175 81.5q56 0 99.5 -27t66.5 -80q-26 89 -119 185l-141 -42q-11 -3 -20.5 4t-9.5 19q0 17 16 22l115 34q-6 5 -27 23q-17 14 -17 35q0 19 13 32.5t33 13.5q17 0 30 -10q43 -37 69 -64
l94 28q11 3 20.5 -4t9.5 -19q0 -17 -16 -22l-73 -22q112 -133 112 -276zM436 263q0 56 -36.5 93.5t-102.5 37.5q-70 0 -119 -56t-49 -136q0 -61 37 -97.5t100 -36.5q71 0 120.5 57t49.5 138z" />
    <glyph glyph-name="ntilde" unicode="&#xf1;" 
d="M513 374q0 -15 -5 -40l-68 -305q-3 -15 -15 -24.5t-27 -9.5q-19 0 -32 13t-13 31q0 7 1 9l58 262q4 15 4 33q0 72 -86 72q-77 0 -147 -70l-69 -316q-3 -15 -15 -24.5t-27 -9.5q-19 0 -32 13t-13 31q0 7 1 9l90 406q3 15 15 24.5t28 9.5q18 0 30.5 -13t12.5 -31
q0 -8 -1 -10l-4 -19q85 80 168 80q69 0 107.5 -32t38.5 -89zM306 659q-36 0 -53 -65q-5 -19 -24 -19q-13 0 -20.5 10t-4.5 22q32 107 108 107q25 0 40 -10.5t32 -36.5q23 -38 48 -38q34 0 53 65q5 19 24 19q13 0 20.5 -10.5t4.5 -22.5q-31 -106 -108 -106q-25 0 -40 10.5
t-32 36.5q-23 38 -48 38z" />
    <glyph glyph-name="ograve" unicode="&#xf2;" horiz-adv-x="572" 
d="M308 495q104 0 165.5 -60t61.5 -156q2 -115 -79 -204.5t-194 -86.5q-104 0 -166 59q-60 60 -60 157q-2 115 79 204.5t193 86.5zM306 415q-73 0 -124.5 -62.5t-51.5 -144.5q0 -65 36 -102.5t99 -37.5q73 0 124.5 62.5t51.5 144.5q0 65 -36 102.5t-99 37.5zM336 582l-82 87
q-10 11 -10 24q0 14 9 23t23 9q16 0 25 -12l75 -95q8 -8 8 -18q0 -11 -8 -19.5t-19 -8.5t-21 10z" />
    <glyph glyph-name="oacute" unicode="&#xf3;" horiz-adv-x="572" 
d="M308 495q104 0 165.5 -60t61.5 -156q2 -115 -79 -204.5t-194 -86.5q-104 0 -166 59q-60 60 -60 157q-2 115 79 204.5t193 86.5zM306 415q-73 0 -124.5 -62.5t-51.5 -144.5q0 -65 36 -102.5t99 -37.5q73 0 124.5 62.5t51.5 144.5q0 65 -36 102.5t-99 37.5zM362 571
q-9 0 -16 7t-7 15q0 11 9 20l126 103q7 7 20 7q12 0 19.5 -8t7.5 -20q0 -17 -12 -24l-131 -95q-8 -5 -16 -5z" />
    <glyph glyph-name="ocircumflex" unicode="&#xf4;" horiz-adv-x="572" 
d="M308 495q104 0 165.5 -60t61.5 -156q2 -115 -79 -204.5t-194 -86.5q-104 0 -166 59q-60 60 -60 157q-2 115 79 204.5t193 86.5zM306 415q-73 0 -124.5 -62.5t-51.5 -144.5q0 -65 36 -102.5t99 -37.5q73 0 124.5 62.5t51.5 144.5q0 65 -36 102.5t-99 37.5zM437 584l-53 93
l-98 -99q-4 -7 -16 -7q-23 0 -23 23q0 9 6 15l76 87q21 24 49 24h29q29 0 38 -23l40 -88q2 -10 2 -11q0 -11 -8 -19t-19 -8q-16 0 -23 13z" />
    <glyph glyph-name="otilde" unicode="&#xf5;" horiz-adv-x="572" 
d="M308 495q104 0 165.5 -60t61.5 -156q2 -115 -79 -204.5t-194 -86.5q-104 0 -166 59q-60 60 -60 157q-2 115 79 204.5t193 86.5zM306 415q-73 0 -124.5 -62.5t-51.5 -144.5q0 -65 36 -102.5t99 -37.5q73 0 124.5 62.5t51.5 144.5q0 65 -36 102.5t-99 37.5zM311 659
q-36 0 -53 -65q-5 -19 -24 -19q-13 0 -20.5 10t-4.5 22q32 107 108 107q25 0 40 -10.5t32 -36.5q23 -38 48 -38q34 0 53 65q5 19 24 19q13 0 20.5 -10.5t4.5 -22.5q-31 -106 -108 -106q-25 0 -40 10.5t-32 36.5q-23 38 -48 38z" />
    <glyph glyph-name="odieresis" unicode="&#xf6;" horiz-adv-x="572" 
d="M308 495q104 0 165.5 -60t61.5 -156q2 -115 -79 -204.5t-194 -86.5q-104 0 -166 59q-60 60 -60 157q-2 115 79 204.5t193 86.5zM306 415q-73 0 -124.5 -62.5t-51.5 -144.5q0 -65 36 -102.5t99 -37.5q73 0 124.5 62.5t51.5 144.5q0 65 -36 102.5t-99 37.5zM219 632
q0 23 18 40.5t41 17.5q20 0 33.5 -13.5t13.5 -33.5q0 -23 -18 -40.5t-41 -17.5q-20 0 -33.5 14t-13.5 33zM427 632q0 23 18 40.5t41 17.5q20 0 33.5 -13.5t13.5 -33.5q0 -23 -18 -40.5t-41 -17.5q-20 0 -33.5 14t-13.5 33z" />
    <glyph glyph-name="divide" unicode="&#xf7;" horiz-adv-x="511" 
d="M266 519q0 22 16.5 38t38.5 16q19 0 32.5 -13.5t13.5 -32.5q0 -23 -16 -38.5t-39 -15.5q-19 0 -32.5 13.5t-13.5 32.5zM45 337q0 13 9 21.5t21 8.5h402q12 0 21 -8.5t9 -21.5t-9 -21.5t-21 -8.5h-402q-12 0 -21 8.5t-9 21.5zM184 144q0 22 16 38t38 16q19 0 32.5 -13.5
t13.5 -32.5q0 -22 -16.5 -38t-38.5 -16q-19 0 -32 13.5t-13 32.5z" />
    <glyph glyph-name="oslash" unicode="&#xf8;" horiz-adv-x="572" 
d="M535 279q2 -115 -79 -204.5t-194 -86.5q-77 0 -130 32l-49 -60q-6 -8 -16 -8q-8 0 -14 6t-6 14q0 7 5 14l48 58q-64 58 -64 160q-2 115 79 204.5t193 86.5q78 0 134 -35l51 63q8 8 16 8t14 -5.5t6 -13.5q0 -6 -6 -14l-50 -61q62 -60 62 -158zM158 115l228 278
q-32 22 -80 22q-73 0 -124.5 -62.5t-51.5 -144.5q0 -58 28 -93zM441 275q0 53 -26 91l-227 -278q32 -20 77 -20q73 0 124.5 62.5t51.5 144.5z" />
    <glyph glyph-name="ugrave" unicode="&#xf9;" 
d="M531 444q0 -7 -1 -9l-90 -406q-3 -15 -15 -24.5t-27 -9.5q-19 0 -31.5 13t-12.5 31q0 8 1 10l4 19q-85 -80 -168 -80q-67 0 -106 31.5t-39 87.5q0 14 5 42l67 305q3 15 15 24.5t28 9.5q19 0 31.5 -13t12.5 -31q0 -7 -1 -9l-58 -262q-4 -15 -4 -33q0 -72 87 -72
q76 0 146 70l69 316q3 15 15 24.5t28 9.5q19 0 31.5 -13t12.5 -31zM331 582l-82 87q-10 11 -10 24q0 14 9 23t23 9q16 0 25 -12l75 -95q8 -8 8 -18q0 -11 -8 -19.5t-19 -8.5t-21 10z" />
    <glyph glyph-name="uacute" unicode="&#xfa;" 
d="M531 444q0 -7 -1 -9l-90 -406q-3 -15 -15 -24.5t-27 -9.5q-19 0 -31.5 13t-12.5 31q0 8 1 10l4 19q-85 -80 -168 -80q-67 0 -106 31.5t-39 87.5q0 14 5 42l67 305q3 15 15 24.5t28 9.5q19 0 31.5 -13t12.5 -31q0 -7 -1 -9l-58 -262q-4 -15 -4 -33q0 -72 87 -72
q76 0 146 70l69 316q3 15 15 24.5t28 9.5q19 0 31.5 -13t12.5 -31zM356 571q-9 0 -16 7t-7 15q0 11 9 20l126 103q7 7 20 7q12 0 19.5 -8t7.5 -20q0 -17 -12 -24l-131 -95q-8 -5 -16 -5z" />
    <glyph glyph-name="ucircumflex" unicode="&#xfb;" 
d="M531 444q0 -7 -1 -9l-90 -406q-3 -15 -15 -24.5t-27 -9.5q-19 0 -31.5 13t-12.5 31q0 8 1 10l4 19q-85 -80 -168 -80q-67 0 -106 31.5t-39 87.5q0 14 5 42l67 305q3 15 15 24.5t28 9.5q19 0 31.5 -13t12.5 -31q0 -7 -1 -9l-58 -262q-4 -15 -4 -33q0 -72 87 -72
q76 0 146 70l69 316q3 15 15 24.5t28 9.5q19 0 31.5 -13t12.5 -31zM431 584l-53 93l-98 -99q-4 -7 -16 -7q-23 0 -23 23q0 9 6 15l76 87q21 24 49 24h29q29 0 38 -23l40 -88q2 -10 2 -11q0 -11 -8 -19t-19 -8q-16 0 -23 13z" />
    <glyph glyph-name="udieresis" unicode="&#xfc;" 
d="M531 444q0 -7 -1 -9l-90 -406q-3 -15 -15 -24.5t-27 -9.5q-19 0 -31.5 13t-12.5 31q0 8 1 10l4 19q-85 -80 -168 -80q-67 0 -106 31.5t-39 87.5q0 14 5 42l67 305q3 15 15 24.5t28 9.5q19 0 31.5 -13t12.5 -31q0 -7 -1 -9l-58 -262q-4 -15 -4 -33q0 -72 87 -72
q76 0 146 70l69 316q3 15 15 24.5t28 9.5q19 0 31.5 -13t12.5 -31zM214 632q0 23 18 40.5t41 17.5q20 0 33.5 -13.5t13.5 -33.5q0 -23 -18 -40.5t-41 -17.5q-20 0 -33.5 14t-13.5 33zM422 632q0 23 18 40.5t41 17.5q20 0 33.5 -13.5t13.5 -33.5q0 -23 -18 -40.5t-41 -17.5
q-20 0 -33.5 14t-13.5 33z" />
    <glyph glyph-name="yacute" unicode="&#xfd;" horiz-adv-x="497" 
d="M5 -112q4 0 13 -1t14 -1q37 0 68 45l43 66l-81 437q-4 20 10 37t36 17q17 0 29.5 -11t15.5 -27l60 -346l226 364q11 20 37 20q18 0 30 -12.5t12 -30.5q0 -12 -7 -22l-328 -515q-36 -55 -73 -79.5t-88 -24.5q-11 0 -21 2q-16 2 -27 13.5t-11 26.5q0 18 12.5 30t29.5 12z
M325 571q-9 0 -16 7t-7 15q0 11 9 20l126 103q7 7 20 7q12 0 19.5 -8t7.5 -20q0 -17 -12 -24l-131 -95q-8 -5 -16 -5z" />
    <glyph glyph-name="thorn" unicode="&#xfe;" horiz-adv-x="575" 
d="M123 73l-50 -228q-3 -15 -15 -24.5t-27 -9.5q-19 0 -32 13t-13 31q0 7 1 9l171 774q3 15 15 24.5t28 9.5q18 0 30.5 -12.5t12.5 -30.5q0 -8 -1 -10l-44 -203q64 79 156 79q85 0 135.5 -53.5t50.5 -146.5q2 -120 -71 -214.5t-183 -92.5q-53 0 -96 22.5t-68 62.5zM320 415
q-40 0 -76.5 -21t-61.5 -55l-44 -200q40 -71 137 -71q73 0 122 63t49 147q0 62 -35 99.5t-91 37.5z" />
    <glyph glyph-name="ydieresis" unicode="&#xff;" horiz-adv-x="497" 
d="M5 -112q4 0 13 -1t14 -1q37 0 68 45l43 66l-81 437q-4 20 10 37t36 17q17 0 29.5 -11t15.5 -27l60 -346l226 364q11 20 37 20q18 0 30 -12.5t12 -30.5q0 -12 -7 -22l-328 -515q-36 -55 -73 -79.5t-88 -24.5q-11 0 -21 2q-16 2 -27 13.5t-11 26.5q0 18 12.5 30t29.5 12z
M182 632q0 23 18 40.5t41 17.5q20 0 33.5 -13.5t13.5 -33.5q0 -23 -18 -40.5t-41 -17.5q-20 0 -33.5 14t-13.5 33zM390 632q0 23 18 40.5t41 17.5q20 0 33.5 -13.5t13.5 -33.5q0 -23 -18 -40.5t-41 -17.5q-20 0 -33.5 14t-13.5 33z" />
    <glyph glyph-name="Amacron" unicode="&#x100;" horiz-adv-x="666" 
d="M596 55l1 -8q0 -22 -15 -37t-36 -15q-19 0 -33.5 12t-17.5 31l-16 100h-331l-71 -119q-13 -24 -42 -24q-20 0 -34.5 14.5t-14.5 34.5q0 8 8 26l347 561q25 41 73 41q32 0 56 -20.5t29 -50.5zM202 227h264l-55 350zM288 763q0 12 8 20t19 8h269q11 0 19.5 -8t8.5 -19
q0 -12 -8.5 -20t-19.5 -8h-269q-11 0 -19 8t-8 19z" />
    <glyph glyph-name="amacron" unicode="&#x101;" horiz-adv-x="578" 
d="M550 444q0 -7 -1 -9l-90 -406q-3 -15 -15 -24.5t-28 -9.5q-19 0 -31.5 13t-12.5 31q0 7 1 9l5 19q-64 -79 -156 -79q-85 0 -135.5 53t-50.5 146q-2 121 71 215.5t183 92.5q53 0 96 -22.5t67 -61.5l10 43q9 34 43 34q19 0 31.5 -13t12.5 -31zM394 143l45 200
q-18 33 -54.5 52.5t-82.5 19.5q-73 0 -122 -63t-49 -148q0 -62 34.5 -99t91.5 -37q39 0 76 21t61 54zM215 616q0 12 8 20t19 8h269q11 0 19.5 -8t8.5 -19q0 -12 -8.5 -20t-19.5 -8h-269q-11 0 -19 8t-8 19z" />
    <glyph glyph-name="Abreve" unicode="&#x102;" horiz-adv-x="666" 
d="M596 55l1 -8q0 -22 -15 -37t-36 -15q-19 0 -33.5 12t-17.5 31l-16 100h-331l-71 -119q-13 -24 -42 -24q-20 0 -34.5 14.5t-14.5 34.5q0 8 8 26l347 561q25 41 73 41q32 0 56 -20.5t29 -50.5zM202 227h264l-55 350zM298 785q-7 8 -7 19q0 12 9 21t21 9q13 0 24 -11
q37 -49 105 -49q73 0 134 56q6 6 17 6t18.5 -7.5t7.5 -18.5q0 -10 -9 -18q-82 -73 -178 -73q-91 0 -142 66z" />
    <glyph glyph-name="abreve" unicode="&#x103;" horiz-adv-x="578" 
d="M550 444q0 -7 -1 -9l-90 -406q-3 -15 -15 -24.5t-28 -9.5q-19 0 -31.5 13t-12.5 31q0 7 1 9l5 19q-64 -79 -156 -79q-85 0 -135.5 53t-50.5 146q-2 121 71 215.5t183 92.5q53 0 96 -22.5t67 -61.5l10 43q9 34 43 34q19 0 31.5 -13t12.5 -31zM394 143l45 200
q-18 33 -54.5 52.5t-82.5 19.5q-73 0 -122 -63t-49 -148q0 -62 34.5 -99t91.5 -37q39 0 76 21t61 54zM225 638q-7 8 -7 19q0 12 9 21t21 9q13 0 24 -11q37 -49 105 -49q73 0 134 56q6 6 17 6t18.5 -7.5t7.5 -18.5t-9 -18q-82 -73 -178 -73q-91 0 -142 66z" />
    <glyph glyph-name="Aogonek" unicode="&#x104;" horiz-adv-x="666" 
d="M479 -97q0 -27 31 -27l13 1q12 2 22 -6t10 -21q0 -9 -6 -17t-15 -10q-27 -9 -58 -9q-40 0 -64 16.5t-24 43.5q0 38 38.5 72t97.5 54q-24 11 -29 38l-16 100h-331l-71 -119q-13 -24 -42 -24q-20 0 -34.5 14.5t-14.5 34.5q0 8 8 26l347 561q25 41 73 41q32 0 56 -20.5
t29 -50.5l97 -546q3 -19 -7 -35.5t-27 -21.5q-83 -54 -83 -95zM202 227h264l-55 350z" />
    <glyph glyph-name="aogonek" unicode="&#x105;" horiz-adv-x="578" 
d="M550 444q0 -7 -1 -9l-90 -406q-5 -25 -30 -32q-82 -52 -82 -94q0 -27 32 -27l12 1q13 2 22.5 -6t9.5 -21q0 -22 -20 -27q-29 -9 -59 -9q-40 0 -63.5 16.5t-23.5 43.5q0 40 38 73t100 54q-23 12 -23 38q0 7 1 9l5 19q-64 -79 -156 -79q-85 0 -135.5 53t-50.5 146
q-2 121 71 215.5t183 92.5q53 0 96 -22.5t67 -61.5l10 43q9 34 43 34q19 0 31.5 -13t12.5 -31zM394 143l45 200q-18 33 -54.5 52.5t-82.5 19.5q-73 0 -122 -63t-49 -148q0 -62 34.5 -99t91.5 -37q39 0 76 21t61 54z" />
    <glyph glyph-name="Cacute" unicode="&#x106;" horiz-adv-x="663" 
d="M434 678q162 0 249 -114q9 -14 9 -30q0 -22 -14.5 -36.5t-35.5 -14.5q-27 0 -41 22q-59 84 -172 84q-107 2 -189 -86.5t-80 -214.5q0 -94 59 -152.5t156 -58.5q79 0 150 56q14 11 29 11q20 0 33.5 -13.5t13.5 -32.5q0 -20 -18 -36q-93 -74 -214 -74q-134 -2 -224.5 81.5
t-88.5 212.5q-2 112 51.5 204.5t141 142.5t185.5 49zM488 718q-9 0 -16 7t-7 15q0 11 9 20l126 103q7 7 20 7q12 0 19.5 -8t7.5 -20q0 -16 -12 -24l-131 -95q-8 -5 -16 -5z" />
    <glyph glyph-name="cacute" unicode="&#x107;" horiz-adv-x="496" 
d="M311 495q100 0 157 -57q14 -12 14 -32q0 -17 -13 -29.5t-30 -12.5t-30 12q-36 39 -97 39q-80 0 -131.5 -61t-51.5 -147q0 -65 39.5 -102t103.5 -37q51 0 92 33q10 8 24 8q16 0 27.5 -11.5t11.5 -27.5q0 -20 -16 -32q-65 -50 -148 -50q-101 0 -163.5 59t-62.5 158
q-2 117 80 205t194 85zM362 571q-9 0 -16 7t-7 15q0 11 9 20l126 103q7 7 20 7q12 0 19.5 -8t7.5 -20q0 -17 -12 -24l-131 -95q-8 -5 -16 -5z" />
    <glyph glyph-name="Ccircumflex" unicode="&#x108;" horiz-adv-x="663" 
d="M434 678q162 0 249 -114q9 -14 9 -30q0 -22 -14.5 -36.5t-35.5 -14.5q-27 0 -41 22q-59 84 -172 84q-107 2 -189 -86.5t-80 -214.5q0 -94 59 -152.5t156 -58.5q79 0 150 56q14 11 29 11q20 0 33.5 -13.5t13.5 -32.5q0 -20 -18 -36q-93 -74 -214 -74q-134 -2 -224.5 81.5
t-88.5 212.5q-2 112 51.5 204.5t141 142.5t185.5 49zM563 731l-53 93l-98 -99q-4 -7 -16 -7q-23 0 -23 23q0 9 6 15l76 87q21 24 49 24h29q29 0 38 -23l40 -88q2 -10 2 -11q0 -11 -8 -19t-19 -8q-16 0 -23 13z" />
    <glyph glyph-name="ccircumflex" unicode="&#x109;" horiz-adv-x="496" 
d="M311 495q100 0 157 -57q14 -12 14 -32q0 -17 -13 -29.5t-30 -12.5t-30 12q-36 39 -97 39q-80 0 -131.5 -61t-51.5 -147q0 -65 39.5 -102t103.5 -37q51 0 92 33q10 8 24 8q16 0 27.5 -11.5t11.5 -27.5q0 -20 -16 -32q-65 -50 -148 -50q-101 0 -163.5 59t-62.5 158
q-2 117 80 205t194 85zM437 584l-53 93l-98 -99q-4 -7 -16 -7q-23 0 -23 23q0 9 6 15l76 87q21 24 49 24h29q29 0 38 -23l40 -88q2 -10 2 -11q0 -11 -8 -19t-19 -8q-16 0 -23 13z" />
    <glyph glyph-name="Cdotaccent" unicode="&#x10a;" horiz-adv-x="663" 
d="M434 678q162 0 249 -114q9 -14 9 -30q0 -22 -14.5 -36.5t-35.5 -14.5q-27 0 -41 22q-59 84 -172 84q-107 2 -189 -86.5t-80 -214.5q0 -94 59 -152.5t156 -58.5q79 0 150 56q14 11 29 11q20 0 33.5 -13.5t13.5 -32.5q0 -20 -18 -36q-93 -74 -214 -74q-134 -2 -224.5 81.5
t-88.5 212.5q-2 112 51.5 204.5t141 142.5t185.5 49zM446 777q0 24 17.5 42t41.5 18q20 0 34 -14t14 -34q0 -24 -18 -41t-42 -17q-20 0 -33.5 13t-13.5 33z" />
    <glyph glyph-name="cdotaccent" unicode="&#x10b;" horiz-adv-x="496" 
d="M311 495q100 0 157 -57q14 -12 14 -32q0 -17 -13 -29.5t-30 -12.5t-30 12q-36 39 -97 39q-80 0 -131.5 -61t-51.5 -147q0 -65 39.5 -102t103.5 -37q51 0 92 33q10 8 24 8q16 0 27.5 -11.5t11.5 -27.5q0 -20 -16 -32q-65 -50 -148 -50q-101 0 -163.5 59t-62.5 158
q-2 117 80 205t194 85zM320 630q0 24 17.5 42t41.5 18q20 0 34 -14t14 -34q0 -24 -18 -41t-42 -17q-20 0 -33.5 13t-13.5 33z" />
    <glyph glyph-name="Ccaron" unicode="&#x10c;" horiz-adv-x="663" 
d="M434 678q162 0 249 -114q9 -14 9 -30q0 -22 -14.5 -36.5t-35.5 -14.5q-27 0 -41 22q-59 84 -172 84q-107 2 -189 -86.5t-80 -214.5q0 -94 59 -152.5t156 -58.5q79 0 150 56q14 11 29 11q20 0 33.5 -13.5t13.5 -32.5q0 -20 -18 -36q-93 -74 -214 -74q-134 -2 -224.5 81.5
t-88.5 212.5q-2 112 51.5 204.5t141 142.5t185.5 49zM441 859l53 -93l98 99q4 7 16 7q23 0 23 -23q0 -9 -6 -15l-76 -87q-21 -24 -49 -24h-29q-29 0 -38 23l-40 88q-2 10 -2 11q0 11 8 19t19 8q16 0 23 -13z" />
    <glyph glyph-name="ccaron" unicode="&#x10d;" horiz-adv-x="496" 
d="M311 495q100 0 157 -57q14 -12 14 -32q0 -17 -13 -29.5t-30 -12.5t-30 12q-36 39 -97 39q-80 0 -131.5 -61t-51.5 -147q0 -65 39.5 -102t103.5 -37q51 0 92 33q10 8 24 8q16 0 27.5 -11.5t11.5 -27.5q0 -20 -16 -32q-65 -50 -148 -50q-101 0 -163.5 59t-62.5 158
q-2 117 80 205t194 85zM315 712l53 -93l98 99q4 7 16 7q23 0 23 -23q0 -9 -6 -15l-76 -87q-21 -24 -49 -24h-29q-29 0 -38 23l-40 88q-2 10 -2 11q0 11 8 19t19 8q16 0 23 -13z" />
    <glyph glyph-name="Dcaron" unicode="&#x10e;" horiz-adv-x="705" 
d="M31 43q0 1 2 15l124 562q11 47 58 47h185q113 2 198.5 -81.5t82.5 -203.5q1 -72 -26 -140t-78 -123t-134.5 -87.5t-185.5 -31.5h-177q-49 0 -49 43zM576 376q0 86 -55.5 144.5t-138.5 58.5h-134l-109 -491h136q132 -2 217.5 83.5t83.5 204.5zM415 859l53 -93l98 99
q4 7 16 7q23 0 23 -23q0 -9 -6 -15l-76 -87q-21 -24 -49 -24h-29q-29 0 -38 23l-40 88q-2 10 -2 11q0 11 8 19t19 8q16 0 23 -13z" />
    <glyph glyph-name="dcaron" unicode="&#x10f;" horiz-adv-x="657" 
d="M590 629q0 -8 -1 -10l-130 -590q-3 -15 -15 -24.5t-28 -9.5q-19 0 -31.5 13t-12.5 31q0 7 1 9l5 19q-64 -79 -156 -79q-85 0 -135.5 53t-50.5 146q-2 121 71 215.5t183 92.5q53 0 96 -22.5t68 -62.5l50 228q3 15 15 24.5t27 9.5q19 0 31.5 -12.5t12.5 -30.5zM394 143
l45 200q-18 33 -54.5 52.5t-82.5 19.5q-73 0 -122 -63t-49 -148q0 -62 34.5 -99t91.5 -37q39 0 76 21t61 54zM635 479q-9 0 -15 6.5t-6 13.5q0 11 9 17q47 29 59 65h-7q-16 0 -28 12.5t-12 30.5q0 22 17 38.5t40 16.5q21 0 35 -15t14 -39q0 -38 -26 -76.5t-65 -64.5
q-8 -5 -15 -5z" />
    <glyph glyph-name="Dcroat" unicode="&#x110;" horiz-adv-x="732" 
d="M708 382q1 -72 -26 -140t-78 -123t-134.5 -87.5t-185.5 -31.5h-177q-49 0 -49 43q0 1 2 15l52 235h-46q-17 0 -29 12t-12 29t12 29t29 12h64l54 245q11 47 58 47h185q113 2 198.5 -81.5t82.5 -203.5zM603 376q0 86 -55.5 144.5t-138.5 58.5h-134l-45 -204h117
q17 0 29 -12.5t12 -29.5t-12 -28.5t-29 -11.5h-135l-46 -205h136q132 -2 217.5 83.5t83.5 204.5z" />
    <glyph glyph-name="dslash" unicode="&#x111;" horiz-adv-x="582" 
d="M634 561q0 -12 -8 -20t-19 -8h-37l-111 -504q-3 -15 -15 -24.5t-28 -9.5q-19 0 -31.5 13t-12.5 31q0 7 1 9l5 19q-64 -79 -156 -79q-85 0 -135.5 53t-50.5 146q-2 121 71 215.5t183 92.5q53 0 96 -22.5t68 -62.5l27 123h-136q-11 0 -19 8t-8 19q0 12 8 20t19 8h148l11 50
q3 15 15 24.5t27 9.5q19 0 31.5 -12.5t12.5 -30.5q0 -8 -1 -10l-7 -31h25q11 0 19 -8t8 -19zM394 143l45 200q-18 33 -54.5 52.5t-82.5 19.5q-73 0 -122 -63t-49 -148q0 -62 34.5 -99t91.5 -37q39 0 76 21t61 54z" />
    <glyph glyph-name="Emacron" unicode="&#x112;" horiz-adv-x="573" 
d="M31 43q0 1 2 15l124 562q11 47 58 47h350q18 0 31 -13t13 -32q0 -18 -13 -30.5t-31 -12.5h-317l-43 -195h290q18 0 31 -12.5t13 -31.5q0 -18 -13 -31t-31 -13h-310l-46 -208h298q18 0 31 -12.5t13 -30.5q0 -19 -13 -32t-31 -13h-357q-49 0 -49 43zM259 763q0 12 8 20
t19 8h269q11 0 19.5 -8t8.5 -19q0 -12 -8.5 -20t-19.5 -8h-269q-11 0 -19 8t-8 19z" />
    <glyph glyph-name="emacron" unicode="&#x113;" horiz-adv-x="560" 
d="M310 495q94 0 152.5 -59t58.5 -154q0 -11 -2 -21q-2 -49 -55 -49h-335q-2 -16 -2 -20q0 -53 42 -91.5t114 -38.5q56 0 108 28q6 3 15 3q14 0 24.5 -10t10.5 -25q0 -20 -18 -30q-70 -40 -146 -40q-111 0 -175.5 58t-64.5 157q-2 118 79 206t194 86zM440 293
q0 57 -36.5 92.5t-100.5 35.5q-59 0 -106.5 -43t-58.5 -101h301q1 2 1 16zM207 616q0 12 8 20t19 8h269q11 0 19.5 -8t8.5 -19q0 -12 -8.5 -20t-19.5 -8h-269q-11 0 -19 8t-8 19z" />
    <glyph glyph-name="Ebreve" unicode="&#x114;" horiz-adv-x="573" 
d="M31 43q0 1 2 15l124 562q11 47 58 47h350q18 0 31 -13t13 -32q0 -18 -13 -30.5t-31 -12.5h-317l-43 -195h290q18 0 31 -12.5t13 -31.5q0 -18 -13 -31t-31 -13h-310l-46 -208h298q18 0 31 -12.5t13 -30.5q0 -19 -13 -32t-31 -13h-357q-49 0 -49 43zM269 785q-7 8 -7 19
q0 12 9 21t21 9q13 0 24 -11q37 -49 105 -49q73 0 134 56q6 6 17 6t18.5 -7.5t7.5 -18.5q0 -10 -9 -18q-82 -73 -178 -73q-91 0 -142 66z" />
    <glyph glyph-name="ebreve" unicode="&#x115;" horiz-adv-x="560" 
d="M310 495q94 0 152.5 -59t58.5 -154q0 -11 -2 -21q-2 -49 -55 -49h-335q-2 -16 -2 -20q0 -53 42 -91.5t114 -38.5q56 0 108 28q6 3 15 3q14 0 24.5 -10t10.5 -25q0 -20 -18 -30q-70 -40 -146 -40q-111 0 -175.5 58t-64.5 157q-2 118 79 206t194 86zM440 293
q0 57 -36.5 92.5t-100.5 35.5q-59 0 -106.5 -43t-58.5 -101h301q1 2 1 16zM217 638q-7 8 -7 19q0 12 9 21t21 9q13 0 24 -11q37 -49 105 -49q73 0 134 56q6 6 17 6t18.5 -7.5t7.5 -18.5t-9 -18q-82 -73 -178 -73q-91 0 -142 66z" />
    <glyph glyph-name="Edotaccent" unicode="&#x116;" horiz-adv-x="573" 
d="M31 43q0 1 2 15l124 562q11 47 58 47h350q18 0 31 -13t13 -32q0 -18 -13 -30.5t-31 -12.5h-317l-43 -195h290q18 0 31 -12.5t13 -31.5q0 -18 -13 -31t-31 -13h-310l-46 -208h298q18 0 31 -12.5t13 -30.5q0 -19 -13 -32t-31 -13h-357q-49 0 -49 43zM370 777q0 24 17.5 42
t41.5 18q20 0 34 -14t14 -34q0 -24 -18 -41t-42 -17q-20 0 -33.5 13t-13.5 33z" />
    <glyph glyph-name="edotaccent" unicode="&#x117;" horiz-adv-x="560" 
d="M310 495q94 0 152.5 -59t58.5 -154q0 -11 -2 -21q-2 -49 -55 -49h-335q-2 -16 -2 -20q0 -53 42 -91.5t114 -38.5q56 0 108 28q6 3 15 3q14 0 24.5 -10t10.5 -25q0 -20 -18 -30q-70 -40 -146 -40q-111 0 -175.5 58t-64.5 157q-2 118 79 206t194 86zM440 293
q0 57 -36.5 92.5t-100.5 35.5q-59 0 -106.5 -43t-58.5 -101h301q1 2 1 16zM318 630q0 24 17.5 42t41.5 18q20 0 34 -14t14 -34q0 -24 -18 -41t-42 -17q-20 0 -33.5 13t-13.5 33z" />
    <glyph glyph-name="Eogonek" unicode="&#x118;" horiz-adv-x="573" 
d="M609 622q0 -18 -13 -30.5t-31 -12.5h-317l-43 -195h290q18 0 31 -12.5t13 -31.5q0 -18 -13 -31t-31 -13h-310l-46 -208h298q18 0 31 -12.5t13 -30.5t-11.5 -30.5t-29.5 -14.5q-87 -54 -87 -97q0 -27 32 -27l12 1q13 2 22.5 -6t9.5 -21q0 -22 -20 -27q-29 -9 -59 -9
q-40 0 -63.5 16.5t-23.5 43.5q0 40 38 73t98 53h-319q-49 0 -49 43q0 1 2 15l124 562q11 47 58 47h350q18 0 31 -13t13 -32z" />
    <glyph glyph-name="eogonek" unicode="&#x119;" horiz-adv-x="560" 
d="M316 -9q-20 -3 -39 -3q-111 0 -175.5 58t-64.5 157q-2 118 79 206t194 86q94 0 152.5 -59t58.5 -154q0 -11 -2 -21q-2 -49 -55 -49h-335q-2 -16 -2 -20q0 -53 42 -91.5t114 -38.5q60 0 107 28q8 3 16 3q14 0 24.5 -10.5t10.5 -25.5q0 -17 -15 -29q-65 -44 -92 -70.5
t-31 -49.5q-2 -14 6.5 -23t24.5 -9l12 1q13 1 23 -7t10 -20q0 -9 -6 -17t-15 -10q-27 -9 -59 -9q-38 0 -62 16t-24 44q0 34 28.5 66t74.5 51zM440 293q0 57 -36.5 92.5t-100.5 35.5q-59 0 -106.5 -43t-58.5 -101h301q1 2 1 16z" />
    <glyph glyph-name="Ecaron" unicode="&#x11a;" horiz-adv-x="573" 
d="M31 43q0 1 2 15l124 562q11 47 58 47h350q18 0 31 -13t13 -32q0 -18 -13 -30.5t-31 -12.5h-317l-43 -195h290q18 0 31 -12.5t13 -31.5q0 -18 -13 -31t-31 -13h-310l-46 -208h298q18 0 31 -12.5t13 -30.5q0 -19 -13 -32t-31 -13h-357q-49 0 -49 43zM365 859l53 -93l98 99
q4 7 16 7q23 0 23 -23q0 -9 -6 -15l-76 -87q-21 -24 -49 -24h-29q-29 0 -38 23l-40 88q-2 10 -2 11q0 11 8 19t19 8q16 0 23 -13z" />
    <glyph glyph-name="ecaron" unicode="&#x11b;" horiz-adv-x="560" 
d="M310 495q94 0 152.5 -59t58.5 -154q0 -11 -2 -21q-2 -49 -55 -49h-335q-2 -16 -2 -20q0 -53 42 -91.5t114 -38.5q56 0 108 28q6 3 15 3q14 0 24.5 -10t10.5 -25q0 -20 -18 -30q-70 -40 -146 -40q-111 0 -175.5 58t-64.5 157q-2 118 79 206t194 86zM440 293
q0 57 -36.5 92.5t-100.5 35.5q-59 0 -106.5 -43t-58.5 -101h301q1 2 1 16zM313 712l53 -93l98 99q4 7 16 7q23 0 23 -23q0 -9 -6 -15l-76 -87q-21 -24 -49 -24h-29q-29 0 -38 23l-40 88q-2 10 -2 11q0 11 8 19t19 8q16 0 23 -13z" />
    <glyph glyph-name="Gcircumflex" unicode="&#x11c;" horiz-adv-x="715" 
d="M673 307q0 -12 -1 -15l-35 -156q-7 -36 -33 -59q-101 -89 -235 -89q-135 -2 -225 81.5t-88 212.5q-3 166 111 282.5t275 113.5q147 0 234 -103q11 -14 11 -31q0 -20 -14 -35t-34 -15q-24 0 -39 18q-61 77 -171 77q-106 2 -188.5 -87.5t-80.5 -213.5q0 -94 59 -152.5
t156 -58.5q90 0 163 65l26 120h-164q-18 0 -30.5 13t-12.5 31q0 19 12.5 31.5t30.5 12.5h224q49 0 49 -43zM569 731l-53 93l-98 -99q-4 -7 -16 -7q-23 0 -23 23q0 9 6 15l76 87q21 24 49 24h29q29 0 38 -23l40 -88q2 -10 2 -11q0 -11 -8 -19t-19 -8q-16 0 -23 13z" />
    <glyph glyph-name="gcircumflex" unicode="&#x11d;" horiz-adv-x="577" 
d="M548 444q0 -8 -1 -10l-92 -415q-23 -111 -86.5 -163t-156.5 -52q-124 0 -193 56q-16 13 -16 32q0 17 12 28.5t28 11.5q14 0 25 -8q52 -46 142 -46q125 0 155 141l13 58q-63 -79 -159 -79q-83 0 -133 51.5t-50 147.5q-2 117 70 209t181 89q47 0 93 -23.5t72 -61.5l10 44
q3 14 15 24t28 10q18 0 30.5 -13t12.5 -31zM394 149l43 191q-19 35 -57 55t-84 20q-72 0 -119.5 -61t-47.5 -142q0 -62 35 -98.5t94 -36.5q36 0 73.5 20t62.5 52zM442 584l-53 93l-98 -99q-4 -7 -16 -7q-23 0 -23 23q0 9 6 15l76 87q21 24 49 24h29q29 0 38 -23l40 -88
q2 -10 2 -11q0 -11 -8 -19t-19 -8q-16 0 -23 13z" />
    <glyph glyph-name="Gbreve" unicode="&#x11e;" horiz-adv-x="715" 
d="M673 307q0 -12 -1 -15l-35 -156q-7 -36 -33 -59q-101 -89 -235 -89q-135 -2 -225 81.5t-88 212.5q-3 166 111 282.5t275 113.5q147 0 234 -103q11 -14 11 -31q0 -20 -14 -35t-34 -15q-24 0 -39 18q-61 77 -171 77q-106 2 -188.5 -87.5t-80.5 -213.5q0 -94 59 -152.5
t156 -58.5q90 0 163 65l26 120h-164q-18 0 -30.5 13t-12.5 31q0 19 12.5 31.5t30.5 12.5h224q49 0 49 -43zM351 785q-7 8 -7 19q0 12 9 21t21 9q13 0 24 -11q37 -49 105 -49q73 0 134 56q6 6 17 6t18.5 -7.5t7.5 -18.5q0 -10 -9 -18q-82 -73 -178 -73q-91 0 -142 66z" />
    <glyph glyph-name="gbreve" unicode="&#x11f;" horiz-adv-x="577" 
d="M548 444q0 -8 -1 -10l-92 -415q-23 -111 -86.5 -163t-156.5 -52q-124 0 -193 56q-16 13 -16 32q0 17 12 28.5t28 11.5q14 0 25 -8q52 -46 142 -46q125 0 155 141l13 58q-63 -79 -159 -79q-83 0 -133 51.5t-50 147.5q-2 117 70 209t181 89q47 0 93 -23.5t72 -61.5l10 44
q3 14 15 24t28 10q18 0 30.5 -13t12.5 -31zM394 149l43 191q-19 35 -57 55t-84 20q-72 0 -119.5 -61t-47.5 -142q0 -62 35 -98.5t94 -36.5q36 0 73.5 20t62.5 52zM225 638q-7 8 -7 19q0 12 9 21t21 9q13 0 24 -11q37 -49 105 -49q73 0 134 56q6 6 17 6t18.5 -7.5t7.5 -18.5
t-9 -18q-82 -73 -178 -73q-91 0 -142 66z" />
    <glyph glyph-name="Gdotaccent" unicode="&#x120;" horiz-adv-x="715" 
d="M673 307q0 -12 -1 -15l-35 -156q-7 -36 -33 -59q-101 -89 -235 -89q-135 -2 -225 81.5t-88 212.5q-3 166 111 282.5t275 113.5q147 0 234 -103q11 -14 11 -31q0 -20 -14 -35t-34 -15q-24 0 -39 18q-61 77 -171 77q-106 2 -188.5 -87.5t-80.5 -213.5q0 -94 59 -152.5
t156 -58.5q90 0 163 65l26 120h-164q-18 0 -30.5 13t-12.5 31q0 19 12.5 31.5t30.5 12.5h224q49 0 49 -43zM451 777q0 24 17.5 42t41.5 18q20 0 34 -14t14 -34q0 -24 -18 -41t-42 -17q-20 0 -33.5 13t-13.5 33z" />
    <glyph glyph-name="gdotaccent" unicode="&#x121;" horiz-adv-x="577" 
d="M548 444q0 -8 -1 -10l-92 -415q-23 -111 -86.5 -163t-156.5 -52q-124 0 -193 56q-16 13 -16 32q0 17 12 28.5t28 11.5q14 0 25 -8q52 -46 142 -46q125 0 155 141l13 58q-63 -79 -159 -79q-83 0 -133 51.5t-50 147.5q-2 117 70 209t181 89q47 0 93 -23.5t72 -61.5l10 44
q3 14 15 24t28 10q18 0 30.5 -13t12.5 -31zM394 149l43 191q-19 35 -57 55t-84 20q-72 0 -119.5 -61t-47.5 -142q0 -62 35 -98.5t94 -36.5q36 0 73.5 20t62.5 52zM325 630q0 24 17.5 42t41.5 18q20 0 34 -14t14 -34q0 -24 -18 -41t-42 -17q-20 0 -33.5 13t-13.5 33z" />
    <glyph glyph-name="uni0122" unicode="&#x122;" horiz-adv-x="715" 
d="M673 307q0 -12 -1 -15l-35 -156q-7 -36 -33 -59q-101 -89 -235 -89q-135 -2 -225 81.5t-88 212.5q-3 166 111 282.5t275 113.5q147 0 234 -103q11 -14 11 -31q0 -20 -14 -35t-34 -15q-24 0 -39 18q-61 77 -171 77q-106 2 -188.5 -87.5t-80.5 -213.5q0 -94 59 -152.5
t156 -58.5q90 0 163 65l26 120h-164q-18 0 -30.5 13t-12.5 31q0 19 12.5 31.5t30.5 12.5h224q49 0 49 -43zM252 -267q-9 0 -15 6.5t-6 13.5q0 11 9 17q47 29 59 65h-7q-16 0 -28 12.5t-12 30.5q0 22 17 38.5t40 16.5q21 0 35 -15t14 -39q0 -38 -26 -76.5t-65 -64.5
q-8 -5 -15 -5z" />
    <glyph glyph-name="uni0123" unicode="&#x123;" horiz-adv-x="577" 
d="M312 617q0 38 26 76.5t66 64.5q7 5 15 5t14.5 -6.5t6.5 -13.5q0 -11 -10 -17q-47 -29 -59 -65h8q16 0 27.5 -12t11.5 -30q0 -23 -17 -39.5t-39 -16.5q-21 0 -35.5 15t-14.5 39zM548 444q0 -8 -1 -10l-92 -415q-23 -111 -86.5 -163t-156.5 -52q-124 0 -193 56
q-16 13 -16 32q0 17 12 28.5t28 11.5q14 0 25 -8q52 -46 142 -46q125 0 155 141l13 58q-63 -79 -159 -79q-83 0 -133 51.5t-50 147.5q-2 117 70 209t181 89q47 0 93 -23.5t72 -61.5l10 44q3 14 15 24t28 10q18 0 30.5 -13t12.5 -31zM394 149l43 191q-19 35 -57 55t-84 20
q-72 0 -119.5 -61t-47.5 -142q0 -62 35 -98.5t94 -36.5q36 0 73.5 20t62.5 52z" />
    <glyph glyph-name="Hcircumflex" unicode="&#x124;" horiz-adv-x="717" 
d="M500 44q0 8 1 11l54 243h-369l-58 -265q-4 -16 -17.5 -27t-30.5 -11q-21 0 -35 14.5t-14 35.5q0 8 1 10l128 579q4 16 17 27t31 11q19 0 33.5 -14.5t14.5 -34.5q0 -8 -1 -11l-49 -225h368l54 247q4 16 17.5 27t30.5 11q20 0 34.5 -14.5t14.5 -34.5q0 -8 -1 -11l-127 -579
q-4 -16 -17.5 -27t-30.5 -11q-20 0 -34.5 14.5t-14.5 34.5zM542 731l-53 93l-98 -99q-4 -7 -16 -7q-23 0 -23 23q0 9 6 15l76 87q21 24 49 24h29q29 0 38 -23l40 -88q2 -10 2 -11q0 -11 -8 -19t-19 -8q-16 0 -23 13z" />
    <glyph glyph-name="hcircumflex" unicode="&#x125;" horiz-adv-x="560" 
d="M354 39q0 7 1 9l57 262q5 22 5 32q0 36 -25.5 54.5t-69.5 18.5q-70 0 -139 -71l-69 -315q-3 -15 -15 -24.5t-28 -9.5q-19 0 -31.5 13t-12.5 31q0 7 1 9l130 590q3 15 15 24.5t28 9.5q19 0 31.5 -13t12.5 -31q0 -7 -1 -9l-45 -204q85 80 168 80q67 0 106.5 -32t39.5 -89
q0 -12 -5 -40l-67 -305q-3 -15 -15 -24.5t-28 -9.5q-19 0 -31.5 13t-12.5 31zM462 731l-53 93l-98 -99q-4 -7 -16 -7q-23 0 -23 23q0 9 6 15l76 87q21 24 49 24h29q29 0 38 -23l40 -88q2 -10 2 -11q0 -11 -8 -19t-19 -8q-16 0 -23 13z" />
    <glyph glyph-name="Hbar" unicode="&#x126;" horiz-adv-x="736" 
d="M791 529q0 -12 -8 -20t-19 -8h-55l-103 -468q-4 -16 -17 -27t-31 -11q-19 0 -33.5 14.5t-14.5 34.5q0 8 1 11l53 243h-368l-58 -265q-4 -16 -17.5 -27t-30.5 -11q-20 0 -34.5 14.5t-14.5 34.5q0 8 1 11l98 446h-44q-11 0 -19 8t-8 20q0 11 8 19t19 8h56l17 78
q4 16 17.5 27t30.5 11q20 0 34.5 -14.5t14.5 -34.5q0 -8 -1 -11l-12 -56h368l17 78q4 16 17.5 27t30.5 11q21 0 35 -14.5t14 -35.5q0 -8 -1 -10l-12 -56h42q11 0 19 -8t8 -19zM584 387l25 114h-369l-25 -114h369z" />
    <glyph glyph-name="hbar" unicode="&#x127;" horiz-adv-x="560" 
d="M513 374q0 -12 -5 -40l-66 -305q-4 -15 -16 -24.5t-28 -9.5q-18 0 -31 13t-13 31q0 7 1 9l58 262q5 22 5 32q0 36 -25.5 54.5t-69.5 18.5q-70 0 -139 -71l-69 -315q-3 -15 -15.5 -24.5t-28.5 -9.5q-18 0 -31 13t-13 31q0 7 1 9l107 485h-34q-11 0 -19.5 8t-8.5 20
q0 11 8.5 19t19.5 8h46l11 50q3 15 15 24.5t28 9.5q19 0 32 -13t13 -31q0 -7 -1 -9l-7 -31h124q11 0 19.5 -8t8.5 -20q0 -11 -8.5 -19t-19.5 -8h-136l-26 -118q85 80 167 80q67 0 106.5 -32t39.5 -89z" />
    <glyph glyph-name="Itilde" unicode="&#x128;" horiz-adv-x="249" 
d="M31 45q0 8 1 10l128 579q4 16 17 27t31 11q19 0 33.5 -14.5t14.5 -34.5q0 -8 -1 -11l-127 -579q-4 -16 -17.5 -27t-30.5 -11q-21 0 -35 14.5t-14 35.5zM182 806q-36 0 -53 -65q-5 -19 -24 -19q-13 0 -20.5 10t-4.5 22q32 107 108 107q25 0 40 -10.5t32 -36.5
q23 -38 48 -38q34 0 53 65q5 19 24 19q13 0 20.5 -10.5t4.5 -22.5q-31 -106 -108 -106q-25 0 -40 10.5t-32 36.5q-23 38 -48 38z" />
    <glyph glyph-name="itilde" unicode="&#x129;" horiz-adv-x="233" 
d="M28 38q0 8 1 10l89 406q3 15 15 24.5t28 9.5q19 0 31.5 -13t12.5 -31q0 -7 -1 -9l-90 -406q-3 -15 -15 -24.5t-27 -9.5q-19 0 -31.5 12.5t-12.5 30.5zM141 659q-36 0 -53 -65q-5 -19 -24 -19q-13 0 -20.5 10t-4.5 22q32 107 108 107q25 0 40 -10.5t32 -36.5
q23 -38 48 -38q34 0 53 65q5 19 24 19q13 0 20.5 -10.5t4.5 -22.5q-31 -106 -108 -106q-25 0 -40 10.5t-32 36.5q-23 38 -48 38z" />
    <glyph glyph-name="Imacron" unicode="&#x12a;" horiz-adv-x="249" 
d="M31 45q0 8 1 10l128 579q4 16 17 27t31 11q19 0 33.5 -14.5t14.5 -34.5q0 -8 -1 -11l-127 -579q-4 -16 -17.5 -27t-30.5 -11q-21 0 -35 14.5t-14 35.5zM80 763q0 12 8 20t19 8h269q11 0 19.5 -8t8.5 -19q0 -12 -8.5 -20t-19.5 -8h-269q-11 0 -19 8t-8 19z" />
    <glyph glyph-name="imacron" unicode="&#x12b;" horiz-adv-x="233" 
d="M28 38q0 8 1 10l89 406q3 15 15 24.5t28 9.5q19 0 31.5 -13t12.5 -31q0 -7 -1 -9l-90 -406q-3 -15 -15 -24.5t-27 -9.5q-19 0 -31.5 12.5t-12.5 30.5zM39 616q0 12 8 20t19 8h269q11 0 19.5 -8t8.5 -19q0 -12 -8.5 -20t-19.5 -8h-269q-11 0 -19 8t-8 19z" />
    <glyph glyph-name="Ibreve" unicode="&#x12c;" horiz-adv-x="249" 
d="M31 45q0 8 1 10l128 579q4 16 17 27t31 11q19 0 33.5 -14.5t14.5 -34.5q0 -8 -1 -11l-127 -579q-4 -16 -17.5 -27t-30.5 -11q-21 0 -35 14.5t-14 35.5zM90 785q-7 8 -7 19q0 12 9 21t21 9q13 0 24 -11q37 -49 105 -49q73 0 134 56q6 6 17 6t18.5 -7.5t7.5 -18.5
q0 -10 -9 -18q-82 -73 -178 -73q-91 0 -142 66z" />
    <glyph glyph-name="ibreve" unicode="&#x12d;" horiz-adv-x="233" 
d="M28 38q0 8 1 10l89 406q3 15 15 24.5t28 9.5q19 0 31.5 -13t12.5 -31q0 -7 -1 -9l-90 -406q-3 -15 -15 -24.5t-27 -9.5q-19 0 -31.5 12.5t-12.5 30.5zM49 638q-7 8 -7 19q0 12 9 21t21 9q13 0 24 -11q37 -49 105 -49q73 0 134 56q6 6 17 6t18.5 -7.5t7.5 -18.5t-9 -18
q-82 -73 -178 -73q-91 0 -142 66z" />
    <glyph glyph-name="Iogonek" unicode="&#x12e;" horiz-adv-x="249" 
d="M256 623q0 -8 -1 -11l-127 -579q-6 -28 -35 -36q-82 -52 -82 -94q0 -27 32 -27l12 1q12 2 22 -6t10 -21q0 -22 -21 -27q-27 -9 -58 -9q-40 0 -63.5 16.5t-23.5 43.5q0 39 38 72.5t99 54.5q-27 13 -27 45q0 7 1 9l128 579q4 16 17 27t31 11q19 0 33.5 -14.5t14.5 -34.5z
" />
    <glyph glyph-name="iogonek" unicode="&#x12f;" horiz-adv-x="233" 
d="M262 644q0 -28 -20 -46.5t-45 -18.5q-22 0 -37.5 14.5t-15.5 35.5q0 28 20 46.5t45 18.5q22 0 37.5 -15t15.5 -35zM205 444q0 -7 -1 -9l-90 -406q-7 -28 -35 -33q-80 -53 -80 -93q0 -27 32 -27l12 1q13 2 22.5 -6t9.5 -21q0 -22 -20 -27q-28 -9 -59 -9q-40 0 -63.5 16.5
t-23.5 43.5q0 40 38.5 73.5t100.5 53.5h1q-21 13 -21 37q0 8 1 10l89 406q3 15 15 24.5t28 9.5q19 0 31.5 -13t12.5 -31z" />
    <glyph glyph-name="Idot" unicode="&#x130;" horiz-adv-x="249" 
d="M31 45q0 8 1 10l128 579q4 16 17 27t31 11q19 0 33.5 -14.5t14.5 -34.5q0 -8 -1 -11l-127 -579q-4 -16 -17.5 -27t-30.5 -11q-21 0 -35 14.5t-14 35.5zM191 777q0 24 17.5 42t41.5 18q20 0 34 -14t14 -34q0 -24 -18 -41t-42 -17q-20 0 -33.5 13t-13.5 33z" />
    <glyph glyph-name="dotlessi" unicode="&#x131;" horiz-adv-x="233" 
d="M28 38q0 8 1 10l89 406q3 15 15 24.5t28 9.5q19 0 31.5 -13t12.5 -31q0 -7 -1 -9l-90 -406q-3 -15 -15 -24.5t-27 -9.5q-19 0 -31.5 12.5t-12.5 30.5z" />
    <glyph glyph-name="IJ" unicode="&#x132;" horiz-adv-x="727" 
d="M31 45q0 8 1 10l128 579q4 16 17 27t31 11q19 0 33.5 -14.5t14.5 -34.5q0 -8 -1 -11l-127 -579q-4 -16 -17.5 -27t-30.5 -11q-21 0 -35 14.5t-14 35.5zM235 76q0 19 13.5 32.5t32.5 13.5q18 0 28 -10q41 -35 94 -35q56 0 92 34t49 96l94 427q4 16 17 27t31 11
q19 0 33.5 -14.5t14.5 -34.5q0 -8 -1 -11l-89 -406q-49 -218 -235 -218q-94 0 -155 53q-19 13 -19 35z" />
    <glyph glyph-name="ij" unicode="&#x133;" horiz-adv-x="466" 
d="M209 694q22 0 37.5 -15t15.5 -35q0 -28 -20 -46.5t-45 -18.5q-22 0 -37.5 14.5t-15.5 35.5q0 28 20 46.5t45 18.5zM28 38q0 8 1 10l89 406q3 15 15 24.5t28 9.5q19 0 31.5 -13t12.5 -31q0 -7 -1 -9l-90 -406q-3 -15 -15 -24.5t-27 -9.5q-19 0 -31.5 12.5t-12.5 30.5z
M377 629q0 28 20 46.5t45 18.5q22 0 37.5 -15t15.5 -35q0 -28 -20 -46.5t-45 -18.5q-22 0 -37.5 14.5t-15.5 35.5zM105 -156q0 17 12.5 28t29.5 10q3 -1 13 -1q62 0 82 81l109 492q3 15 15 24.5t28 9.5q18 0 30.5 -12.5t12.5 -30.5q0 -8 -1 -10l-104 -473
q-36 -158 -163 -158q-21 0 -31 3q-15 2 -24 12t-9 25z" />
    <glyph glyph-name="Jcircumflex" unicode="&#x134;" horiz-adv-x="478" 
d="M-14 76q0 19 13.5 32.5t32.5 13.5q18 0 28 -10q41 -35 94 -35q56 0 92 34t49 96l94 427q4 16 17 27t31 11q19 0 33.5 -14.5t14.5 -34.5q0 -8 -1 -11l-89 -406q-49 -218 -235 -218q-94 0 -155 53q-19 13 -19 35zM541 748l-53 93l-98 -99q-4 -7 -16 -7q-23 0 -23 23
q0 9 6 15l76 87q21 24 49 24h29q29 0 38 -23l40 -88q2 -10 2 -11q0 -11 -8 -19t-19 -8q-16 0 -23 13z" />
    <glyph glyph-name="jcircumflex" unicode="&#x135;" horiz-adv-x="233" 
d="M-128 -156q0 17 12.5 28.5t29.5 9.5q3 -1 13 -1q63 0 82 81l109 492q3 15 15 24.5t28 9.5q18 0 30.5 -12.5t12.5 -30.5q0 -8 -1 -10l-104 -473q-36 -158 -163 -158q-20 0 -31 3q-15 2 -24 12t-9 25zM267 584l-53 93l-98 -99q-4 -7 -16 -7q-23 0 -23 23q0 9 6 15l76 87
q21 24 49 24h29q29 0 38 -23l40 -88q2 -10 2 -11q0 -11 -8 -19t-19 -8q-16 0 -23 13z" />
    <glyph glyph-name="uni0136" unicode="&#x136;" horiz-adv-x="611" 
d="M622 627q0 -21 -13 -31l-281 -245l190 -280q7 -10 7 -27q0 -20 -14.5 -34.5t-35.5 -14.5q-29 0 -42 24l-182 276l-82 -76l-41 -186q-4 -16 -17.5 -27t-30.5 -11q-21 0 -35 14.5t-14 35.5q0 8 1 10l128 579q4 16 17 27t31 11q19 0 33.5 -14.5t14.5 -34.5q0 -8 -1 -11
l-59 -268l352 316q12 12 31 12q18 0 30.5 -13t12.5 -32zM179 -267q-9 0 -15 6.5t-6 13.5q0 11 9 17q47 29 59 65h-7q-16 0 -28 12.5t-12 30.5q0 22 17 38.5t40 16.5q21 0 35 -15t14 -39q0 -38 -26 -76.5t-65 -64.5q-8 -5 -15 -5z" />
    <glyph glyph-name="uni0137" unicode="&#x137;" horiz-adv-x="520" 
d="M518 449q0 -18 -13 -28l-199 -157l130 -199q8 -14 8 -24q0 -19 -15 -32.5t-35 -13.5q-25 0 -41 25l-122 192l-94 -77l-23 -105q-4 -15 -15.5 -25t-27.5 -10q-18 0 -31 13t-13 30q0 8 1 10l130 590q3 15 15 24.5t28 9.5q19 0 31.5 -13t12.5 -31q0 -7 -1 -9l-83 -377
l293 237q10 9 25 9q17 0 28 -11t11 -28zM129 -267q-9 0 -15 6.5t-6 13.5q0 11 9 17q47 29 59 65h-7q-16 0 -28 12.5t-12 30.5q0 22 17 38.5t40 16.5q21 0 35 -15t14 -39q0 -38 -26 -76.5t-65 -64.5q-8 -5 -15 -5z" />
    <glyph glyph-name="kgreenlandic" unicode="&#x138;" horiz-adv-x="520" 
d="M518 449q0 -18 -13 -28l-200 -157l131 -199q8 -14 8 -24q0 -19 -15 -32.5t-35 -13.5q-25 0 -41 25l-122 192l-94 -77l-23 -106q-4 -15 -15.5 -24.5t-27.5 -9.5q-18 0 -31 13t-13 30q0 8 1 10l90 406q3 15 15 24.5t28 9.5q18 0 30.5 -13t12.5 -31q0 -8 -1 -10l-42 -192
l293 237q10 9 25 9q17 0 28 -11t11 -28z" />
    <glyph glyph-name="Lacute" unicode="&#x139;" horiz-adv-x="517" 
d="M31 43q0 1 2 15l127 576q4 16 17 27t31 11q19 0 33.5 -14.5t14.5 -34.5q0 -8 -1 -11l-116 -524h253q18 0 31 -12.5t13 -30.5q0 -19 -13 -32t-31 -13h-312q-49 0 -49 43zM232 718q-9 0 -16 7t-7 15q0 11 9 20l126 103q7 7 20 7q12 0 19.5 -8t7.5 -20q0 -16 -12 -24
l-131 -95q-8 -5 -16 -5z" />
    <glyph glyph-name="lacute" unicode="&#x13a;" horiz-adv-x="233" 
d="M27 39q0 7 1 9l130 590q3 15 15 24.5t28 9.5q19 0 31.5 -13t12.5 -31q0 -7 -1 -9l-130 -590q-3 -15 -15 -24.5t-28 -9.5q-19 0 -31.5 13t-12.5 31zM225 718q-9 0 -16 7t-7 15q0 11 9 20l126 103q7 7 20 7q12 0 19.5 -8t7.5 -20q0 -16 -12 -24l-131 -95q-8 -5 -16 -5z" />
    <glyph glyph-name="uni013B" unicode="&#x13b;" horiz-adv-x="517" 
d="M31 43q0 1 2 15l127 576q4 16 17 27t31 11q19 0 33.5 -14.5t14.5 -34.5q0 -8 -1 -11l-116 -524h253q18 0 31 -12.5t13 -30.5q0 -19 -13 -32t-31 -13h-312q-49 0 -49 43zM143 -267q-9 0 -15 6.5t-6 13.5q0 11 9 17q47 29 59 65h-7q-16 0 -28 12.5t-12 30.5q0 22 17 38.5
t40 16.5q21 0 35 -15t14 -39q0 -38 -26 -76.5t-65 -64.5q-8 -5 -15 -5z" />
    <glyph glyph-name="uni013C" unicode="&#x13c;" horiz-adv-x="233" 
d="M27 39q0 7 1 9l130 590q3 15 15 24.5t28 9.5q19 0 31.5 -13t12.5 -31q0 -7 -1 -9l-130 -590q-3 -15 -15 -24.5t-28 -9.5q-19 0 -31.5 13t-12.5 31zM-17 -267q-9 0 -15 6.5t-6 13.5q0 11 9 17q47 29 59 65h-7q-16 0 -28 12.5t-12 30.5q0 22 17 38.5t40 16.5q21 0 35 -15
t14 -39q0 -38 -26 -76.5t-65 -64.5q-8 -5 -15 -5z" />
    <glyph glyph-name="Lcaron" unicode="&#x13d;" horiz-adv-x="517" 
d="M31 43q0 1 2 15l127 576q4 16 17 27t31 11q19 0 33.5 -14.5t14.5 -34.5q0 -8 -1 -11l-116 -524h253q18 0 31 -12.5t13 -30.5q0 -19 -13 -32t-31 -13h-312q-49 0 -49 43zM347 480q-9 0 -15 6.5t-6 13.5q0 11 9 17q47 29 59 65h-7q-16 0 -28 12.5t-12 30.5q0 22 17 38.5
t40 16.5q21 0 35 -15t14 -39q0 -38 -26 -76.5t-65 -64.5q-8 -5 -15 -5z" />
    <glyph glyph-name="lcaron" unicode="&#x13e;" horiz-adv-x="309" 
d="M27 39q0 7 1 9l130 590q3 15 15 24.5t28 9.5q19 0 31.5 -13t12.5 -31q0 -7 -1 -9l-130 -590q-3 -15 -15 -24.5t-28 -9.5q-19 0 -31.5 13t-12.5 31zM303 480q-9 0 -15 6.5t-6 13.5q0 11 9 17q47 29 59 65h-7q-16 0 -28 12.5t-12 30.5q0 22 17 38.5t40 16.5q21 0 35 -15
t14 -39q0 -38 -26 -76.5t-65 -64.5q-8 -5 -15 -5z" />
    <glyph glyph-name="Ldot" unicode="&#x13f;" horiz-adv-x="517" 
d="M31 43q0 1 2 15l127 576q4 16 17 27t31 11q19 0 33.5 -14.5t14.5 -34.5q0 -8 -1 -11l-116 -524h253q18 0 31 -12.5t13 -30.5q0 -19 -13 -32t-31 -13h-312q-49 0 -49 43zM406 404q23 0 39.5 -16.5t16.5 -41.5q0 -27 -20 -47t-48 -20q-24 0 -40.5 17t-16.5 41q0 28 20 47.5
t49 19.5z" />
    <glyph glyph-name="ldot" unicode="&#x140;" horiz-adv-x="329" 
d="M27 39q0 7 1 9l130 590q3 15 15 24.5t28 9.5q19 0 31.5 -13t12.5 -31q0 -7 -1 -9l-130 -590q-3 -15 -15 -24.5t-28 -9.5q-19 0 -31.5 13t-12.5 31zM287 307q23 0 39.5 -16.5t16.5 -41.5q0 -27 -20 -47t-48 -20q-24 0 -40.5 17t-16.5 41q0 28 20 47.5t49 19.5z" />
    <glyph glyph-name="Lslash" unicode="&#x141;" horiz-adv-x="544" 
d="M463 45q0 -19 -13 -32t-31 -13h-311q-49 0 -49 43q0 12 1 15l44 202l-34 -18q-9 -4 -15 -4q-13 0 -23.5 10t-10.5 24q0 18 18 29l84 43l64 290q4 16 17.5 27t30.5 11q21 0 35 -14.5t14 -35.5q0 -8 -1 -10l-47 -210l46 23q7 4 15 4q14 0 24 -9.5t10 -23.5q0 -20 -19 -30
l-95 -49l-51 -229h253q18 0 31 -12.5t13 -30.5z" />
    <glyph glyph-name="lslash" unicode="&#x142;" horiz-adv-x="293" 
d="M295 426q11 0 19 -8t8 -18q0 -18 -15 -25l-98 -49l-65 -297q-3 -15 -15 -24.5t-28 -9.5q-19 0 -31.5 13t-12.5 31q0 7 1 9l50 226l-58 -29q-8 -3 -14 -3q-11 0 -18.5 8t-7.5 18q0 18 15 25l98 50l65 295q3 15 15 24.5t28 9.5q19 0 31.5 -13t12.5 -31q0 -7 -1 -9l-50 -225
l58 29q8 3 13 3z" />
    <glyph glyph-name="Nacute" unicode="&#x143;" horiz-adv-x="714" 
d="M474 32l-236 503l-110 -502q-4 -16 -17.5 -27t-30.5 -11q-21 0 -35 14.5t-14 35.5q0 8 1 10l124 563q5 24 24 39t44 15q44 0 62 -40l231 -488l108 490q4 16 17.5 27t30.5 11q21 0 35 -14.5t14 -35.5q0 -8 -1 -10l-125 -567q-4 -22 -22.5 -36t-41.5 -14q-40 0 -58 37z
M465 718q-9 0 -16 7t-7 15q0 11 9 20l126 103q7 7 20 7q12 0 19.5 -8t7.5 -20q0 -16 -12 -24l-131 -95q-8 -5 -16 -5z" />
    <glyph glyph-name="nacute" unicode="&#x144;" 
d="M513 374q0 -15 -5 -40l-68 -305q-3 -15 -15 -24.5t-27 -9.5q-19 0 -32 13t-13 31q0 7 1 9l58 262q4 15 4 33q0 72 -86 72q-77 0 -147 -70l-69 -316q-3 -15 -15 -24.5t-27 -9.5q-19 0 -32 13t-13 31q0 7 1 9l90 406q3 15 15 24.5t28 9.5q18 0 30.5 -13t12.5 -31
q0 -8 -1 -10l-4 -19q85 80 168 80q69 0 107.5 -32t38.5 -89zM357 571q-9 0 -16 7t-7 15q0 11 9 20l126 103q7 7 20 7q12 0 19.5 -8t7.5 -20q0 -17 -12 -24l-131 -95q-8 -5 -16 -5z" />
    <glyph glyph-name="uni0145" unicode="&#x145;" horiz-adv-x="714" 
d="M474 32l-236 503l-110 -502q-4 -16 -17.5 -27t-30.5 -11q-21 0 -35 14.5t-14 35.5q0 8 1 10l124 563q5 24 24 39t44 15q44 0 62 -40l231 -488l108 490q4 16 17.5 27t30.5 11q21 0 35 -14.5t14 -35.5q0 -8 -1 -10l-125 -567q-4 -22 -22.5 -36t-41.5 -14q-40 0 -58 37z
M221 -267q-9 0 -15 6.5t-6 13.5q0 11 9 17q47 29 59 65h-7q-16 0 -28 12.5t-12 30.5q0 22 17 38.5t40 16.5q21 0 35 -15t14 -39q0 -38 -26 -76.5t-65 -64.5q-8 -5 -15 -5z" />
    <glyph glyph-name="uni0146" unicode="&#x146;" 
d="M513 374q0 -15 -5 -40l-68 -305q-3 -15 -15 -24.5t-27 -9.5q-19 0 -32 13t-13 31q0 7 1 9l58 262q4 15 4 33q0 72 -86 72q-77 0 -147 -70l-69 -316q-3 -15 -15 -24.5t-27 -9.5q-19 0 -32 13t-13 31q0 7 1 9l90 406q3 15 15 24.5t28 9.5q18 0 30.5 -13t12.5 -31
q0 -8 -1 -10l-4 -19q85 80 168 80q69 0 107.5 -32t38.5 -89zM147 -267q-9 0 -15 6.5t-6 13.5q0 11 9 17q47 29 59 65h-7q-16 0 -28 12.5t-12 30.5q0 22 17 38.5t40 16.5q21 0 35 -15t14 -39q0 -38 -26 -76.5t-65 -64.5q-8 -5 -15 -5z" />
    <glyph glyph-name="Ncaron" unicode="&#x147;" horiz-adv-x="714" 
d="M474 32l-236 503l-110 -502q-4 -16 -17.5 -27t-30.5 -11q-21 0 -35 14.5t-14 35.5q0 8 1 10l124 563q5 24 24 39t44 15q44 0 62 -40l231 -488l108 490q4 16 17.5 27t30.5 11q21 0 35 -14.5t14 -35.5q0 -8 -1 -10l-125 -567q-4 -22 -22.5 -36t-41.5 -14q-40 0 -58 37z
M418 859l53 -93l98 99q4 7 16 7q23 0 23 -23q0 -9 -6 -15l-76 -87q-21 -24 -49 -24h-29q-29 0 -38 23l-40 88q-2 10 -2 11q0 11 8 19t19 8q16 0 23 -13z" />
    <glyph glyph-name="ncaron" unicode="&#x148;" 
d="M513 374q0 -15 -5 -40l-68 -305q-3 -15 -15 -24.5t-27 -9.5q-19 0 -32 13t-13 31q0 7 1 9l58 262q4 15 4 33q0 72 -86 72q-77 0 -147 -70l-69 -316q-3 -15 -15 -24.5t-27 -9.5q-19 0 -32 13t-13 31q0 7 1 9l90 406q3 15 15 24.5t28 9.5q18 0 30.5 -13t12.5 -31
q0 -8 -1 -10l-4 -19q85 80 168 80q69 0 107.5 -32t38.5 -89zM310 712l53 -93l98 99q4 7 16 7q23 0 23 -23q0 -9 -6 -15l-76 -87q-21 -24 -49 -24h-29q-29 0 -38 23l-40 88q-2 10 -2 11q0 11 8 19t19 8q16 0 23 -13z" />
    <glyph glyph-name="napostrophe" unicode="&#x149;" 
d="M513 374q0 -15 -5 -40l-68 -305q-3 -15 -15 -24.5t-27 -9.5q-19 0 -32 13t-13 31q0 7 1 9l58 262q4 15 4 33q0 72 -86 72q-77 0 -147 -70l-69 -316q-3 -15 -15 -24.5t-27 -9.5q-19 0 -32 13t-13 31q0 7 1 9l90 406q3 15 15 24.5t28 9.5q18 0 30.5 -13t12.5 -31
q0 -8 -1 -10l-4 -19q85 80 168 80q69 0 107.5 -32t38.5 -89zM154 549q-9 0 -15 6.5t-6 13.5q0 11 9 17q47 29 59 65h-7q-16 0 -28 12.5t-12 30.5q0 22 17 38.5t40 16.5q21 0 35 -15t14 -39q0 -38 -26 -76.5t-65 -64.5q-8 -5 -15 -5z" />
    <glyph glyph-name="Eng" unicode="&#x14a;" horiz-adv-x="714" 
d="M722 622q0 -8 -1 -10l-132 -593q-51 -215 -234 -215q-97 0 -158 54q-16 13 -16 33q0 17 12.5 29.5t29.5 12.5q16 0 27 -10q41 -38 97 -38q53 0 88.5 31.5t50.5 89.5l-248 529l-110 -502q-4 -16 -17.5 -27t-30.5 -11q-21 0 -35 14.5t-14 35.5q0 8 1 10l124 563q5 24 24 39
t44 15q44 0 62 -40l231 -488l108 490q4 16 17.5 27t30.5 11q21 0 35 -14.5t14 -35.5z" />
    <glyph glyph-name="eng" unicode="&#x14b;" 
d="M513 374q0 -15 -5 -40l-83 -372q-35 -158 -162 -158q-21 0 -31 3q-15 2 -24 12t-9 25q0 17 12.5 28t29.5 10q3 -1 13 -1q63 0 81 81l77 348q4 21 4 32q0 73 -86 73q-77 0 -147 -70l-69 -316q-3 -15 -15 -24.5t-27 -9.5q-19 0 -32 13t-13 31q0 7 1 9l90 406q3 15 15 24.5
t28 9.5q18 0 30.5 -13t12.5 -31q0 -8 -1 -10l-4 -19q85 80 168 80q69 0 107.5 -32t38.5 -89z" />
    <glyph glyph-name="Omacron" unicode="&#x14c;" horiz-adv-x="765" 
d="M434 678q136 0 224.5 -80t88.5 -213q2 -107 -49 -199.5t-139 -146t-190 -51.5q-136 0 -224.5 80.5t-88.5 213.5q-2 106 49 198.5t139 146t190 51.5zM428 589q-108 2 -189 -87.5t-79 -213.5q0 -97 61 -154t154 -57q108 -2 189 87.5t79 213.5q0 97 -61 154t-154 57z
M336 763q0 12 8 20t19 8h269q11 0 19.5 -8t8.5 -19q0 -12 -8.5 -20t-19.5 -8h-269q-11 0 -19 8t-8 19z" />
    <glyph glyph-name="omacron" unicode="&#x14d;" horiz-adv-x="572" 
d="M308 495q104 0 165.5 -60t61.5 -156q2 -115 -79 -204.5t-194 -86.5q-104 0 -166 59q-60 60 -60 157q-2 115 79 204.5t193 86.5zM306 415q-73 0 -124.5 -62.5t-51.5 -144.5q0 -65 36 -102.5t99 -37.5q73 0 124.5 62.5t51.5 144.5q0 65 -36 102.5t-99 37.5zM209 616
q0 12 8 20t19 8h269q11 0 19.5 -8t8.5 -19q0 -12 -8.5 -20t-19.5 -8h-269q-11 0 -19 8t-8 19z" />
    <glyph glyph-name="Obreve" unicode="&#x14e;" horiz-adv-x="765" 
d="M434 678q136 0 224.5 -80t88.5 -213q2 -107 -49 -199.5t-139 -146t-190 -51.5q-136 0 -224.5 80.5t-88.5 213.5q-2 106 49 198.5t139 146t190 51.5zM428 589q-108 2 -189 -87.5t-79 -213.5q0 -97 61 -154t154 -57q108 -2 189 87.5t79 213.5q0 97 -61 154t-154 57z
M346 785q-7 8 -7 19q0 12 9 21t21 9q13 0 24 -11q37 -49 105 -49q73 0 134 56q6 6 17 6t18.5 -7.5t7.5 -18.5q0 -10 -9 -18q-82 -73 -178 -73q-91 0 -142 66z" />
    <glyph glyph-name="obreve" unicode="&#x14f;" horiz-adv-x="572" 
d="M308 495q104 0 165.5 -60t61.5 -156q2 -115 -79 -204.5t-194 -86.5q-104 0 -166 59q-60 60 -60 157q-2 115 79 204.5t193 86.5zM306 415q-73 0 -124.5 -62.5t-51.5 -144.5q0 -65 36 -102.5t99 -37.5q73 0 124.5 62.5t51.5 144.5q0 65 -36 102.5t-99 37.5zM219 638
q-7 8 -7 19q0 12 9 21t21 9q13 0 24 -11q37 -49 105 -49q73 0 134 56q6 6 17 6t18.5 -7.5t7.5 -18.5t-9 -18q-82 -73 -178 -73q-91 0 -142 66z" />
    <glyph glyph-name="Ohungarumlaut" unicode="&#x150;" horiz-adv-x="765" 
d="M434 678q136 0 224.5 -80t88.5 -213q2 -107 -49 -199.5t-139 -146t-190 -51.5q-136 0 -224.5 80.5t-88.5 213.5q-2 106 49 198.5t139 146t190 51.5zM428 589q-108 2 -189 -87.5t-79 -213.5q0 -97 61 -154t154 -57q108 -2 189 87.5t79 213.5q0 97 -61 154t-154 57z
M404 740q0 8 5 13l94 109q9 11 22 11q12 0 20 -8.5t8 -19.5q0 -13 -9 -20l-102 -101q-6 -6 -16 -6t-16 6.5t-6 15.5zM548 740q0 8 5 13l94 109q9 11 22 11q12 0 20 -8.5t8 -19.5q0 -13 -9 -20l-102 -101q-6 -6 -16 -6t-16 6.5t-6 15.5z" />
    <glyph glyph-name="ohungarumlaut" unicode="&#x151;" horiz-adv-x="572" 
d="M308 495q104 0 165.5 -60t61.5 -156q2 -115 -79 -204.5t-194 -86.5q-104 0 -166 59q-60 60 -60 157q-2 115 79 204.5t193 86.5zM306 415q-73 0 -124.5 -62.5t-51.5 -144.5q0 -65 36 -102.5t99 -37.5q73 0 124.5 62.5t51.5 144.5q0 65 -36 102.5t-99 37.5zM277 593
q0 8 5 13l94 109q9 11 22 11q12 0 20 -8.5t8 -19.5q0 -12 -9 -20l-102 -101q-6 -6 -16 -6t-16 6.5t-6 15.5zM421 593q0 8 5 13l94 109q9 11 22 11q12 0 20 -8.5t8 -19.5q0 -12 -9 -20l-102 -101q-6 -6 -16 -6t-16 6.5t-6 15.5z" />
    <glyph glyph-name="OE" unicode="&#x152;" horiz-adv-x="1099" 
d="M1136 622q0 -18 -13.5 -30.5t-31.5 -12.5h-316l-43 -195h290q18 0 31 -12.5t13 -30.5q0 -19 -13 -32t-31 -13h-310l-46 -208h298q18 0 30.5 -12.5t12.5 -30.5q0 -19 -12.5 -32t-30.5 -13h-357q-49 0 -49 43q0 12 1 15l8 36q-84 -106 -231 -106q-121 0 -200.5 83
t-79.5 211q-3 168 110 283t266 112q175 0 233 -143l18 86q11 47 59 47h349q18 0 31.5 -13t13.5 -32zM592 206l48 216q-15 78 -69.5 122t-135.5 44q-112 2 -195 -87.5t-80 -212.5q0 -95 58 -153t150 -58q67 0 127 34.5t97 94.5z" />
    <glyph glyph-name="oe" unicode="&#x153;" horiz-adv-x="953" 
d="M527 212l-1 -20q0 -54 42 -92t112 -38q56 0 106 28q8 3 15 3q14 0 24.5 -10.5t10.5 -24.5q0 -20 -18 -31q-68 -39 -145 -39q-79 0 -135 40t-69 89q-28 -39 -52 -63q-62 -66 -157 -66q-102 0 -163 58t-61 158q-2 113 78 203.5t192 87.5q74 0 125 -41t65 -89q44 62 94 96
t117 34q92 0 150.5 -57.5t58.5 -155.5q0 -11 -2 -21q-2 -49 -56 -49h-331zM835 293q0 56 -36 92t-98 36q-61 0 -108.5 -45.5t-55.5 -98.5h296q2 10 2 16zM130 208q0 -64 35.5 -102t97.5 -38q73 0 123.5 61.5t50.5 145.5q0 67 -37 103.5t-96 36.5q-72 0 -123 -61t-51 -146z
" />
    <glyph glyph-name="Racute" unicode="&#x154;" horiz-adv-x="618" 
d="M418 263l100 -198q5 -10 5 -21q0 -20 -15.5 -34.5t-36.5 -14.5q-31 0 -47 33l-107 229h-141l-49 -224q-3 -16 -16.5 -27t-30.5 -11q-21 0 -35 14.5t-14 34.5q0 8 1 10l125 566q11 47 58 47h209q79 0 136.5 -50t57.5 -128q0 -91 -55 -152q-56 -62 -145 -74zM513 480
q0 41 -31.5 70t-74.5 29h-159l-52 -234h168q68 0 108.5 38t40.5 97zM418 718q-9 0 -16 7t-7 15q0 11 9 20l126 103q7 7 20 7q12 0 19.5 -8t7.5 -20q0 -16 -12 -24l-131 -95q-8 -5 -16 -5z" />
    <glyph glyph-name="racute" unicode="&#x155;" horiz-adv-x="338" 
d="M371 450q0 -18 -13 -31t-31 -12h-12q-37 0 -73 -20.5t-61 -52.5l-67 -305q-3 -15 -15 -24.5t-27 -9.5q-19 0 -32 13t-13 31q0 7 1 9l90 406q3 14 15 24t28 10q18 0 30.5 -13t12.5 -31q0 -8 -1 -10l-6 -23q71 78 130 78q44 0 44 -39zM270 571q-9 0 -16 7t-7 15q0 11 9 20
l126 103q7 7 20 7q12 0 19.5 -8t7.5 -20q0 -17 -12 -24l-131 -95q-8 -5 -16 -5z" />
    <glyph glyph-name="uni0156" unicode="&#x156;" horiz-adv-x="618" 
d="M418 263l100 -198q5 -10 5 -21q0 -20 -15.5 -34.5t-36.5 -14.5q-31 0 -47 33l-107 229h-141l-49 -224q-3 -16 -16.5 -27t-30.5 -11q-21 0 -35 14.5t-14 34.5q0 8 1 10l125 566q11 47 58 47h209q79 0 136.5 -50t57.5 -128q0 -91 -55 -152q-56 -62 -145 -74zM513 480
q0 41 -31.5 70t-74.5 29h-159l-52 -234h168q68 0 108.5 38t40.5 97zM177 -267q-9 0 -15 6.5t-6 13.5q0 11 9 17q47 29 59 65h-7q-16 0 -28 12.5t-12 30.5q0 22 17 38.5t40 16.5q21 0 35 -15t14 -39q0 -38 -26 -76.5t-65 -64.5q-8 -5 -15 -5z" />
    <glyph glyph-name="uni0157" unicode="&#x157;" horiz-adv-x="338" 
d="M371 450q0 -18 -13 -31t-31 -12h-12q-37 0 -73 -20.5t-61 -52.5l-67 -305q-3 -15 -15 -24.5t-27 -9.5q-19 0 -32 13t-13 31q0 7 1 9l90 406q3 14 15 24t28 10q18 0 30.5 -13t12.5 -31q0 -8 -1 -10l-6 -23q71 78 130 78q44 0 44 -39zM-15 -267q-9 0 -15 6.5t-6 13.5
q0 11 9 17q47 29 59 65h-7q-16 0 -28 12.5t-12 30.5q0 22 17 38.5t40 16.5q21 0 35 -15t14 -39q0 -38 -26 -76.5t-65 -64.5q-8 -5 -15 -5z" />
    <glyph glyph-name="Rcaron" unicode="&#x158;" horiz-adv-x="618" 
d="M418 263l100 -198q5 -10 5 -21q0 -20 -15.5 -34.5t-36.5 -14.5q-31 0 -47 33l-107 229h-141l-49 -224q-3 -16 -16.5 -27t-30.5 -11q-21 0 -35 14.5t-14 34.5q0 8 1 10l125 566q11 47 58 47h209q79 0 136.5 -50t57.5 -128q0 -91 -55 -152q-56 -62 -145 -74zM513 480
q0 41 -31.5 70t-74.5 29h-159l-52 -234h168q68 0 108.5 38t40.5 97zM371 859l53 -93l98 99q4 7 16 7q23 0 23 -23q0 -9 -6 -15l-76 -87q-21 -24 -49 -24h-29q-29 0 -38 23l-40 88q-2 10 -2 11q0 11 8 19t19 8q16 0 23 -13z" />
    <glyph glyph-name="rcaron" unicode="&#x159;" horiz-adv-x="338" 
d="M371 450q0 -18 -13 -31t-31 -12h-12q-37 0 -73 -20.5t-61 -52.5l-67 -305q-3 -15 -15 -24.5t-27 -9.5q-19 0 -32 13t-13 31q0 7 1 9l90 406q3 14 15 24t28 10q18 0 30.5 -13t12.5 -31q0 -8 -1 -10l-6 -23q71 78 130 78q44 0 44 -39zM223 712l53 -93l98 99q4 7 16 7
q23 0 23 -23q0 -9 -6 -15l-76 -87q-21 -24 -49 -24h-29q-29 0 -38 23l-40 88q-2 10 -2 11q0 11 8 19t19 8q16 0 23 -13z" />
    <glyph glyph-name="Sacute" unicode="&#x15a;" horiz-adv-x="590" 
d="M24 113q0 20 14.5 34.5t34.5 14.5q19 0 33 -13q78 -72 192 -72q64 0 99 33t35 77q0 25 -18 44q-16 17 -39.5 29.5t-76.5 33.5q-59 23 -101 44q-94 49 -94 138q0 82 69.5 141.5t173.5 59.5q130 0 215 -73q18 -15 18 -38q0 -20 -14 -34t-34 -14q-18 0 -31 11
q-68 60 -167 60q-51 0 -87 -29t-36 -68q0 -31 28.5 -51.5t102.5 -49.5q59 -21 101 -45q97 -49 97 -142q0 -89 -68 -152.5t-181 -63.5q-151 0 -248 87q-18 17 -18 38zM396 718q-9 0 -16 7t-7 15q0 11 9 20l126 103q7 7 20 7q12 0 19.5 -8t7.5 -20q0 -16 -12 -24l-131 -95
q-8 -5 -16 -5z" />
    <glyph glyph-name="sacute" unicode="&#x15b;" horiz-adv-x="468" 
d="M12 80q0 17 12 28.5t28 11.5q15 0 26 -8q59 -52 139 -52q44 0 71.5 21.5t27.5 53.5q0 23 -23 39t-79 36q-45 16 -78 32q-72 37 -72 101t51 108t137 44q97 0 165 -55q16 -12 16 -30q0 -16 -11.5 -27.5t-27.5 -11.5q-13 0 -24 8q-53 43 -121 43q-43 0 -69 -18.5t-26 -46.5
q0 -22 20 -34.5t78 -35.5q48 -17 79 -33q75 -37 75 -105t-53.5 -114.5t-141.5 -46.5q-110 0 -184 59q-15 12 -15 33zM305 571q-9 0 -16 7t-7 15q0 11 9 20l126 103q7 7 20 7q12 0 19.5 -8t7.5 -20q0 -17 -12 -24l-131 -95q-8 -5 -16 -5z" />
    <glyph glyph-name="Scircumflex" unicode="&#x15c;" horiz-adv-x="590" 
d="M24 113q0 20 14.5 34.5t34.5 14.5q19 0 33 -13q78 -72 192 -72q64 0 99 33t35 77q0 25 -18 44q-16 17 -39.5 29.5t-76.5 33.5q-59 23 -101 44q-94 49 -94 138q0 82 69.5 141.5t173.5 59.5q130 0 215 -73q18 -15 18 -38q0 -20 -14 -34t-34 -14q-18 0 -31 11
q-68 60 -167 60q-51 0 -87 -29t-36 -68q0 -31 28.5 -51.5t102.5 -49.5q59 -21 101 -45q97 -49 97 -142q0 -89 -68 -152.5t-181 -63.5q-151 0 -248 87q-18 17 -18 38zM471 731l-53 93l-98 -99q-4 -7 -16 -7q-23 0 -23 23q0 9 6 15l76 87q21 24 49 24h29q29 0 38 -23l40 -88
q2 -10 2 -11q0 -11 -8 -19t-19 -8q-16 0 -23 13z" />
    <glyph glyph-name="scircumflex" unicode="&#x15d;" horiz-adv-x="468" 
d="M12 80q0 17 12 28.5t28 11.5q15 0 26 -8q59 -52 139 -52q44 0 71.5 21.5t27.5 53.5q0 23 -23 39t-79 36q-45 16 -78 32q-72 37 -72 101t51 108t137 44q97 0 165 -55q16 -12 16 -30q0 -16 -11.5 -27.5t-27.5 -11.5q-13 0 -24 8q-53 43 -121 43q-43 0 -69 -18.5t-26 -46.5
q0 -22 20 -34.5t78 -35.5q48 -17 79 -33q75 -37 75 -105t-53.5 -114.5t-141.5 -46.5q-110 0 -184 59q-15 12 -15 33zM380 584l-53 93l-98 -99q-4 -7 -16 -7q-23 0 -23 23q0 9 6 15l76 87q21 24 49 24h29q29 0 38 -23l40 -88q2 -10 2 -11q0 -11 -8 -19t-19 -8q-16 0 -23 13z
" />
    <glyph glyph-name="uni015E" unicode="&#x15e;" horiz-adv-x="590" 
d="M210 492q0 -31 28.5 -51.5t102.5 -49.5q59 -21 101 -45q97 -49 97 -142q0 -89 -68 -152.5t-181 -63.5q-27 0 -34 1l-27 -43q16 11 33 11q26 0 42.5 -16.5t16.5 -43.5q0 -40 -31 -65t-79 -25q-55 0 -95 27q-11 8 -11 20q0 10 7 17t17 7q7 0 14 -4q32 -23 70 -23
q27 0 42.5 12t15.5 31q0 13 -9.5 20.5t-25.5 7.5q-14 0 -26 -9q-7 -5 -16 -5t-14.5 5.5t-5.5 12.5q0 11 4 16l32 54q-105 19 -168 79q-18 17 -18 38q0 20 14.5 34.5t34.5 14.5q19 0 33 -13q78 -72 192 -72q64 0 99 33t35 77q0 25 -18 44q-16 17 -39.5 29.5t-76.5 33.5
q-59 23 -101 44q-94 49 -94 138q0 82 69.5 141.5t173.5 59.5q130 0 215 -73q18 -15 18 -38q0 -20 -14 -34t-34 -14q-18 0 -31 11q-68 60 -167 60q-51 0 -87 -29t-36 -68z" />
    <glyph glyph-name="uni015F" unicode="&#x15f;" horiz-adv-x="468" 
d="M154 357q0 -22 20 -34.5t78 -35.5q48 -17 79 -33q75 -37 75 -105t-53.5 -114.5t-141.5 -46.5h-16l-25 -42q16 11 32 11q26 0 42.5 -16.5t16.5 -43.5q0 -40 -31 -65t-79 -25q-55 0 -95 27q-11 8 -11 20q0 10 7 17t17 7q9 0 14 -4q32 -23 70 -23q27 0 42.5 12t15.5 31
q0 13 -9.5 20.5t-25.5 7.5q-14 0 -26 -9q-7 -5 -15 -5q-9 0 -15 5.5t-6 12.5q0 11 4 16l31 51q-71 14 -122 54q-15 12 -15 33q0 17 12 28.5t28 11.5q15 0 26 -8q59 -52 139 -52q44 0 71.5 21.5t27.5 53.5q0 23 -23 39t-79 36q-45 16 -78 32q-72 37 -72 101t51 108t137 44
q97 0 165 -55q16 -12 16 -30q0 -16 -11.5 -27.5t-27.5 -11.5q-13 0 -24 8q-53 43 -121 43q-43 0 -69 -18.5t-26 -46.5z" />
    <glyph glyph-name="Scaron" unicode="&#x160;" horiz-adv-x="590" 
d="M24 113q0 20 14.5 34.5t34.5 14.5q19 0 33 -13q78 -72 192 -72q64 0 99 33t35 77q0 25 -18 44q-16 17 -39.5 29.5t-76.5 33.5q-59 23 -101 44q-94 49 -94 138q0 82 69.5 141.5t173.5 59.5q130 0 215 -73q18 -15 18 -38q0 -20 -14 -34t-34 -14q-18 0 -31 11
q-68 60 -167 60q-51 0 -87 -29t-36 -68q0 -31 28.5 -51.5t102.5 -49.5q59 -21 101 -45q97 -49 97 -142q0 -89 -68 -152.5t-181 -63.5q-151 0 -248 87q-18 17 -18 38zM349 859l53 -93l98 99q4 7 16 7q23 0 23 -23q0 -9 -6 -15l-76 -87q-21 -24 -49 -24h-29q-29 0 -38 23
l-40 88q-2 10 -2 11q0 11 8 19t19 8q16 0 23 -13z" />
    <glyph glyph-name="scaron" unicode="&#x161;" horiz-adv-x="468" 
d="M12 80q0 17 12 28.5t28 11.5q15 0 26 -8q59 -52 139 -52q44 0 71.5 21.5t27.5 53.5q0 23 -23 39t-79 36q-45 16 -78 32q-72 37 -72 101t51 108t137 44q97 0 165 -55q16 -12 16 -30q0 -16 -11.5 -27.5t-27.5 -11.5q-13 0 -24 8q-53 43 -121 43q-43 0 -69 -18.5t-26 -46.5
q0 -22 20 -34.5t78 -35.5q48 -17 79 -33q75 -37 75 -105t-53.5 -114.5t-141.5 -46.5q-110 0 -184 59q-15 12 -15 33zM258 712l53 -93l98 99q4 7 16 7q23 0 23 -23q0 -9 -6 -15l-76 -87q-21 -24 -49 -24h-29q-29 0 -38 23l-40 88q-2 10 -2 11q0 11 8 19t19 8q16 0 23 -13z
" />
    <glyph glyph-name="uni0162" unicode="&#x162;" horiz-adv-x="573" 
d="M194 44q0 8 1 11l115 524h-157q-18 0 -31 12.5t-13 31.5q0 18 13 31t31 13h434q18 0 30.5 -13t12.5 -31q0 -19 -12.5 -31.5t-30.5 -12.5h-177l-120 -546q-4 -16 -17 -27t-31 -11q-19 0 -33.5 14.5t-14.5 34.5zM154 -267q-9 0 -15 6.5t-6 13.5q0 11 9 17q47 29 59 65h-7
q-16 0 -28 12.5t-12 30.5q0 22 17 38.5t40 16.5q21 0 35 -15t14 -39q0 -38 -26 -76.5t-65 -64.5q-8 -5 -15 -5z" />
    <glyph glyph-name="uni0163" unicode="&#x163;" horiz-adv-x="306" 
d="M326 444q0 -16 -11 -27.5t-27 -11.5h-72l-61 -274q-3 -12 -3 -21q0 -42 49 -42q4 0 12 2q16 2 28 -8.5t13 -27.5q0 -28 -24 -36q-24 -10 -53 -10q-58 0 -89.5 22.5t-31.5 66.5q0 18 4 33l66 295h-37q-16 0 -27 11.5t-11 27.5t11 27.5t27 11.5h54l23 103q3 15 15 24.5
t27 9.5q19 0 32 -13t13 -31q0 -7 -1 -9l-19 -84h55q16 0 27 -11.5t11 -27.5zM25 -267q-9 0 -15 6.5t-6 13.5q0 11 9 17q47 29 59 65h-7q-16 0 -28 12.5t-12 30.5q0 22 17 38.5t40 16.5q21 0 35 -15t14 -39q0 -38 -26 -76.5t-65 -64.5q-8 -5 -15 -5z" />
    <glyph glyph-name="Tcaron" unicode="&#x164;" horiz-adv-x="573" 
d="M194 44q0 8 1 11l115 524h-157q-18 0 -31 12.5t-13 31.5q0 18 13 31t31 13h434q18 0 30.5 -13t12.5 -31q0 -19 -12.5 -31.5t-30.5 -12.5h-177l-120 -546q-4 -16 -17 -27t-31 -11q-19 0 -33.5 14.5t-14.5 34.5zM348 859l53 -93l98 99q4 7 16 7q23 0 23 -23q0 -9 -6 -15
l-76 -87q-21 -24 -49 -24h-29q-29 0 -38 23l-40 88q-2 10 -2 11q0 11 8 19t19 8q16 0 23 -13z" />
    <glyph glyph-name="tcaron" unicode="&#x165;" horiz-adv-x="332" 
d="M326 444q0 -16 -11 -27.5t-27 -11.5h-72l-61 -274q-3 -12 -3 -21q0 -42 49 -42q4 0 12 2q16 2 28 -8.5t13 -27.5q0 -28 -24 -36q-24 -10 -53 -10q-58 0 -89.5 22.5t-31.5 66.5q0 18 4 33l66 295h-37q-16 0 -27 11.5t-11 27.5t11 27.5t27 11.5h54l23 103q3 15 15 24.5
t27 9.5q19 0 32 -13t13 -31q0 -7 -1 -9l-19 -84h55q16 0 27 -11.5t11 -27.5zM336 549q-9 0 -15 6.5t-6 13.5q0 11 9 17q47 29 59 65h-7q-16 0 -28 12.5t-12 30.5q0 22 17 38.5t40 16.5q21 0 35 -15t14 -39q0 -38 -26 -76.5t-65 -64.5q-8 -5 -15 -5z" />
    <glyph glyph-name="Tbar" unicode="&#x166;" horiz-adv-x="573" 
d="M630 623q0 -19 -12.5 -31.5t-30.5 -12.5h-177l-53 -239h117q11 0 19 -8t8 -20q0 -11 -8 -19t-19 -8h-129l-55 -252q-4 -16 -17 -27t-31 -11q-19 0 -33.5 14.5t-14.5 34.5q0 8 1 11l50 230h-116q-11 0 -19 8t-8 20q0 11 8 19t19 8h129l52 239h-157q-18 0 -31 12.5
t-13 31.5q0 18 13 31t31 13h434q18 0 30.5 -13t12.5 -31z" />
    <glyph glyph-name="tbar" unicode="&#x167;" horiz-adv-x="306" 
d="M326 444q0 -16 -11 -27.5t-27 -11.5h-72l-29 -128h40q11 0 19 -8t8 -19q0 -12 -8 -20t-19 -8h-52l-20 -91q-3 -12 -3 -21q0 -42 49 -42q4 0 12 2q16 2 28 -8.5t13 -27.5q0 -28 -24 -36q-24 -10 -53 -10q-58 0 -89.5 22.5t-31.5 66.5q0 18 4 33l25 112h-51q-11 0 -19 8
t-8 20q0 11 8 19t19 8h63l29 128h-37q-16 0 -27 11.5t-11 27.5t11 27.5t27 11.5h54l23 103q3 15 15 24.5t27 9.5q19 0 32 -13t13 -31q0 -7 -1 -9l-19 -84h55q16 0 27 -11.5t11 -27.5z" />
    <glyph glyph-name="Utilde" unicode="&#x168;" horiz-adv-x="710" 
d="M78 261l82 373q4 16 17 27t31 11q20 0 34.5 -14.5t14.5 -34.5q0 -8 -1 -11l-76 -349q-5 -18 -5 -39q0 -66 44.5 -107t121.5 -41q82 0 129 47t68 140l82 371q4 16 17 27t31 11q20 0 34.5 -14.5t14.5 -34.5q0 -8 -1 -11l-77 -350q-30 -138 -100.5 -206t-197.5 -68
q-126 0 -197 60t-71 165q0 18 5 48zM411 806q-36 0 -53 -65q-5 -19 -24 -19q-13 0 -20.5 10t-4.5 22q32 107 108 107q25 0 40 -10.5t32 -36.5q23 -38 48 -38q34 0 53 65q5 19 24 19q13 0 20.5 -10.5t4.5 -22.5q-31 -106 -108 -106q-25 0 -40 10.5t-32 36.5q-23 38 -48 38z
" />
    <glyph glyph-name="utilde" unicode="&#x169;" 
d="M531 444q0 -7 -1 -9l-90 -406q-3 -15 -15 -24.5t-27 -9.5q-19 0 -31.5 13t-12.5 31q0 8 1 10l4 19q-85 -80 -168 -80q-67 0 -106 31.5t-39 87.5q0 14 5 42l67 305q3 15 15 24.5t28 9.5q19 0 31.5 -13t12.5 -31q0 -7 -1 -9l-58 -262q-4 -15 -4 -33q0 -72 87 -72
q76 0 146 70l69 316q3 15 15 24.5t28 9.5q19 0 31.5 -13t12.5 -31zM305 659q-36 0 -53 -65q-5 -19 -24 -19q-13 0 -20.5 10t-4.5 22q32 107 108 107q25 0 40 -10.5t32 -36.5q23 -38 48 -38q34 0 53 65q5 19 24 19q13 0 20.5 -10.5t4.5 -22.5q-31 -106 -108 -106
q-25 0 -40 10.5t-32 36.5q-23 38 -48 38z" />
    <glyph glyph-name="Umacron" unicode="&#x16a;" horiz-adv-x="710" 
d="M78 261l82 373q4 16 17 27t31 11q20 0 34.5 -14.5t14.5 -34.5q0 -8 -1 -11l-76 -349q-5 -18 -5 -39q0 -66 44.5 -107t121.5 -41q82 0 129 47t68 140l82 371q4 16 17 27t31 11q20 0 34.5 -14.5t14.5 -34.5q0 -8 -1 -11l-77 -350q-30 -138 -100.5 -206t-197.5 -68
q-126 0 -197 60t-71 165q0 18 5 48zM309 763q0 12 8 20t19 8h269q11 0 19.5 -8t8.5 -19q0 -12 -8.5 -20t-19.5 -8h-269q-11 0 -19 8t-8 19z" />
    <glyph glyph-name="umacron" unicode="&#x16b;" 
d="M531 444q0 -7 -1 -9l-90 -406q-3 -15 -15 -24.5t-27 -9.5q-19 0 -31.5 13t-12.5 31q0 8 1 10l4 19q-85 -80 -168 -80q-67 0 -106 31.5t-39 87.5q0 14 5 42l67 305q3 15 15 24.5t28 9.5q19 0 31.5 -13t12.5 -31q0 -7 -1 -9l-58 -262q-4 -15 -4 -33q0 -72 87 -72
q76 0 146 70l69 316q3 15 15 24.5t28 9.5q19 0 31.5 -13t12.5 -31zM203 616q0 12 8 20t19 8h269q11 0 19.5 -8t8.5 -19q0 -12 -8.5 -20t-19.5 -8h-269q-11 0 -19 8t-8 19z" />
    <glyph glyph-name="Ubreve" unicode="&#x16c;" horiz-adv-x="710" 
d="M78 261l82 373q4 16 17 27t31 11q20 0 34.5 -14.5t14.5 -34.5q0 -8 -1 -11l-76 -349q-5 -18 -5 -39q0 -66 44.5 -107t121.5 -41q82 0 129 47t68 140l82 371q4 16 17 27t31 11q20 0 34.5 -14.5t14.5 -34.5q0 -8 -1 -11l-77 -350q-30 -138 -100.5 -206t-197.5 -68
q-126 0 -197 60t-71 165q0 18 5 48zM319 785q-7 8 -7 19q0 12 9 21t21 9q13 0 24 -11q37 -49 105 -49q73 0 134 56q6 6 17 6t18.5 -7.5t7.5 -18.5q0 -10 -9 -18q-82 -73 -178 -73q-91 0 -142 66z" />
    <glyph glyph-name="ubreve" unicode="&#x16d;" 
d="M531 444q0 -7 -1 -9l-90 -406q-3 -15 -15 -24.5t-27 -9.5q-19 0 -31.5 13t-12.5 31q0 8 1 10l4 19q-85 -80 -168 -80q-67 0 -106 31.5t-39 87.5q0 14 5 42l67 305q3 15 15 24.5t28 9.5q19 0 31.5 -13t12.5 -31q0 -7 -1 -9l-58 -262q-4 -15 -4 -33q0 -72 87 -72
q76 0 146 70l69 316q3 15 15 24.5t28 9.5q19 0 31.5 -13t12.5 -31zM213 638q-7 8 -7 19q0 12 9 21t21 9q13 0 24 -11q37 -49 105 -49q73 0 134 56q6 6 17 6t18.5 -7.5t7.5 -18.5t-9 -18q-82 -73 -178 -73q-91 0 -142 66z" />
    <glyph glyph-name="Uring" unicode="&#x16e;" horiz-adv-x="710" 
d="M78 261l82 373q4 16 17 27t31 11q20 0 34.5 -14.5t14.5 -34.5q0 -8 -1 -11l-76 -349q-5 -18 -5 -39q0 -66 44.5 -107t121.5 -41q82 0 129 47t68 140l82 371q4 16 17 27t31 11q20 0 34.5 -14.5t14.5 -34.5q0 -8 -1 -11l-77 -350q-30 -138 -100.5 -206t-197.5 -68
q-126 0 -197 60t-71 165q0 18 5 48zM489 908q41 0 66.5 -25.5t25.5 -66.5q0 -44 -33 -77t-77 -33q-41 0 -66.5 26t-25.5 66q0 44 33 77t77 33zM486 862q-24 0 -42.5 -18t-18.5 -42q0 -22 13.5 -36t35.5 -14q25 0 43 17.5t18 42.5q0 23 -13.5 36.5t-35.5 13.5z" />
    <glyph glyph-name="uring" unicode="&#x16f;" 
d="M531 444q0 -7 -1 -9l-90 -406q-3 -15 -15 -24.5t-27 -9.5q-19 0 -31.5 13t-12.5 31q0 8 1 10l4 19q-85 -80 -168 -80q-67 0 -106 31.5t-39 87.5q0 14 5 42l67 305q3 15 15 24.5t28 9.5q19 0 31.5 -13t12.5 -31q0 -7 -1 -9l-58 -262q-4 -15 -4 -33q0 -72 87 -72
q76 0 146 70l69 316q3 15 15 24.5t28 9.5q19 0 31.5 -13t12.5 -31zM383 761q41 0 66.5 -25.5t25.5 -66.5q0 -44 -33 -77t-77 -33q-41 0 -66.5 26t-25.5 66q0 44 33 77t77 33zM380 715q-24 0 -42.5 -18t-18.5 -42q0 -22 13.5 -36t35.5 -14q25 0 43 17.5t18 42.5
q0 23 -13.5 36.5t-35.5 13.5z" />
    <glyph glyph-name="Uhungarumlaut" unicode="&#x170;" horiz-adv-x="710" 
d="M78 261l82 373q4 16 17 27t31 11q20 0 34.5 -14.5t14.5 -34.5q0 -8 -1 -11l-76 -349q-5 -18 -5 -39q0 -66 44.5 -107t121.5 -41q82 0 129 47t68 140l82 371q4 16 17 27t31 11q20 0 34.5 -14.5t14.5 -34.5q0 -8 -1 -11l-77 -350q-30 -138 -100.5 -206t-197.5 -68
q-126 0 -197 60t-71 165q0 18 5 48zM377 740q0 8 5 13l94 109q9 11 22 11q12 0 20 -8.5t8 -19.5q0 -13 -9 -20l-102 -101q-6 -6 -16 -6t-16 6.5t-6 15.5zM521 740q0 8 5 13l94 109q9 11 22 11q12 0 20 -8.5t8 -19.5q0 -13 -9 -20l-102 -101q-6 -6 -16 -6t-16 6.5t-6 15.5z
" />
    <glyph glyph-name="uhungarumlaut" unicode="&#x171;" 
d="M531 444q0 -7 -1 -9l-90 -406q-3 -15 -15 -24.5t-27 -9.5q-19 0 -31.5 13t-12.5 31q0 8 1 10l4 19q-85 -80 -168 -80q-67 0 -106 31.5t-39 87.5q0 14 5 42l67 305q3 15 15 24.5t28 9.5q19 0 31.5 -13t12.5 -31q0 -7 -1 -9l-58 -262q-4 -15 -4 -33q0 -72 87 -72
q76 0 146 70l69 316q3 15 15 24.5t28 9.5q19 0 31.5 -13t12.5 -31zM271 593q0 8 5 13l94 109q9 11 22 11q12 0 20 -8.5t8 -19.5q0 -12 -9 -20l-102 -101q-6 -6 -16 -6t-16 6.5t-6 15.5zM415 593q0 8 5 13l94 109q9 11 22 11q12 0 20 -8.5t8 -19.5q0 -12 -9 -20l-102 -101
q-6 -6 -16 -6t-16 6.5t-6 15.5z" />
    <glyph glyph-name="Uogonek" unicode="&#x172;" horiz-adv-x="710" 
d="M355 -124l12 1q13 2 22.5 -6t9.5 -21q0 -22 -20 -27q-29 -9 -59 -9q-39 0 -63 16t-24 45q0 32 29.5 62t76.5 51h-14q-119 4 -185.5 64t-66.5 161q0 18 5 48l82 373q4 16 17 27t31 11q20 0 34.5 -14.5t14.5 -34.5q0 -8 -1 -11l-76 -349q-5 -18 -5 -39q0 -66 44.5 -107
t121.5 -41q82 0 129 47t68 140l82 371q4 16 17 27t31 11q20 0 34.5 -14.5t14.5 -34.5q0 -8 -1 -11l-77 -350q-48 -214 -193 -259q-57 -18 -89.5 -44.5t-32.5 -55.5q0 -12 8.5 -19.5t22.5 -7.5z" />
    <glyph glyph-name="uogonek" unicode="&#x173;" 
d="M531 444q0 -7 -1 -9l-90 -406q-5 -26 -32 -33q-81 -51 -81 -93q0 -27 31 -27l13 1q12 2 22 -6t10 -21q0 -9 -6 -17t-15 -10q-27 -9 -58 -9q-40 0 -64 16.5t-24 43.5q0 40 39 73.5t100 53.5q-21 13 -21 39q0 7 1 9l4 19q-85 -80 -168 -80q-67 0 -106 31.5t-39 87.5
q0 14 5 42l67 305q3 15 15 24.5t28 9.5q19 0 31.5 -13t12.5 -31q0 -7 -1 -9l-58 -262q-4 -15 -4 -33q0 -72 87 -72q76 0 146 70l69 316q3 15 15 24.5t28 9.5q19 0 31.5 -13t12.5 -31z" />
    <glyph glyph-name="Wcircumflex" unicode="&#x174;" horiz-adv-x="893" 
d="M528 59l-22 456l-236 -482q-18 -38 -61 -38q-26 0 -45 18.5t-21 44.5l-37 557q-1 24 15 40.5t39 16.5q22 0 37.5 -15.5t16.5 -36.5l18 -488l253 512q13 28 44 28q20 0 34.5 -13.5t15.5 -33.5l25 -493l246 511q12 29 45 29q22 0 36.5 -14.5t14.5 -34.5q0 -12 -6 -24
l-286 -567q-18 -37 -60 -37q-27 0 -46 18.5t-20 45.5zM628 731l-53 93l-98 -99q-4 -7 -16 -7q-23 0 -23 23q0 9 6 15l76 87q21 24 49 24h29q29 0 38 -23l40 -88q2 -10 2 -11q0 -11 -8 -19t-19 -8q-16 0 -23 13z" />
    <glyph glyph-name="wcircumflex" unicode="&#x175;" horiz-adv-x="744" 
d="M432 49l-32 322l-187 -345q-18 -31 -52 -31q-23 0 -40 15.5t-19 38.5l-36 390q-2 19 11.5 34t32.5 15q18 0 30 -11.5t14 -29.5l25 -332l191 347q15 26 45 26q19 0 34 -13t17 -33l34 -327l182 350q11 23 38 23q18 0 30 -12t12 -30q0 -11 -5 -21l-213 -399q-18 -31 -52 -31
q-24 0 -41 15.5t-19 38.5zM519 584l-53 93l-98 -99q-4 -7 -16 -7q-23 0 -23 23q0 9 6 15l76 87q21 24 49 24h29q29 0 38 -23l40 -88q2 -10 2 -11q0 -11 -8 -19t-19 -8q-16 0 -23 13z" />
    <glyph glyph-name="Ycircumflex" unicode="&#x176;" horiz-adv-x="632" 
d="M656 596l-283 -317l-54 -246q-4 -16 -17 -27t-30 -11q-20 0 -34.5 14.5t-14.5 34.5q0 8 1 11l49 224l-146 324q-4 8 -4 21q0 20 14.5 34t34.5 14q33 0 45 -30l120 -273l251 287q12 16 34 16q19 0 32.5 -13.5t13.5 -32.5q0 -15 -12 -30zM499 731l-53 93l-98 -99
q-4 -7 -16 -7q-23 0 -23 23q0 9 6 15l76 87q21 24 49 24h29q29 0 38 -23l40 -88q2 -10 2 -11q0 -11 -8 -19t-19 -8q-16 0 -23 13z" />
    <glyph glyph-name="ycircumflex" unicode="&#x177;" horiz-adv-x="497" 
d="M5 -112q4 0 13 -1t14 -1q37 0 68 45l43 66l-81 437q-4 20 10 37t36 17q17 0 29.5 -11t15.5 -27l60 -346l226 364q11 20 37 20q18 0 30 -12.5t12 -30.5q0 -12 -7 -22l-328 -515q-36 -55 -73 -79.5t-88 -24.5q-11 0 -21 2q-16 2 -27 13.5t-11 26.5q0 18 12.5 30t29.5 12z
M400 584l-53 93l-98 -99q-4 -7 -16 -7q-23 0 -23 23q0 9 6 15l76 87q21 24 49 24h29q29 0 38 -23l40 -88q2 -10 2 -11q0 -11 -8 -19t-19 -8q-16 0 -23 13z" />
    <glyph glyph-name="Ydieresis" unicode="&#x178;" horiz-adv-x="632" 
d="M656 596l-283 -317l-54 -246q-4 -16 -17 -27t-30 -11q-20 0 -34.5 14.5t-14.5 34.5q0 8 1 11l49 224l-146 324q-4 8 -4 21q0 20 14.5 34t34.5 14q33 0 45 -30l120 -273l251 287q12 16 34 16q19 0 32.5 -13.5t13.5 -32.5q0 -15 -12 -30zM282 779q0 23 18 40.5t41 17.5
q20 0 33.5 -13.5t13.5 -33.5q0 -23 -18 -40.5t-41 -17.5q-20 0 -33.5 14t-13.5 33zM490 779q0 23 18 40.5t41 17.5q20 0 33.5 -13.5t13.5 -33.5q0 -23 -18 -40.5t-41 -17.5q-20 0 -33.5 14t-13.5 33z" />
    <glyph glyph-name="Zacute" unicode="&#x179;" horiz-adv-x="587" 
d="M-1 50q0 19 13 35l459 494h-301q-18 0 -31.5 12.5t-13.5 30.5q0 19 13.5 32t31.5 13h399q21 0 35.5 -14.5t14.5 -36.5q0 -21 -13 -34l-460 -494h310q18 0 31 -12.5t13 -31.5q0 -18 -13 -31t-31 -13h-406q-21 0 -36 14.5t-15 35.5zM402 718q-9 0 -16 7t-7 15q0 11 9 20
l126 103q7 7 20 7q12 0 19.5 -8t7.5 -20q0 -16 -12 -24l-131 -95q-8 -5 -16 -5z" />
    <glyph glyph-name="zacute" unicode="&#x17a;" horiz-adv-x="474" 
d="M-1 42q0 16 12 28l321 334h-204q-16 0 -27.5 11.5t-11.5 27.5t11.5 28t27.5 12h301q17 0 28.5 -11.5t11.5 -28.5q0 -12 -11 -28l-325 -337h211q16 0 27.5 -11.5t11.5 -27.5t-11.5 -27.5t-27.5 -11.5h-303q-17 0 -29.5 12t-12.5 30zM314 571q-9 0 -16 7t-7 15q0 11 9 20
l126 103q7 7 20 7q12 0 19.5 -8t7.5 -20q0 -17 -12 -24l-131 -95q-8 -5 -16 -5z" />
    <glyph glyph-name="Zdotaccent" unicode="&#x17b;" horiz-adv-x="587" 
d="M-1 50q0 19 13 35l459 494h-301q-18 0 -31.5 12.5t-13.5 30.5q0 19 13.5 32t31.5 13h399q21 0 35.5 -14.5t14.5 -36.5q0 -21 -13 -34l-460 -494h310q18 0 31 -12.5t13 -31.5q0 -18 -13 -31t-31 -13h-406q-21 0 -36 14.5t-15 35.5zM360 777q0 24 17.5 42t41.5 18
q20 0 34 -14t14 -34q0 -24 -18 -41t-42 -17q-20 0 -33.5 13t-13.5 33z" />
    <glyph glyph-name="zdotaccent" unicode="&#x17c;" horiz-adv-x="474" 
d="M-1 42q0 16 12 28l321 334h-204q-16 0 -27.5 11.5t-11.5 27.5t11.5 28t27.5 12h301q17 0 28.5 -11.5t11.5 -28.5q0 -12 -11 -28l-325 -337h211q16 0 27.5 -11.5t11.5 -27.5t-11.5 -27.5t-27.5 -11.5h-303q-17 0 -29.5 12t-12.5 30zM272 630q0 24 17.5 42t41.5 18
q20 0 34 -14t14 -34q0 -24 -18 -41t-42 -17q-20 0 -33.5 13t-13.5 33z" />
    <glyph glyph-name="Zcaron" unicode="&#x17d;" horiz-adv-x="587" 
d="M-1 50q0 19 13 35l459 494h-301q-18 0 -31.5 12.5t-13.5 30.5q0 19 13.5 32t31.5 13h399q21 0 35.5 -14.5t14.5 -36.5q0 -21 -13 -34l-460 -494h310q18 0 31 -12.5t13 -31.5q0 -18 -13 -31t-31 -13h-406q-21 0 -36 14.5t-15 35.5zM355 859l53 -93l98 99q4 7 16 7
q23 0 23 -23q0 -9 -6 -15l-76 -87q-21 -24 -49 -24h-29q-29 0 -38 23l-40 88q-2 10 -2 11q0 11 8 19t19 8q16 0 23 -13z" />
    <glyph glyph-name="zcaron" unicode="&#x17e;" horiz-adv-x="474" 
d="M-1 42q0 16 12 28l321 334h-204q-16 0 -27.5 11.5t-11.5 27.5t11.5 28t27.5 12h301q17 0 28.5 -11.5t11.5 -28.5q0 -12 -11 -28l-325 -337h211q16 0 27.5 -11.5t11.5 -27.5t-11.5 -27.5t-27.5 -11.5h-303q-17 0 -29.5 12t-12.5 30zM267 712l53 -93l98 99q4 7 16 7
q23 0 23 -23q0 -9 -6 -15l-76 -87q-21 -24 -49 -24h-29q-29 0 -38 23l-40 88q-2 10 -2 11q0 11 8 19t19 8q16 0 23 -13z" />
    <glyph glyph-name="longs" unicode="&#x17f;" horiz-adv-x="296" 
d="M404 634q0 -15 -11 -26t-26 -11q-2 0 -10 2q-11 4 -29 4q-65 0 -84 -88l-107 -486q-3 -15 -15 -24.5t-28 -9.5q-18 0 -30.5 12.5t-12.5 30.5q0 8 1 10l78 356h-36q-16 0 -27.5 11.5t-11.5 27.5t11.5 28t27.5 12h53l7 32q38 162 165 162q35 0 59 -9q26 -7 26 -34z" />
    <glyph glyph-name="uni018F" unicode="&#x18f;" horiz-adv-x="746" 
d="M728 384q2 -112 -52 -204.5t-141 -142.5t-185 -49q-133 0 -216.5 80t-83.5 211q0 26 1 33q2 50 56 50h517v16q0 94 -59 152.5t-156 58.5q-79 0 -150 -56q-14 -11 -29 -11q-20 0 -33.5 13.5t-13.5 32.5q0 20 18 36q93 74 214 74q134 2 224.5 -81.5t88.5 -212.5zM608 274
h-459q0 -82 58.5 -139.5t147.5 -57.5q83 0 154 53q71 54 99 144z" />
    <glyph glyph-name="uni0192" unicode="&#x192;" horiz-adv-x="438" 
d="M469 620q0 -17 -12.5 -29t-29.5 -12q-9 0 -15 2q-16 8 -33 8q-67 0 -86 -85l-39 -174h97q16 0 28 -12t12 -29q0 -16 -12 -28t-28 -12h-114l-84 -376q-4 -17 -17 -28t-31 -11q-21 0 -35.5 14.5t-14.5 34.5q0 8 1 11l79 355h-29q-16 0 -28 12.5t-12 28.5t12 28t28 12h46
l43 193q16 74 57.5 114t106.5 40q49 0 87 -21q23 -14 23 -36z" />
    <glyph glyph-name="uni019D" unicode="&#x19d;" horiz-adv-x="714" 
d="M673 672q21 0 35 -14.5t14 -35.5q0 -8 -1 -10l-125 -567q-4 -22 -22.5 -36t-41.5 -14q-40 0 -58 37l-236 503l-113 -513q-47 -218 -235 -218q-18 0 -32 2q-17 2 -28.5 14.5t-11.5 29.5q0 19 14.5 33t33.5 12q16 -2 18 -2q56 0 92 34t49 96l131 595q5 24 24 39t44 15
q44 0 62 -40l231 -488l108 490q4 16 17.5 27t30.5 11z" />
    <glyph glyph-name="Ohorn" unicode="&#x1a0;" horiz-adv-x="765" 
d="M706 541q41 -68 41 -156q2 -107 -49 -199.5t-139 -146t-190 -51.5q-136 0 -224.5 80.5t-88.5 213.5q-2 106 49 198.5t139 146t190 51.5q161 0 250 -106q52 30 64 68h-7q-15 0 -25.5 11t-10.5 28q0 21 15.5 36t35.5 15q21 0 33.5 -13t12.5 -37q0 -38 -27.5 -77.5
t-68.5 -61.5zM643 378q0 97 -61 154t-154 57q-108 2 -189 -87.5t-79 -213.5q0 -97 61 -154t154 -57q108 -2 189 87.5t79 213.5z" />
    <glyph glyph-name="ohorn" unicode="&#x1a1;" horiz-adv-x="572" 
d="M494 413q41 -56 41 -134q2 -115 -79 -204.5t-194 -86.5q-104 0 -166 59q-60 60 -60 157q-2 115 79 204.5t193 86.5q98 0 160 -54q45 26 60 66q-1 -1 -7 -1q-15 0 -26 11t-11 28q0 21 15.5 36t36.5 15t33.5 -13t12.5 -37q0 -37 -25 -74t-63 -59zM441 275q0 65 -36 102.5
t-99 37.5q-73 0 -124.5 -62.5t-51.5 -144.5q0 -65 36 -102.5t99 -37.5q73 0 124.5 62.5t51.5 144.5z" />
    <glyph glyph-name="Uhorn" unicode="&#x1af;" horiz-adv-x="710" 
d="M709 582l-70 -320q-30 -138 -100.5 -206t-197.5 -68q-126 0 -197 60t-71 165q0 20 5 48l82 373q4 16 17 27t31 11q20 0 34.5 -14.5t14.5 -34.5q0 -8 -1 -11l-76 -349q-5 -18 -5 -39q0 -66 44.5 -107t121.5 -41q82 0 129 47t68 140l82 371q4 16 17 27t31 11q20 0 34 -14
t15 -33q70 36 83 79q-1 -1 -7 -1q-15 0 -26 11t-11 28q0 21 15.5 36t36.5 15t33.5 -13t12.5 -37q0 -49 -40.5 -92.5t-104.5 -68.5z" />
    <glyph glyph-name="uhorn" unicode="&#x1b0;" 
d="M522 400l-82 -371q-3 -15 -15 -24.5t-27 -9.5q-19 0 -31.5 13t-12.5 31q0 8 1 10l4 19q-85 -80 -168 -80q-67 0 -106 31.5t-39 87.5q0 14 5 42l67 305q3 15 15 24.5t28 9.5q19 0 31.5 -13t12.5 -31q0 -7 -1 -9l-58 -262q-4 -15 -4 -33q0 -72 87 -72q76 0 146 70l69 316
q3 15 15 24.5t28 9.5q18 0 30.5 -12.5t13.5 -30.5q53 31 63 69h-7q-15 0 -26 11t-11 28q0 21 15.5 36t36.5 15t33.5 -13.5t12.5 -37.5q0 -45 -34.5 -86.5t-91.5 -66.5z" />
    <glyph glyph-name="Gcaron" unicode="&#x1e6;" horiz-adv-x="715" 
d="M673 307q0 -12 -1 -15l-35 -156q-7 -36 -33 -59q-101 -89 -235 -89q-135 -2 -225 81.5t-88 212.5q-3 166 111 282.5t275 113.5q147 0 234 -103q11 -14 11 -31q0 -20 -14 -35t-34 -15q-24 0 -39 18q-61 77 -171 77q-106 2 -188.5 -87.5t-80.5 -213.5q0 -94 59 -152.5
t156 -58.5q90 0 163 65l26 120h-164q-18 0 -30.5 13t-12.5 31q0 19 12.5 31.5t30.5 12.5h224q49 0 49 -43zM447 859l53 -93l98 99q4 7 16 7q23 0 23 -23q0 -9 -6 -15l-76 -87q-21 -24 -49 -24h-29q-29 0 -38 23l-40 88q-2 10 -2 11q0 11 8 19t19 8q16 0 23 -13z" />
    <glyph glyph-name="gcaron" unicode="&#x1e7;" horiz-adv-x="577" 
d="M548 444q0 -8 -1 -10l-92 -415q-23 -111 -86.5 -163t-156.5 -52q-124 0 -193 56q-16 13 -16 32q0 17 12 28.5t28 11.5q14 0 25 -8q52 -46 142 -46q125 0 155 141l13 58q-63 -79 -159 -79q-83 0 -133 51.5t-50 147.5q-2 117 70 209t181 89q47 0 93 -23.5t72 -61.5l10 44
q3 14 15 24t28 10q18 0 30.5 -13t12.5 -31zM394 149l43 191q-19 35 -57 55t-84 20q-72 0 -119.5 -61t-47.5 -142q0 -62 35 -98.5t94 -36.5q36 0 73.5 20t62.5 52zM320 712l53 -93l98 99q4 7 16 7q23 0 23 -23q0 -9 -6 -15l-76 -87q-21 -24 -49 -24h-29q-29 0 -38 23l-40 88
q-2 10 -2 11q0 11 8 19t19 8q16 0 23 -13z" />
    <glyph glyph-name="uni01EA" unicode="&#x1ea;" horiz-adv-x="765" 
d="M372 -97q0 -27 31 -27l13 1q12 2 22 -6t10 -21q0 -9 -6 -17t-15 -10q-27 -9 -58 -9q-40 0 -64 16.5t-24 43.5q0 67 106 114h-18q-136 0 -224.5 80.5t-88.5 213.5q-2 106 49 198.5t139 146t190 51.5q136 0 224.5 -80t88.5 -213q0 -141 -82 -249t-209 -138q-84 -52 -84 -95
zM375 77q108 -2 189 87.5t79 213.5q0 97 -61 154t-154 57q-108 2 -189 -87.5t-79 -213.5q0 -97 61 -154t154 -57z" />
    <glyph glyph-name="uni01EB" unicode="&#x1eb;" horiz-adv-x="572" 
d="M250 -97q0 -27 32 -27l12 1q13 2 22.5 -6t9.5 -21q0 -22 -20 -27q-28 -9 -59 -9q-39 0 -63 16.5t-24 43.5q0 33 28.5 62.5t76.5 51.5h-3q-104 0 -166 59q-60 60 -60 157q-2 115 79 204.5t193 86.5q104 0 165.5 -60t61.5 -156q0 -97 -56.5 -176.5t-144.5 -104.5
q-84 -52 -84 -95zM265 68q73 0 124.5 62.5t51.5 144.5q0 65 -36 102.5t-99 37.5q-73 0 -124.5 -62.5t-51.5 -144.5q0 -65 36 -102.5t99 -37.5z" />
    <glyph glyph-name="Aringacute" unicode="&#x1fa;" horiz-adv-x="666" 
d="M596 55l1 -8q0 -22 -15 -37t-36 -15q-19 0 -33.5 12t-17.5 31l-16 100h-331l-71 -119q-13 -24 -42 -24q-20 0 -34.5 14.5t-14.5 34.5q0 8 8 26l347 561q25 41 73 41q32 0 56 -20.5t29 -50.5zM202 227h264l-55 350zM467 908q41 0 66.5 -25.5t25.5 -66.5q0 -44 -33 -77
t-77 -33q-41 0 -66.5 26t-25.5 66q0 44 33 77t77 33zM464 862q-24 0 -42.5 -18t-18.5 -42q0 -22 13.5 -36t35.5 -14q25 0 43 17.5t18 42.5q0 23 -13.5 36.5t-35.5 13.5zM487 930q-9 0 -16 7t-7 15q0 11 9 20l126 103q7 7 20 7q12 0 19.5 -8t7.5 -20q0 -16 -12 -24l-131 -95
q-8 -5 -16 -5z" />
    <glyph glyph-name="aringacute" unicode="&#x1fb;" horiz-adv-x="578" 
d="M550 444q0 -7 -1 -9l-90 -406q-3 -15 -15 -24.5t-28 -9.5q-19 0 -31.5 13t-12.5 31q0 7 1 9l5 19q-64 -79 -156 -79q-85 0 -135.5 53t-50.5 146q-2 121 71 215.5t183 92.5q53 0 96 -22.5t67 -61.5l10 43q9 34 43 34q19 0 31.5 -13t12.5 -31zM394 143l45 200
q-18 33 -54.5 52.5t-82.5 19.5q-73 0 -122 -63t-49 -148q0 -62 34.5 -99t91.5 -37q39 0 76 21t61 54zM394 761q41 0 66.5 -25.5t25.5 -66.5q0 -44 -33 -77t-77 -33q-41 0 -66.5 26t-25.5 66q0 44 33 77t77 33zM391 715q-24 0 -42.5 -18t-18.5 -42q0 -22 13.5 -36t35.5 -14
q25 0 43 17.5t18 42.5q0 23 -13.5 36.5t-35.5 13.5zM413 783q-9 0 -16 7t-7 15q0 11 9 20l126 103q7 7 20 7q12 0 19.5 -8t7.5 -20q0 -17 -12 -24l-131 -95q-8 -5 -16 -5z" />
    <glyph glyph-name="AEacute" unicode="&#x1fc;" horiz-adv-x="953" 
d="M990 622q0 -18 -13 -30.5t-31 -12.5h-317l-43 -195h290q18 0 31 -12.5t13 -31.5q0 -18 -13 -31t-31 -13h-310l-46 -208h298q18 0 31 -12.5t13 -30.5q0 -19 -13 -32t-31 -13h-357q-49 0 -49 43q0 1 2 15l17 80h-258l-102 -127q-13 -16 -34 -16q-18 0 -30.5 13t-12.5 31
q0 14 10 27l479 570q25 31 65 31h398q18 0 31 -13t13 -32zM451 227l76 349l-282 -349h206zM612 718q-9 0 -16 7t-7 15q0 11 9 20l126 103q7 7 20 7q12 0 19.5 -8t7.5 -20q0 -16 -12 -24l-131 -95q-8 -5 -16 -5z" />
    <glyph glyph-name="aeacute" unicode="&#x1fd;" horiz-adv-x="931" 
d="M894 288q0 -21 -1 -28q-5 -48 -57 -48h-332q-1 -3 -1 -20q0 -53 41.5 -90.5t113.5 -37.5q53 0 103 26q7 4 16 4q15 0 25.5 -10t10.5 -25q0 -21 -19 -31q-68 -40 -133 -40q-145 0 -185 119l-17 -78q-3 -15 -15 -24.5t-28 -9.5q-19 0 -31.5 13t-12.5 31q0 7 1 9l5 19
q-64 -79 -156 -79q-85 0 -135.5 53t-50.5 146q-2 121 71 215.5t183 92.5q53 0 96.5 -22.5t67.5 -62.5l9 43q3 16 15 25.5t28 9.5q19 0 31.5 -12.5t12.5 -30.5q0 -8 -1 -10l-6 -27q73 87 168 87q87 0 135 -55t48 -152zM811 293q0 58 -34.5 93t-98.5 35q-59 0 -106.5 -43
t-58.5 -101h297q1 2 1 16zM394 143l45 200q-18 33 -54.5 52.5t-82.5 19.5q-73 0 -122 -63t-49 -148q0 -62 34.5 -99t91.5 -37q39 0 76 21t61 54zM539 571q-9 0 -16 7t-7 15q0 11 9 20l126 103q7 7 20 7q12 0 19.5 -8t7.5 -20q0 -17 -12 -24l-131 -95q-8 -5 -16 -5z" />
    <glyph glyph-name="Oslashacute" unicode="&#x1fe;" horiz-adv-x="765" 
d="M765 693q0 -11 -8 -19l-85 -89q75 -80 75 -200q2 -107 -49 -199.5t-139 -146t-190 -51.5q-117 0 -203 62l-84 -89q-9 -9 -19 -9q-9 0 -15.5 6.5t-6.5 15.5q0 10 8 18l83 88q-76 81 -76 202q-2 106 49 198.5t139 146t190 51.5q119 0 204 -63l86 91q9 9 19 9q9 0 15.5 -6.5
t6.5 -15.5zM202 154l368 389q-58 46 -142 46q-108 2 -189 -87.5t-79 -213.5q0 -78 42 -134zM602 510l-368 -388q57 -45 141 -45q108 -2 189 87.5t79 213.5q0 77 -41 132zM488 718q-9 0 -16 7t-7 15q0 11 9 20l126 103q7 7 20 7q12 0 19.5 -8t7.5 -20q0 -16 -12 -24l-131 -95
q-8 -5 -16 -5z" />
    <glyph glyph-name="oslashacute" unicode="&#x1ff;" horiz-adv-x="572" 
d="M535 279q2 -115 -79 -204.5t-194 -86.5q-77 0 -130 32l-49 -60q-6 -8 -16 -8q-8 0 -14 6t-6 14q0 7 5 14l48 58q-64 58 -64 160q-2 115 79 204.5t193 86.5q78 0 134 -35l51 63q8 8 16 8t14 -5.5t6 -13.5q0 -6 -6 -14l-50 -61q62 -60 62 -158zM158 115l228 278
q-32 22 -80 22q-73 0 -124.5 -62.5t-51.5 -144.5q0 -58 28 -93zM441 275q0 53 -26 91l-227 -278q32 -20 77 -20q73 0 124.5 62.5t51.5 144.5zM362 571q-9 0 -16 7t-7 15q0 11 9 20l126 103q7 7 20 7q12 0 19.5 -8t7.5 -20q0 -17 -12 -24l-131 -95q-8 -5 -16 -5z" />
    <glyph glyph-name="uni0218" unicode="&#x218;" horiz-adv-x="590" 
d="M24 113q0 20 14.5 34.5t34.5 14.5q19 0 33 -13q78 -72 192 -72q64 0 99 33t35 77q0 25 -18 44q-16 17 -39.5 29.5t-76.5 33.5q-59 23 -101 44q-94 49 -94 138q0 82 69.5 141.5t173.5 59.5q130 0 215 -73q18 -15 18 -38q0 -20 -14 -34t-34 -14q-18 0 -31 11
q-68 60 -167 60q-51 0 -87 -29t-36 -68q0 -31 28.5 -51.5t102.5 -49.5q59 -21 101 -45q97 -49 97 -142q0 -89 -68 -152.5t-181 -63.5q-151 0 -248 87q-18 17 -18 38zM155 -267q-9 0 -15 6.5t-6 13.5q0 11 9 17q47 29 59 65h-7q-16 0 -28 12.5t-12 30.5q0 22 17 38.5t40 16.5
q21 0 35 -15t14 -39q0 -38 -26 -76.5t-65 -64.5q-8 -5 -15 -5z" />
    <glyph glyph-name="uni0219" unicode="&#x219;" horiz-adv-x="468" 
d="M12 80q0 17 12 28.5t28 11.5q15 0 26 -8q59 -52 139 -52q44 0 71.5 21.5t27.5 53.5q0 23 -23 39t-79 36q-45 16 -78 32q-72 37 -72 101t51 108t137 44q97 0 165 -55q16 -12 16 -30q0 -16 -11.5 -27.5t-27.5 -11.5q-13 0 -24 8q-53 43 -121 43q-43 0 -69 -18.5t-26 -46.5
q0 -22 20 -34.5t78 -35.5q48 -17 79 -33q75 -37 75 -105t-53.5 -114.5t-141.5 -46.5q-110 0 -184 59q-15 12 -15 33zM95 -267q-9 0 -15 6.5t-6 13.5q0 11 9 17q47 29 59 65h-7q-16 0 -28 12.5t-12 30.5q0 22 17 38.5t40 16.5q21 0 35 -15t14 -39q0 -38 -26 -76.5t-65 -64.5
q-8 -5 -15 -5z" />
    <glyph glyph-name="uni021A" unicode="&#x21a;" horiz-adv-x="573" 
d="M194 44q0 8 1 11l115 524h-157q-18 0 -31 12.5t-13 31.5q0 18 13 31t31 13h434q18 0 30.5 -13t12.5 -31q0 -19 -12.5 -31.5t-30.5 -12.5h-177l-120 -546q-4 -16 -17 -27t-31 -11q-19 0 -33.5 14.5t-14.5 34.5zM154 -267q-9 0 -15 6.5t-6 13.5q0 11 9 17q47 29 59 65h-7
q-16 0 -28 12.5t-12 30.5q0 22 17 38.5t40 16.5q21 0 35 -15t14 -39q0 -38 -26 -76.5t-65 -64.5q-8 -5 -15 -5z" />
    <glyph glyph-name="uni021B" unicode="&#x21b;" horiz-adv-x="306" 
d="M326 444q0 -16 -11 -27.5t-27 -11.5h-72l-61 -274q-3 -12 -3 -21q0 -42 49 -42q4 0 12 2q16 2 28 -8.5t13 -27.5q0 -28 -24 -36q-24 -10 -53 -10q-58 0 -89.5 22.5t-31.5 66.5q0 18 4 33l66 295h-37q-16 0 -27 11.5t-11 27.5t11 27.5t27 11.5h54l23 103q3 15 15 24.5
t27 9.5q19 0 32 -13t13 -31q0 -7 -1 -9l-19 -84h55q16 0 27 -11.5t11 -27.5zM25 -267q-9 0 -15 6.5t-6 13.5q0 11 9 17q47 29 59 65h-7q-16 0 -28 12.5t-12 30.5q0 22 17 38.5t40 16.5q21 0 35 -15t14 -39q0 -38 -26 -76.5t-65 -64.5q-8 -5 -15 -5z" />
    <glyph glyph-name="uni0232" unicode="&#x232;" horiz-adv-x="632" 
d="M656 596l-283 -317l-54 -246q-4 -16 -17 -27t-30 -11q-20 0 -34.5 14.5t-14.5 34.5q0 8 1 11l49 224l-146 324q-4 8 -4 21q0 20 14.5 34t34.5 14q33 0 45 -30l120 -273l251 287q12 16 34 16q19 0 32.5 -13.5t13.5 -32.5q0 -15 -12 -30zM271 763q0 12 8 20t19 8h269
q11 0 19.5 -8t8.5 -19q0 -12 -8.5 -20t-19.5 -8h-269q-11 0 -19 8t-8 19z" />
    <glyph glyph-name="uni0233" unicode="&#x233;" horiz-adv-x="497" 
d="M5 -112q4 0 13 -1t14 -1q37 0 68 45l43 66l-81 437q-4 20 10 37t36 17q17 0 29.5 -11t15.5 -27l60 -346l226 364q11 20 37 20q18 0 30 -12.5t12 -30.5q0 -12 -7 -22l-328 -515q-36 -55 -73 -79.5t-88 -24.5q-11 0 -21 2q-16 2 -27 13.5t-11 26.5q0 18 12.5 30t29.5 12z
M172 616q0 12 8 20t19 8h269q11 0 19.5 -8t8.5 -19q0 -12 -8.5 -20t-19.5 -8h-269q-11 0 -19 8t-8 19z" />
    <glyph glyph-name="uni0237" unicode="&#x237;" horiz-adv-x="233" 
d="M-128 -156q0 17 12.5 28.5t29.5 9.5q3 -1 13 -1q63 0 82 81l109 492q3 15 15 24.5t28 9.5q18 0 30.5 -12.5t12.5 -30.5q0 -8 -1 -10l-104 -473q-36 -158 -163 -158q-20 0 -31 3q-15 2 -24 12t-9 25z" />
    <glyph glyph-name="uni0259" unicode="&#x259;" horiz-adv-x="560" 
d="M248 -12q-94 0 -152 59t-58 154q0 16 1 21q2 49 56 49h335l1 20q0 53 -42 91.5t-113 38.5q-59 0 -108 -28q-8 -3 -15 -3q-15 0 -25 10t-10 25q0 19 18 30q70 40 146 40q111 0 175.5 -58t64.5 -157q2 -118 -79.5 -206t-194.5 -86zM119 190q0 -58 36 -93t101 -35
q59 0 106 42.5t59 101.5h-301q-1 -2 -1 -16z" />
    <glyph glyph-name="uni0272" unicode="&#x272;" 
d="M512 373q0 -22 -4 -39l-68 -305q-3 -15 -15 -24.5t-27 -9.5q-19 0 -32 13t-13 31q0 7 1 9l58 262q4 15 4 33q0 72 -86 72q-77 0 -147 -70l-84 -383q-35 -158 -163 -158q-20 0 -31 3q-15 2 -24 12t-9 25q0 17 12.5 28t29.5 10q3 -1 13 -1q63 0 82 81l109 492q3 14 15 24
t28 10q18 0 30.5 -13t12.5 -31q0 -8 -1 -10l-4 -19q85 80 168 80q69 0 107 -31.5t38 -90.5z" />
    <glyph glyph-name="uni02B0" unicode="&#x2b0;" horiz-adv-x="401" 
d="M298 361l35 161l2 20q0 49 -61 49q-42 0 -88 -46l-43 -198q-7 -26 -33 -26q-15 0 -25 12.5t-7 27.5l84 378q5 26 32 26q16 0 26 -12.5t6 -27.5l-28 -128q51 51 110 51q48 0 74.5 -21t26.5 -60q0 -13 -4 -30l-43 -190q-2 -11 -11.5 -18.5t-19.5 -7.5q-16 0 -26 12.5
t-7 27.5z" />
    <glyph glyph-name="uni02BC" unicode="&#x2bc;" horiz-adv-x="237" 
d="M142 442q-25 0 -25 25q0 12 11 20q52 35 66 72h-8q-21 0 -34.5 14t-13.5 37q0 27 20.5 47t47.5 20q25 0 42.5 -18t17.5 -47q0 -44 -30.5 -90t-79.5 -77q-4 -3 -14 -3z" />
    <glyph glyph-name="circumflex" unicode="&#x2c6;" horiz-adv-x="275" 
d="M282 564l-53 93l-98 -99q-4 -7 -16 -7q-23 0 -23 23q0 9 6 15l76 87q21 24 49 24h29q29 0 38 -23l40 -88q2 -10 2 -11q0 -11 -8 -19t-19 -8q-16 0 -23 13z" />
    <glyph glyph-name="caron" unicode="&#x2c7;" horiz-adv-x="275" 
d="M163 692l53 -93l98 99q4 7 16 7q23 0 23 -23q0 -9 -6 -15l-76 -87q-21 -24 -49 -24h-29q-29 0 -38 23l-40 88q-2 10 -2 11q0 11 8 19t19 8q16 0 23 -13z" />
    <glyph glyph-name="uni02C9" unicode="&#x2c9;" horiz-adv-x="363" 
d="M103 618q0 12 8 20t19 8h269q11 0 19 -8t8 -20q0 -11 -8 -19t-19 -8h-269q-11 0 -19 8t-8 19z" />
    <glyph glyph-name="uni02CB" unicode="&#x2cb;" horiz-adv-x="233" 
d="M230 562l-82 87q-10 11 -10 24q0 14 9 23t23 9q16 0 25 -12l75 -95q8 -8 8 -18q0 -11 -8 -19.5t-19 -8.5t-21 10z" />
    <glyph glyph-name="breve" unicode="&#x2d8;" horiz-adv-x="351" 
d="M102 618q-7 8 -7 19q0 12 9 21t21 9q13 0 24 -11q37 -49 105 -49q73 0 134 56q6 6 17 6t18.5 -7.5t7.5 -18.5t-9 -18q-82 -73 -178 -73q-91 0 -142 66z" />
    <glyph glyph-name="dotaccent" unicode="&#x2d9;" horiz-adv-x="139" 
d="M99 610q0 24 17.5 42t41.5 18q20 0 34 -14t14 -34q0 -24 -18 -41t-42 -17q-20 0 -33.5 13t-13.5 33z" />
    <glyph glyph-name="ring" unicode="&#x2da;" horiz-adv-x="242" 
d="M218 741q41 0 66.5 -25.5t25.5 -66.5q0 -44 -33 -77t-77 -33q-41 0 -66.5 26t-25.5 66q0 44 33 77t77 33zM215 695q-24 0 -42.5 -18t-18.5 -42q0 -22 13.5 -36t35.5 -14q25 0 43 17.5t18 42.5q0 23 -13.5 36.5t-35.5 13.5z" />
    <glyph glyph-name="ogonek" unicode="&#x2db;" horiz-adv-x="201" 
d="M78 -177q-29 -9 -59 -9q-39 0 -63 16.5t-24 43.5q0 40 39 73.5t100 53.5q47 15 50 8q1 -1 -4 -4q-95 -59 -95 -102q0 -27 32 -27l12 1q13 2 22.5 -6t9.5 -21q0 -22 -20 -27z" />
    <glyph glyph-name="tilde" unicode="&#x2dc;" horiz-adv-x="317" 
d="M179 639q-36 0 -53 -65q-5 -19 -24 -19q-13 0 -20.5 10t-4.5 22q32 107 108 107q25 0 40 -10.5t32 -36.5q23 -38 48 -38q34 0 53 65q5 19 24 19q13 0 20.5 -10.5t4.5 -22.5q-31 -106 -108 -106q-25 0 -40 10.5t-32 36.5q-23 38 -48 38z" />
    <glyph glyph-name="hungarumlaut" unicode="&#x2dd;" horiz-adv-x="315" 
d="M88 573q0 8 5 13l94 109q9 11 22 11q12 0 20 -8.5t8 -19.5q0 -12 -9 -20l-102 -101q-6 -6 -16 -6t-16 6.5t-6 15.5zM232 573q0 8 5 13l94 109q9 11 22 11q12 0 20 -8.5t8 -19.5q0 -12 -9 -20l-102 -101q-6 -6 -16 -6t-16 6.5t-6 15.5z" />
    <glyph glyph-name="gravecomb" unicode="&#x300;" horiz-adv-x="0" 
d="M-3 562l-82 87q-10 11 -10 24q0 14 9 23t23 9q16 0 25 -12l75 -95q8 -8 8 -18q0 -11 -8 -19.5t-19 -8.5t-21 10z" />
    <glyph glyph-name="acutecomb" unicode="&#x301;" horiz-adv-x="0" 
d="M-112 551q-9 0 -16 7t-7 15q0 11 9 20l126 103q7 7 20 7q12 0 19.5 -8t7.5 -20q0 -17 -12 -24l-131 -95q-8 -5 -16 -5z" />
    <glyph glyph-name="uni0302" unicode="&#x302;" horiz-adv-x="0" 
d="M7 564l-53 93l-98 -99q-4 -7 -16 -7q-23 0 -23 23q0 9 6 15l76 87q21 24 49 24h29q29 0 38 -23l40 -88q2 -10 2 -11q0 -11 -8 -19t-19 -8q-16 0 -23 13z" />
    <glyph glyph-name="tildecomb" unicode="&#x303;" horiz-adv-x="0" 
d="M-138 639q-36 0 -53 -65q-5 -19 -24 -19q-13 0 -20.5 10t-4.5 22q32 107 108 107q25 0 40 -10.5t32 -36.5q23 -38 48 -38q34 0 53 65q5 19 24 19q13 0 20.5 -10.5t4.5 -22.5q-31 -106 -108 -106q-25 0 -40 10.5t-32 36.5q-23 38 -48 38z" />
    <glyph glyph-name="uni0304" unicode="&#x304;" horiz-adv-x="0" 
d="M-264 596q0 12 8 20t19 8h269q11 0 19.5 -8t8.5 -19q0 -12 -8.5 -20t-19.5 -8h-269q-11 0 -19 8t-8 19z" />
    <glyph glyph-name="uni0306" unicode="&#x306;" horiz-adv-x="0" 
d="M-249 618q-7 8 -7 19q0 12 9 21t21 9q13 0 24 -11q37 -49 105 -49q73 0 134 56q6 6 17 6t18.5 -7.5t7.5 -18.5t-9 -18q-82 -73 -178 -73q-91 0 -142 66z" />
    <glyph glyph-name="uni0307" unicode="&#x307;" horiz-adv-x="0" 
d="M-40 610q0 24 17.5 42t41.5 18q20 0 34 -14t14 -34q0 -24 -18 -41t-42 -17q-20 0 -33.5 13t-13.5 33z" />
    <glyph glyph-name="uni0308" unicode="&#x308;" horiz-adv-x="0" 
d="M-282 612q0 23 18 40.5t41 17.5q20 0 33.5 -13.5t13.5 -33.5q0 -23 -18 -40.5t-41 -17.5q-20 0 -33.5 14t-13.5 33zM-74 612q0 23 18 40.5t41 17.5q20 0 33.5 -13.5t13.5 -33.5q0 -23 -18 -40.5t-41 -17.5q-20 0 -33.5 14t-13.5 33z" />
    <glyph glyph-name="uni0309" unicode="&#x309;" horiz-adv-x="0" 
d="M15 575q0 7 3 12q15 23 15 46q0 17 -11.5 27.5t-29.5 10.5q-26 0 -44 -25q-6 -9 -19 -9q-9 0 -16 6.5t-7 16.5q0 6 6 14q33 42 85 42q37 0 62.5 -21.5t25.5 -56.5q0 -36 -27 -76q-7 -10 -20 -10q-10 0 -16.5 6.5t-6.5 16.5z" />
    <glyph glyph-name="uni030A" unicode="&#x30a;" horiz-adv-x="0" 
d="M-24 741q41 0 66.5 -25.5t25.5 -66.5q0 -44 -33 -77t-77 -33q-41 0 -66.5 26t-25.5 66q0 44 33 77t77 33zM-27 695q-24 0 -42.5 -18t-18.5 -42q0 -22 13.5 -36t35.5 -14q25 0 43 17.5t18 42.5q0 23 -13.5 36.5t-35.5 13.5z" />
    <glyph glyph-name="uni030B" unicode="&#x30b;" horiz-adv-x="0" 
d="M-227 573q0 8 5 13l94 109q9 11 22 11q12 0 20 -8.5t8 -19.5q0 -12 -9 -20l-102 -101q-6 -6 -16 -6t-16 6.5t-6 15.5zM-83 573q0 8 5 13l94 109q9 11 22 11q12 0 20 -8.5t8 -19.5q0 -12 -9 -20l-102 -101q-6 -6 -16 -6t-16 6.5t-6 15.5z" />
    <glyph glyph-name="uni030C" unicode="&#x30c;" horiz-adv-x="0" 
d="M-112 692l53 -93l98 99q4 7 16 7q23 0 23 -23q0 -9 -6 -15l-76 -87q-21 -24 -49 -24h-29q-29 0 -38 23l-40 88q-2 10 -2 11q0 11 8 19t19 8q16 0 23 -13z" />
    <glyph glyph-name="dotbelowcomb" unicode="&#x323;" horiz-adv-x="0" 
d="M-203 -124q0 23 18 41t41 18q20 0 34 -14t14 -34q0 -23 -18.5 -40.5t-41.5 -17.5q-20 0 -33.5 13.5t-13.5 33.5z" />
    <glyph glyph-name="uni0326" unicode="&#x326;" horiz-adv-x="0" 
d="M-252 -267q-9 0 -15 6.5t-6 13.5q0 11 9 17q47 29 59 65h-7q-16 0 -28 12.5t-12 30.5q0 22 17 38.5t40 16.5q21 0 35 -15t14 -39q0 -38 -26 -76.5t-65 -64.5q-8 -5 -15 -5z" />
    <glyph glyph-name="uni0327" unicode="&#x327;" horiz-adv-x="0" 
d="M-293 -146q0 10 7 17t17 7q7 0 14 -4q32 -23 69 -23q27 0 43 12t16 31q0 13 -9.5 20.5t-25.5 7.5q-14 0 -26 -9q-8 -5 -16 -5q-9 0 -14.5 5.5t-5.5 12.5q0 11 4 16l41 69h50l-40 -65q16 11 33 11q26 0 42 -16t16 -44q0 -40 -30.5 -65t-78.5 -25q-55 0 -95 27
q-11 6 -11 20z" />
    <glyph glyph-name="uni0328" unicode="&#x328;" horiz-adv-x="0" 
d="M-123 -177q-29 -9 -59 -9q-39 0 -63 16.5t-24 43.5q0 40 39 73.5t100 53.5q47 15 50 8q1 -1 -4 -4q-95 -59 -95 -102q0 -27 32 -27l12 1q13 2 22.5 -6t9.5 -21q0 -22 -20 -27z" />
    <glyph glyph-name="uni037E" unicode="&#x37e;" horiz-adv-x="238" 
d="M164 490q25 0 41.5 -16.5t16.5 -40.5q0 -28 -20.5 -48t-48.5 -20q-24 0 -40.5 17t-16.5 41q0 27 20.5 47t47.5 20zM18 -121q-10 0 -17.5 7t-7.5 18q0 13 11 21q52 35 66 72h-9q-20 0 -34 14t-14 36q0 27 20.5 47t47.5 20t43.5 -17.5t16.5 -47.5q0 -44 -31 -90t-79 -76
q-4 -4 -13 -4z" />
    <glyph glyph-name="tonos" unicode="&#x384;" horiz-adv-x="129" 
d="M92 596l52 161q8 25 34 25q15 0 26 -10.5t11 -25.5q0 -9 -5 -17l-78 -149q-7 -12 -19 -12q-11 0 -17.5 8.5t-3.5 19.5z" />
    <glyph glyph-name="dieresistonos" unicode="&#x385;" horiz-adv-x="407" 
d="M247 596l52 161q7 25 33 25q16 0 26.5 -10.5t10.5 -25.5q0 -9 -5 -17l-78 -149q-8 -12 -19 -12t-17.5 8.5t-2.5 19.5zM95 612q0 23 18 40.5t41 17.5q20 0 33.5 -13.5t13.5 -33.5q0 -22 -18 -40t-41 -18q-20 0 -33.5 13.5t-13.5 33.5zM372 612q0 23 18 40.5t41 17.5
q20 0 33.5 -13.5t13.5 -33.5q0 -22 -18 -40t-41 -18q-20 0 -33.5 13.5t-13.5 33.5z" />
    <glyph glyph-name="Alphatonos" unicode="&#x386;" horiz-adv-x="666" 
d="M596 55l1 -8q0 -22 -15 -37t-36 -15q-19 0 -33.5 12t-17.5 31l-16 100h-331l-71 -119q-13 -24 -42 -24q-20 0 -34.5 14.5t-14.5 34.5q0 8 8 26l347 561q25 41 73 41q32 0 56 -20.5t29 -50.5zM202 227h264l-55 350zM123 492l52 161q8 25 34 25q15 0 26 -10.5t11 -25.5
q0 -9 -5 -17l-78 -149q-7 -12 -19 -12q-11 0 -17.5 8.5t-3.5 19.5z" />
    <glyph glyph-name="Epsilontonos" unicode="&#x388;" horiz-adv-x="621" 
d="M79 43q0 1 2 15l124 562q11 47 58 47h350q18 0 31 -13t13 -32q0 -18 -13 -30.5t-31 -12.5h-317l-43 -195h290q18 0 31 -12.5t13 -31.5q0 -18 -13 -31t-31 -13h-310l-46 -208h298q18 0 31 -12.5t13 -30.5q0 -19 -13 -32t-31 -13h-357q-49 0 -49 43zM36 492l52 161
q8 25 34 25q15 0 26 -10.5t11 -25.5q0 -9 -5 -17l-78 -149q-7 -12 -19 -12q-11 0 -17.5 8.5t-3.5 19.5z" />
    <glyph glyph-name="Etatonos" unicode="&#x389;" horiz-adv-x="765" 
d="M548 44q0 8 1 11l54 243h-369l-58 -265q-4 -16 -17.5 -27t-30.5 -11q-21 0 -35 14.5t-14 35.5q0 8 1 10l128 579q4 16 17 27t31 11q19 0 33.5 -14.5t14.5 -34.5q0 -8 -1 -11l-49 -225h368l54 247q4 16 17.5 27t30.5 11q20 0 34.5 -14.5t14.5 -34.5q0 -8 -1 -11l-127 -579
q-4 -16 -17.5 -27t-30.5 -11q-20 0 -34.5 14.5t-14.5 34.5zM36 492l52 161q8 25 34 25q15 0 26 -10.5t11 -25.5q0 -9 -5 -17l-78 -149q-7 -12 -19 -12q-11 0 -17.5 8.5t-3.5 19.5z" />
    <glyph glyph-name="Iotatonos" unicode="&#x38a;" horiz-adv-x="296" 
d="M79 45q0 8 1 10l128 579q4 16 17 27t31 11q19 0 33.5 -14.5t14.5 -34.5q0 -8 -1 -11l-127 -579q-4 -16 -17.5 -27t-30.5 -11q-21 0 -35 14.5t-14 35.5zM36 492l52 161q8 25 34 25q15 0 26 -10.5t11 -25.5q0 -9 -5 -17l-78 -149q-7 -12 -19 -12q-11 0 -17.5 8.5t-3.5 19.5
z" />
    <glyph glyph-name="Omicrontonos" unicode="&#x38c;" horiz-adv-x="792" 
d="M462 678q136 0 224.5 -80t88.5 -213q2 -107 -49 -199.5t-139 -146t-190 -51.5q-136 0 -224.5 80.5t-88.5 213.5q-2 106 49 198.5t139 146t190 51.5zM456 589q-108 2 -189 -87.5t-79 -213.5q0 -97 61 -154t154 -57q108 -2 189 87.5t79 213.5q0 97 -61 154t-154 57zM36 492
l52 161q8 25 34 25q15 0 26 -10.5t11 -25.5q0 -9 -5 -17l-78 -149q-7 -12 -19 -12q-11 0 -17.5 8.5t-3.5 19.5z" />
    <glyph glyph-name="Upsilontonos" unicode="&#x38e;" horiz-adv-x="701" 
d="M725 596l-283 -317l-54 -246q-4 -16 -17 -27t-30 -11q-20 0 -34.5 14.5t-14.5 34.5q0 8 1 11l49 224l-146 324q-4 8 -4 21q0 20 14.5 34t34.5 14q33 0 45 -30l120 -273l251 287q12 16 34 16q19 0 32.5 -13.5t13.5 -32.5q0 -15 -12 -30zM36 492l52 161q8 25 34 25
q15 0 26 -10.5t11 -25.5q0 -9 -5 -17l-78 -149q-7 -12 -19 -12q-11 0 -17.5 8.5t-3.5 19.5z" />
    <glyph glyph-name="Omegatonos" unicode="&#x38f;" horiz-adv-x="796" 
d="M693 45q0 -19 -13.5 -32t-31.5 -13h-161q-20 0 -35 14.5t-15 34.5q0 35 35 47q89 27 145 104q56 79 56 179q0 95 -58 152q-57 57 -153 57q-115 2 -193 -88.5t-76 -211.5q0 -118 90 -182q24 -18 24 -47q0 -24 -17.5 -41.5t-41.5 -17.5h-156q-18 0 -31 13t-13 32
q0 18 13 30.5t31 12.5h117q-114 86 -114 227q-2 91 44 174.5t133 137t194 51.5q139 0 226.5 -77t87.5 -207q0 -111 -58 -188q-60 -78 -141 -118h67q18 0 31.5 -12.5t13.5 -30.5zM36 492l52 161q8 25 34 25q15 0 26 -10.5t11 -25.5q0 -9 -5 -17l-78 -149q-7 -12 -19 -12
q-11 0 -17.5 8.5t-3.5 19.5z" />
    <glyph glyph-name="iotadieresistonos" unicode="&#x390;" horiz-adv-x="246" 
d="M40 107l79 347q3 14 15 24t27 10q19 0 31.5 -13t12.5 -31q0 -8 -1 -10l-71 -312q-3 -12 -3 -22q0 -25 22 -29q7 -1 15 -7q17 -12 17 -34q0 -16 -10.5 -27.5t-25.5 -13.5q-4 -1 -19 -1q-94 0 -94 80q0 14 5 39zM183 616l52 161q7 25 33 25q16 0 26.5 -10.5t10.5 -25.5
q0 -9 -5 -17l-78 -149q-7 -12 -19 -12q-11 0 -17.5 8.5t-2.5 19.5zM31 632q0 23 18 40.5t41 17.5q20 0 33.5 -13.5t13.5 -33.5q0 -22 -18 -40t-41 -18q-20 0 -33.5 13.5t-13.5 33.5zM308 632q0 23 18 40.5t41 17.5q20 0 33.5 -13.5t13.5 -33.5q0 -22 -18 -40t-41 -18
q-20 0 -33.5 13.5t-13.5 33.5z" />
    <glyph glyph-name="Alpha" unicode="&#x391;" horiz-adv-x="666" 
d="M596 55l1 -8q0 -22 -15 -37t-36 -15q-19 0 -33.5 12t-17.5 31l-16 100h-331l-71 -119q-13 -24 -42 -24q-20 0 -34.5 14.5t-14.5 34.5q0 8 8 26l347 561q25 41 73 41q32 0 56 -20.5t29 -50.5zM202 227h264l-55 350z" />
    <glyph glyph-name="Beta" unicode="&#x392;" horiz-adv-x="638" 
d="M31 43q0 1 2 15l124 562q11 47 58 47h243q76 0 124.5 -44t48.5 -111q0 -68 -45.5 -119.5t-108.5 -57.5q43 -12 70 -50.5t27 -86.5q0 -82 -60 -140t-169 -58h-265q-49 0 -49 43zM432 579h-184l-43 -195h199q58 0 89 31.5t31 80.5q0 35 -27 59t-65 24zM375 296h-190
l-46 -208h202q60 0 96 34t36 84q0 40 -26.5 65t-71.5 25z" />
    <glyph glyph-name="Gamma" unicode="&#x393;" horiz-adv-x="548" 
d="M31 45q0 8 1 10l125 565q11 47 58 47h350q18 0 31 -13t13 -32q0 -18 -13 -30.5t-31 -12.5h-317l-120 -546q-4 -16 -17.5 -27t-30.5 -11q-21 0 -35 14.5t-14 35.5z" />
    <glyph glyph-name="uni0394" unicode="&#x394;" horiz-adv-x="666" 
d="M-20 33q0 14 11 31l350 567q25 41 73 41q32 0 56 -20.5t29 -50.5l96 -543q1 -3 1 -14q0 -44 -49 -44h-520q-22 0 -34.5 9t-12.5 24zM408 565l-290 -477h370z" />
    <glyph glyph-name="Epsilon" unicode="&#x395;" horiz-adv-x="573" 
d="M31 43q0 1 2 15l124 562q11 47 58 47h350q18 0 31 -13t13 -32q0 -18 -13 -30.5t-31 -12.5h-317l-43 -195h290q18 0 31 -12.5t13 -31.5q0 -18 -13 -31t-31 -13h-310l-46 -208h298q18 0 31 -12.5t13 -30.5q0 -19 -13 -32t-31 -13h-357q-49 0 -49 43z" />
    <glyph glyph-name="Zeta" unicode="&#x396;" horiz-adv-x="587" 
d="M-1 50q0 19 13 35l459 494h-301q-18 0 -31.5 12.5t-13.5 30.5q0 19 13.5 32t31.5 13h399q21 0 35.5 -14.5t14.5 -36.5q0 -21 -13 -34l-460 -494h310q18 0 31 -12.5t13 -31.5q0 -18 -13 -31t-31 -13h-406q-21 0 -36 14.5t-15 35.5z" />
    <glyph glyph-name="Eta" unicode="&#x397;" horiz-adv-x="717" 
d="M500 44q0 8 1 11l54 243h-369l-58 -265q-4 -16 -17.5 -27t-30.5 -11q-21 0 -35 14.5t-14 35.5q0 8 1 10l128 579q4 16 17 27t31 11q19 0 33.5 -14.5t14.5 -34.5q0 -8 -1 -11l-49 -225h368l54 247q4 16 17.5 27t30.5 11q20 0 34.5 -14.5t14.5 -34.5q0 -8 -1 -11l-127 -579
q-4 -16 -17.5 -27t-30.5 -11q-20 0 -34.5 14.5t-14.5 34.5z" />
    <glyph glyph-name="Theta" unicode="&#x398;" horiz-adv-x="765" 
d="M434 678q136 0 224.5 -80t88.5 -213q2 -107 -49 -199.5t-139 -146t-190 -51.5q-136 0 -224.5 80.5t-88.5 213.5q-2 106 49 198.5t139 146t190 51.5zM428 589q-108 2 -189 -87.5t-79 -213.5q0 -97 61 -154t154 -57q108 -2 189 87.5t79 213.5q0 97 -61 154t-154 57z
M220 340q0 19 13 31.5t31 12.5h271q18 0 31 -12.5t13 -30.5q0 -19 -13 -32t-31 -13h-271q-18 0 -31 13t-13 31z" />
    <glyph glyph-name="Iota" unicode="&#x399;" horiz-adv-x="249" 
d="M31 45q0 8 1 10l128 579q4 16 17 27t31 11q19 0 33.5 -14.5t14.5 -34.5q0 -8 -1 -11l-127 -579q-4 -16 -17.5 -27t-30.5 -11q-21 0 -35 14.5t-14 35.5z" />
    <glyph glyph-name="Kappa" unicode="&#x39a;" horiz-adv-x="611" 
d="M622 627q0 -21 -13 -31l-281 -245l190 -280q7 -10 7 -27q0 -20 -14.5 -34.5t-35.5 -14.5q-29 0 -42 24l-182 276l-82 -76l-41 -186q-4 -16 -17.5 -27t-30.5 -11q-21 0 -35 14.5t-14 35.5q0 8 1 10l128 579q4 16 17 27t31 11q19 0 33.5 -14.5t14.5 -34.5q0 -8 -1 -11
l-59 -268l352 316q12 12 31 12q18 0 30.5 -13t12.5 -32z" />
    <glyph glyph-name="Lambda" unicode="&#x39b;" horiz-adv-x="666" 
d="M491 40l-83 525l-326 -545q-14 -25 -44 -25q-21 0 -35.5 15t-14.5 36q0 13 7 26l346 559q25 41 73 41q32 0 56 -20.5t29 -50.5l97 -544q4 -24 -12 -43t-41 -19q-20 0 -34.5 13t-17.5 32z" />
    <glyph glyph-name="Mu" unicode="&#x39c;" horiz-adv-x="822" 
d="M605 44q0 8 1 11l107 491l-329 -538q-9 -14 -25 -14q-23 0 -28 24l-91 528l-112 -513q-4 -16 -17.5 -27t-30.5 -11q-21 0 -35 14.5t-14 34.5q0 8 1 10l122 553q6 28 28.5 46.5t52.5 18.5t53 -20t28 -49l74 -433l283 463q24 39 69 39q34 0 57 -23.5t23 -58.5q0 -12 -1 -15
l-120 -542q-4 -16 -17 -27t-31 -11q-19 0 -33.5 14.5t-14.5 34.5z" />
    <glyph glyph-name="Nu" unicode="&#x39d;" horiz-adv-x="714" 
d="M474 32l-236 503l-110 -502q-4 -16 -17.5 -27t-30.5 -11q-21 0 -35 14.5t-14 35.5q0 8 1 10l124 563q5 24 24 39t44 15q44 0 62 -40l231 -488l108 490q4 16 17.5 27t30.5 11q21 0 35 -14.5t14 -35.5q0 -8 -1 -10l-125 -567q-4 -22 -22.5 -36t-41.5 -14q-40 0 -58 37z" />
    <glyph glyph-name="Xi" unicode="&#x39e;" horiz-adv-x="618" 
d="M133 622q0 19 13 32t31 13h433q18 0 31 -13t13 -32q0 -18 -13 -30.5t-31 -12.5h-433q-18 0 -31 12.5t-13 30.5zM77 341q0 18 13 30.5t31 12.5h420q18 0 31 -12.5t13 -30.5q0 -19 -13 -32t-31 -13h-420q-18 0 -31 13t-13 32zM5 44q0 18 13.5 31t31.5 13h432q18 0 31.5 -13
t13.5 -31t-13.5 -31t-31.5 -13h-432q-18 0 -31.5 13t-13.5 31z" />
    <glyph glyph-name="Omicron" unicode="&#x39f;" horiz-adv-x="765" 
d="M434 678q136 0 224.5 -80t88.5 -213q2 -107 -49 -199.5t-139 -146t-190 -51.5q-136 0 -224.5 80.5t-88.5 213.5q-2 106 49 198.5t139 146t190 51.5zM428 589q-108 2 -189 -87.5t-79 -213.5q0 -97 61 -154t154 -57q108 -2 189 87.5t79 213.5q0 97 -61 154t-154 57z" />
    <glyph glyph-name="Pi" unicode="&#x3a0;" horiz-adv-x="717" 
d="M500 44q0 8 1 11l115 524h-368l-120 -546q-4 -16 -17.5 -27t-30.5 -11q-21 0 -35 14.5t-14 35.5q0 8 1 10l125 565q11 47 58 47h461q49 0 49 -42l-2 -16l-126 -576q-4 -16 -17.5 -27t-30.5 -11q-20 0 -34.5 14.5t-14.5 34.5z" />
    <glyph glyph-name="Rho" unicode="&#x3a1;" horiz-adv-x="597" 
d="M31 45q0 8 1 10l125 565q11 47 58 47h211q86 0 138.5 -51t52.5 -125q0 -93 -66.5 -163.5t-194.5 -70.5h-179l-49 -224q-4 -16 -17.5 -27t-30.5 -11q-21 0 -35 14.5t-14 35.5zM513 482q0 40 -29.5 68.5t-73.5 28.5h-162l-52 -234h168q68 0 108.5 39t40.5 98z" />
    <glyph glyph-name="Sigma" unicode="&#x3a3;" horiz-adv-x="553" 
d="M149 88h273q18 0 31.5 -12.5t13.5 -30.5q0 -19 -13.5 -32t-31.5 -13h-349q-24 0 -42 17.5t-18 42.5q0 24 21 44l271 246l-157 220q-12 16 -12 36q0 25 18 43t43 18h353q18 0 31 -13t13 -32q0 -18 -13 -30.5t-31 -12.5h-296l141 -201q13 -16 13 -34q0 -22 -22 -41z" />
    <glyph glyph-name="Tau" unicode="&#x3a4;" horiz-adv-x="573" 
d="M194 44q0 8 1 11l115 524h-157q-18 0 -31 12.5t-13 31.5q0 18 13 31t31 13h434q18 0 30.5 -13t12.5 -31q0 -19 -12.5 -31.5t-30.5 -12.5h-177l-120 -546q-4 -16 -17 -27t-31 -11q-19 0 -33.5 14.5t-14.5 34.5z" />
    <glyph glyph-name="Upsilon" unicode="&#x3a5;" horiz-adv-x="632" 
d="M656 596l-283 -317l-54 -246q-4 -16 -17 -27t-30 -11q-20 0 -34.5 14.5t-14.5 34.5q0 8 1 11l49 224l-146 324q-4 8 -4 21q0 20 14.5 34t34.5 14q33 0 45 -30l120 -273l251 287q12 16 34 16q19 0 32.5 -13.5t13.5 -32.5q0 -15 -12 -30z" />
    <glyph glyph-name="Phi" unicode="&#x3a6;" horiz-adv-x="820" 
d="M420 65l-7 -33q-8 -37 -48 -37q-20 0 -34 15t-14 35q0 8 1 10l3 13q-128 12 -194 71.5t-66 161.5q-3 121 107.5 208t273.5 92l8 34q4 16 17.5 26.5t30.5 10.5q20 0 34 -14.5t14 -34.5q0 -8 -1 -11l-3 -14q128 -12 194 -72t66 -162q2 -121 -108.5 -207.5t-273.5 -91.5z
M341 156l81 355q-117 -10 -186.5 -67.5t-69.5 -142.5q0 -60 46 -98.5t129 -46.5zM697 364q0 60 -46 99t-129 47l-81 -355q117 10 186.5 67t69.5 142z" />
    <glyph glyph-name="Chi" unicode="&#x3a7;" horiz-adv-x="656" 
d="M683 626q0 -22 -13 -32l-258 -258l159 -268q7 -10 7 -24q0 -20 -15.5 -34.5t-36.5 -14.5q-28 0 -43 26l-149 251l-263 -263q-17 -14 -34 -14q-19 0 -32.5 13.5t-13.5 32.5q0 21 13 32l276 276l-148 249q-7 10 -7 24q0 20 16 35t36 15q28 0 44 -27l137 -234l244 246
q15 15 34 15t33 -13.5t14 -32.5z" />
    <glyph glyph-name="Psi" unicode="&#x3a8;" horiz-adv-x="816" 
d="M779 672q21 0 35 -14.5t14 -34.5q0 -8 -1 -11l-53 -233q-24 -108 -115 -177.5t-226 -76.5l-21 -93q-4 -16 -17.5 -26.5t-30.5 -10.5q-21 0 -35 14.5t-14 35.5q0 8 1 10l17 72q-229 22 -229 208q0 38 10 79l51 220q4 16 17 27t31 11q20 0 34 -14.5t14 -34.5q0 -8 -1 -11
l-48 -212q-6 -26 -6 -53q0 -55 37.5 -89t110.5 -42l95 419q8 37 48 37q20 0 34 -15t14 -35q0 -8 -1 -10l-90 -396q90 10 148 58t75 126l53 234q4 16 17.5 27t31.5 11z" />
    <glyph glyph-name="uni03A9" unicode="&#x3a9;" horiz-adv-x="765" 
d="M661 45q0 -19 -13.5 -32t-31.5 -13h-161q-20 0 -35 14.5t-15 34.5q0 35 35 47q89 27 145 104q56 79 56 179q0 95 -58 152q-57 57 -153 57q-115 2 -193 -88.5t-76 -211.5q0 -118 90 -182q24 -18 24 -47q0 -24 -17.5 -41.5t-41.5 -17.5h-156q-18 0 -31 13t-13 32
q0 18 13 30.5t31 12.5h117q-114 86 -114 227q-2 91 44 174.5t133 137t194 51.5q139 0 226.5 -77t87.5 -207q0 -111 -58 -188q-60 -78 -141 -118h67q18 0 31.5 -12.5t13.5 -30.5z" />
    <glyph glyph-name="Iotadieresis" unicode="&#x3aa;" horiz-adv-x="249" 
d="M31 45q0 8 1 10l128 579q4 16 17 27t31 11q19 0 33.5 -14.5t14.5 -34.5q0 -8 -1 -11l-127 -579q-4 -16 -17.5 -27t-30.5 -11q-21 0 -35 14.5t-14 35.5zM90 779q0 23 18 40.5t41 17.5q20 0 33.5 -13.5t13.5 -33.5q0 -23 -18 -40.5t-41 -17.5q-20 0 -33.5 14t-13.5 33z
M298 779q0 23 18 40.5t41 17.5q20 0 33.5 -13.5t13.5 -33.5q0 -23 -18 -40.5t-41 -17.5q-20 0 -33.5 14t-13.5 33z" />
    <glyph glyph-name="Upsilondieresis" unicode="&#x3ab;" horiz-adv-x="632" 
d="M656 596l-283 -317l-54 -246q-4 -16 -17 -27t-30 -11q-20 0 -34.5 14.5t-14.5 34.5q0 8 1 11l49 224l-146 324q-4 8 -4 21q0 20 14.5 34t34.5 14q33 0 45 -30l120 -273l251 287q12 16 34 16q19 0 32.5 -13.5t13.5 -32.5q0 -15 -12 -30zM282 779q0 23 18 40.5t41 17.5
q20 0 33.5 -13.5t13.5 -33.5q0 -23 -18 -40.5t-41 -17.5q-20 0 -33.5 14t-13.5 33zM490 779q0 23 18 40.5t41 17.5q20 0 33.5 -13.5t13.5 -33.5q0 -23 -18 -40.5t-41 -17.5q-20 0 -33.5 14t-13.5 33z" />
    <glyph glyph-name="alphatonos" unicode="&#x3ac;" horiz-adv-x="592" 
d="M549 435l-70 -313q-2 -10 -2 -20q0 -27 22 -31q10 -4 15 -7q17 -12 17 -34q0 -15 -10.5 -27t-25.5 -14q-5 -1 -20 -1q-47 0 -70 22.5t-21 65.5q-69 -88 -162 -88q-85 0 -135.5 53t-50.5 146q-2 121 71 215.5t183 92.5q53 0 96 -22.5t67 -61.5l10 43q9 34 43 34
q19 0 31.5 -13t12.5 -31q0 -7 -1 -9zM394 143l45 200q-18 33 -54.5 52.5t-82.5 19.5q-73 0 -122 -63t-49 -148q0 -62 34.5 -99t91.5 -37q39 0 76 21t61 54zM354 616l52 161q8 25 34 25q15 0 26 -10.5t11 -25.5q0 -9 -5 -17l-78 -149q-7 -12 -19 -12q-11 0 -17.5 8.5
t-3.5 19.5z" />
    <glyph glyph-name="epsilontonos" unicode="&#x3ad;" horiz-adv-x="485" 
d="M14 126q0 54 45 90q44 35 113 37q-41 9 -68 38.5t-27 70.5q0 48 42 90q43 42 157 42q111 0 187 -69q12 -11 12 -29q0 -16 -11 -27.5t-28 -11.5q-16 0 -27 11q-51 53 -136 53q-48 0 -77.5 -20.5t-29.5 -53.5q0 -31 27.5 -48.5t80.5 -17.5h35q14 0 25 -11t11 -26t-11 -25.5
t-25 -10.5h-78q-57 0 -88 -18t-31 -50q0 -34 33.5 -56.5t86.5 -22.5q64 0 123 33q8 5 18 5q16 0 27 -11t11 -27q0 -25 -18 -33q-69 -40 -160 -40q-101 0 -160 40t-59 98zM326 616l52 161q8 25 34 25q15 0 26 -10.5t11 -25.5q0 -9 -5 -17l-78 -149q-8 -12 -19 -12t-17.5 8.5
t-3.5 19.5z" />
    <glyph glyph-name="etatonos" unicode="&#x3ae;" 
d="M513 374q0 -12 -5 -40l-110 -489q-3 -15 -15 -24.5t-27 -9.5q-19 0 -31.5 13t-12.5 31q0 8 1 10l99 445q5 25 5 32q0 36 -25.5 54.5t-69.5 18.5q-69 0 -139 -70l-69 -316q-3 -15 -15 -24.5t-27 -9.5q-19 0 -32 13t-13 31q0 7 1 9l90 406q3 15 15 24.5t28 9.5
q18 0 30.5 -13t12.5 -31q0 -8 -1 -10l-4 -19q85 80 168 80q67 0 106.5 -32t39.5 -89zM343 616l52 161q8 25 34 25q15 0 26 -10.5t11 -25.5q0 -9 -5 -17l-78 -149q-7 -12 -19 -12q-11 0 -17.5 8.5t-3.5 19.5z" />
    <glyph glyph-name="iotatonos" unicode="&#x3af;" horiz-adv-x="246" 
d="M40 107l79 347q3 14 15 24t27 10q19 0 31.5 -13t12.5 -31q0 -8 -1 -10l-71 -312q-3 -12 -3 -22q0 -25 22 -29q7 -1 15 -7q17 -12 17 -34q0 -16 -10.5 -27.5t-25.5 -13.5q-4 -1 -19 -1q-94 0 -94 80q0 14 5 39zM179 616l52 161q8 25 34 25q15 0 26 -10.5t11 -25.5
q0 -9 -5 -17l-78 -149q-7 -12 -19 -12q-11 0 -17.5 8.5t-3.5 19.5z" />
    <glyph glyph-name="upsilondieresistonos" unicode="&#x3b0;" horiz-adv-x="566" 
d="M69 226l52 228q3 14 15 24t28 10q18 0 30.5 -13t12.5 -31q0 -8 -1 -10l-50 -219q-6 -27 -6 -50q0 -97 101 -97q81 -2 140 76.5t57 181.5q0 55 -18 103l-2 14q0 20 13 32.5t32 12.5q15 0 26.5 -9t15.5 -23q22 -56 22 -127q2 -140 -82 -241.5t-204 -99.5q-92 0 -141 45.5
t-49 124.5q0 34 8 68zM346 616l52 161q7 25 33 25q16 0 26.5 -10.5t10.5 -25.5q0 -9 -5 -17l-78 -149q-7 -12 -19 -12q-11 0 -17.5 8.5t-2.5 19.5zM194 632q0 23 18 40.5t41 17.5q20 0 33.5 -13.5t13.5 -33.5q0 -22 -18 -40t-41 -18q-20 0 -33.5 13.5t-13.5 33.5zM471 632
q0 23 18 40.5t41 17.5q20 0 33.5 -13.5t13.5 -33.5q0 -22 -18 -40t-41 -18q-20 0 -33.5 13.5t-13.5 33.5z" />
    <glyph glyph-name="alpha" unicode="&#x3b1;" horiz-adv-x="592" 
d="M549 435l-70 -313q-2 -10 -2 -20q0 -27 22 -31q10 -4 15 -7q17 -12 17 -34q0 -15 -10.5 -27t-25.5 -14q-5 -1 -20 -1q-47 0 -70 22.5t-21 65.5q-69 -88 -162 -88q-85 0 -135.5 53t-50.5 146q-2 121 71 215.5t183 92.5q53 0 96 -22.5t67 -61.5l10 43q9 34 43 34
q19 0 31.5 -13t12.5 -31q0 -7 -1 -9zM394 143l45 200q-18 33 -54.5 52.5t-82.5 19.5q-73 0 -122 -63t-49 -148q0 -62 34.5 -99t91.5 -37q39 0 76 21t61 54z" />
    <glyph glyph-name="beta" unicode="&#x3b2;" horiz-adv-x="578" 
d="M123 68l-51 -223q-3 -14 -15 -24t-27 -10q-19 0 -31.5 13t-12.5 31q0 8 1 10l133 588q26 110 102.5 167t169.5 57q90 0 141 -40t51 -112t-54.5 -120.5t-124.5 -60.5q51 -7 85.5 -43t34.5 -95q2 -91 -72.5 -155.5t-168.5 -62.5q-110 0 -161 80zM434 209q0 43 -32 67
t-82 24q-18 0 -28.5 11.5t-10.5 27.5q0 19 12.5 30.5t32.5 11.5q70 0 115 34.5t45 93.5q0 40 -29 63.5t-78 23.5q-59 0 -106.5 -38.5t-62.5 -104.5l-72 -316q16 -31 50 -50t80 -19q74 0 120 40t46 101z" />
    <glyph glyph-name="gamma" unicode="&#x3b3;" horiz-adv-x="497" 
d="M514 444q0 -6 -2 -12q-35 -110 -108 -224q-76 -117 -164 -203l-36 -160q-3 -14 -15 -24t-28 -10q-18 0 -30.5 13t-12.5 31q0 8 1 10l17 78q20 85 20 171q0 171 -72 310q-4 7 -4 17q0 18 13.5 32.5t31.5 14.5q27 0 39 -23q35 -60 54 -142q20 -83 20 -157q0 -30 -3 -57
q61 65 115 160q52 92 79 187q4 14 15.5 23t26.5 9q18 0 30.5 -13t12.5 -31z" />
    <glyph glyph-name="delta" unicode="&#x3b4;" horiz-adv-x="572" 
d="M534 254q2 -103 -78.5 -186t-196.5 -80q-108 0 -166.5 56.5t-58.5 143.5q0 80 52 144q54 67 134 97q-55 36 -55 95q0 62 60.5 108.5t150.5 46.5q93 0 148 -43q17 -12 17 -33q0 -16 -11.5 -27t-28.5 -11q-12 0 -22 7q-41 34 -110 34q-50 0 -82.5 -22t-32.5 -53
q0 -22 20 -35.5t74 -36.5q52 -21 94 -44q92 -53 92 -161zM444 246q0 41 -20 67q-17 25 -42 40t-81 38l-4 2q-78 -26 -123 -78.5t-45 -116.5q0 -57 36 -93.5t101 -36.5q74 0 126 53.5t52 124.5z" />
    <glyph glyph-name="epsilon" unicode="&#x3b5;" horiz-adv-x="485" 
d="M14 126q0 54 45 90q44 35 113 37q-41 9 -68 38.5t-27 70.5q0 48 42 90q43 42 157 42q111 0 187 -69q12 -11 12 -29q0 -16 -11 -27.5t-28 -11.5q-16 0 -27 11q-51 53 -136 53q-48 0 -77.5 -20.5t-29.5 -53.5q0 -31 27.5 -48.5t80.5 -17.5h35q14 0 25 -11t11 -26t-11 -25.5
t-25 -10.5h-78q-57 0 -88 -18t-31 -50q0 -34 33.5 -56.5t86.5 -22.5q64 0 123 33q8 5 18 5q16 0 27 -11t11 -27q0 -25 -18 -33q-69 -40 -160 -40q-101 0 -160 40t-59 98z" />
    <glyph glyph-name="zeta" unicode="&#x3b6;" horiz-adv-x="488" 
d="M30 168q0 118 101 227q100 107 276 193h-224q-16 0 -28 11.5t-12 27.5t12 28t28 12h315q17 0 28.5 -11.5t11.5 -28.5q0 -25 -23 -37q-187 -93 -287.5 -195.5t-100.5 -208.5t157 -106q60 0 87.5 -17t27.5 -53q0 -57 -71 -155q-12 -17 -32 -17q-17 0 -28.5 11.5t-11.5 28.5
q0 12 7 22q36 51 36 76q0 24 -44 24q-106 0 -165.5 43.5t-59.5 124.5z" />
    <glyph glyph-name="eta" unicode="&#x3b7;" 
d="M513 374q0 -12 -5 -40l-110 -489q-3 -15 -15 -24.5t-27 -9.5q-19 0 -31.5 13t-12.5 31q0 8 1 10l99 445q5 25 5 32q0 36 -25.5 54.5t-69.5 18.5q-69 0 -139 -70l-69 -316q-3 -15 -15 -24.5t-27 -9.5q-19 0 -32 13t-13 31q0 7 1 9l90 406q3 15 15 24.5t28 9.5
q18 0 30.5 -13t12.5 -31q0 -8 -1 -10l-4 -19q85 80 168 80q67 0 106.5 -32t39.5 -89z" />
    <glyph glyph-name="theta" unicode="&#x3b8;" horiz-adv-x="572" 
d="M568 416q2 -104 -36.5 -203t-111 -163.5t-157.5 -61.5q-101 0 -157 69.5t-56 192.5q-1 77 22 154.5t62.5 139t98.5 99t124 35.5q100 0 155.5 -69.5t55.5 -192.5zM161 375h311q4 33 4 54q0 80 -31.5 124.5t-94.5 44.5q-64 0 -114 -65t-75 -158zM457 296h-312
q-4 -25 -4 -59q0 -80 31.5 -124.5t95.5 -44.5t114 66t75 162z" />
    <glyph glyph-name="iota" unicode="&#x3b9;" horiz-adv-x="246" 
d="M40 107l79 347q3 14 15 24t27 10q19 0 31.5 -13t12.5 -31q0 -8 -1 -10l-71 -312q-3 -12 -3 -22q0 -25 22 -29q7 -1 15 -7q17 -12 17 -34q0 -16 -10.5 -27.5t-25.5 -13.5q-4 -1 -19 -1q-94 0 -94 80q0 14 5 39z" />
    <glyph glyph-name="kappa" unicode="&#x3ba;" horiz-adv-x="520" 
d="M518 449q0 -18 -13 -28l-200 -157l131 -199q8 -14 8 -24q0 -19 -15 -32.5t-35 -13.5q-25 0 -41 25l-122 192l-94 -77l-23 -106q-4 -15 -15.5 -24.5t-27.5 -9.5q-18 0 -31 13t-13 30q0 8 1 10l90 406q3 15 15 24.5t28 9.5q18 0 30.5 -13t12.5 -31q0 -8 -1 -10l-42 -192
l293 237q10 9 25 9q17 0 28 -11t11 -28z" />
    <glyph glyph-name="lambda" unicode="&#x3bb;" horiz-adv-x="497" 
d="M335 574l98 -525q4 -20 -10 -37t-35 -17q-17 0 -30 11t-15 27l-61 346l-226 -364q-11 -20 -36 -20q-18 0 -30 12t-12 30q0 13 7 23l272 427l-13 64q-9 45 -46 46l-20 1q-16 -1 -27 10.5t-11 28.5q0 15 9.5 25.5t24.5 12.5q10 3 30 3q57 -2 89.5 -26.5t41.5 -77.5z" />
    <glyph glyph-name="uni03BC" unicode="&#x3bc;" horiz-adv-x="572" 
d="M28 -189q-19 0 -31.5 13t-12.5 31q0 8 1 10l133 589q3 14 15 24t28 10q19 0 31.5 -13t12.5 -31q0 -8 -1 -10l-59 -261q-4 -15 -4 -32q0 -36 22.5 -55t61.5 -19q38 0 78.5 19.5t68.5 49.5l70 318q3 15 15 24.5t28 9.5q19 0 31.5 -13t12.5 -31q0 -7 -1 -9l-69 -313
q-3 -12 -3 -22q0 -25 22 -29q7 -1 15 -7q17 -12 17 -34q0 -16 -10.5 -27.5t-25.5 -13.5q-4 -1 -19 -1q-47 0 -70 21.5t-22 64.5q-79 -86 -168 -86q-63 0 -83 42l-41 -185q-3 -14 -15 -24t-28 -10z" />
    <glyph glyph-name="nu" unicode="&#x3bd;" horiz-adv-x="497" 
d="M136 53l-70 380l-1 8q0 20 14 33.5t33 13.5q18 0 31 -11t15 -28l61 -359q74 80 130 176.5t80 189.5q4 14 15.5 23t26.5 9q18 0 30.5 -13t12.5 -31q0 -6 -2 -12q-33 -103 -100 -212t-155 -202q-20 -23 -51 -23q-26 0 -45.5 16.5t-24.5 41.5z" />
    <glyph glyph-name="xi" unicode="&#x3be;" horiz-adv-x="488" 
d="M531 627q0 -16 -12 -27.5t-28 -11.5h-162q-54 -12 -92 -49q-38 -36 -38 -77q0 -38 33.5 -60t89.5 -22h100q15 0 26.5 -11.5t11.5 -27.5t-11.5 -27.5t-26.5 -11.5h-114q-85 0 -136 -36t-51 -101q0 -85 163 -85q60 0 87.5 -17t27.5 -53q0 -55 -71 -156q-12 -16 -32 -16
q-17 0 -28.5 11.5t-11.5 27.5q0 8 7 21q36 56 36 78q0 24 -39 24q-237 0 -237 145q0 75 51 122q54 48 122 61q-42 7 -69.5 35.5t-27.5 73.5t40 88t97 63h-51q-16 0 -27.5 12t-11.5 28t11.5 27.5t27.5 11.5h306q17 0 28.5 -11.5t11.5 -28.5z" />
    <glyph glyph-name="omicron" unicode="&#x3bf;" horiz-adv-x="572" 
d="M308 495q104 0 165.5 -60t61.5 -156q2 -115 -79 -204.5t-194 -86.5q-104 0 -166 59q-60 60 -60 157q-2 115 79 204.5t193 86.5zM306 415q-73 0 -124.5 -62.5t-51.5 -144.5q0 -65 36 -102.5t99 -37.5q73 0 124.5 62.5t51.5 144.5q0 65 -36 102.5t-99 37.5z" />
    <glyph glyph-name="pi" unicode="&#x3c0;" horiz-adv-x="596" 
d="M637 444q0 -16 -11.5 -28t-27.5 -12h-53l-86 -375q-3 -14 -15 -24t-28 -10q-18 0 -30.5 13t-12.5 31q0 8 1 10l80 355h-236l-86 -375q-3 -14 -15 -24t-27 -10q-19 0 -31.5 13t-12.5 31q0 8 1 10l81 355h-36q-16 0 -27.5 12t-11.5 28t11.5 27.5t27.5 11.5h506
q16 0 27.5 -11.5t11.5 -27.5z" />
    <glyph glyph-name="rho" unicode="&#x3c1;" horiz-adv-x="575" 
d="M123 73l-51 -228q-3 -14 -15 -24t-27 -10q-19 0 -31.5 13t-12.5 31q0 8 1 10l85 377q25 115 97 184t176 69q93 0 144 -58q52 -58 52 -150q1 -73 -30.5 -142t-91.5 -114t-132 -43q-51 0 -95 23t-69 62zM333 415q-63 0 -108 -47.5t-64 -125.5l-23 -103q40 -71 137 -71
q73 0 122 63t49 147q0 61 -30 99t-83 38z" />
    <glyph glyph-name="uni03C2" unicode="&#x3c2;" horiz-adv-x="485" 
d="M311 495q100 0 157 -57q14 -12 14 -32q0 -17 -13 -29.5t-30 -12.5t-30 12q-36 39 -97 39q-80 0 -131.5 -61t-51.5 -147q0 -127 168 -127q104 0 104 -73q0 -52 -71 -153q-10 -16 -32 -16q-16 0 -27.5 11.5t-11.5 27.5q0 10 7 21q39 56 39 77q0 25 -46 25q-98 0 -160 53
t-62 152q-2 117 80 205t194 85z" />
    <glyph glyph-name="sigma" unicode="&#x3c3;" horiz-adv-x="572" 
d="M37 204q-2 113 88 197t221 82h214q17 0 28.5 -11.5t11.5 -28.5q0 -16 -11.5 -28t-28.5 -12h-82q50 -50 50 -132q2 -110 -76.5 -198t-189.5 -85q-104 0 -164.5 58.5t-60.5 157.5zM383 403h-48q-89 0 -146.5 -58.5t-57.5 -136.5q0 -65 35.5 -102.5t98.5 -37.5
q73 0 124.5 61.5t51.5 140.5q0 96 -58 133z" />
    <glyph glyph-name="tau" unicode="&#x3c4;" horiz-adv-x="472" 
d="M498 443q0 -16 -11.5 -27.5t-27.5 -11.5h-141l-60 -273q-2 -10 -2 -21q0 -42 48 -42q3 0 13 2q16 2 28 -9t12 -28q0 -27 -24 -35q-24 -10 -52 -10q-121 0 -121 93q0 14 3 29l65 294h-121q-16 0 -27.5 11.5t-11.5 27.5t11.5 28t27.5 12h352q16 0 27.5 -12t11.5 -28z" />
    <glyph glyph-name="upsilon" unicode="&#x3c5;" horiz-adv-x="566" 
d="M69 226l52 228q3 14 15 24t28 10q18 0 30.5 -13t12.5 -31q0 -8 -1 -10l-50 -219q-6 -27 -6 -50q0 -97 101 -97q81 -2 140 76.5t57 181.5q0 55 -18 103l-2 14q0 20 13 32.5t32 12.5q15 0 26.5 -9t15.5 -23q22 -56 22 -127q2 -140 -82 -241.5t-204 -99.5q-92 0 -141 45.5
t-49 124.5q0 34 8 68z" />
    <glyph glyph-name="phi" unicode="&#x3c6;" horiz-adv-x="684" 
d="M332 -12l-31 -143q-3 -14 -15 -24t-28 -10q-19 0 -31.5 13t-12.5 31q0 7 1 9l29 130q-85 9 -146 68.5t-61 148.5q0 92 47 162.5t139 108.5q7 3 16 3q16 0 28 -11.5t12 -28.5q0 -24 -23 -36q-124 -57 -124 -194q0 -60 36.5 -98t92.5 -44l84 384q8 38 53 38q107 0 178 -64
t71 -159q0 -120 -80 -202t-235 -82zM552 268q0 60 -38.5 99t-90.5 42l-74 -341q95 0 149 55t54 145z" />
    <glyph glyph-name="chi" unicode="&#x3c7;" horiz-adv-x="491" 
d="M509 443q0 -16 -11 -29l-220 -263l109 -281q4 -11 4 -17q0 -17 -14.5 -29.5t-33.5 -12.5q-33 0 -45 33l-86 232l-204 -249q-16 -16 -33 -16q-18 0 -30.5 13.5t-12.5 31.5t10 28l234 283l-102 262q-3 7 -3 15q0 18 15 31t33 13q32 0 44 -33l81 -214l188 230q14 17 33 17
q18 0 31 -13.5t13 -31.5z" />
    <glyph glyph-name="psi" unicode="&#x3c8;" horiz-adv-x="710" 
d="M639 488q18 0 30.5 -13t12.5 -30q0 -8 -1 -10l-48 -222q-24 -107 -95.5 -166t-190.5 -59l-31 -143q-4 -14 -16 -24t-27 -10q-19 0 -31.5 13t-12.5 31q0 7 1 9l28 130q-82 12 -137 61t-55 123q0 28 11 83l42 193q3 15 15 24.5t28 9.5q19 0 31.5 -12.5t12.5 -30.5
q0 -8 -1 -10l-40 -186q-9 -47 -9 -65q0 -42 32 -72t88 -39l123 565q3 15 15 24.5t28 9.5q18 0 30.5 -13t12.5 -30q0 -8 -1 -10l-120 -551q149 0 183 159l49 226q3 16 15 25.5t28 9.5z" />
    <glyph glyph-name="omega" unicode="&#x3c9;" horiz-adv-x="772" 
d="M368 132q-60 -144 -177 -144q-72 0 -113.5 53.5t-41.5 139.5q0 75 39 159q40 84 109 142q10 10 27 10t29 -12t12 -30q0 -14 -12 -28q-53 -51 -83 -115t-30 -125q0 -51 21 -82.5t61 -31.5q46 0 80 47t52 127l21 93q3 15 15 25t28 10q19 0 31.5 -13t12.5 -31q0 -8 -1 -10
l-17 -74q-9 -38 -9 -71q0 -103 83 -103q58 -2 100.5 74t40.5 162q0 70 -26 125q-3 9 -3 18q0 18 12.5 31t31.5 13q29 0 40 -25q34 -69 34 -161q2 -77 -30.5 -152t-87 -121t-112.5 -44q-68 0 -99.5 37t-37.5 107z" />
    <glyph glyph-name="iotadieresis" unicode="&#x3ca;" horiz-adv-x="246" 
d="M40 107l79 347q3 14 15 24t27 10q19 0 31.5 -13t12.5 -31q0 -8 -1 -10l-71 -312q-3 -12 -3 -22q0 -25 22 -29q7 -1 15 -7q17 -12 17 -34q0 -16 -10.5 -27.5t-25.5 -13.5q-4 -1 -19 -1q-94 0 -94 80q0 14 5 39zM51 632q0 23 18 40.5t41 17.5q20 0 33.5 -13.5t13.5 -33.5
q0 -23 -18 -40.5t-41 -17.5q-20 0 -33.5 14t-13.5 33zM259 632q0 23 18 40.5t41 17.5q20 0 33.5 -13.5t13.5 -33.5q0 -23 -18 -40.5t-41 -17.5q-20 0 -33.5 14t-13.5 33z" />
    <glyph glyph-name="upsilondieresis" unicode="&#x3cb;" horiz-adv-x="566" 
d="M69 226l52 228q3 14 15 24t28 10q18 0 30.5 -13t12.5 -31q0 -8 -1 -10l-50 -219q-6 -27 -6 -50q0 -97 101 -97q81 -2 140 76.5t57 181.5q0 55 -18 103l-2 14q0 20 13 32.5t32 12.5q15 0 26.5 -9t15.5 -23q22 -56 22 -127q2 -140 -82 -241.5t-204 -99.5q-92 0 -141 45.5
t-49 124.5q0 34 8 68zM214 632q0 23 18 40.5t41 17.5q20 0 33.5 -13.5t13.5 -33.5q0 -23 -18 -40.5t-41 -17.5q-20 0 -33.5 14t-13.5 33zM422 632q0 23 18 40.5t41 17.5q20 0 33.5 -13.5t13.5 -33.5q0 -23 -18 -40.5t-41 -17.5q-20 0 -33.5 14t-13.5 33z" />
    <glyph glyph-name="omicrontonos" unicode="&#x3cc;" horiz-adv-x="572" 
d="M308 495q104 0 165.5 -60t61.5 -156q2 -115 -79 -204.5t-194 -86.5q-104 0 -166 59q-60 60 -60 157q-2 115 79 204.5t193 86.5zM306 415q-73 0 -124.5 -62.5t-51.5 -144.5q0 -65 36 -102.5t99 -37.5q73 0 124.5 62.5t51.5 144.5q0 65 -36 102.5t-99 37.5zM348 616l52 161
q8 25 34 25q15 0 26 -10.5t11 -25.5q0 -9 -5 -17l-78 -149q-8 -12 -19 -12t-17.5 8.5t-3.5 19.5z" />
    <glyph glyph-name="upsilontonos" unicode="&#x3cd;" horiz-adv-x="566" 
d="M69 226l52 228q3 14 15 24t28 10q18 0 30.5 -13t12.5 -31q0 -8 -1 -10l-50 -219q-6 -27 -6 -50q0 -97 101 -97q81 -2 140 76.5t57 181.5q0 55 -18 103l-2 14q0 20 13 32.5t32 12.5q15 0 26.5 -9t15.5 -23q22 -56 22 -127q2 -140 -82 -241.5t-204 -99.5q-92 0 -141 45.5
t-49 124.5q0 34 8 68zM342 616l52 161q8 25 34 25q15 0 26 -10.5t11 -25.5q0 -9 -5 -17l-78 -149q-8 -12 -19 -12t-17.5 8.5t-3.5 19.5z" />
    <glyph glyph-name="omegatonos" unicode="&#x3ce;" horiz-adv-x="772" 
d="M368 132q-60 -144 -177 -144q-72 0 -113.5 53.5t-41.5 139.5q0 75 39 159q40 84 109 142q10 10 27 10t29 -12t12 -30q0 -14 -12 -28q-53 -51 -83 -115t-30 -125q0 -51 21 -82.5t61 -31.5q46 0 80 47t52 127l21 93q3 15 15 25t28 10q19 0 31.5 -13t12.5 -31q0 -8 -1 -10
l-17 -74q-9 -38 -9 -71q0 -103 83 -103q58 -2 100.5 74t40.5 162q0 70 -26 125q-3 9 -3 18q0 18 12.5 31t31.5 13q29 0 40 -25q34 -69 34 -161q2 -77 -30.5 -152t-87 -121t-112.5 -44q-68 0 -99.5 37t-37.5 107zM441 616l52 161q8 25 34 25q15 0 26 -10.5t11 -25.5
q0 -9 -5 -17l-78 -149q-7 -12 -19 -12q-11 0 -17.5 8.5t-3.5 19.5z" />
    <glyph glyph-name="uni0401" unicode="&#x401;" horiz-adv-x="573" 
d="M31 43q0 1 2 15l124 562q11 47 58 47h350q18 0 31 -13t13 -32q0 -18 -13 -30.5t-31 -12.5h-317l-43 -195h290q18 0 31 -12.5t13 -31.5q0 -18 -13 -31t-31 -13h-310l-46 -208h298q18 0 31 -12.5t13 -30.5q0 -19 -13 -32t-31 -13h-357q-49 0 -49 43zM269 779q0 23 18 40.5
t41 17.5q20 0 33.5 -13.5t13.5 -33.5q0 -23 -18 -40.5t-41 -17.5q-20 0 -33.5 14t-13.5 33zM477 779q0 23 18 40.5t41 17.5q20 0 33.5 -13.5t13.5 -33.5q0 -23 -18 -40.5t-41 -17.5q-20 0 -33.5 14t-13.5 33z" />
    <glyph glyph-name="uni0402" unicode="&#x402;" horiz-adv-x="767" 
d="M452 34q0 17 11 29t27 14q105 10 126 113l1 9q4 13 4 32q0 48 -36 75.5t-102 27.5q-63 0 -134 -28l-59 -273q-4 -16 -17 -27t-31 -11q-19 0 -33.5 14.5t-14.5 33.5q0 8 1 11l115 525h-157q-18 0 -31.5 12.5t-13.5 30.5q0 19 13.5 32t31.5 13h433q18 0 31 -13t13 -32
q0 -18 -13 -30.5t-31 -12.5h-176l-43 -193q69 36 148 36q99 0 153.5 -47.5t54.5 -125.5q0 -25 -6 -50l-1 -9q-19 -93 -86 -146q-29 -23 -68 -38.5t-67 -15.5q-17 0 -30 13t-13 31z" />
    <glyph glyph-name="uni0403" unicode="&#x403;" horiz-adv-x="548" 
d="M31 45q0 8 1 10l125 565q11 47 58 47h350q18 0 31 -13t13 -32q0 -18 -13 -30.5t-31 -12.5h-317l-120 -546q-4 -16 -17.5 -27t-30.5 -11q-21 0 -35 14.5t-14 35.5zM427 718q-11 0 -19 8t-8 19q0 10 10 20l123 100q7 7 20 7t22 -9t9 -22q0 -16 -12 -25l-130 -93
q-8 -5 -15 -5z" />
    <glyph glyph-name="uni0404" unicode="&#x404;" horiz-adv-x="679" 
d="M692 534q0 -21 -14.5 -36t-35.5 -15q-27 0 -41 22q-59 84 -172 84q-85 0 -157 -57t-99 -148h322q18 0 31 -12.5t13 -30.5q0 -19 -13 -32t-31 -13h-335v-8q0 -94 59 -152.5t156 -58.5q79 0 150 56q14 11 29 11q20 0 33.5 -13.5t13.5 -32.5q0 -20 -18 -36q-93 -74 -214 -74
q-134 -2 -224.5 81.5t-88.5 212.5q-2 112 51.5 204.5t141 142.5t185.5 49q162 0 249 -114q9 -14 9 -30z" />
    <glyph glyph-name="uni0405" unicode="&#x405;" horiz-adv-x="590" 
d="M24 113q0 20 14.5 34.5t34.5 14.5q19 0 33 -13q78 -72 192 -72q64 0 99 33t35 77q0 25 -18 44q-16 17 -39.5 29.5t-76.5 33.5q-59 23 -101 44q-94 49 -94 138q0 82 69.5 141.5t173.5 59.5q130 0 215 -73q18 -15 18 -38q0 -20 -14 -34t-34 -14q-18 0 -31 11
q-68 60 -167 60q-51 0 -87 -29t-36 -68q0 -31 28.5 -51.5t102.5 -49.5q59 -21 101 -45q97 -49 97 -142q0 -89 -68 -152.5t-181 -63.5q-151 0 -248 87q-18 17 -18 38z" />
    <glyph glyph-name="uni0406" unicode="&#x406;" horiz-adv-x="249" 
d="M31 45q0 8 1 10l128 579q4 16 17 27t31 11q19 0 33.5 -14.5t14.5 -34.5q0 -8 -1 -11l-127 -579q-4 -16 -17.5 -27t-30.5 -11q-21 0 -35 14.5t-14 35.5z" />
    <glyph glyph-name="uni0407" unicode="&#x407;" horiz-adv-x="249" 
d="M31 45q0 8 1 10l128 579q4 16 17 27t31 11q19 0 33.5 -14.5t14.5 -34.5q0 -8 -1 -11l-127 -579q-4 -16 -17.5 -27t-30.5 -11q-21 0 -35 14.5t-14 35.5zM90 779q0 23 18 40.5t41 17.5q20 0 33.5 -13.5t13.5 -33.5q0 -23 -18 -40.5t-41 -17.5q-20 0 -33.5 14t-13.5 33z
M298 779q0 23 18 40.5t41 17.5q20 0 33.5 -13.5t13.5 -33.5q0 -23 -18 -40.5t-41 -17.5q-20 0 -33.5 14t-13.5 33z" />
    <glyph glyph-name="uni0408" unicode="&#x408;" horiz-adv-x="478" 
d="M-14 76q0 19 13.5 32.5t32.5 13.5q18 0 28 -10q41 -35 94 -35q56 0 92 34t49 96l94 427q4 16 17 27t31 11q19 0 33.5 -14.5t14.5 -34.5q0 -8 -1 -11l-89 -406q-49 -218 -235 -218q-94 0 -155 53q-19 13 -19 35z" />
    <glyph glyph-name="uni0409" unicode="&#x409;" horiz-adv-x="1066" 
d="M768 0h-219q-49 0 -49 42l2 16l114 521h-246l-35 -116q-75 -246 -142 -349.5t-149 -124.5q-14 -2 -17 -2q-19 0 -33 14t-14 34q0 17 10.5 29.5t26.5 16.5q60 12 111 94t115 290l48 157q12 45 60 45h324q49 0 49 -42l-2 -16l-44 -199h162q88 0 138.5 -49t50.5 -125
q0 -42 -15.5 -83t-46.5 -76t-83 -56.5t-116 -20.5zM659 322l-51 -234h165q67 0 109 40t42 99q0 42 -28 68.5t-73 26.5h-164z" />
    <glyph glyph-name="uni040A" unicode="&#x40a;" horiz-adv-x="1066" 
d="M500 42l2 16l52 240h-369l-58 -265q-3 -16 -16.5 -27t-30.5 -11q-21 0 -35 14.5t-14 34.5q0 8 1 10l127 580q4 16 17 27t31 11q20 0 34 -14t14 -34q0 -8 -1 -11l-49 -226h368l54 247q4 16 17.5 27t30.5 11q20 0 34.5 -14.5t14.5 -34.5q0 -8 -1 -11l-50 -225h174
q83 0 131 -45.5t48 -118.5q0 -88 -63.5 -155.5t-182.5 -67.5h-231q-49 0 -49 42zM654 298l-46 -210h179q61 0 98.5 35.5t37.5 90.5q0 37 -25 60.5t-67 23.5h-177z" />
    <glyph glyph-name="uni040B" unicode="&#x40b;" horiz-adv-x="787" 
d="M620 231q0 103 -137 103q-63 0 -134 -28l-59 -273q-4 -16 -17 -27t-31 -11q-19 0 -33.5 14.5t-14.5 33.5q0 8 1 11l115 525h-157q-18 0 -31.5 12.5t-13.5 30.5q0 19 13.5 32t31.5 13h433q18 0 31 -13t13 -32q0 -18 -13 -30.5t-31 -12.5h-176l-43 -193q69 36 148 36
q99 0 153.5 -43t54.5 -126q0 -26 -8 -66l-34 -154q-3 -16 -16.5 -27t-30.5 -11q-20 0 -34.5 14.5t-14.5 33.5q0 8 1 11l29 133q5 22 5 44z" />
    <glyph glyph-name="uni040C" unicode="&#x40c;" horiz-adv-x="611" 
d="M622 627q0 -21 -13 -31l-281 -245l190 -280q7 -10 7 -27q0 -20 -14.5 -34.5t-35.5 -14.5q-29 0 -42 24l-182 276l-82 -76l-41 -186q-4 -16 -17.5 -27t-30.5 -11q-21 0 -35 14.5t-14 35.5q0 8 1 10l128 579q4 16 17 27t31 11q19 0 33.5 -14.5t14.5 -34.5q0 -8 -1 -11
l-59 -268l352 316q12 12 31 12q18 0 30.5 -13t12.5 -32zM441 718q-11 0 -19 8t-8 19q0 10 10 20l123 100q7 7 20 7t22 -9t9 -22q0 -16 -12 -25l-130 -93q-8 -5 -15 -5z" />
    <glyph glyph-name="uni040E" unicode="&#x40e;" horiz-adv-x="633" 
d="M678 623q0 -15 -9 -28l-331 -473q-49 -70 -100 -102t-123 -32q-12 0 -16 1q-18 2 -30 15t-12 31q0 21 16.5 34.5t36.5 10.5q9 -3 19 -3q35 0 60.5 18.5t62.5 69.5l13 18l-146 422q-2 6 -2 15q0 21 14.5 36.5t35.5 15.5q36 0 48 -35l118 -371l255 384q15 22 41 22
q21 0 35 -14.5t14 -34.5zM282 778q-10 10 -10 24t10 24t23 10q15 0 25 -10q39 -42 102 -42q58 0 108 45q8 8 20 8q13 0 22.5 -9t9.5 -22q0 -12 -10 -22q-68 -65 -160 -65q-83 0 -140 59z" />
    <glyph glyph-name="uni040F" unicode="&#x40f;" horiz-adv-x="699" 
d="M706 624q0 -8 -1 -11l-124 -566q-11 -47 -58 -47h-184l-22 -98q-3 -15 -15 -25t-27 -10q-18 0 -30.5 13t-12.5 30q0 8 1 10l18 80h-171q-49 0 -49 43q0 1 2 15l126 576q4 16 17 27t31 11q20 0 34 -14t14 -34q0 -8 -1 -11l-115 -525h351l119 546q4 16 17.5 27t30.5 11
q20 0 34.5 -14t14.5 -34z" />
    <glyph glyph-name="uni0410" unicode="&#x410;" horiz-adv-x="666" 
d="M596 55l1 -8q0 -22 -15 -37t-36 -15q-19 0 -33.5 12t-17.5 31l-16 100h-331l-71 -119q-13 -24 -42 -24q-20 0 -34.5 14.5t-14.5 34.5q0 8 8 26l347 561q25 41 73 41q32 0 56 -20.5t29 -50.5zM202 227h264l-55 350z" />
    <glyph glyph-name="uni0411" unicode="&#x411;" horiz-adv-x="597" 
d="M606 622q0 -18 -13 -30.5t-31 -12.5h-314l-38 -169h160q85 0 137.5 -51t52.5 -125q0 -43 -15.5 -83.5t-45.5 -75t-81.5 -55t-116.5 -20.5h-221q-49 0 -49 43q0 1 2 15l123 562q11 47 58 47h348q18 0 31 -13t13 -32zM191 322l-52 -234h168q68 0 108.5 39t40.5 98
q0 40 -29.5 68.5t-73.5 28.5h-162z" />
    <glyph glyph-name="uni0412" unicode="&#x412;" horiz-adv-x="638" 
d="M31 43q0 1 2 15l124 562q11 47 58 47h243q76 0 124.5 -44t48.5 -111q0 -68 -45.5 -119.5t-108.5 -57.5q43 -12 70 -50.5t27 -86.5q0 -82 -60 -140t-169 -58h-265q-49 0 -49 43zM432 579h-184l-43 -195h199q58 0 89 31.5t31 80.5q0 35 -27 59t-65 24zM375 296h-190
l-46 -208h202q60 0 96 34t36 84q0 40 -26.5 65t-71.5 25z" />
    <glyph glyph-name="uni0413" unicode="&#x413;" horiz-adv-x="548" 
d="M31 45q0 8 1 10l125 565q11 47 58 47h350q18 0 31 -13t13 -32q0 -18 -13 -30.5t-31 -12.5h-317l-120 -546q-4 -16 -17.5 -27t-30.5 -11q-21 0 -35 14.5t-14 35.5z" />
    </font>
</defs>
</svg>
