<?xml version="1.0" standalone="no"?>
<!DOCTYPE svg PUBLIC "-//W3C//DTD SVG 1.1//EN" "http://www.w3.org/Graphics/SVG/1.1/DTD/svg11.dtd" >
<svg xmlns="http://www.w3.org/2000/svg" xmlns:xlink="http://www.w3.org/1999/xlink" version="1.1">
<metadata>
Created by FontForge 20170731 at Tue Dec 25 03:00:00 2018
 By Aleksey,,,
Copyright (c) 2018 by Mark Simonson. All rights reserved.
</metadata>
<defs>
<font id="ProximaSoft-RegularIt" horiz-adv-x="551" >
  <font-face 
    font-family="Proxima Soft"
    font-weight="400"
    font-style="italic"
    font-stretch="normal"
    units-per-em="1000"
    panose-1="2 0 5 6 3 0 0 2 0 4"
    ascent="790"
    descent="-210"
    x-height="483"
    cap-height="667"
    bbox="-289 -317 1142.03 1082"
    underline-thickness="54"
    underline-position="-319"
    slope="-12.5"
    unicode-range="U+000D-FB04"
  />
<missing-glyph horiz-adv-x="507" 
d="M98 -28v718q0 62 62 62h227q62 0 62 -62v-718q0 -62 -62 -62h-227q-62 0 -62 62zM417 722h-288v-782h288v782z" />
    <glyph glyph-name="f_f_j" unicode="ffj" horiz-adv-x="792" 
d="M395 639q0 -13 -9.5 -22t-21.5 -9q-7 0 -9 1q-16 6 -34 6q-70 0 -89 -95l-8 -37h61q14 0 23.5 -9.5t9.5 -23.5q0 -13 -9.5 -23t-23.5 -10h-76l-87 -393q-2 -12 -12 -20t-23 -8q-16 0 -26.5 10.5t-10.5 25.5q0 6 1 8l83 377h-43q-13 0 -23 10t-10 23q0 14 10 23.5t23 9.5
h58l8 37q36 157 158 157q36 0 59 -10q21 -5 21 -28zM678 639q0 -13 -9.5 -22t-21.5 -9q-7 0 -9 1q-16 6 -34 6q-70 0 -89 -95l-8 -37h61q14 0 23.5 -9.5t9.5 -23.5q0 -13 -9.5 -23t-23.5 -10h-76l-87 -393q-2 -12 -12 -20t-23 -8q-16 0 -26.5 10.5t-10.5 25.5q0 6 1 8
l83 377h-43q-13 0 -23 10t-10 23q0 14 10 23.5t23 9.5h58l8 37q36 157 158 157q36 0 59 -10q21 -5 21 -28zM712 625q0 24 17.5 40.5t39.5 16.5q20 0 33.5 -13t13.5 -31q0 -24 -17.5 -40.5t-39.5 -16.5q-20 0 -33.5 12.5t-13.5 31.5zM437 -161q0 15 10.5 24t25.5 8
q7 -3 18 -3q66 0 85 85l113 506q2 12 12 20t23 8q16 0 26.5 -10.5t10.5 -25.5q0 -6 -1 -8l-109 -490q-32 -149 -153 -149q-21 0 -34 4q-27 5 -27 31z" />
    <glyph glyph-name="f_j" unicode="fj" horiz-adv-x="509" 
d="M395 639q0 -13 -9.5 -22t-21.5 -9q-7 0 -9 1q-16 6 -34 6q-70 0 -89 -95l-8 -37h61q14 0 23.5 -9.5t9.5 -23.5q0 -13 -9.5 -23t-23.5 -10h-76l-87 -393q-2 -12 -12 -20t-23 -8q-16 0 -26.5 10.5t-10.5 25.5q0 6 1 8l83 377h-43q-13 0 -23 10t-10 23q0 14 10 23.5t23 9.5
h58l8 37q36 157 158 157q36 0 59 -10q21 -5 21 -28zM429 625q0 24 17.5 40.5t39.5 16.5q20 0 33.5 -13t13.5 -31q0 -24 -17.5 -40.5t-39.5 -16.5q-20 0 -33.5 12.5t-13.5 31.5zM154 -161q0 15 10.5 24t25.5 8q8 -3 18 -3q66 0 85 85l113 506q2 12 12 20t23 8
q16 0 26.5 -10.5t10.5 -25.5q0 -6 -1 -8l-109 -490q-32 -149 -153 -149q-21 0 -34 4q-27 5 -27 31z" />
    <glyph glyph-name="f_f" unicode="ff" horiz-adv-x="566" 
d="M395 639q0 -13 -9.5 -22t-21.5 -9q-7 0 -9 1q-16 6 -34 6q-70 0 -89 -95l-8 -37h61q14 0 23.5 -9.5t9.5 -23.5q0 -13 -9.5 -23t-23.5 -10h-76l-87 -393q-2 -12 -12 -20t-23 -8q-16 0 -26.5 10.5t-10.5 25.5q0 6 1 8l83 377h-43q-13 0 -23 10t-10 23q0 14 10 23.5t23 9.5
h58l8 37q36 157 158 157q36 0 59 -10q21 -5 21 -28zM678 639q0 -13 -9.5 -22t-21.5 -9q-7 0 -9 1q-16 6 -34 6q-70 0 -89 -95l-8 -37h61q14 0 23.5 -9.5t9.5 -23.5q0 -13 -9.5 -23t-23.5 -10h-76l-87 -393q-2 -12 -12 -20t-23 -8q-16 0 -26.5 10.5t-10.5 25.5q0 6 1 8
l83 377h-43q-13 0 -23 10t-10 23q0 14 10 23.5t23 9.5h58l8 37q36 157 158 157q36 0 59 -10q21 -5 21 -28z" />
    <glyph glyph-name="fi" unicode="fi" horiz-adv-x="509" 
d="M395 639q0 -13 -9.5 -22t-21.5 -9q-7 0 -9 1q-16 6 -34 6q-70 0 -89 -95l-8 -37h61q14 0 23.5 -9.5t9.5 -23.5q0 -13 -9.5 -23t-23.5 -10h-76l-87 -393q-2 -12 -12 -20t-23 -8q-16 0 -26.5 10.5t-10.5 25.5q0 6 1 8l83 377h-43q-13 0 -23 10t-10 23q0 14 10 23.5t23 9.5
h58l8 37q36 157 158 157q36 0 59 -10q21 -5 21 -28zM486 682q20 0 33.5 -13t13.5 -31q0 -24 -17.5 -40.5t-39.5 -16.5q-20 0 -33.5 12.5t-13.5 31.5q0 24 17.5 40.5t39.5 16.5zM313 32q0 6 1 8l92 419q2 12 12.5 20t23.5 8q15 0 25.5 -10.5t10.5 -25.5q0 -6 -1 -8l-92 -419
q-3 -12 -13 -20t-23 -8q-15 0 -25.5 10.5t-10.5 25.5z" />
    <glyph glyph-name="fl" unicode="fl" horiz-adv-x="509" 
d="M395 639q0 -13 -9.5 -22t-21.5 -9q-7 0 -9 1q-16 6 -34 6q-70 0 -89 -95l-8 -37h61q14 0 23.5 -9.5t9.5 -23.5q0 -13 -9.5 -23t-23.5 -10h-76l-87 -393q-2 -12 -12 -20t-23 -8q-16 0 -26.5 10.5t-10.5 25.5q0 6 1 8l83 377h-43q-13 0 -23 10t-10 23q0 14 10 23.5t23 9.5
h58l8 37q36 157 158 157q36 0 59 -10q21 -5 21 -28zM313 40l133 603q2 12 12.5 20t23.5 8q15 0 25.5 -10.5t10.5 -25.5q0 -6 -1 -8l-132 -603q-3 -12 -13 -20t-23 -8q-17 0 -28.5 13.5t-7.5 30.5z" />
    <glyph glyph-name="f_f_i" unicode="ffi" horiz-adv-x="792" 
d="M395 639q0 -13 -9.5 -22t-21.5 -9q-7 0 -9 1q-16 6 -34 6q-70 0 -89 -95l-8 -37h61q14 0 23.5 -9.5t9.5 -23.5q0 -13 -9.5 -23t-23.5 -10h-76l-87 -393q-2 -12 -12 -20t-23 -8q-16 0 -26.5 10.5t-10.5 25.5q0 6 1 8l83 377h-43q-13 0 -23 10t-10 23q0 14 10 23.5t23 9.5
h58l8 37q36 157 158 157q36 0 59 -10q21 -5 21 -28zM678 639q0 -13 -9.5 -22t-21.5 -9q-7 0 -9 1q-16 6 -34 6q-70 0 -89 -95l-8 -37h61q14 0 23.5 -9.5t9.5 -23.5q0 -13 -9.5 -23t-23.5 -10h-76l-87 -393q-2 -12 -12 -20t-23 -8q-16 0 -26.5 10.5t-10.5 25.5q0 6 1 8
l83 377h-43q-13 0 -23 10t-10 23q0 14 10 23.5t23 9.5h58l8 37q36 157 158 157q36 0 59 -10q21 -5 21 -28zM769 682q20 0 33.5 -13t13.5 -31q0 -24 -17.5 -40.5t-39.5 -16.5q-20 0 -33.5 12.5t-13.5 31.5q0 24 17.5 40.5t39.5 16.5zM596 32q0 6 1 8l92 419q2 12 12.5 20
t23.5 8q15 0 25.5 -10.5t10.5 -25.5q0 -6 -1 -8l-92 -419q-3 -12 -13 -20t-23 -8q-15 0 -25.5 10.5t-10.5 25.5z" />
    <glyph glyph-name="f_f_l" unicode="ffl" horiz-adv-x="792" 
d="M395 639q0 -13 -9.5 -22t-21.5 -9q-7 0 -9 1q-16 6 -34 6q-70 0 -89 -95l-8 -37h61q14 0 23.5 -9.5t9.5 -23.5q0 -13 -9.5 -23t-23.5 -10h-76l-87 -393q-2 -12 -12 -20t-23 -8q-16 0 -26.5 10.5t-10.5 25.5q0 6 1 8l83 377h-43q-13 0 -23 10t-10 23q0 14 10 23.5t23 9.5
h58l8 37q36 157 158 157q36 0 59 -10q21 -5 21 -28zM678 639q0 -13 -9.5 -22t-21.5 -9q-7 0 -9 1q-16 6 -34 6q-70 0 -89 -95l-8 -37h61q14 0 23.5 -9.5t9.5 -23.5q0 -13 -9.5 -23t-23.5 -10h-76l-87 -393q-2 -12 -12 -20t-23 -8q-16 0 -26.5 10.5t-10.5 25.5q0 6 1 8
l83 377h-43q-13 0 -23 10t-10 23q0 14 10 23.5t23 9.5h58l8 37q36 157 158 157q36 0 59 -10q21 -5 21 -28zM596 40l133 603q2 12 12.5 20t23.5 8q15 0 25.5 -10.5t10.5 -25.5q0 -6 -1 -8l-132 -603q-3 -12 -13 -20t-23 -8q-17 0 -28.5 13.5t-7.5 30.5z" />
    <glyph glyph-name="f_b" unicode="fb" horiz-adv-x="858" 
d="M395 639q0 -13 -9.5 -22t-21.5 -9q-7 0 -9 1q-16 6 -34 6q-70 0 -89 -95l-8 -37h61q14 0 23.5 -9.5t9.5 -23.5q0 -13 -9.5 -23t-23.5 -10h-76l-87 -393q-2 -12 -12 -20t-23 -8q-16 0 -26.5 10.5t-10.5 25.5q0 6 1 8l83 377h-43q-13 0 -23 10t-10 23q0 14 10 23.5t23 9.5
h58l8 37q36 157 158 157q36 0 59 -10q21 -5 21 -28zM817 296q1 -78 -30.5 -149t-91 -116t-131.5 -43q-54 0 -98.5 24t-69.5 64l-12 -52q-2 -12 -12 -20t-23 -8q-17 0 -28.5 14t-7.5 30l133 603q2 12 12 20t23 8q16 0 26.5 -10.5t10.5 -25.5q0 -6 -1 -8l-47 -213
q66 81 160 81q85 0 136 -53.5t51 -145.5zM738 282q0 66 -37 106t-98 40q-87 0 -148 -83l-47 -212q19 -36 57.5 -57t88.5 -21q78 0 131 68.5t53 158.5z" />
    <glyph glyph-name="f_h" unicode="fh" horiz-adv-x="835" 
d="M395 639q0 -13 -9.5 -22t-21.5 -9q-7 0 -9 1q-16 6 -34 6q-70 0 -89 -95l-8 -37h61q14 0 23.5 -9.5t9.5 -23.5q0 -13 -9.5 -23t-23.5 -10h-76l-87 -393q-2 -12 -12 -20t-23 -8q-16 0 -26.5 10.5t-10.5 25.5q0 6 1 8l83 377h-43q-13 0 -23 10t-10 23q0 14 10 23.5t23 9.5
h58l8 37q36 157 158 157q36 0 59 -10q21 -5 21 -28zM639 32q0 6 1 8l60 277q6 27 6 33q0 78 -100 78q-77 0 -149 -77l-72 -327q-3 -12 -13 -20t-23 -8q-17 0 -28.5 13.5t-7.5 30.5l133 603q2 12 12 20t23 8q16 0 26.5 -10.5t10.5 -25.5q0 -6 -1 -8l-47 -214q85 82 171 82
q66 0 105 -32t39 -88q0 -22 -6 -40l-68 -311q-2 -12 -12.5 -20t-23.5 -8q-15 0 -25.5 10.5t-10.5 25.5z" />
    <glyph glyph-name="f_k" unicode="fk" horiz-adv-x="797" 
d="M395 639q0 -13 -9.5 -22t-21.5 -9q-7 0 -9 1q-16 6 -34 6q-70 0 -89 -95l-8 -37h61q14 0 23.5 -9.5t9.5 -23.5q0 -13 -9.5 -23t-23.5 -10h-76l-87 -393q-2 -12 -12 -20t-23 -8q-16 0 -26.5 10.5t-10.5 25.5q0 6 1 8l83 377h-43q-13 0 -23 10t-10 23q0 14 10 23.5t23 9.5
h58l8 37q36 157 158 157q36 0 59 -10q21 -5 21 -28zM797 455q0 -16 -11 -24l-214 -167l138 -210q7 -10 7 -21q0 -15 -13 -26t-28 -11q-20 0 -34 20l-131 205l-102 -83l-25 -113q-2 -13 -12 -21t-23 -8q-17 0 -28.5 13.5t-7.5 30.5l133 603q2 12 12 20t23 8q16 0 26.5 -10.5
t10.5 -25.5q0 -6 -1 -8l-88 -398l314 251q7 7 21 7t23.5 -9t9.5 -23z" />
    <glyph glyph-name=".notdef" horiz-adv-x="507" 
d="M98 -28v718q0 62 62 62h227q62 0 62 -62v-718q0 -62 -62 -62h-227q-62 0 -62 62zM417 722h-288v-782h288v782z" />
    <glyph glyph-name=".null" horiz-adv-x="0" 
 />
    <glyph glyph-name="nonmarkingreturn" horiz-adv-x="333" 
 />
    <glyph glyph-name="CR" unicode="&#xd;" horiz-adv-x="0" 
 />
    <glyph glyph-name="space" unicode=" " horiz-adv-x="258" 
 />
    <glyph glyph-name="exclam" unicode="!" horiz-adv-x="230" 
d="M76 220l79 415q3 16 15 26t28 10q19 0 32 -12.5t13 -30.5q0 -2 -2 -12l-104 -410q-6 -24 -30 -24q-14 0 -23.5 11.5t-7.5 26.5zM76 100q21 0 35.5 -15t14.5 -36q0 -24 -18 -41.5t-42 -17.5q-22 0 -36.5 14.5t-14.5 35.5q0 25 18 42.5t43 17.5z" />
    <glyph glyph-name="quotedbl" unicode="&#x22;" horiz-adv-x="343" 
d="M118 430l18 192q2 24 17 39.5t37 15.5q17 0 28.5 -12t11.5 -30q0 -5 -2.5 -13.5t-2.5 -9.5l-67 -191q-5 -14 -19 -14q-10 0 -16 7t-5 16zM265 430l18 192q2 24 16.5 39.5t36.5 15.5q17 0 29 -12t12 -30q0 -11 -6 -23l-67 -191q-5 -14 -19 -14q-9 0 -15 7t-5 16z" />
    <glyph glyph-name="numbersign" unicode="#" horiz-adv-x="590" 
d="M611 459q0 -11 -8 -18.5t-19 -7.5h-98l-111 -199h72q11 0 19 -8t8 -19t-8 -18.5t-19 -7.5h-101l-95 -171q-7 -14 -23 -14q-11 0 -18.5 7.5t-7.5 18.5q0 6 3 14l80 145h-110l-95 -171q-7 -14 -23 -14q-11 0 -19 8t-8 19q0 7 3 13l81 145h-67q-11 0 -19 7.5t-8 19.5
q0 11 8 18.5t19 7.5h96l111 199h-70q-11 0 -18.5 7.5t-7.5 18.5t7.5 18.5t18.5 7.5h98l96 172q7 14 23 14q12 0 19.5 -8t7.5 -19q0 -7 -3 -13l-81 -146h110l95 172q9 14 24 14q11 0 18.5 -8t7.5 -19q0 -7 -3 -13l-81 -146h69q11 0 19 -7.5t8 -18.5zM315 234l110 199h-110
l-111 -199h111z" />
    <glyph glyph-name="dollar" unicode="$" horiz-adv-x="593" 
d="M577 569q0 -17 -12 -29t-29 -12q-15 0 -26 10q-39 39 -100 57l-49 -219q88 -36 130 -75.5t42 -101.5q0 -85 -67 -148t-177 -63h-15l-15 -69q-5 -23 -29 -23q-14 0 -23 11t-6 25l14 63q-104 20 -170 84q-14 12 -14 31q0 17 12.5 29t28.5 12q17 0 28 -11q56 -55 131 -71
l54 241q-90 37 -129.5 72t-42.5 101q-2 77 68 136.5t168 57.5h18l16 72q5 23 29 23q13 0 22 -11t7 -25l-15 -67q83 -20 137 -69q14 -12 14 -31zM304 399l46 205h-11q-56 0 -96.5 -33.5t-40.5 -76.5q0 -30 24.5 -51.5t77.5 -43.5zM341 288l-50 -226h5q70 0 109 37.5t39 86.5
q0 32 -25 55.5t-78 46.5z" />
    <glyph glyph-name="percent" unicode="%" horiz-adv-x="731" 
d="M265 677q64 0 106.5 -38t42.5 -97q0 -84 -52.5 -139t-125.5 -55q-64 0 -106.5 38t-42.5 97q0 84 52.5 139t125.5 55zM95 16q0 9 4 13l545 635q4 7 17 7q8 0 14 -6t6 -14q0 -9 -5 -14l-545 -634q-7 -7 -16 -7q-8 0 -14 6t-6 14zM263 626q-47 0 -81.5 -40t-34.5 -98
q0 -38 26 -64t65 -26q48 0 82.5 40t34.5 99q0 38 -26 63.5t-66 25.5zM533 317q62 0 106 -38t44 -97q0 -84 -52.5 -139t-125.5 -55q-64 0 -107 37t-43 98q0 84 52.5 139t125.5 55zM531 266q-47 0 -81.5 -40t-34.5 -98q0 -38 26 -64t65 -26q48 0 82.5 40t34.5 99
q0 38 -26 63.5t-66 25.5z" />
    <glyph glyph-name="ampersand" unicode="&#x26;" horiz-adv-x="641" 
d="M573 266q0 -10 -6 -19q-58 -86 -105 -134l46 -52q11 -13 11 -27q0 -15 -11.5 -26.5t-27.5 -11.5q-17 0 -28 11q-25 27 -46 54q-92 -73 -189 -73q-89 0 -145 43q-56 44 -56 124q0 89 52 138q52 50 144 88q-23 63 -23 115q0 74 54.5 127.5t129.5 53.5q65 0 106.5 -32
t41.5 -88q0 -54 -29 -92q-27 -35 -71 -58q-37 -19 -114 -49q15 -34 51 -95q35 -58 65 -100q51 55 90 120q11 15 28 15q14 0 23 -9.5t9 -22.5zM285 408q89 35 125 63t39 79q0 32 -20 50t-53 18q-42 0 -75.5 -34t-33.5 -88q0 -37 18 -88zM367 110q-43 56 -74 107
q-32 54 -59 111q-68 -31 -101 -68.5t-33 -94.5q0 -53 35.5 -84t90.5 -31q66 0 141 60z" />
    <glyph glyph-name="quotesingle" unicode="'" horiz-adv-x="199" 
d="M118 430l18 192q2 24 17 39.5t37 15.5q17 0 28.5 -12t11.5 -30q0 -5 -2.5 -13.5t-2.5 -9.5l-67 -191q-5 -14 -19 -14q-10 0 -16 7t-5 16z" />
    <glyph glyph-name="parenleft" unicode="(" horiz-adv-x="248" 
d="M73 -170q-48 118 -48 261q0 149 61.5 296.5t177.5 279.5q8 9 21 9t21 -8t8 -20q0 -9 -6 -18q-204 -276 -204 -567q0 -94 32 -211q1 -2 1 -9q0 -15 -9.5 -24t-23.5 -9q-23 0 -31 20z" />
    <glyph glyph-name="parenright" unicode=")" horiz-adv-x="248" 
d="M173 656q49 -120 49 -261q0 -305 -240 -576q-8 -9 -21 -9q-12 0 -20 8.5t-8 20.5q0 10 5 17q205 274 205 566q0 95 -32 212q-1 2 -1 9q0 14 10 23.5t23 9.5q22 0 30 -20z" />
    <glyph glyph-name="asterisk" unicode="*" horiz-adv-x="340" 
d="M184 413l26 93l-93 -43q-10 -4 -20 2t-10 17q0 12 14 20l98 35l-72 50q-9 6 -9 19q0 9 6 15.5t15 6.5q8 0 16 -5l68 -59l16 99q5 18 22 18q11 0 17.5 -9t3.5 -19l-26 -93l93 43l8 2q8 0 14.5 -6t6.5 -15q0 -17 -13 -19l-97 -36l71 -49q10 -7 10 -19q0 -10 -6.5 -16.5
t-16.5 -6.5t-15 5l-68 59l-16 -99q-6 -18 -22 -18q-10 0 -16.5 8.5t-4.5 19.5z" />
    <glyph glyph-name="plus" unicode="+" horiz-adv-x="499" 
d="M293 311l-44 -196q-2 -9 -9.5 -15.5t-17.5 -6.5q-13 0 -21.5 10.5t-5.5 23.5l40 184h-163q-11 0 -18.5 7.5t-7.5 18.5t7.5 18.5t18.5 7.5h175l42 189q5 22 27 22q13 0 21.5 -10.5t5.5 -23.5l-39 -177h164q11 0 18.5 -7.5t7.5 -18.5t-7.5 -18.5t-18.5 -7.5h-175z" />
    <glyph glyph-name="comma" unicode="," horiz-adv-x="230" 
d="M14 -118q-10 0 -16 6.5t-6 15.5q0 12 9 18q50 33 65 74h-8q-18 0 -30.5 12t-12.5 32q0 24 18 42t42 18t38.5 -16t14.5 -43q0 -41 -28.5 -83.5t-74.5 -72.5q-5 -3 -11 -3z" />
    <glyph glyph-name="hyphen" unicode="-" horiz-adv-x="300" 
d="M26 242q0 14 10 23.5t23 9.5h180q14 0 23.5 -9.5t9.5 -23.5q0 -13 -9.5 -23t-23.5 -10h-180q-13 0 -23 10t-10 23z" />
    <glyph glyph-name="period" unicode="." horiz-adv-x="230" 
d="M76 100q21 0 35.5 -15t14.5 -36q0 -24 -18 -41.5t-42 -17.5q-22 0 -36.5 14.5t-14.5 35.5q0 25 18 42.5t43 17.5z" />
    <glyph glyph-name="slash" unicode="/" horiz-adv-x="296" 
d="M-43 4q0 6 3 12l368 661q7 14 23 14q12 0 20 -8t8 -19q0 -7 -3 -13l-369 -662q-7 -13 -23 -13q-12 0 -19.5 8t-7.5 20z" />
    <glyph glyph-name="zero" unicode="0" horiz-adv-x="612" 
d="M373 677q104 0 161 -68.5t57 -190.5q0 -102 -39 -203q-37 -98 -110 -164q-71 -63 -164 -63q-104 0 -161.5 69t-57.5 191q0 103 39 202q38 99 110 163q71 64 165 64zM365 603q-62 3 -115 -54.5t-81 -141.5t-26 -164q0 -84 36 -132.5t106 -48.5q63 -3 115.5 55t79.5 141.5
t26 164.5q0 86 -35 133t-106 47z" />
    <glyph glyph-name="one" unicode="1" horiz-adv-x="339" 
d="M133 36q0 7 1 9l113 512l-110 -94q-7 -7 -20 -7t-22.5 9.5t-9.5 22.5q0 14 12 24l177 149q11 10 28 10q18 0 30 -12.5t12 -30.5q0 -7 -1 -9l-130 -591q-7 -32 -39 -32q-17 0 -29 12t-12 28z" />
    <glyph glyph-name="two" unicode="2" horiz-adv-x="580" 
d="M8 50q0 28 24 43q148 89 244 156q203 143 203 249q0 48 -39.5 76.5t-104.5 28.5q-84 0 -147 -45q-7 -7 -19 -7q-14 0 -24.5 10.5t-10.5 25.5q0 19 15 29q81 61 191 61q96 0 161.5 -46t65.5 -129q0 -103 -110 -205q-106 -99 -310 -223h285q15 0 26 -11t11 -26t-11 -26
t-26 -11h-374q-21 0 -35.5 14.5t-14.5 35.5z" />
    <glyph glyph-name="three" unicode="3" horiz-adv-x="553" 
d="M12 96q-9 12 -9 25q0 16 11 28t28 12q16 0 30 -14q29 -40 76 -62.5t99 -22.5q72 0 115.5 39t43.5 101q0 46 -39.5 74.5t-108.5 28.5h-22q-15 0 -26 10.5t-11 26.5q0 15 11.5 26t26.5 11h65q71 0 115.5 31t44.5 87q0 46 -42 76t-110 30q-79 0 -145 -48q-8 -5 -17 -5
q-15 0 -25 10.5t-10 24.5q0 17 14 28q83 64 189 64q104 0 167 -45t63 -123q0 -69 -54.5 -117t-125.5 -54q55 -12 88.5 -50t33.5 -93q0 -87 -68 -147t-172 -60q-74 0 -137.5 29t-98.5 79z" />
    <glyph glyph-name="four" unicode="4" horiz-adv-x="550" 
d="M512 205q0 -15 -11 -25.5t-26 -10.5h-68l-31 -141q-7 -32 -40 -32q-16 0 -28 12t-12 28q0 7 1 9l27 124h-262q-19 0 -33 14t-14 33q0 17 11 31l356 401q17 23 51 23q29 0 48 -20t19 -49q0 -10 -1 -13l-76 -347h52q15 0 26 -10.5t11 -26.5zM339 242l78 348l-311 -348h233z
" />
    <glyph glyph-name="five" unicode="5" horiz-adv-x="590" 
d="M46 116q0 16 11.5 28t28.5 12q19 0 30 -14q54 -80 166 -80q70 0 118.5 46.5t48.5 113.5q0 59 -41.5 93t-109.5 34q-65 0 -121 -38q-10 -7 -23 -7q-18 0 -30.5 12.5t-12.5 29.5q0 8 1 10l60 272q8 39 48 39h326q15 0 26 -11t11 -26t-11 -26t-26 -11h-299l-49 -220
q55 45 140 45q84 0 141 -51t57 -137q0 -100 -74 -171t-184 -71q-150 0 -222 103q-10 10 -10 25z" />
    <glyph glyph-name="six" unicode="6" horiz-adv-x="591" 
d="M383 677q113 0 177 -73q13 -13 13 -29t-11.5 -27.5t-27.5 -11.5t-27 11q-45 56 -129 56q-88 0 -145 -74q-57 -75 -82 -177q-5 -17 -5 -20q30 33 83 59q54 26 109 26q90 0 145 -48q57 -47 57 -127q2 -102 -75 -179t-182 -75q-109 0 -168.5 64.5t-59.5 181.5q0 101 37 203
q38 103 111 171q73 69 180 69zM305 348q-94 0 -168 -82q-2 -24 -2 -48q0 -71 40 -113.5t109 -42.5q71 0 120 50.5t49 118.5q0 54 -40.5 85.5t-107.5 31.5z" />
    <glyph glyph-name="seven" unicode="7" horiz-adv-x="515" 
d="M96 36q0 12 7 22l359 535h-313q-15 0 -26 11t-11 26t11 26t26 11h392q14 0 23.5 -10.5t9.5 -24.5q0 -10 -5 -18l-399 -601q-11 -17 -34 -17q-17 0 -28.5 12t-11.5 28z" />
    <glyph glyph-name="eight" unicode="8" horiz-adv-x="581" 
d="M232 353q-51 20 -83.5 57t-32.5 84q0 86 70.5 134.5t166.5 48.5q94 0 161 -45t67 -119q0 -70 -51.5 -117t-137.5 -60q125 -58 125 -158q0 -82 -72 -136t-174 -54q-103 0 -173 44q-68 45 -68 126q0 72 54 124t148 71zM348 602q-62 0 -106 -32q-43 -31 -43 -84
q0 -38 38 -68q38 -29 83 -40q79 5 125.5 37.5t46.5 84.5q0 44 -42 72q-42 30 -102 30zM305 307q-82 -5 -134 -42q-53 -36 -53 -92q0 -52 43.5 -81.5t112.5 -29.5q63 0 111 35t48 89q0 45 -40 76q-41 32 -88 45z" />
    <glyph glyph-name="nine" unicode="9" horiz-adv-x="591" 
d="M246 -11q-113 0 -177 73q-13 13 -13 29t11.5 27t28.5 11q16 0 26 -10q45 -56 129 -56q90 0 145 72q57 76 82 178l6 21q-33 -35 -86.5 -60.5t-105.5 -25.5q-89 0 -146 48t-57 128q-2 101 75.5 178.5t182.5 75.5q109 0 168.5 -64.5t59.5 -181.5q0 -101 -37 -203
q-37 -103 -112 -172q-74 -68 -180 -68zM324 317q92 0 169 82q1 6 1 48q0 71 -40 114t-109 43q-71 0 -120.5 -50.5t-49.5 -118.5q0 -54 41 -86t108 -32z" />
    <glyph glyph-name="colon" unicode=":" horiz-adv-x="230" 
d="M162 490q21 0 35.5 -15t14.5 -35q0 -25 -17.5 -42.5t-42.5 -17.5q-21 0 -35.5 15t-14.5 36q0 25 17.5 42t42.5 17zM76 100q21 0 35.5 -15t14.5 -36q0 -24 -18 -41.5t-42 -17.5q-22 0 -36.5 14.5t-14.5 35.5q0 25 18 42.5t43 17.5z" />
    <glyph glyph-name="semicolon" unicode=";" horiz-adv-x="230" 
d="M162 490q21 0 35.5 -15t14.5 -35q0 -25 -17.5 -42.5t-42.5 -17.5q-21 0 -35.5 15t-14.5 36q0 25 17.5 42t42.5 17zM14 -118q-10 0 -16 6.5t-6 15.5q0 12 9 18q50 33 65 74h-8q-18 0 -30.5 12t-12.5 32q0 24 18 42t42 18t38.5 -16t14.5 -43q0 -41 -28.5 -83.5t-74.5 -72.5
q-5 -3 -11 -3z" />
    <glyph glyph-name="less" unicode="&#x3c;" horiz-adv-x="499" 
d="M45 331q0 25 23 36l431 193q6 3 12 3q11 0 19 -8t8 -19q0 -17 -17 -25l-409 -180l320 -173q16 -9 16 -26q0 -12 -9 -20.5t-21 -8.5q-7 0 -13 3l-339 190q-21 12 -21 35z" />
    <glyph glyph-name="equal" unicode="=" horiz-adv-x="499" 
d="M66 431q0 11 8 18.5t18 7.5h396q11 0 19 -8t8 -18q0 -11 -8 -19t-19 -8h-396q-11 0 -18.5 8t-7.5 19zM23 237q0 10 8 18t19 8h395q11 0 19 -8t8 -18t-8 -18t-19 -8h-395q-11 0 -19 8t-8 18z" />
    <glyph glyph-name="greater" unicode="&#x3e;" horiz-adv-x="499" 
d="M27 107q-11 0 -19 8t-8 19q0 19 17 25l409 178l-320 175q-16 7 -16 26q0 12 8.5 20.5t21.5 8.5q7 0 13 -3l340 -191q20 -12 20 -35q0 -25 -24 -36l-431 -192q-5 -3 -11 -3z" />
    <glyph glyph-name="question" unicode="?" horiz-adv-x="462" 
d="M175 217q-9 18 -9 39q0 34 17 60q16 23 38 39t70 42q63 33 88 57t25 62q0 40 -32.5 63.5t-89.5 23.5q-73 0 -131 -46q-9 -6 -18 -6q-14 0 -24 10.5t-10 24.5q0 18 14 27q79 64 179 64q88 0 144.5 -40.5t56.5 -105.5q0 -46 -21 -79q-20 -31 -47.5 -51t-80.5 -47
q-42 -22 -58 -33q-47 -30 -47 -70q0 -9 6 -19q1 -1 1 -7q0 -14 -11 -24t-25 -10q-28 0 -35 26zM184 100q22 0 36.5 -15t14.5 -36q0 -25 -18 -42t-43 -17q-21 0 -35.5 14.5t-14.5 35.5q0 25 18 42.5t42 17.5z" />
    <glyph glyph-name="at" unicode="@" horiz-adv-x="783" 
d="M767 321q0 -108 -51.5 -172t-121.5 -64q-39 0 -64 23t-27 58l-1 6q-28 -39 -70.5 -63t-87.5 -24q-69 0 -111 45t-42 118q-2 98 72 175.5t163 75.5q44 0 78.5 -21.5t49.5 -56.5l8 40q5 26 32 26q16 0 26.5 -12.5t6.5 -28.5l-49 -234q-2 -16 -2 -21q0 -24 13 -38t34 -14
q40 0 74 46.5t34 135.5q0 123 -79 203t-204 80q-91 2 -175.5 -49t-135 -135.5t-48.5 -173.5q0 -121 82 -202t205 -81q93 0 176 50q6 2 7 2q6 0 11 -4.5t5 -11.5q0 -10 -7 -14q-94 -55 -196 -55q-132 -2 -225.5 91t-91.5 223q-2 102 54 194.5t149.5 147t193.5 52.5
q136 2 226.5 -92t88.5 -225zM513 231l29 138q-10 31 -37.5 52.5t-65.5 21.5q-71 1 -125 -59t-52 -132q0 -49 27.5 -80t74.5 -31q87 0 149 90z" />
    <glyph glyph-name="A" unicode="A" horiz-adv-x="658" 
d="M587 38q0 -18 -12.5 -30t-30.5 -12q-16 0 -27.5 10t-14.5 25l-19 117h-343l-80 -132q-12 -20 -35 -20q-17 0 -29 12t-12 29q0 8 7 21l361 579q21 34 61 34q26 0 45.5 -16.5t24.5 -42.5l103 -566q1 -2 1 -8zM185 222h285l-61 368z" />
    <glyph glyph-name="B" unicode="B" horiz-adv-x="629" 
d="M33 36q0 10 1 13l128 579q9 39 49 39h237q73 0 121.5 -43.5t48.5 -109.5q0 -69 -46 -121t-109 -58q42 -11 70 -50t28 -87q0 -82 -60 -140t-168 -58h-259q-41 0 -41 36zM427 593h-189l-48 -215h207q65 0 98 35t33 89q0 39 -29.5 65t-71.5 26zM369 304h-196l-51 -230h209
q66 0 105.5 37t39.5 93q0 45 -29.5 72.5t-77.5 27.5z" />
    <glyph glyph-name="C" unicode="C" horiz-adv-x="664" 
d="M435 678q164 0 247 -114q8 -14 8 -25q0 -18 -12.5 -30.5t-29.5 -12.5q-23 0 -34 18q-63 90 -184 90q-110 2 -197.5 -91.5t-84.5 -228.5q0 -99 61.5 -160.5t163.5 -61.5q84 0 160 59q9 9 24 9q16 0 27.5 -11t11.5 -27t-15 -30q-93 -74 -213 -74q-134 0 -221 80.5
t-87 211.5q-2 84 29.5 160t84 128t121.5 81.5t140 28.5z" />
    <glyph glyph-name="D" unicode="D" horiz-adv-x="700" 
d="M33 36q0 10 1 13l128 579q9 39 49 39h183q111 2 195 -81.5t82 -203.5q1 -72 -26.5 -140t-78.5 -123t-133 -87.5t-182 -31.5h-177q-41 0 -41 36zM584 378q0 92 -59 153.5t-147 61.5h-140l-116 -519h143q139 -2 230 88t89 216z" />
    <glyph glyph-name="E" unicode="E" horiz-adv-x="569" 
d="M33 36q0 10 1 13l128 579q9 39 49 39h356q15 0 25.5 -11t10.5 -26t-10.5 -26t-25.5 -11h-329l-48 -215h306q15 0 25.5 -11t10.5 -26t-10.5 -26t-25.5 -11h-323l-51 -230h313q15 0 26 -11t11 -26t-11 -26t-26 -11h-361q-41 0 -41 36z" />
    <glyph glyph-name="F" unicode="F" horiz-adv-x="550" 
d="M33 36q0 7 1 9l128 583q9 39 49 39h356q15 0 25.5 -11t10.5 -26t-10.5 -26t-25.5 -11h-329l-48 -215h306q15 0 25.5 -11t10.5 -26t-10.5 -26t-25.5 -11h-323l-60 -276q-7 -32 -40 -32q-16 0 -28 12t-12 28z" />
    <glyph glyph-name="G" unicode="G" horiz-adv-x="713" 
d="M148 284q0 -100 61.5 -161t163.5 -61q95 0 175 71l30 136h-187q-15 0 -26 11t-11 26t11 26t26 11h237q19 0 30 -9.5t11 -25.5l-2 -14l-37 -167q-6 -30 -27 -49q-102 -90 -235 -90q-136 0 -222 82t-86 210q-3 167 110.5 284t270.5 114q153 0 236 -107q10 -10 10 -25
q0 -16 -12 -28.5t-29 -12.5q-22 0 -32 15q-61 84 -184 84q-110 3 -197.5 -92.5t-84.5 -227.5z" />
    <glyph glyph-name="H" unicode="H" horiz-adv-x="712" 
d="M506 36q0 7 1 9l57 261h-390l-61 -278q-7 -32 -40 -32q-16 0 -28 12t-12 28q0 7 1 9l131 594q7 32 39 32q17 0 29 -12t12 -29q0 -6 -1 -8l-53 -242h390l57 259q7 32 39 32q17 0 29 -12t12 -28q0 -7 -1 -9l-131 -594q-7 -32 -39 -32q-17 0 -29 12t-12 28z" />
    <glyph glyph-name="I" unicode="I" horiz-adv-x="239" 
d="M33 36q0 7 1 9l131 594q7 32 39 32q17 0 29 -12t12 -29q0 -6 -1 -8l-131 -594q-7 -32 -40 -32q-16 0 -28 12t-12 28z" />
    <glyph glyph-name="J" unicode="J" horiz-adv-x="475" 
d="M-13 76q0 16 11 27.5t27 11.5q15 0 25 -9q41 -44 104 -44q59 0 97 36.5t53 103.5l97 437q7 32 39 32q17 0 29 -12t12 -29q0 -6 -1 -8l-93 -421q-47 -213 -229 -213q-97 0 -157 60q-14 12 -14 28z" />
    <glyph glyph-name="K" unicode="K" horiz-adv-x="601" 
d="M612 634q0 -16 -12 -27l-294 -256l200 -292q6 -9 6 -22q0 -17 -12 -29t-29 -12q-24 0 -36 20l-191 289l-88 -81l-43 -196q-7 -32 -40 -32q-16 0 -28 12t-12 28q0 7 1 9l131 594q7 32 39 32q17 0 29 -12t12 -29q0 -6 -1 -8l-65 -293l371 332q9 10 25 10q15 0 26 -10.5
t11 -26.5z" />
    <glyph glyph-name="L" unicode="L" horiz-adv-x="517" 
d="M33 36q0 10 1 13l131 590q7 32 39 32q17 0 29 -12t12 -29q0 -6 -1 -8l-122 -548h269q15 0 26 -11t11 -26t-11 -26t-26 -11h-317q-41 0 -41 36z" />
    <glyph glyph-name="M" unicode="M" horiz-adv-x="809" 
d="M603 37q0 6 1 8l115 522l-345 -560q-7 -13 -21 -13q-20 0 -25 21l-97 552l-118 -539q-7 -32 -40 -32q-16 0 -28 12t-12 28q0 7 1 9l126 572q5 24 24 39t43 15q25 0 44.5 -16.5t23.5 -40.5l83 -472l306 497q19 32 57 32q29 0 48.5 -19.5t19.5 -49.5q0 -10 -1 -13
l-125 -561q-7 -32 -39 -32q-17 0 -29 12t-12 29z" />
    <glyph glyph-name="N" unicode="N" horiz-adv-x="708" 
d="M483 27l-254 529l-116 -528q-7 -32 -40 -32q-16 0 -28 12t-12 28q0 7 1 9l128 582q4 19 19.5 31.5t36.5 12.5q36 0 51 -33l250 -517l115 518q7 32 40 32q16 0 28 -12t12 -28q0 -7 -1 -9l-128 -584q-4 -18 -19 -30t-34 -12q-34 0 -49 31z" />
    <glyph glyph-name="O" unicode="O" horiz-adv-x="765" 
d="M435 678q131 2 220.5 -79t87.5 -212q3 -164 -109.5 -283t-265.5 -116q-133 0 -220.5 79.5t-87.5 212.5q-3 163 109 282t266 116zM430 604q-114 3 -199 -92t-83 -228q0 -102 63.5 -162t161.5 -60q113 -3 198.5 92t83.5 228q0 102 -64 162t-161 60z" />
    <glyph glyph-name="P" unicode="P" horiz-adv-x="587" 
d="M33 36q0 7 1 9l128 583q9 39 49 39h208q83 0 134 -50t51 -123q0 -92 -65.5 -160.5t-189.5 -68.5h-184l-52 -237q-7 -32 -40 -32q-16 0 -28 12t-12 28zM517 488q0 45 -31.5 75t-79.5 30h-168l-57 -254h175q74 0 117.5 42t43.5 107z" />
    <glyph glyph-name="Q" unicode="Q" horiz-adv-x="765" 
d="M590 64l19 -26q8 -11 8 -24q0 -17 -15 -29q-11 -8 -23 -8q-19 0 -33 21l-19 27q-73 -37 -159 -37q-133 0 -220.5 79.5t-87.5 212.5q-3 163 109 282t266 116q131 2 220.5 -79t87.5 -212q0 -98 -40.5 -183t-112.5 -140zM487 211l58 -83q52 45 81 111t29 143q0 102 -64 162
t-161 60q-114 3 -199 -92t-83 -228q0 -102 63.5 -162t161.5 -60q59 0 110 25l-58 81q-7 10 -7 23q0 18 17 29q10 7 22 7q18 0 30 -16z" />
    <glyph glyph-name="R" unicode="R" horiz-adv-x="608" 
d="M397 269l107 -215q5 -12 5 -18q0 -16 -13.5 -28t-30.5 -12q-25 0 -39 27l-114 242h-148l-52 -237q-2 -14 -13 -23t-26 -9q-16 0 -28 12t-12 28q0 7 1 9l128 583q9 39 49 39h205q77 0 133 -48.5t56 -125.5q0 -90 -58 -152.5t-150 -71.5zM517 486q0 46 -35 76
q-34 31 -78 31h-166l-57 -255h176q73 0 116.5 41.5t43.5 106.5z" />
    <glyph glyph-name="S" unicode="S" horiz-adv-x="586" 
d="M27 110q0 17 12.5 29t29.5 12q14 0 28 -11q78 -78 196 -78q70 0 108.5 37.5t38.5 86.5q0 38 -32 62.5t-109 54.5q-66 28 -100 45q-90 50 -90 135q-2 77 68 136.5t168 57.5q131 0 214 -77q14 -11 14 -31q0 -17 -11.5 -29t-28.5 -12q-16 0 -27 10q-66 66 -170 66
q-56 0 -97 -33.5t-41 -76.5q0 -24 18 -44q28 -29 119 -65q69 -29 100 -46q94 -51 94 -140q2 -84 -66.5 -148t-176.5 -63q-73 0 -138 24.5t-107 66.5q-14 14 -14 31z" />
    <glyph glyph-name="T" unicode="T" horiz-adv-x="570" 
d="M198 37q0 6 1 8l121 548h-170q-15 0 -25.5 11t-10.5 26t10.5 26t25.5 11h439q15 0 26 -11t11 -26t-11 -26t-26 -11h-186l-125 -565q-7 -32 -39 -32q-17 0 -29 12t-12 29z" />
    <glyph glyph-name="U" unicode="U" horiz-adv-x="700" 
d="M81 259l84 380q7 32 40 32q16 0 28 -12t12 -28q0 -7 -1 -9l-79 -361q-5 -22 -5 -42q0 -71 47 -114t129 -43q86 0 135.5 49.5t70.5 149.5l84 378q7 32 40 32q16 0 28 -12t12 -28q0 -7 -1 -9l-79 -362q-31 -137 -99.5 -204.5t-190.5 -67.5t-191 59.5t-69 162.5q0 16 5 49z
" />
    <glyph glyph-name="V" unicode="V" horiz-adv-x="658" 
d="M214 55l-103 564q-1 2 -1 8q0 18 12.5 31t31.5 13q16 0 28.5 -10.5t14.5 -26.5l93 -543l343 560q12 20 36 20q18 0 30 -11.5t12 -28.5q0 -14 -7 -24l-359 -577q-21 -34 -61 -34q-26 0 -45.5 16.5t-24.5 42.5z" />
    <glyph glyph-name="W" unicode="W" horiz-adv-x="883" 
d="M532 49l-26 489l-252 -511q-15 -31 -51 -31q-22 0 -38 15t-18 38l-38 575q-1 20 12.5 33.5t32.5 13.5q18 0 31 -13t14 -30l22 -517l267 536q8 24 38 24q17 0 29 -11.5t13 -28.5l28 -520l261 536q11 24 38 24q18 0 30 -11.5t12 -28.5q0 -11 -5 -21l-294 -583
q-17 -31 -51 -31q-22 0 -38 15.5t-17 37.5z" />
    <glyph glyph-name="X" unicode="X" horiz-adv-x="652" 
d="M669 605l-270 -269l166 -279q6 -11 6 -20q0 -17 -13 -29t-30 -12q-24 0 -36 21l-158 267l-276 -276q-12 -12 -28 -12t-27.5 11.5t-11.5 27.5q0 13 11 27l288 286l-154 262q-6 10 -6 20q0 16 13 28.5t30 12.5q22 0 37 -22l145 -249l256 259q12 12 29 12t28 -11t11 -28
q0 -16 -10 -27z" />
    <glyph glyph-name="Y" unicode="Y" horiz-adv-x="626" 
d="M657 607l-295 -327l-55 -252q-7 -32 -40 -32q-16 0 -28 12t-12 28q0 7 1 9l52 237l-154 331q-3 9 -3 17q0 17 12 29t29 12q26 0 38 -25l130 -289l267 301q10 13 29 13q16 0 27 -11t11 -27q0 -13 -9 -26z" />
    <glyph glyph-name="Z" unicode="Z" horiz-adv-x="585" 
d="M-1 42q0 17 12 29l483 522h-327q-15 0 -26.5 11t-11.5 26t11.5 26t26.5 11h407q18 0 30.5 -12.5t12.5 -30.5q0 -15 -11 -29l-485 -521h336q15 0 26 -11t11 -26t-11 -26t-26 -11h-415q-17 0 -30 12.5t-13 29.5z" />
    <glyph glyph-name="bracketleft" unicode="[" horiz-adv-x="243" 
d="M-49 -160q0 6 1 8l179 804q5 26 31 26h132q11 0 19 -8t8 -20q0 -11 -8 -19t-19 -8h-112l-168 -758h100q11 0 19 -8t8 -19q0 -12 -8 -20t-19 -8h-132q-13 0 -22 8.5t-9 21.5z" />
    <glyph glyph-name="backslash" unicode="\" horiz-adv-x="296" 
d="M131 691q11 0 19 -7.5t9 -18.5l75 -657q2 -12 -7 -22t-22 -10q-12 0 -20 7.5t-9 18.5l-75 657q-1 12 8 22t22 10z" />
    <glyph glyph-name="bracketright" unicode="]" horiz-adv-x="243" 
d="M-78 -162q0 11 8 19t19 8h112l168 758h-100q-11 0 -19 8t-8 19q0 12 8 20t19 8h132q16 0 25 -11.5t6 -26.5l-179 -804q-7 -26 -32 -26h-132q-11 0 -19 8t-8 20z" />
    <glyph glyph-name="asciicircum" unicode="^" horiz-adv-x="432" 
d="M369 350l-69 262l-192 -272q-8 -11 -22 -11q-11 0 -18.5 7.5t-7.5 18.5q0 7 5 15l206 284q11 17 34 17q31 0 40 -30l78 -277q4 -14 -4.5 -24.5t-22.5 -10.5q-22 0 -27 21z" />
    <glyph glyph-name="underscore" unicode="_" horiz-adv-x="564" 
d="M-75 -68q0 12 8 20t19 8h522q11 0 19 -8t8 -20q0 -11 -8 -19t-19 -8h-522q-11 0 -19 8t-8 19z" />
    <glyph glyph-name="grave" unicode="`" horiz-adv-x="226" 
d="M233 561l-90 95q-9 8 -9 20t8 20t20 8q13 0 22 -10l83 -102q7 -8 7 -16q0 -10 -6.5 -16.5t-16.5 -6.5t-18 8z" />
    <glyph glyph-name="a" unicode="a" horiz-adv-x="575" 
d="M544 443l-93 -419q-2 -12 -12 -20t-23 -8q-16 0 -26.5 10.5t-10.5 25.5q0 6 1 8l7 31q-64 -83 -160 -83q-85 0 -136 53.5t-51 145.5q-2 122 71 216t182 92q54 0 98.5 -24t69.5 -64l12 52q2 12 12 20t23 8q17 0 28.5 -14t7.5 -30zM401 137l48 213q-19 35 -58 56.5
t-88 21.5q-78 0 -131 -68.5t-53 -158.5q0 -67 37 -106.5t98 -39.5q42 0 82 23t65 59z" />
    <glyph glyph-name="b" unicode="b" horiz-adv-x="575" 
d="M534 296q1 -78 -30.5 -149t-91 -116t-131.5 -43q-54 0 -98.5 24t-69.5 64l-12 -52q-2 -12 -12 -20t-23 -8q-17 0 -28.5 14t-7.5 30l133 603q2 12 12 20t23 8q16 0 26.5 -10.5t10.5 -25.5q0 -6 -1 -8l-47 -213q66 81 160 81q85 0 136 -53.5t51 -145.5zM455 282
q0 66 -37 106t-98 40q-87 0 -148 -83l-47 -212q19 -36 57.5 -57t88.5 -21q78 0 131 68.5t53 158.5z" />
    <glyph glyph-name="c" unicode="c" horiz-adv-x="495" 
d="M312 495q103 0 158 -61q11 -11 11 -27q0 -14 -11 -24.5t-25 -10.5t-25 11q-39 45 -106 45q-86 0 -141 -66t-55 -157q0 -70 41.5 -110t109.5 -40q60 0 102 39q7 6 21 6t23 -9t9 -23q0 -19 -13 -26q-65 -54 -149 -54q-99 0 -160.5 58.5t-61.5 157.5q-2 118 79.5 205.5
t192.5 85.5z" />
    <glyph glyph-name="d" unicode="d" horiz-adv-x="575" 
d="M585 635q0 -6 -1 -8l-133 -603q-2 -12 -12.5 -20t-23.5 -8q-15 0 -25.5 10.5t-10.5 25.5q0 6 1 8l7 31q-64 -83 -160 -83q-85 0 -136 53.5t-51 145.5q-2 122 71 216t182 92q55 0 99.5 -23.5t68.5 -64.5l52 236q3 12 13 20t23 8q15 0 25.5 -10.5t10.5 -25.5zM401 137
l48 213q-19 35 -58 56.5t-88 21.5q-78 0 -131 -68.5t-53 -158.5q0 -67 37 -106.5t98 -39.5q42 0 82 23t65 59z" />
    <glyph glyph-name="e" unicode="e" horiz-adv-x="563" 
d="M312 495q94 0 151 -59t57 -152q0 -4 -2 -26q-2 -41 -47 -41h-353l-1 -23q0 -61 44 -102.5t120 -41.5q61 0 117 33q4 4 13 4q12 0 21 -8.5t9 -21.5q0 -17 -15 -25q-73 -44 -150 -44q-109 0 -173 58q-63 58 -63 156q-2 118 79.5 207t192.5 86zM452 291q0 63 -39 102.5
t-108 39.5q-65 0 -116.5 -47.5t-62.5 -113.5h324q2 10 2 19z" />
    <glyph glyph-name="f" unicode="f" horiz-adv-x="283" 
d="M395 639q0 -13 -9.5 -22t-21.5 -9q-7 0 -9 1q-16 6 -34 6q-70 0 -89 -95l-8 -37h61q14 0 23.5 -9.5t9.5 -23.5q0 -13 -9.5 -23t-23.5 -10h-76l-87 -393q-2 -12 -12 -20t-23 -8q-16 0 -26.5 10.5t-10.5 25.5q0 6 1 8l83 377h-43q-13 0 -23 10t-10 23q0 14 10 23.5t23 9.5
h58l8 37q36 157 158 157q36 0 59 -10q21 -5 21 -28z" />
    <glyph glyph-name="g" unicode="g" horiz-adv-x="574" 
d="M544 450q0 -6 -1 -8l-95 -428q-47 -210 -236 -210q-126 0 -193 59q-13 10 -13 27q0 15 10 24.5t25 9.5t22 -7q54 -51 148 -51q128 0 162 148l14 63q-64 -82 -164 -82q-83 0 -133.5 52t-50.5 148q-2 119 70.5 210.5t181.5 89.5q49 0 96 -25t73 -64l12 53q2 12 12 20t23 8
q16 0 26.5 -11t10.5 -26zM401 139l46 209q-20 37 -61 58.5t-89 21.5q-78 0 -128.5 -66.5t-50.5 -154.5q0 -67 36.5 -106t98.5 -39q39 0 79 21.5t69 55.5z" />
    <glyph glyph-name="h" unicode="h" horiz-adv-x="552" 
d="M356 32q0 6 1 8l60 277q6 27 6 33q0 78 -100 78q-77 0 -149 -77l-72 -327q-3 -12 -13 -20t-23 -8q-17 0 -28.5 13.5t-7.5 30.5l133 603q2 12 12 20t23 8q16 0 26.5 -10.5t10.5 -25.5q0 -6 -1 -8l-47 -214q85 82 171 82q66 0 105 -32t39 -88q0 -22 -6 -40l-68 -311
q-2 -12 -12.5 -20t-23.5 -8q-15 0 -25.5 10.5t-10.5 25.5z" />
    <glyph glyph-name="i" unicode="i" horiz-adv-x="225" 
d="M203 682q20 0 33.5 -13t13.5 -31q0 -24 -17.5 -40.5t-39.5 -16.5q-20 0 -33.5 12.5t-13.5 31.5q0 24 17.5 40.5t39.5 16.5zM30 32q0 6 1 8l92 419q2 12 12.5 20t23.5 8q15 0 25.5 -10.5t10.5 -25.5q0 -6 -1 -8l-92 -419q-3 -12 -13 -20t-23 -8q-15 0 -25.5 10.5
t-10.5 25.5z" />
    <glyph glyph-name="j" unicode="j" horiz-adv-x="225" 
d="M146 625q0 24 17.5 40.5t39.5 16.5q20 0 33.5 -13t13.5 -31q0 -24 -17.5 -40.5t-39.5 -16.5q-20 0 -33.5 12.5t-13.5 31.5zM-129 -161q0 15 10.5 24t25.5 8q7 -3 18 -3q66 0 85 85l113 506q2 12 12 20t23 8q16 0 26.5 -10.5t10.5 -25.5q0 -6 -1 -8l-109 -490
q-32 -149 -153 -149q-21 0 -34 4q-27 5 -27 31z" />
    <glyph glyph-name="k" unicode="k" horiz-adv-x="514" 
d="M514 455q0 -16 -11 -24l-214 -167l138 -210q7 -10 7 -21q0 -15 -13 -26t-28 -11q-20 0 -34 20l-131 205l-102 -83l-25 -113q-2 -13 -12 -21t-23 -8q-17 0 -28.5 13.5t-7.5 30.5l133 603q2 12 12 20t23 8q16 0 26.5 -10.5t10.5 -25.5q0 -6 -1 -8l-88 -398l314 251
q7 7 21 7t23.5 -9t9.5 -23z" />
    <glyph glyph-name="l" unicode="l" horiz-adv-x="225" 
d="M30 40l133 603q2 12 12.5 20t23.5 8q15 0 25.5 -10.5t10.5 -25.5q0 -6 -1 -8l-132 -603q-3 -12 -13 -20t-23 -8q-17 0 -28.5 13.5t-7.5 30.5z" />
    <glyph glyph-name="m" unicode="m" horiz-adv-x="808" 
d="M757 374q0 -24 -4 -39l-69 -311q-2 -12 -12 -20t-23 -8q-18 0 -29.5 13.5t-7.5 30.5l64 288q3 12 3 24q0 35 -23 55.5t-59 20.5q-32 0 -67.5 -21t-64.5 -55l-72 -328q-2 -12 -12.5 -20t-23.5 -8q-17 0 -28.5 13.5t-7.5 30.5l64 288q3 14 3 26q0 35 -22 54.5t-62 19.5
q-31 0 -66 -21t-64 -55l-72 -328q-3 -12 -13 -20t-23 -8q-17 0 -28.5 13.5t-7.5 30.5l93 419q2 12 12 20t23 8q16 0 26.5 -11t10.5 -26q0 -6 -1 -8l-7 -30q70 83 152 83q55 0 89.5 -30t34.5 -60v-2q76 92 168 92q59 0 92.5 -33t33.5 -88z" />
    <glyph glyph-name="n" unicode="n" 
d="M501 377q0 -14 -5 -42l-68 -311q-3 -12 -13 -20t-23 -8q-17 0 -28.5 13.5t-7.5 30.5l61 277q4 15 4 35q0 76 -93 76q-83 0 -154 -76l-72 -328q-3 -12 -13 -20t-23 -8q-17 0 -28.5 13.5t-7.5 30.5l93 419q2 12 12 20t23 8q16 0 26.5 -11t10.5 -26q0 -6 -1 -8l-7 -29
q89 82 171 82q67 0 105 -31t38 -87z" />
    <glyph glyph-name="o" unicode="o" horiz-adv-x="572" 
d="M309 495q101 0 161 -59t60 -156q2 -115 -78 -204.5t-191 -87.5q-102 0 -161.5 58.5t-59.5 155.5q-2 115 78 205.5t191 87.5zM307 428q-79 0 -133.5 -67.5t-54.5 -155.5q0 -70 38 -110t106 -40q79 0 133.5 67.5t54.5 155.5q0 70 -38 110t-106 40z" />
    <glyph glyph-name="p" unicode="p" horiz-adv-x="572" 
d="M534 296q1 -78 -30.5 -149t-91 -116t-131.5 -43q-115 0 -168 88l-52 -236q-3 -12 -13 -20t-23 -8q-15 0 -25.5 10.5t-10.5 25.5q0 6 1 8l133 603q2 12 12 20t23 8q16 0 26.5 -11t10.5 -26q0 -6 -1 -8l-8 -30q65 83 161 83q85 0 136 -53.5t51 -145.5zM455 282
q0 66 -37 106t-98 40q-87 0 -148 -83l-47 -212q19 -36 57.5 -57t88.5 -21q78 0 131 68.5t53 158.5z" />
    <glyph glyph-name="q" unicode="q" horiz-adv-x="572" 
d="M543 443l-133 -603q-2 -12 -12 -20t-23 -8q-16 0 -26.5 10.5t-10.5 25.5q0 6 1 8l47 213q-64 -81 -159 -81q-85 0 -136 53.5t-51 145.5q-2 122 71 216t182 92q54 0 98.5 -24t69.5 -64l12 52q2 12 12 20t23 8q17 0 28 -13.5t7 -30.5zM401 137l48 213q-19 35 -58 56.5
t-88 21.5q-78 0 -131 -68.5t-53 -158.5q0 -67 37 -106.5t98 -39.5q42 0 82 23t65 59z" />
    <glyph glyph-name="r" unicode="r" horiz-adv-x="330" 
d="M362 456q0 -16 -11.5 -26.5t-26.5 -9.5h-13q-38 0 -76 -22.5t-64 -56.5l-69 -317q-3 -12 -13 -20t-23 -8q-17 0 -28.5 13.5t-7.5 30.5l93 419q2 12 12 20t23 8q16 0 26.5 -11t10.5 -26q0 -6 -1 -8l-9 -33q75 81 140 81q37 0 37 -34z" />
    <glyph glyph-name="s" unicode="s" horiz-adv-x="465" 
d="M13 77q0 14 10 24t24 10q13 0 23 -7q55 -55 141 -55q49 0 80 24.5t31 60.5q0 25 -23.5 42t-83.5 41q-52 21 -77 33q-70 36 -70 98t49.5 104.5t133.5 42.5q100 0 164 -58q12 -11 12 -25q0 -13 -9.5 -23t-23.5 -10q-12 0 -20 8q-49 47 -127 47q-47 0 -75.5 -20.5
t-28.5 -53.5q0 -23 22.5 -39t80.5 -39q48 -18 78 -33q73 -37 73 -103t-52 -112t-138 -46q-112 0 -181 63q-13 8 -13 26z" />
    <glyph glyph-name="t" unicode="t" horiz-adv-x="294" 
d="M312 450q0 -13 -9 -22.5t-23 -9.5h-76l-66 -299q-3 -12 -3 -23q0 -41 49 -41q9 0 21 5q13 1 23 -7t12 -21q2 -24 -19 -32q-27 -12 -54 -12q-112 0 -112 84q0 17 4 32l70 314h-44q-13 0 -22.5 9.5t-9.5 23.5q0 13 9.5 22.5t22.5 9.5h58l24 108q3 12 13 20t23 8
q17 0 28.5 -13.5t7.5 -30.5l-20 -92h61q14 0 23 -9.5t9 -23.5z" />
    <glyph glyph-name="u" unicode="u" 
d="M521 451q0 -6 -1 -8l-92 -419q-3 -12 -13 -20t-23 -8q-15 0 -25.5 11t-10.5 26q0 6 1 8l6 29q-88 -82 -170 -82q-67 0 -105.5 31.5t-38.5 87.5q0 16 5 41l69 311q2 12 12 20t23 8q16 0 26.5 -10.5t10.5 -25.5q0 -6 -1 -8l-61 -277q-4 -15 -4 -35q0 -76 93 -76
q81 0 155 76l72 328q2 12 12 20t23 8q16 0 26.5 -10.5t10.5 -25.5z" />
    <glyph glyph-name="v" unicode="v" horiz-adv-x="490" 
d="M513 451q0 -10 -5 -18l-262 -410q-19 -27 -48 -27q-20 0 -36 13t-20 33l-78 400q-3 17 8.5 31t29.5 14q14 0 24.5 -9t12.5 -23l67 -370l242 386q10 16 30 16q15 0 25 -10.5t10 -25.5z" />
    <glyph glyph-name="w" unicode="w" horiz-adv-x="734" 
d="M435 40l-36 348l-200 -367q-13 -25 -43 -25q-18 0 -32 13t-16 31l-39 406q-2 16 9 28.5t27 12.5q15 0 25.5 -10t11.5 -24l30 -355l203 368q11 21 37 21q16 0 27.5 -11t13.5 -27l38 -351l195 370q9 19 31 19q16 0 26 -10.5t10 -25.5q0 -10 -4 -17l-223 -413
q-13 -25 -43 -25q-18 0 -32 13t-16 31z" />
    <glyph glyph-name="x" unicode="x" horiz-adv-x="486" 
d="M489 454q0 -14 -9 -22l-191 -187l118 -195q6 -9 6 -19q0 -14 -11.5 -24.5t-26.5 -10.5q-21 0 -33 20l-107 184l-194 -194q-10 -10 -24 -10q-13 0 -22.5 9.5t-9.5 22.5q0 16 9 23l202 199l-108 183q-5 12 -5 18q0 14 11 25t27 11q21 0 33 -20l98 -169l181 179q10 10 24 10
t23 -9.5t9 -23.5z" />
    <glyph glyph-name="y" unicode="y" horiz-adv-x="490" 
d="M-3 -124q4 0 14 -1t16 -1q40 0 72 48l49 75l-84 445q-4 17 8 31t30 14q14 0 24.5 -9t12.5 -23l68 -368l241 384q10 16 30 16q15 0 25 -10.5t10 -25.5q0 -10 -5 -18l-340 -531q-33 -51 -68.5 -74.5t-82.5 -23.5q-2 0 -24 2q-13 2 -22 12t-9 23q0 15 10.5 25t24.5 10z" />
    <glyph glyph-name="z" unicode="z" horiz-adv-x="472" 
d="M1 36q0 13 10 24l341 357h-225q-13 0 -23 10t-10 23q0 14 10 23.5t23 9.5h304q14 0 24 -10t10 -24q0 -13 -10 -24l-343 -360h231q14 0 23.5 -9.5t9.5 -23.5q0 -13 -9.5 -22.5t-23.5 -9.5h-306q-15 0 -25.5 10.5t-10.5 25.5z" />
    <glyph glyph-name="braceleft" unicode="{" horiz-adv-x="260" 
d="M-13 -83q0 15 3 27l46 206q2 16 2 17q0 34 -23 48q-14 9 -14 27q0 11 6.5 19.5t16.5 9.5q41 9 54 67l45 205q16 66 56 100.5t99 34.5h34q11 0 19 -8t8 -20q0 -11 -8 -19t-19 -8h-46q-67 0 -84 -80l-49 -217q-15 -70 -64 -88q29 -15 29 -54q0 -19 -4 -34l-45 -205
q-2 -16 -2 -21q0 -26 16 -42.5t41 -16.5h27q11 0 19 -8t8 -19q0 -12 -8 -20t-19 -8h-32q-46 0 -79 30.5t-33 76.5z" />
    <glyph glyph-name="bar" unicode="|" horiz-adv-x="211" 
d="M98 3v661q0 11 8 19t19 8q12 0 20 -8t8 -19v-661q0 -11 -8 -19t-20 -8q-11 0 -19 8t-8 19z" />
    <glyph glyph-name="braceright" unicode="}" horiz-adv-x="260" 
d="M272 571q0 -15 -3 -27l-46 -206q-2 -16 -2 -17q0 -34 23 -48q15 -8 15 -27q0 -10 -7 -18.5t-17 -10.5q-41 -9 -54 -67l-45 -205q-16 -66 -56 -100.5t-99 -34.5h-33q-11 0 -19 8t-8 20q0 11 8 19t19 8h46q66 0 83 80l49 217q15 70 65 88q-29 15 -29 54q0 19 4 34l45 205
q2 16 2 21q0 25 -16.5 42t-41.5 17h-27q-11 0 -19 8t-8 19q0 12 8 20t19 8h33q46 0 78.5 -30.5t32.5 -76.5z" />
    <glyph glyph-name="asciitilde" unicode="~" horiz-adv-x="503" 
d="M561 634q-55 -211 -172 -211q-52 3 -70 29t-26 84q-7 43 -17.5 60t-33.5 17q-33 0 -63 -45t-51 -127q-5 -20 -27 -20q-13 0 -21.5 11t-4.5 23q53 211 171 211q27 -1 44.5 -8.5t27.5 -25t14 -33t10 -46.5q7 -42 17 -60t33 -18q34 0 64.5 46t51.5 127q5 20 26 20
q13 0 21.5 -10.5t5.5 -23.5z" />
    <glyph glyph-name="uni00A0" unicode="&#xa0;" horiz-adv-x="258" 
 />
    <glyph glyph-name="exclamdown" unicode="&#xa1;" horiz-adv-x="230" 
d="M152 383q-21 0 -35.5 15t-14.5 36q0 25 17.5 42t42.5 17q21 0 35.5 -14.5t14.5 -36.5q0 -24 -17.5 -41.5t-42.5 -17.5zM151 263l-78 -415q-3 -16 -15.5 -26t-28.5 -10q-19 0 -32 12t-13 31q0 2 2 12l104 409q6 24 30 24q14 0 24 -11.5t7 -25.5z" />
    <glyph glyph-name="cent" unicode="&#xa2;" horiz-adv-x="495" 
d="M481 407q0 -14 -11 -24.5t-25 -10.5t-25 11q-27 32 -71 41l-81 -369h1q60 0 102 39q7 6 21 6t23 -9t9 -23q0 -19 -13 -26q-65 -54 -149 -54h-9l-16 -70q-1 -9 -9 -15.5t-18 -6.5q-13 0 -22 11t-6 24l15 64q-73 18 -115 73t-42 136q-2 116 77.5 203.5t189.5 87.5l12 52
q2 9 10 15.5t18 6.5q13 0 21.5 -11t5.5 -24l-9 -44q64 -12 105 -56q11 -11 11 -27zM212 64l79 363q-77 -9 -125 -73t-48 -149q0 -54 25 -90t69 -51z" />
    <glyph glyph-name="sterling" unicode="&#xa3;" horiz-adv-x="518" 
d="M531 572q0 -16 -11 -28t-28 -12q-20 0 -33 18q-16 26 -47.5 41.5t-69.5 15.5q-65 0 -110.5 -42.5t-45.5 -109.5q0 -41 33 -97l20 -36h116q11 0 19 -8t8 -19t-8 -19t-19 -8h-103v-8q0 -49 -36 -97q-33 -47 -77 -73q24 10 53 10q33 0 81 -20q53 -19 76 -19q31 0 60 18
q9 3 17 3q14 0 24 -10t10 -24q0 -16 -15 -28q-50 -33 -101 -33q-46 0 -111 24q-53 18 -92 18q-33 0 -94 -29q-8 -2 -12 -2q-13 0 -22 9t-9 22q0 16 17 27q66 32 109 84q44 55 44 105q0 5 -2 23h-118q-11 0 -19 8t-8 19t8 19t19 8h98l-16 28q-40 64 -40 112q0 87 71.5 151
t171.5 64q56 0 105.5 -21.5t76.5 -57.5q10 -10 10 -26z" />
    <glyph glyph-name="currency" unicode="&#xa4;" horiz-adv-x="598" 
d="M630 558q0 -16 -11 -25l-80 -66q26 -47 26 -104q0 -112 -78 -190l41 -50q7 -10 7 -21q0 -14 -9.5 -24t-23.5 -10q-16 0 -26 13l-41 51q-62 -37 -134 -37q-93 0 -155 51l-81 -65q-8 -7 -19 -7q-14 0 -24 9.5t-10 23.5q0 17 11 25l80 65q-26 47 -26 104q0 114 77 191
l-42 54q-6 9 -6 21q0 14 10 23.5t23 9.5q15 0 27 -13l41 -53q61 36 135 36q94 0 155 -52l79 65q8 8 22 8q13 0 22.5 -9.5t9.5 -23.5zM305 164q76 0 129 57.5t53 134.5q0 64 -39.5 104.5t-111.5 40.5q-76 0 -128.5 -58.5t-52.5 -135.5q0 -63 40 -103t110 -40z" />
    <glyph glyph-name="yen" unicode="&#xa5;" horiz-adv-x="626" 
d="M669 633q0 -13 -9 -26l-248 -273h184q11 0 18.5 -7.5t7.5 -18.5q0 -10 -7.5 -18t-18.5 -8h-230l-24 -107h218q11 0 19 -8t8 -19q0 -10 -8 -18t-19 -8h-229l-21 -95q-3 -13 -14.5 -22t-25.5 -9q-17 0 -29 12t-12 29q0 6 1 8l18 77h-225q-11 0 -19 8t-8 19q0 10 8 18t19 8
h236l24 107h-224q-11 0 -19 8t-8 18t8 18t19 8h200l-130 279q-3 9 -3 17q0 17 12 29t29 12q25 0 38 -25l130 -289l267 301q10 13 29 13q16 0 27 -11t11 -27z" />
    <glyph glyph-name="brokenbar" unicode="&#xa6;" horiz-adv-x="211" 
d="M98 394v270q0 11 8 19t19 8q12 0 20 -8t8 -19v-270q0 -11 -8 -19t-20 -8q-11 0 -19 8t-8 19zM98 3v270q0 11 8 19t19 8q12 0 20 -8t8 -19v-270q0 -11 -8 -19t-20 -8q-11 0 -19 8t-8 19z" />
    <glyph glyph-name="section" unicode="&#xa7;" horiz-adv-x="468" 
d="M381 75q0 -64 -52.5 -110t-134.5 -46q-116 0 -190 59q-13 7 -13 26q0 14 9.5 23t22.5 9q12 0 21 -9q58 -53 148 -53q48 0 80.5 26.5t32.5 64.5q0 29 -23.5 46t-83.5 40q-44 18 -76 33q-68 37 -68 101q0 51 38.5 88.5t106.5 49.5q-91 34 -91 109q0 59 50 102t131 43
q107 0 172 -54q12 -9 12 -24q0 -13 -8.5 -21.5t-21.5 -8.5q-12 0 -19 7q-51 45 -132 45q-48 0 -78.5 -23t-30.5 -57q0 -28 24.5 -46t83.5 -38q44 -15 75 -32q70 -34 70 -103q0 -49 -32.5 -88t-91.5 -57q69 -38 69 -102zM129 298q0 -32 27 -52t95 -43q53 15 80.5 42t27.5 61
q0 31 -23.5 51.5t-70.5 37.5q-66 -9 -101 -35t-35 -62z" />
    <glyph glyph-name="dieresis" unicode="&#xa8;" horiz-adv-x="413" 
d="M139 608q0 20 16 35.5t36 15.5q17 0 29 -12t12 -29q0 -20 -15.5 -36t-36.5 -16q-17 0 -29 12.5t-12 29.5zM345 608q0 20 16 35.5t36 15.5q18 0 29.5 -12t11.5 -29q0 -20 -15.5 -36t-36.5 -16q-17 0 -29 12.5t-12 29.5z" />
    <glyph glyph-name="copyright" unicode="&#xa9;" horiz-adv-x="778" 
d="M64 334q-3 139 101.5 243t242.5 102q140 2 244.5 -102t101.5 -243q3 -139 -101.5 -243.5t-244.5 -101.5q-138 -3 -242.5 101.5t-101.5 243.5zM723 334q3 126 -92.5 221t-222.5 93q-127 2 -221.5 -93t-91.5 -221q-3 -126 91.5 -221t221.5 -93q127 -2 222.5 93t92.5 221z
M198 307q-2 97 72 170t164 71q99 0 147 -68q4 -5 4 -11q0 -7 -5.5 -12.5t-12.5 -5.5q-11 0 -16 8q-37 56 -119 56q-75 0 -136 -61t-61 -146q0 -65 43.5 -109.5t111.5 -44.5q56 0 105 38q3 3 10 3q16 0 16 -16q0 -8 -6 -14q-59 -44 -125 -44q-87 0 -139.5 53t-52.5 133z" />
    <glyph glyph-name="ordfeminine" unicode="&#xaa;" horiz-adv-x="410" 
d="M431 610l-60 -266q-5 -22 -27 -22q-14 0 -22.5 10.5t-5.5 23.5l5 18q-46 -56 -109 -56q-55 0 -90 36t-35 98q0 80 49 138t120 58q79 0 114 -54l6 28q1 9 9 15.5t18 6.5q14 0 22.5 -10.5t5.5 -23.5zM330 414l32 143q-28 44 -95 44q-50 0 -85 -42.5t-35 -100.5
q0 -44 23.5 -68.5t63.5 -24.5q53 0 96 49z" />
    <glyph glyph-name="guillemotleft" unicode="&#xab;" horiz-adv-x="439" 
d="M143 72l-91 137q-9 15 -9 27q0 19 18 34l165 147q7 7 18 7t18.5 -7.5t7.5 -18.5t-9 -20l-157 -140l88 -133q5 -8 5 -17q0 -12 -8.5 -20.5t-20.5 -8.5q-16 0 -25 13zM287 72l-91 137q-9 15 -9 27q0 19 18 34l165 147q7 7 18 7t18.5 -7.5t7.5 -18.5t-9 -20l-157 -140
l88 -133q5 -8 5 -17q0 -12 -8.5 -20.5t-20.5 -8.5q-16 0 -25 13z" />
    <glyph glyph-name="logicalnot" unicode="&#xac;" horiz-adv-x="504" 
d="M439 207q-12 0 -20 9.5t-5 22.5l36 165h-358q-11 0 -18.5 8t-7.5 19t8 18.5t18 7.5h375q19 0 30 -9.5t11 -25.5l-2 -14l-40 -180q-5 -21 -27 -21z" />
    <glyph glyph-name="uni00AD" unicode="&#xad;" horiz-adv-x="300" 
d="M26 242q0 14 10 23.5t23 9.5h180q14 0 23.5 -9.5t9.5 -23.5q0 -13 -9.5 -23t-23.5 -10h-180q-13 0 -23 10t-10 23z" />
    <glyph glyph-name="registered" unicode="&#xae;" horiz-adv-x="494" 
d="M84 465q0 88 62 150t150 62t150 -62t62 -150t-62.5 -150t-150.5 -62q-87 0 -149 62t-62 150zM479 465q0 75 -54.5 129t-129.5 54q-76 0 -129.5 -53.5t-53.5 -129.5q0 -75 54 -129.5t129 -54.5t129.5 54.5t54.5 129.5zM326 350l-39 89h-46l-19 -87q-3 -12 -15 -12
q-7 0 -12 5.5t-3 13.5l46 210q3 17 20 17h75q30 0 50 -17.5t20 -46.5q0 -34 -24.5 -58t-55.5 -24l35 -77q1 -1 1 -6q0 -17 -17 -17q-10 0 -16 10zM328 558h-61l-20 -90h67q23 0 39 14.5t16 36.5q0 18 -11.5 28.5t-29.5 10.5z" />
    <glyph glyph-name="overscore" unicode="&#xaf;" horiz-adv-x="363" 
d="M103 596q0 10 7 17t17 7h267q10 0 17 -7t7 -17t-7 -17t-17 -7h-267q-10 0 -17 7t-7 17z" />
    <glyph glyph-name="degree" unicode="&#xb0;" horiz-adv-x="290" 
d="M92 555q0 49 35 86q36 36 86 36q51 0 86 -36q36 -36 36 -86q0 -51 -36 -87q-35 -35 -86 -35q-49 0 -86 35q-35 37 -35 87zM140 555q0 -31 21 -52.5t51 -21.5t52.5 22t22.5 52t-22 52t-52 22t-51.5 -22t-21.5 -52z" />
    <glyph glyph-name="plusminus" unicode="&#xb1;" horiz-adv-x="499" 
d="M295 324l-43 -196q-5 -22 -27 -22q-13 0 -22 10.5t-6 23.5l41 184h-164q-10 0 -18 8t-8 18q0 11 8 18.5t18 7.5h176l42 189q5 22 27 22q13 0 21 -10.5t6 -23.5l-39 -177h163q11 0 19 -8t8 -18t-8 -18t-19 -8h-175zM-23 26q0 11 7.5 18.5t18.5 7.5h396q11 0 18.5 -7.5
t7.5 -18.5q0 -10 -7.5 -18t-18.5 -8h-396q-11 0 -18.5 8t-7.5 18z" />
    <glyph glyph-name="uni00B2" unicode="&#xb2;" horiz-adv-x="348" 
d="M63 451q0 19 15 27q107 62 155 94q119 80 119 142q0 30 -24 47t-61 17q-52 0 -97 -33q-4 -4 -14 -4t-17 7t-7 17q0 12 10 19q55 43 127 43q60 0 101 -28q43 -27 43 -81q0 -42 -33 -83q-31 -38 -80.5 -74.5t-139.5 -90.5h175q10 0 17 -7t7 -17t-7 -17.5t-17 -7.5h-242
q-13 0 -21.5 8.5t-8.5 21.5z" />
    <glyph glyph-name="uni00B3" unicode="&#xb3;" horiz-adv-x="368" 
d="M96 467q-9 9 -9 20t8 18.5t19 7.5q13 0 19 -7q42 -43 105 -43q40 0 64 22t24 57q0 26 -26 43t-68 17h-9q-10 0 -17 7t-7 17q0 9 7 16.5t16 7.5l47 -1q42 0 66.5 18t24.5 50q0 27 -26.5 44t-65.5 17q-49 0 -92 -31q-5 -4 -13 -4q-9 0 -15.5 7t-6.5 16q0 12 9 19
q62 42 122 42q67 0 108 -27t41 -75q0 -44 -31 -72t-80 -32q33 -6 55 -29.5t22 -56.5q0 -47 -41.5 -84t-105.5 -37q-96 0 -144 53z" />
    <glyph glyph-name="acute" unicode="&#xb4;" horiz-adv-x="226" 
d="M114 552q-8 0 -13.5 6t-5.5 13q0 11 8 17l135 109q8 6 18 6t16.5 -7.5t6.5 -17.5q0 -14 -10 -21l-141 -101q-4 -4 -14 -4z" />
    <glyph glyph-name="uni00B5" unicode="&#xb5;" horiz-adv-x="564" 
d="M23 -188q-17 0 -28.5 14t-7.5 31l136 602q3 12 13 20t23 8q17 0 28.5 -14t7.5 -31l-62 -276q-4 -15 -4 -34q0 -38 23.5 -58.5t64.5 -20.5q39 0 83 21.5t74 53.5l73 331q3 12 13 20t23 8q17 0 28.5 -13.5t7.5 -30.5l-73 -330q-3 -12 -3 -22q0 -31 26 -34q7 -1 13 -5
q17 -11 17 -29q0 -12 -9 -22t-21 -12q-4 -1 -19 -1q-89 0 -84 86q-83 -86 -173 -86q-69 0 -90 48l-44 -196q-3 -12 -13 -20t-23 -8z" />
    <glyph glyph-name="paragraph" unicode="&#xb6;" horiz-adv-x="449" 
d="M261 -77l155 699h-89l-157 -709q-5 -17 -22 -17q-10 0 -16.5 8.5t-4.5 18.5l89 400q-57 0 -97 44.5t-40 111.5q0 73 57 130.5t137 57.5h148q41 0 41 -35l-2 -14l-156 -705q-5 -17 -22 -17q-10 0 -16.5 8.5t-4.5 18.5z" />
    <glyph glyph-name="middot" unicode="&#xb7;" horiz-adv-x="230" 
d="M120 300q21 0 35.5 -15t14.5 -36q0 -25 -17.5 -42t-42.5 -17q-21 0 -35.5 14.5t-14.5 35.5q0 25 17.5 42.5t42.5 17.5z" />
    <glyph glyph-name="cedilla" unicode="&#xb8;" horiz-adv-x="205" 
d="M-84 -146q0 9 6.5 15.5t15.5 6.5q5 0 13 -5q31 -23 70 -23q29 0 45 13t16 34q0 30 -37 30q-14 0 -28 -11q-4 -4 -14 -4q-18 0 -18 17q0 7 3 13l42 71h45l-40 -66q16 11 34 11q27 0 42.5 -16t15.5 -43q0 -39 -30 -63.5t-78 -24.5q-53 0 -93 26q-10 7 -10 19z" />
    <glyph glyph-name="uni00B9" unicode="&#xb9;" horiz-adv-x="235" 
d="M161 453l62 286l-62 -53q-5 -5 -15 -5t-17 6.5t-7 16.5q0 13 8 19l116 95q7 7 19 7q15 0 24 -11.5t6 -25.5l-76 -348q-2 -10 -10.5 -16.5t-18.5 -6.5q-14 0 -23 11t-6 25z" />
    <glyph glyph-name="ordmasculine" unicode="&#xba;" horiz-adv-x="405" 
d="M269 648q68 0 109 -39.5t41 -103.5q0 -77 -53.5 -132t-129.5 -55q-68 0 -109 39.5t-41 102.5q0 77 54 132.5t129 55.5zM268 598q-53 0 -88 -42q-34 -40 -34 -97q0 -42 25 -67.5t67 -25.5q54 0 87 41q34 41 34 99q0 41 -25 66.5t-66 25.5z" />
    <glyph glyph-name="guillemotright" unicode="&#xbb;" horiz-adv-x="439" 
d="M154 411l91 -137q9 -15 9 -27q0 -19 -18 -34l-165 -147q-7 -7 -18 -7t-18.5 7.5t-7.5 18.5t9 20l157 140l-88 133q-5 8 -5 17q0 12 8.5 20.5t20.5 8.5q16 0 25 -13zM298 411l91 -137q9 -15 9 -27q0 -19 -18 -34l-165 -147q-7 -7 -18 -7t-18.5 7.5t-7.5 18.5t9 20l157 140
l-88 133q-5 8 -5 17q0 12 8.5 20.5t20.5 8.5q16 0 25 -13z" />
    <glyph glyph-name="onequarter" unicode="&#xbc;" horiz-adv-x="712" 
d="M127 299l62 286l-62 -53q-5 -5 -15 -5t-17 6.5t-7 16.5q0 13 8 19l116 95q7 7 19 7q15 0 24 -11.5t6 -25.5l-76 -348q-2 -10 -10.5 -16.5t-18.5 -6.5q-14 0 -23 11t-6 25zM86 -4q-9 0 -15 6t-6 15q0 5 5 13l544 634q7 7 17 7q8 0 14.5 -6.5t6.5 -14.5q0 -6 -5 -14
l-545 -633q-4 -7 -16 -7zM678 125q0 -10 -7.5 -17.5t-17.5 -7.5h-42l-18 -81q-2 -10 -10 -16.5t-18 -6.5q-14 0 -23 10.5t-6 24.5l16 69h-169q-10 0 -17.5 8t-7.5 18q0 9 5 17l221 245q13 16 35 16q19 0 33 -14t14 -32q0 -8 -1 -11l-43 -198h31q10 0 17.5 -7t7.5 -17z
M562 149l43 194l-178 -194h135z" />
    <glyph glyph-name="onehalf" unicode="&#xbd;" horiz-adv-x="756" 
d="M127 299l62 286l-62 -53q-5 -5 -15 -5t-17 6.5t-7 16.5q0 13 8 19l116 95q7 7 19 7q15 0 24 -11.5t6 -25.5l-76 -348q-2 -10 -10.5 -16.5t-18.5 -6.5q-14 0 -23 11t-6 25zM86 -4q-9 0 -15 6t-6 15q0 5 5 13l544 634q7 7 17 7q8 0 14.5 -6.5t6.5 -14.5q0 -6 -5 -14
l-545 -633q-4 -7 -16 -7zM379 30q0 19 15 27q107 62 155 94q119 80 119 142q0 30 -24 47t-61 17q-52 0 -97 -33q-4 -4 -14 -4t-17 7t-7 17q0 12 10 19q55 43 127 43q60 0 101 -28q43 -27 43 -81q0 -43 -33 -83q-31 -38 -80.5 -74.5t-139.5 -90.5h175q10 0 17 -7t7 -17
t-7 -17.5t-17 -7.5h-242q-13 0 -21.5 8.5t-8.5 21.5z" />
    <glyph glyph-name="threequarters" unicode="&#xbe;" horiz-adv-x="810" 
d="M62 313q-9 9 -9 20t8 18.5t19 7.5q13 0 19 -7q42 -43 105 -43q40 0 64 22t24 57q0 26 -26 43t-68 17h-9q-10 0 -17 7t-7 17q0 9 7 16.5t16 7.5l47 -1q42 0 66.5 18t24.5 50q0 27 -26.5 44t-65.5 17q-49 0 -92 -31q-5 -4 -13 -4q-9 0 -15.5 7t-6.5 16q0 12 9 19
q62 42 122 42q67 0 108 -27t41 -75q0 -44 -31 -72t-80 -32q33 -6 55 -29.5t22 -56.5q0 -47 -41.5 -84t-105.5 -37q-96 0 -144 53zM184 -4q-9 0 -15 6t-6 15q0 5 5 13l544 634q7 7 17 7q8 0 14.5 -6.5t6.5 -14.5q0 -6 -5 -14l-545 -633q-4 -7 -16 -7zM775 125
q0 -10 -7.5 -17.5t-17.5 -7.5h-42l-18 -81q-2 -10 -10 -16.5t-18 -6.5q-14 0 -23 10.5t-6 24.5l16 69h-169q-10 0 -17.5 8t-7.5 18q0 9 5 17l221 245q13 16 35 16q19 0 33 -14t14 -32q0 -8 -1 -11l-43 -198h31q10 0 17.5 -7t7.5 -17zM659 149l43 194l-178 -194h135z" />
    <glyph glyph-name="questiondown" unicode="&#xbf;" horiz-adv-x="394" 
d="M275 383q-21 0 -35.5 14.5t-14.5 36.5q0 24 18 41.5t42 17.5q22 0 36.5 -15t14.5 -36q0 -25 -18 -42t-43 -17zM284 265q9 -18 9 -38q0 -35 -17 -61q-16 -23 -39 -39.5t-68 -40.5q-62 -32 -87.5 -56.5t-25.5 -63.5q0 -40 32.5 -63.5t89.5 -23.5q71 0 130 46q9 6 19 6
q14 0 24 -10t10 -24q0 -17 -15 -28q-77 -64 -178 -64q-88 0 -144.5 41t-56.5 106q0 46 21 78q19 30 45.5 49.5t82.5 49.5q58 29 81 50.5t23 52.5q0 10 -5 18q-2 6 -2 7q0 14 11.5 24.5t25.5 10.5q29 0 34 -27z" />
    <glyph glyph-name="Agrave" unicode="&#xc0;" horiz-adv-x="658" 
d="M587 38q0 -18 -12.5 -30t-30.5 -12q-16 0 -27.5 10t-14.5 25l-19 117h-343l-80 -132q-12 -20 -35 -20q-17 0 -29 12t-12 29q0 8 7 21l361 579q21 34 61 34q26 0 45.5 -16.5t24.5 -42.5l103 -566q1 -2 1 -8zM185 222h285l-61 368zM413 728l-90 95q-9 7 -9 20q0 12 8 20
t20 8q13 0 22 -10l83 -102q7 -8 7 -16q0 -10 -6.5 -16.5t-16.5 -6.5t-18 8z" />
    <glyph glyph-name="Aacute" unicode="&#xc1;" horiz-adv-x="658" 
d="M587 38q0 -18 -12.5 -30t-30.5 -12q-16 0 -27.5 10t-14.5 25l-19 117h-343l-80 -132q-12 -20 -35 -20q-17 0 -29 12t-12 29q0 8 7 21l361 579q21 34 61 34q26 0 45.5 -16.5t24.5 -42.5l103 -566q1 -2 1 -8zM185 222h285l-61 368zM439 719q-8 0 -13.5 6t-5.5 13q0 11 8 17
l135 109q7 6 18 6q10 0 16.5 -7.5t6.5 -17.5q0 -14 -10 -21l-141 -101q-4 -4 -14 -4z" />
    <glyph glyph-name="Acircumflex" unicode="&#xc2;" horiz-adv-x="658" 
d="M587 38q0 -18 -12.5 -30t-30.5 -12q-16 0 -27.5 10t-14.5 25l-19 117h-343l-80 -132q-12 -20 -35 -20q-17 0 -29 12t-12 29q0 8 7 21l361 579q21 34 61 34q26 0 45.5 -16.5t24.5 -42.5l103 -566q1 -2 1 -8zM185 222h285l-61 368zM516 730l-56 99l-101 -104q-6 -6 -15 -6
t-14.5 6t-5.5 14q0 5 5 13l84 95q19 21 43 21h22q26 0 35 -22l44 -95q2 -8 2 -9q0 -9 -7.5 -16t-16.5 -7q-11 0 -19 11z" />
    <glyph glyph-name="Atilde" unicode="&#xc3;" horiz-adv-x="658" 
d="M587 38q0 -18 -12.5 -30t-30.5 -12q-16 0 -27.5 10t-14.5 25l-19 117h-343l-80 -132q-12 -20 -35 -20q-17 0 -29 12t-12 29q0 8 7 21l361 579q21 34 61 34q26 0 45.5 -16.5t24.5 -42.5l103 -566q1 -2 1 -8zM185 222h285l-61 368zM386 813q-40 0 -58 -74q-5 -16 -21 -16
q-11 0 -17.5 8.5t-4.5 19.5q30 110 106 110q25 0 40 -12t32 -39q13 -23 23 -32t26 -9q40 0 58 74q5 16 21 16q11 0 18 -9t4 -20q-30 -109 -106 -109q-25 0 -40 12t-32 39q-13 23 -23 32t-26 9z" />
    <glyph glyph-name="Adieresis" unicode="&#xc4;" horiz-adv-x="658" 
d="M587 38q0 -18 -12.5 -30t-30.5 -12q-16 0 -27.5 10t-14.5 25l-19 117h-343l-80 -132q-12 -20 -35 -20q-17 0 -29 12t-12 29q0 8 7 21l361 579q21 34 61 34q26 0 45.5 -16.5t24.5 -42.5l103 -566q1 -2 1 -8zM185 222h285l-61 368zM301 775q0 20 16 35.5t36 15.5
q17 0 29 -12t12 -29q0 -20 -15.5 -36t-36.5 -16q-17 0 -29 12.5t-12 29.5zM507 775q0 20 16 35.5t36 15.5q18 0 29.5 -12t11.5 -29q0 -20 -15.5 -36t-36.5 -16q-17 0 -29 12.5t-12 29.5z" />
    <glyph glyph-name="Aring" unicode="&#xc5;" horiz-adv-x="658" 
d="M587 38q0 -18 -12.5 -30t-30.5 -12q-16 0 -27.5 10t-14.5 25l-19 117h-343l-80 -132q-12 -20 -35 -20q-17 0 -29 12t-12 29q0 8 7 21l361 579q21 34 61 34q26 0 45.5 -16.5t24.5 -42.5l103 -566q1 -2 1 -8zM185 222h285l-61 368zM465 907q39 0 64 -25t25 -64
q0 -44 -32 -76t-76 -32q-39 0 -64 25t-25 64q0 44 32 76t76 32zM462 867q-26 0 -45.5 -19t-19.5 -45q0 -23 14.5 -38t37.5 -15q26 0 45.5 19t19.5 45q0 24 -14 38.5t-38 14.5z" />
    <glyph glyph-name="AE" unicode="&#xc6;" horiz-adv-x="947" 
d="M981 630q0 -15 -10.5 -26t-25.5 -11h-329l-48 -215h306q15 0 25.5 -11t10.5 -26t-10.5 -26t-25.5 -11h-323l-51 -230h313q15 0 26 -11t11 -26t-11 -26t-26 -11h-361q-41 0 -41 36q0 10 1 13l22 99h-264l-114 -139q-10 -13 -28 -13q-16 0 -26.5 10.5t-10.5 25.5q0 12 9 23
l495 586q21 26 54 26h396q15 0 25.5 -11t10.5 -26zM450 222l81 366l-300 -366h219z" />
    <glyph glyph-name="Ccedilla" unicode="&#xc7;" horiz-adv-x="664" 
d="M690 539q0 -18 -12.5 -30.5t-29.5 -12.5q-23 0 -34 18q-63 90 -184 90q-110 2 -197.5 -91.5t-84.5 -228.5q0 -99 61.5 -160.5t163.5 -61.5q84 0 160 59q9 9 24 9q16 0 27.5 -11t11.5 -27t-15 -30q-93 -74 -213 -74q-21 0 -27 1l-27 -44q16 11 33 11q27 0 43 -16t16 -43
q0 -39 -30.5 -63.5t-77.5 -24.5q-53 0 -94 26q-9 7 -9 19q0 9 6.5 15.5t14.5 6.5t13 -5q32 -23 71 -23q29 0 45 13t16 34q0 30 -37 30q-14 0 -28 -11q-4 -4 -14 -4q-18 0 -18 17q0 10 3 13l32 54q-108 20 -174 96q-65 77 -65 190q-2 84 29.5 160t84 128t121.5 81.5t140 28.5
q164 0 247 -114q8 -14 8 -25z" />
    <glyph glyph-name="Egrave" unicode="&#xc8;" horiz-adv-x="569" 
d="M33 36q0 10 1 13l128 579q9 39 49 39h356q15 0 25.5 -11t10.5 -26t-10.5 -26t-25.5 -11h-329l-48 -215h306q15 0 25.5 -11t10.5 -26t-10.5 -26t-25.5 -11h-323l-51 -230h313q15 0 26 -11t11 -26t-11 -26t-26 -11h-361q-41 0 -41 36zM386 728l-90 95q-9 7 -9 20q0 12 8 20
t20 8q13 0 22 -10l83 -102q7 -8 7 -16q0 -10 -6.5 -16.5t-16.5 -6.5t-18 8z" />
    <glyph glyph-name="Eacute" unicode="&#xc9;" horiz-adv-x="569" 
d="M33 36q0 10 1 13l128 579q9 39 49 39h356q15 0 25.5 -11t10.5 -26t-10.5 -26t-25.5 -11h-329l-48 -215h306q15 0 25.5 -11t10.5 -26t-10.5 -26t-25.5 -11h-323l-51 -230h313q15 0 26 -11t11 -26t-11 -26t-26 -11h-361q-41 0 -41 36zM412 719q-8 0 -13.5 6t-5.5 13
q0 11 8 17l135 109q8 6 18 6t16.5 -7.5t6.5 -17.5q0 -14 -10 -21l-141 -101q-4 -4 -14 -4z" />
    <glyph glyph-name="Ecircumflex" unicode="&#xca;" horiz-adv-x="569" 
d="M33 36q0 10 1 13l128 579q9 39 49 39h356q15 0 25.5 -11t10.5 -26t-10.5 -26t-25.5 -11h-329l-48 -215h306q15 0 25.5 -11t10.5 -26t-10.5 -26t-25.5 -11h-323l-51 -230h313q15 0 26 -11t11 -26t-11 -26t-26 -11h-361q-41 0 -41 36zM489 730l-56 99l-101 -104
q-6 -6 -15 -6t-14.5 6t-5.5 14q0 5 5 13l84 95q19 21 43 21h22q26 0 35 -22l44 -95q2 -8 2 -9q0 -9 -7.5 -16t-16.5 -7q-11 0 -19 11z" />
    <glyph glyph-name="Edieresis" unicode="&#xcb;" horiz-adv-x="569" 
d="M33 36q0 10 1 13l128 579q9 39 49 39h356q15 0 25.5 -11t10.5 -26t-10.5 -26t-25.5 -11h-329l-48 -215h306q15 0 25.5 -11t10.5 -26t-10.5 -26t-25.5 -11h-323l-51 -230h313q15 0 26 -11t11 -26t-11 -26t-26 -11h-361q-41 0 -41 36zM274 775q0 20 16 35.5t36 15.5
q17 0 29 -12t12 -29q0 -20 -15.5 -36t-36.5 -16q-17 0 -29 12.5t-12 29.5zM480 775q0 20 16 35.5t36 15.5q18 0 29.5 -12t11.5 -29q0 -20 -15.5 -36t-36.5 -16q-17 0 -29 12.5t-12 29.5z" />
    <glyph glyph-name="Igrave" unicode="&#xcc;" horiz-adv-x="239" 
d="M33 36q0 7 1 9l131 594q7 32 39 32q17 0 29 -12t12 -29q0 -6 -1 -8l-131 -594q-7 -32 -40 -32q-16 0 -28 12t-12 28zM204 728l-90 95q-9 7 -9 20q0 12 8 20t20 8q13 0 22 -10l83 -102q7 -8 7 -16q0 -10 -6.5 -16.5t-16.5 -6.5t-18 8z" />
    <glyph glyph-name="Iacute" unicode="&#xcd;" horiz-adv-x="239" 
d="M33 36q0 7 1 9l131 594q7 32 39 32q17 0 29 -12t12 -29q0 -6 -1 -8l-131 -594q-7 -32 -40 -32q-16 0 -28 12t-12 28zM230 719q-8 0 -13.5 6t-5.5 13q0 11 8 17l135 109q8 6 18 6t16.5 -7.5t6.5 -17.5q0 -14 -10 -21l-141 -101q-4 -4 -14 -4z" />
    <glyph glyph-name="Icircumflex" unicode="&#xce;" horiz-adv-x="239" 
d="M33 36q0 7 1 9l131 594q7 32 39 32q17 0 29 -12t12 -29q0 -6 -1 -8l-131 -594q-7 -32 -40 -32q-16 0 -28 12t-12 28zM307 730l-56 99l-101 -104q-6 -6 -15 -6t-14.5 6t-5.5 14q0 5 5 13l84 95q19 21 43 21h22q26 0 35 -22l44 -95q2 -8 2 -9q0 -9 -7.5 -16t-16.5 -7
q-11 0 -19 11z" />
    <glyph glyph-name="Idieresis" unicode="&#xcf;" horiz-adv-x="239" 
d="M33 36q0 7 1 9l131 594q7 32 39 32q17 0 29 -12t12 -29q0 -6 -1 -8l-131 -594q-7 -32 -40 -32q-16 0 -28 12t-12 28zM91 775q0 20 16 35.5t36 15.5q17 0 29 -12t12 -29q0 -20 -15.5 -36t-36.5 -16q-17 0 -29 12.5t-12 29.5zM297 775q0 20 16 35.5t36 15.5q18 0 29.5 -12
t11.5 -29q0 -20 -15.5 -36t-36.5 -16q-17 0 -29 12.5t-12 29.5z" />
    <glyph glyph-name="Eth" unicode="&#xd0;" horiz-adv-x="728" 
d="M699 382q1 -72 -26.5 -140t-78.5 -123t-133 -87.5t-182 -31.5h-177q-41 0 -41 36q0 10 1 13l55 250h-56q-14 0 -24.5 10.5t-10.5 24.5t10.5 24t24.5 10h72l57 260q9 39 49 39h183q111 2 195 -81.5t82 -203.5zM612 378q0 92 -59 153.5t-147 61.5h-140l-50 -225h130
q14 0 24.5 -10t10.5 -25q0 -14 -10.5 -24t-24.5 -10h-146l-50 -225h143q139 -2 230 88t89 216z" />
    <glyph glyph-name="Ntilde" unicode="&#xd1;" horiz-adv-x="708" 
d="M483 27l-254 529l-116 -528q-7 -32 -40 -32q-16 0 -28 12t-12 28q0 7 1 9l128 582q4 19 19.5 31.5t36.5 12.5q36 0 51 -33l250 -517l115 518q7 32 40 32q16 0 28 -12t12 -28q0 -7 -1 -9l-128 -584q-4 -18 -19 -30t-34 -12q-34 0 -49 31zM411 813q-39 0 -58 -74
q-5 -16 -21 -16q-11 0 -17.5 8.5t-4.5 19.5q30 110 106 110q25 0 40 -12t32 -39q13 -23 23 -32t26 -9q39 0 58 74q5 16 21 16q11 0 18 -9t4 -20q-30 -109 -106 -109q-25 0 -40 12t-32 39q-13 23 -23 32t-26 9z" />
    <glyph glyph-name="Ograve" unicode="&#xd2;" horiz-adv-x="765" 
d="M435 678q131 2 220.5 -79t87.5 -212q3 -164 -109.5 -283t-265.5 -116q-133 0 -220.5 79.5t-87.5 212.5q-3 163 109 282t266 116zM430 604q-114 3 -199 -92t-83 -228q0 -102 63.5 -162t161.5 -60q113 -3 198.5 92t83.5 228q0 102 -64 162t-161 60zM465 728l-90 95
q-9 7 -9 20q0 12 8 20t20 8q13 0 22 -10l83 -102q7 -8 7 -16q0 -10 -6.5 -16.5t-16.5 -6.5t-18 8z" />
    <glyph glyph-name="Oacute" unicode="&#xd3;" horiz-adv-x="765" 
d="M435 678q131 2 220.5 -79t87.5 -212q3 -164 -109.5 -283t-265.5 -116q-133 0 -220.5 79.5t-87.5 212.5q-3 163 109 282t266 116zM430 604q-114 3 -199 -92t-83 -228q0 -102 63.5 -162t161.5 -60q113 -3 198.5 92t83.5 228q0 102 -64 162t-161 60zM491 719q-8 0 -13.5 6
t-5.5 13q0 11 8 17l135 109q7 6 18 6q10 0 16.5 -7.5t6.5 -17.5q0 -14 -10 -21l-141 -101q-4 -4 -14 -4z" />
    <glyph glyph-name="Ocircumflex" unicode="&#xd4;" horiz-adv-x="765" 
d="M435 678q131 2 220.5 -79t87.5 -212q3 -164 -109.5 -283t-265.5 -116q-133 0 -220.5 79.5t-87.5 212.5q-3 163 109 282t266 116zM430 604q-114 3 -199 -92t-83 -228q0 -102 63.5 -162t161.5 -60q113 -3 198.5 92t83.5 228q0 102 -64 162t-161 60zM568 730l-56 99
l-101 -104q-6 -6 -15 -6t-14.5 6t-5.5 14q0 5 5 13l84 95q19 21 43 21h22q26 0 35 -22l44 -95q2 -8 2 -9q0 -9 -7.5 -16t-16.5 -7q-11 0 -19 11z" />
    <glyph glyph-name="Otilde" unicode="&#xd5;" horiz-adv-x="765" 
d="M435 678q131 2 220.5 -79t87.5 -212q3 -164 -109.5 -283t-265.5 -116q-133 0 -220.5 79.5t-87.5 212.5q-3 163 109 282t266 116zM430 604q-114 3 -199 -92t-83 -228q0 -102 63.5 -162t161.5 -60q113 -3 198.5 92t83.5 228q0 102 -64 162t-161 60zM438 813q-40 0 -58 -74
q-5 -16 -21 -16q-11 0 -17.5 8.5t-4.5 19.5q30 110 106 110q25 0 40 -12t32 -39q13 -23 23 -32t26 -9q40 0 58 74q5 16 21 16q11 0 18 -9t4 -20q-30 -109 -106 -109q-25 0 -40 12t-32 39q-13 23 -23 32t-26 9z" />
    <glyph glyph-name="Odieresis" unicode="&#xd6;" horiz-adv-x="765" 
d="M435 678q131 2 220.5 -79t87.5 -212q3 -164 -109.5 -283t-265.5 -116q-133 0 -220.5 79.5t-87.5 212.5q-3 163 109 282t266 116zM430 604q-114 3 -199 -92t-83 -228q0 -102 63.5 -162t161.5 -60q113 -3 198.5 92t83.5 228q0 102 -64 162t-161 60zM353 775q0 20 16 35.5
t36 15.5q17 0 29 -12t12 -29q0 -20 -15.5 -36t-36.5 -16q-17 0 -29 12.5t-12 29.5zM559 775q0 20 16 35.5t36 15.5q18 0 29.5 -12t11.5 -29q0 -20 -15.5 -36t-36.5 -16q-17 0 -29 12.5t-12 29.5z" />
    <glyph glyph-name="multiply" unicode="&#xd7;" horiz-adv-x="499" 
d="M264 297l-166 -137q-8 -5 -16 -5q-11 0 -18.5 7.5t-7.5 18.5q0 10 9 19l168 137l-101 129q-6 8 -6 17q0 11 8 19t19 8q12 0 21 -11l99 -128l167 136q8 6 17 6q10 0 17.5 -7.5t7.5 -18.5t-9 -20l-167 -137l100 -129q6 -10 6 -17q0 -11 -8 -18.5t-19 -7.5q-13 0 -20 10z
" />
    <glyph glyph-name="Oslash" unicode="&#xd8;" horiz-adv-x="765" 
d="M765 695q0 -8 -8 -16l-88 -93q74 -80 74 -199q3 -164 -109.5 -283t-265.5 -116q-118 0 -204 64l-87 -92q-8 -8 -17 -8q-8 0 -13.5 6t-5.5 14q0 9 7 16l87 92q-75 78 -75 200q-3 163 109 282t266 116q121 0 204 -65l89 94q11 8 17 8q8 0 14 -6t6 -14zM193 142l389 411
q-62 51 -152 51q-114 3 -199 -92t-83 -228q0 -84 45 -142zM610 524l-389 -411q60 -51 152 -51q113 -3 198.5 92t83.5 228q0 84 -45 142z" />
    <glyph glyph-name="Ugrave" unicode="&#xd9;" horiz-adv-x="700" 
d="M81 259l84 380q7 32 40 32q16 0 28 -12t12 -28q0 -7 -1 -9l-79 -361q-5 -22 -5 -42q0 -71 47 -114t129 -43q86 0 135.5 49.5t70.5 149.5l84 378q7 32 40 32q16 0 28 -12t12 -28q0 -7 -1 -9l-79 -362q-31 -137 -99.5 -204.5t-190.5 -67.5t-191 59.5t-69 162.5q0 16 5 49z
M434 728l-90 95q-9 7 -9 20q0 12 8 20t20 8q13 0 22 -10l83 -102q7 -8 7 -16q0 -10 -6.5 -16.5t-16.5 -6.5t-18 8z" />
    <glyph glyph-name="Uacute" unicode="&#xda;" horiz-adv-x="700" 
d="M81 259l84 380q7 32 40 32q16 0 28 -12t12 -28q0 -7 -1 -9l-79 -361q-5 -22 -5 -42q0 -71 47 -114t129 -43q86 0 135.5 49.5t70.5 149.5l84 378q7 32 40 32q16 0 28 -12t12 -28q0 -7 -1 -9l-79 -362q-31 -137 -99.5 -204.5t-190.5 -67.5t-191 59.5t-69 162.5q0 16 5 49z
M459 719q-8 0 -13.5 6t-5.5 13q0 11 8 17l135 109q7 6 18 6q10 0 16.5 -7.5t6.5 -17.5q0 -14 -10 -21l-141 -101q-4 -4 -14 -4z" />
    <glyph glyph-name="Ucircumflex" unicode="&#xdb;" horiz-adv-x="700" 
d="M81 259l84 380q7 32 40 32q16 0 28 -12t12 -28q0 -7 -1 -9l-79 -361q-5 -22 -5 -42q0 -71 47 -114t129 -43q86 0 135.5 49.5t70.5 149.5l84 378q7 32 40 32q16 0 28 -12t12 -28q0 -7 -1 -9l-79 -362q-31 -137 -99.5 -204.5t-190.5 -67.5t-191 59.5t-69 162.5q0 16 5 49z
M536 730l-56 99l-101 -104q-6 -6 -15 -6t-14.5 6t-5.5 14q0 5 5 13l84 95q19 21 43 21h22q26 0 35 -22l44 -95q2 -8 2 -9q0 -9 -7.5 -16t-16.5 -7q-11 0 -19 11z" />
    <glyph glyph-name="Udieresis" unicode="&#xdc;" horiz-adv-x="700" 
d="M81 259l84 380q7 32 40 32q16 0 28 -12t12 -28q0 -7 -1 -9l-79 -361q-5 -22 -5 -42q0 -71 47 -114t129 -43q86 0 135.5 49.5t70.5 149.5l84 378q7 32 40 32q16 0 28 -12t12 -28q0 -7 -1 -9l-79 -362q-31 -137 -99.5 -204.5t-190.5 -67.5t-191 59.5t-69 162.5q0 16 5 49z
M321 775q0 20 16 35.5t36 15.5q17 0 29 -12t12 -29q0 -20 -15.5 -36t-36.5 -16q-17 0 -29 12.5t-12 29.5zM527 775q0 20 16 35.5t36 15.5q18 0 29.5 -12t11.5 -29q0 -20 -15.5 -36t-36.5 -16q-17 0 -29 12.5t-12 29.5z" />
    <glyph glyph-name="Yacute" unicode="&#xdd;" horiz-adv-x="626" 
d="M657 607l-295 -327l-55 -252q-7 -32 -40 -32q-16 0 -28 12t-12 28q0 7 1 9l52 237l-154 331q-3 9 -3 17q0 17 12 29t29 12q26 0 38 -25l130 -289l267 301q10 13 29 13q16 0 27 -11t11 -27q0 -13 -9 -26zM423 719q-8 0 -13.5 6t-5.5 13q0 11 8 17l135 109q7 6 18 6
q10 0 16.5 -7.5t6.5 -17.5q0 -14 -10 -21l-141 -101q-4 -4 -14 -4z" />
    <glyph glyph-name="Thorn" unicode="&#xde;" horiz-adv-x="587" 
d="M578 375q0 -92 -66.5 -160.5t-188.5 -68.5h-184l-26 -118q-7 -32 -40 -32q-16 0 -28 12t-12 28q0 7 1 9l131 594q7 32 39 32q17 0 29 -12t12 -29q0 -6 -1 -8l-17 -74h176q74 0 124.5 -51t50.5 -122zM491 368q0 45 -33 75.5t-78 30.5h-169l-56 -254h174q75 0 118.5 43
t43.5 105z" />
    <glyph glyph-name="germandbls" unicode="&#xdf;" horiz-adv-x="557" 
d="M368 358q58 -16 93 -60.5t35 -104.5q0 -15 -5 -43q-17 -74 -76 -118t-139 -44q-60 0 -104 23q-20 12 -20 30q0 13 10 23t24 10q6 0 22 -6q28 -15 68 -15q53 0 91 30.5t49 82.5q4 15 4 38q0 55 -38.5 87.5t-110.5 36.5q-11 1 -19.5 10t-8.5 21q0 13 8 21.5t20 9.5
q70 4 112 33t52 76q2 10 2 23q0 40 -28 64t-69 24q-55 0 -94.5 -37.5t-56.5 -110.5l-97 -437q-7 -29 -35 -29q-16 0 -26.5 11t-10.5 26q0 6 1 8l93 421q24 104 84 159.5t148 55.5q70 0 120 -41t50 -106q0 -23 -4 -38q-11 -48 -50 -84.5t-94 -49.5z" />
    <glyph glyph-name="agrave" unicode="&#xe0;" horiz-adv-x="575" 
d="M544 443l-93 -419q-2 -12 -12 -20t-23 -8q-16 0 -26.5 10.5t-10.5 25.5q0 6 1 8l7 31q-64 -83 -160 -83q-85 0 -136 53.5t-51 145.5q-2 122 71 216t182 92q54 0 98.5 -24t69.5 -64l12 52q2 12 12 20t23 8q17 0 28.5 -14t7.5 -30zM401 137l48 213q-19 35 -58 56.5
t-88 21.5q-78 0 -131 -68.5t-53 -158.5q0 -67 37 -106.5t98 -39.5q42 0 82 23t65 59zM342 581l-90 95q-9 7 -9 20q0 12 8 20t20 8q13 0 22 -10l83 -102q7 -8 7 -16q0 -10 -6.5 -16.5t-16.5 -6.5t-18 8z" />
    <glyph glyph-name="aacute" unicode="&#xe1;" horiz-adv-x="575" 
d="M544 443l-93 -419q-2 -12 -12 -20t-23 -8q-16 0 -26.5 10.5t-10.5 25.5q0 6 1 8l7 31q-64 -83 -160 -83q-85 0 -136 53.5t-51 145.5q-2 122 71 216t182 92q54 0 98.5 -24t69.5 -64l12 52q2 12 12 20t23 8q17 0 28.5 -14t7.5 -30zM401 137l48 213q-19 35 -58 56.5
t-88 21.5q-78 0 -131 -68.5t-53 -158.5q0 -67 37 -106.5t98 -39.5q42 0 82 23t65 59zM368 572q-8 0 -13.5 6t-5.5 13q0 11 8 17l135 109q8 6 18 6t16.5 -7.5t6.5 -17.5q0 -14 -10 -21l-141 -101q-4 -4 -14 -4z" />
    <glyph glyph-name="acircumflex" unicode="&#xe2;" horiz-adv-x="575" 
d="M544 443l-93 -419q-2 -12 -12 -20t-23 -8q-16 0 -26.5 10.5t-10.5 25.5q0 6 1 8l7 31q-64 -83 -160 -83q-85 0 -136 53.5t-51 145.5q-2 122 71 216t182 92q54 0 98.5 -24t69.5 -64l12 52q2 12 12 20t23 8q17 0 28.5 -14t7.5 -30zM401 137l48 213q-19 35 -58 56.5
t-88 21.5q-78 0 -131 -68.5t-53 -158.5q0 -67 37 -106.5t98 -39.5q42 0 82 23t65 59zM445 583l-56 99l-101 -104q-6 -6 -15 -6t-14.5 6t-5.5 14q0 5 5 13l84 95q19 21 43 21h22q26 0 35 -22l44 -95q2 -8 2 -9q0 -9 -7.5 -16t-16.5 -7q-11 0 -19 11z" />
    <glyph glyph-name="atilde" unicode="&#xe3;" horiz-adv-x="575" 
d="M544 443l-93 -419q-2 -12 -12 -20t-23 -8q-16 0 -26.5 10.5t-10.5 25.5q0 6 1 8l7 31q-64 -83 -160 -83q-85 0 -136 53.5t-51 145.5q-2 122 71 216t182 92q54 0 98.5 -24t69.5 -64l12 52q2 12 12 20t23 8q17 0 28.5 -14t7.5 -30zM401 137l48 213q-19 35 -58 56.5
t-88 21.5q-78 0 -131 -68.5t-53 -158.5q0 -67 37 -106.5t98 -39.5q42 0 82 23t65 59zM315 666q-39 0 -58 -74q-5 -16 -21 -16q-11 0 -17.5 8.5t-4.5 19.5q30 110 106 110q25 0 40 -12t32 -39q13 -23 23 -32t26 -9q39 0 58 74q5 16 21 16q11 0 18 -9t4 -20
q-30 -109 -106 -109q-25 0 -40 12t-32 39q-13 23 -23 32t-26 9z" />
    <glyph glyph-name="adieresis" unicode="&#xe4;" horiz-adv-x="575" 
d="M544 443l-93 -419q-2 -12 -12 -20t-23 -8q-16 0 -26.5 10.5t-10.5 25.5q0 6 1 8l7 31q-64 -83 -160 -83q-85 0 -136 53.5t-51 145.5q-2 122 71 216t182 92q54 0 98.5 -24t69.5 -64l12 52q2 12 12 20t23 8q17 0 28.5 -14t7.5 -30zM401 137l48 213q-19 35 -58 56.5
t-88 21.5q-78 0 -131 -68.5t-53 -158.5q0 -67 37 -106.5t98 -39.5q42 0 82 23t65 59zM230 628q0 20 16 35.5t36 15.5q17 0 29 -12t12 -29q0 -20 -15.5 -36t-36.5 -16q-17 0 -29 12.5t-12 29.5zM436 628q0 20 16 35.5t36 15.5q18 0 29.5 -12t11.5 -29q0 -20 -15.5 -36
t-36.5 -16q-17 0 -29 12.5t-12 29.5z" />
    <glyph glyph-name="aring" unicode="&#xe5;" horiz-adv-x="575" 
d="M544 443l-93 -419q-2 -12 -12 -20t-23 -8q-16 0 -26.5 10.5t-10.5 25.5q0 6 1 8l7 31q-64 -83 -160 -83q-85 0 -136 53.5t-51 145.5q-2 122 71 216t182 92q54 0 98.5 -24t69.5 -64l12 52q2 12 12 20t23 8q17 0 28.5 -14t7.5 -30zM401 137l48 213q-19 35 -58 56.5
t-88 21.5q-78 0 -131 -68.5t-53 -158.5q0 -67 37 -106.5t98 -39.5q42 0 82 23t65 59zM393 760q39 0 64 -25t25 -64q0 -44 -32 -76t-76 -32q-39 0 -64 25t-25 64q0 44 32 76t76 32zM390 720q-26 0 -45.5 -19t-19.5 -45q0 -23 14.5 -38t37.5 -15q26 0 45.5 19t19.5 45
q0 24 -14 38.5t-38 14.5z" />
    <glyph glyph-name="ae" unicode="&#xe6;" horiz-adv-x="938" 
d="M897 288q0 -5 -2 -31q-4 -40 -48 -40h-349q-1 -3 -1 -23q0 -62 43.5 -102t119.5 -40q60 0 112 32q6 3 14 3q13 0 21.5 -8.5t8.5 -20.5q0 -18 -15 -26q-71 -44 -138 -44q-76 0 -125 33.5t-67 94.5l-20 -92q-2 -12 -12.5 -20t-23.5 -8q-15 0 -25.5 10.5t-10.5 25.5q0 6 1 8
l7 31q-64 -83 -160 -83q-85 0 -136 53.5t-51 145.5q-2 122 71 216t182 92q55 0 99.5 -23.5t68.5 -64.5l11 51q7 29 36 29q17 0 28.5 -13.5t7.5 -30.5l-9 -43q31 42 77.5 68.5t97.5 26.5q89 0 138 -55.5t49 -151.5zM827 291q0 64 -37 103t-105 39q-64 0 -116 -47.5
t-64 -113.5h320q2 10 2 19zM401 137l48 213q-19 35 -58 56.5t-88 21.5q-78 0 -131 -68.5t-53 -158.5q0 -67 37 -106.5t98 -39.5q42 0 82 23t65 59z" />
    <glyph glyph-name="ccedilla" unicode="&#xe7;" horiz-adv-x="495" 
d="M481 407q0 -14 -11 -24.5t-25 -10.5t-25 11q-39 45 -106 45q-86 0 -141 -66t-55 -157q0 -70 41.5 -110t109.5 -40q60 0 102 39q7 6 21 6t23 -9t9 -23q0 -19 -13 -26q-65 -54 -149 -54h-12l-26 -43q16 11 33 11q27 0 42.5 -16t15.5 -43q0 -39 -30 -63.5t-78 -24.5
q-53 0 -93 26q-10 7 -10 19q0 9 6.5 15.5t15.5 6.5q8 0 13 -5q32 -23 70 -23q29 0 45.5 13t16.5 34q0 30 -37 30q-14 0 -28 -11q-7 -4 -14 -4q-8 0 -13.5 5t-5.5 12q0 9 4 13l31 53q-78 15 -123 70.5t-45 140.5q-2 118 79.5 205.5t192.5 85.5q103 0 158 -61q11 -11 11 -27z
" />
    <glyph glyph-name="egrave" unicode="&#xe8;" horiz-adv-x="563" 
d="M312 495q94 0 151 -59t57 -152q0 -4 -2 -26q-2 -41 -47 -41h-353l-1 -23q0 -61 44 -102.5t120 -41.5q61 0 117 33q4 4 13 4q12 0 21 -8.5t9 -21.5q0 -17 -15 -25q-73 -44 -150 -44q-109 0 -173 58q-63 58 -63 156q-2 118 79.5 207t192.5 86zM452 291q0 63 -39 102.5
t-108 39.5q-65 0 -116.5 -47.5t-62.5 -113.5h324q2 10 2 19zM336 581l-90 95q-9 7 -9 20q0 12 8 20t20 8q13 0 22 -10l83 -102q7 -8 7 -16q0 -10 -6.5 -16.5t-16.5 -6.5t-18 8z" />
    <glyph glyph-name="eacute" unicode="&#xe9;" horiz-adv-x="563" 
d="M312 495q94 0 151 -59t57 -152q0 -4 -2 -26q-2 -41 -47 -41h-353l-1 -23q0 -61 44 -102.5t120 -41.5q61 0 117 33q4 4 13 4q12 0 21 -8.5t9 -21.5q0 -17 -15 -25q-73 -44 -150 -44q-109 0 -173 58q-63 58 -63 156q-2 118 79.5 207t192.5 86zM452 291q0 63 -39 102.5
t-108 39.5q-65 0 -116.5 -47.5t-62.5 -113.5h324q2 10 2 19zM362 572q-8 0 -13.5 6t-5.5 13q0 11 8 17l135 109q8 6 18 6t16.5 -7.5t6.5 -17.5q0 -14 -10 -21l-141 -101q-4 -4 -14 -4z" />
    <glyph glyph-name="ecircumflex" unicode="&#xea;" horiz-adv-x="563" 
d="M312 495q94 0 151 -59t57 -152q0 -4 -2 -26q-2 -41 -47 -41h-353l-1 -23q0 -61 44 -102.5t120 -41.5q61 0 117 33q4 4 13 4q12 0 21 -8.5t9 -21.5q0 -17 -15 -25q-73 -44 -150 -44q-109 0 -173 58q-63 58 -63 156q-2 118 79.5 207t192.5 86zM452 291q0 63 -39 102.5
t-108 39.5q-65 0 -116.5 -47.5t-62.5 -113.5h324q2 10 2 19zM439 583l-56 99l-101 -104q-6 -6 -15 -6t-14.5 6t-5.5 14q0 5 5 13l84 95q19 21 43 21h22q26 0 35 -22l44 -95q2 -8 2 -9q0 -9 -7.5 -16t-16.5 -7q-11 0 -19 11z" />
    <glyph glyph-name="edieresis" unicode="&#xeb;" horiz-adv-x="563" 
d="M312 495q94 0 151 -59t57 -152q0 -4 -2 -26q-2 -41 -47 -41h-353l-1 -23q0 -61 44 -102.5t120 -41.5q61 0 117 33q4 4 13 4q12 0 21 -8.5t9 -21.5q0 -17 -15 -25q-73 -44 -150 -44q-109 0 -173 58q-63 58 -63 156q-2 118 79.5 207t192.5 86zM452 291q0 63 -39 102.5
t-108 39.5q-65 0 -116.5 -47.5t-62.5 -113.5h324q2 10 2 19zM224 628q0 20 16 35.5t36 15.5q17 0 29 -12t12 -29q0 -20 -15.5 -36t-36.5 -16q-17 0 -29 12.5t-12 29.5zM430 628q0 20 16 35.5t36 15.5q18 0 29.5 -12t11.5 -29q0 -20 -15.5 -36t-36.5 -16q-17 0 -29 12.5
t-12 29.5z" />
    <glyph glyph-name="igrave" unicode="&#xec;" horiz-adv-x="225" 
d="M30 32q0 6 1 8l92 419q2 12 12.5 20t23.5 8q15 0 25.5 -10.5t10.5 -25.5q0 -6 -1 -8l-92 -419q-3 -12 -13 -20t-23 -8q-15 0 -25.5 10.5t-10.5 25.5zM165 581l-90 95q-9 8 -9 20t8 20t20 8q13 0 22 -10l83 -102q7 -8 7 -16q0 -10 -6.5 -16.5t-16.5 -6.5t-18 8z" />
    <glyph glyph-name="iacute" unicode="&#xed;" horiz-adv-x="225" 
d="M30 32q0 6 1 8l92 419q2 12 12.5 20t23.5 8q15 0 25.5 -10.5t10.5 -25.5q0 -6 -1 -8l-92 -419q-3 -12 -13 -20t-23 -8q-15 0 -25.5 10.5t-10.5 25.5zM190 572q-8 0 -13.5 6t-5.5 13q0 11 8 17l135 109q8 6 18 6t16.5 -7.5t6.5 -17.5q0 -14 -10 -21l-141 -101
q-4 -4 -14 -4z" />
    <glyph glyph-name="icircumflex" unicode="&#xee;" horiz-adv-x="225" 
d="M30 32q0 6 1 8l92 419q2 12 12.5 20t23.5 8q15 0 25.5 -10.5t10.5 -25.5q0 -6 -1 -8l-92 -419q-3 -12 -13 -20t-23 -8q-15 0 -25.5 10.5t-10.5 25.5zM267 583l-56 99l-101 -104q-6 -6 -15 -6t-14.5 6t-5.5 14q0 5 5 13l84 95q19 21 43 21h22q26 0 35 -22l44 -95
q2 -8 2 -9q0 -9 -7.5 -16t-16.5 -7q-11 0 -19 11z" />
    <glyph glyph-name="idieresis" unicode="&#xef;" horiz-adv-x="225" 
d="M30 32q0 6 1 8l92 419q2 12 12.5 20t23.5 8q15 0 25.5 -10.5t10.5 -25.5q0 -6 -1 -8l-92 -419q-3 -12 -13 -20t-23 -8q-15 0 -25.5 10.5t-10.5 25.5zM52 628q0 20 16 35.5t36 15.5q17 0 29 -12t12 -29q0 -20 -15.5 -36t-36.5 -16q-17 0 -29 12.5t-12 29.5zM258 628
q0 20 16 35.5t36 15.5q18 0 29.5 -12t11.5 -29q0 -20 -15.5 -36t-36.5 -16q-17 0 -29 12.5t-12 29.5z" />
    <glyph glyph-name="eth" unicode="&#xf0;" horiz-adv-x="572" 
d="M532 302q2 -130 -75.5 -223t-192.5 -91q-100 0 -162.5 58t-62.5 148q-1 116 74 201.5t176 83.5q55 0 99.5 -27.5t67.5 -79.5q-32 98 -120 186l-142 -42q-1 -1 -6 -1q-8 0 -14 6t-6 15q0 15 14 20l119 35q-28 24 -36 31q-14 12 -14 29q0 16 11 27.5t28 11.5q14 0 25 -9
q34 -27 71 -64l98 29q9 2 17.5 -4t8.5 -17q0 -14 -14 -19l-79 -24q115 -135 115 -280zM448 270q0 59 -38.5 100.5t-109.5 41.5q-75 0 -128.5 -62t-53.5 -149q0 -66 39 -106t107 -40q75 -2 130.5 63t53.5 152z" />
    <glyph glyph-name="ntilde" unicode="&#xf1;" 
d="M501 377q0 -14 -5 -42l-68 -311q-3 -12 -13 -20t-23 -8q-17 0 -28.5 13.5t-7.5 30.5l61 277q4 15 4 35q0 76 -93 76q-83 0 -154 -76l-72 -328q-3 -12 -13 -20t-23 -8q-17 0 -28.5 13.5t-7.5 30.5l93 419q2 12 12 20t23 8q16 0 26.5 -11t10.5 -26q0 -6 -1 -8l-7 -29
q89 82 171 82q67 0 105 -31t38 -87zM302 666q-40 0 -58 -74q-5 -16 -21 -16q-11 0 -17.5 8.5t-4.5 19.5q30 110 106 110q25 0 40 -12t32 -39q13 -23 23 -32t26 -9q40 0 58 74q5 16 21 16q11 0 18 -9t4 -20q-30 -109 -106 -109q-25 0 -40 12t-32 39q-13 23 -23 32t-26 9z" />
    <glyph glyph-name="ograve" unicode="&#xf2;" horiz-adv-x="572" 
d="M309 495q101 0 161 -59t60 -156q2 -115 -78 -204.5t-191 -87.5q-102 0 -161.5 58.5t-59.5 155.5q-2 115 78 205.5t191 87.5zM307 428q-79 0 -133.5 -67.5t-54.5 -155.5q0 -70 38 -110t106 -40q79 0 133.5 67.5t54.5 155.5q0 70 -38 110t-106 40zM338 581l-90 95
q-9 7 -9 20q0 12 8 20t20 8q13 0 22 -10l83 -102q7 -8 7 -16q0 -10 -6.5 -16.5t-16.5 -6.5t-18 8z" />
    <glyph glyph-name="oacute" unicode="&#xf3;" horiz-adv-x="572" 
d="M309 495q101 0 161 -59t60 -156q2 -115 -78 -204.5t-191 -87.5q-102 0 -161.5 58.5t-59.5 155.5q-2 115 78 205.5t191 87.5zM307 428q-79 0 -133.5 -67.5t-54.5 -155.5q0 -70 38 -110t106 -40q79 0 133.5 67.5t54.5 155.5q0 70 -38 110t-106 40zM364 572q-8 0 -13.5 6
t-5.5 13q0 11 8 17l135 109q8 6 18 6t16.5 -7.5t6.5 -17.5q0 -14 -10 -21l-141 -101q-4 -4 -14 -4z" />
    <glyph glyph-name="ocircumflex" unicode="&#xf4;" horiz-adv-x="572" 
d="M309 495q101 0 161 -59t60 -156q2 -115 -78 -204.5t-191 -87.5q-102 0 -161.5 58.5t-59.5 155.5q-2 115 78 205.5t191 87.5zM307 428q-79 0 -133.5 -67.5t-54.5 -155.5q0 -70 38 -110t106 -40q79 0 133.5 67.5t54.5 155.5q0 70 -38 110t-106 40zM441 583l-56 99
l-101 -104q-6 -6 -15 -6t-14.5 6t-5.5 14q0 5 5 13l84 95q19 21 43 21h22q26 0 35 -22l44 -95q2 -8 2 -9q0 -9 -7.5 -16t-16.5 -7q-11 0 -19 11z" />
    <glyph glyph-name="otilde" unicode="&#xf5;" horiz-adv-x="572" 
d="M309 495q101 0 161 -59t60 -156q2 -115 -78 -204.5t-191 -87.5q-102 0 -161.5 58.5t-59.5 155.5q-2 115 78 205.5t191 87.5zM307 428q-79 0 -133.5 -67.5t-54.5 -155.5q0 -70 38 -110t106 -40q79 0 133.5 67.5t54.5 155.5q0 70 -38 110t-106 40zM311 666q-39 0 -58 -74
q-5 -16 -21 -16q-11 0 -17.5 8.5t-4.5 19.5q30 110 106 110q25 0 40 -12t32 -39q13 -23 23 -32t26 -9q39 0 58 74q5 16 21 16q11 0 18 -9t4 -20q-30 -109 -106 -109q-25 0 -40 12t-32 39q-13 23 -23 32t-26 9z" />
    <glyph glyph-name="odieresis" unicode="&#xf6;" horiz-adv-x="572" 
d="M309 495q101 0 161 -59t60 -156q2 -115 -78 -204.5t-191 -87.5q-102 0 -161.5 58.5t-59.5 155.5q-2 115 78 205.5t191 87.5zM307 428q-79 0 -133.5 -67.5t-54.5 -155.5q0 -70 38 -110t106 -40q79 0 133.5 67.5t54.5 155.5q0 70 -38 110t-106 40zM225 628q0 20 16 35.5
t36 15.5q17 0 29 -12t12 -29q0 -20 -15.5 -36t-36.5 -16q-17 0 -29 12.5t-12 29.5zM431 628q0 20 16 35.5t36 15.5q18 0 29.5 -12t11.5 -29q0 -20 -15.5 -36t-36.5 -16q-17 0 -29 12.5t-12 29.5z" />
    <glyph glyph-name="divide" unicode="&#xf7;" horiz-adv-x="511" 
d="M271 522q0 20 15 35t36 15q17 0 29 -12.5t12 -29.5q0 -21 -14.5 -35.5t-35.5 -14.5q-17 0 -29.5 12.5t-12.5 29.5zM46 337q0 11 7.5 18.5t18.5 7.5h408q11 0 18.5 -7.5t7.5 -18.5t-7.5 -18.5t-18.5 -7.5h-408q-11 0 -18.5 7.5t-7.5 18.5zM187 141q0 20 15 34.5t35 14.5
q18 0 30 -12.5t12 -29.5q0 -21 -14.5 -35t-35.5 -14q-17 0 -29.5 12.5t-12.5 29.5z" />
    <glyph glyph-name="oslash" unicode="&#xf8;" horiz-adv-x="572" 
d="M530 280q2 -115 -78 -204.5t-191 -87.5q-77 0 -130 34l-51 -63q-6 -7 -15 -7q-7 0 -12.5 5.5t-5.5 12.5q0 4 5 12l50 62q-62 57 -62 158q-2 115 78 205.5t191 87.5q77 0 133 -36l54 65q6 7 14 7q18 0 18 -17q0 -4 -5 -12l-53 -65q60 -59 60 -157zM151 103l245 299
q-35 26 -89 26q-79 0 -133.5 -67.5t-54.5 -155.5q0 -64 32 -102zM451 278q0 62 -30 99l-244 -299q35 -23 86 -23q79 0 133.5 67.5t54.5 155.5z" />
    <glyph glyph-name="ugrave" unicode="&#xf9;" 
d="M521 451q0 -6 -1 -8l-92 -419q-3 -12 -13 -20t-23 -8q-15 0 -25.5 11t-10.5 26q0 6 1 8l6 29q-88 -82 -170 -82q-67 0 -105.5 31.5t-38.5 87.5q0 16 5 41l69 311q2 12 12 20t23 8q16 0 26.5 -10.5t10.5 -25.5q0 -6 -1 -8l-61 -277q-4 -15 -4 -35q0 -76 93 -76
q81 0 155 76l72 328q2 12 12 20t23 8q16 0 26.5 -10.5t10.5 -25.5zM329 581l-90 95q-9 7 -9 20q0 12 8 20t20 8q13 0 22 -10l83 -102q7 -8 7 -16q0 -10 -6.5 -16.5t-16.5 -6.5t-18 8z" />
    <glyph glyph-name="uacute" unicode="&#xfa;" 
d="M521 451q0 -6 -1 -8l-92 -419q-3 -12 -13 -20t-23 -8q-15 0 -25.5 11t-10.5 26q0 6 1 8l6 29q-88 -82 -170 -82q-67 0 -105.5 31.5t-38.5 87.5q0 16 5 41l69 311q2 12 12 20t23 8q16 0 26.5 -10.5t10.5 -25.5q0 -6 -1 -8l-61 -277q-4 -15 -4 -35q0 -76 93 -76
q81 0 155 76l72 328q2 12 12 20t23 8q16 0 26.5 -10.5t10.5 -25.5zM354 572q-8 0 -13.5 6t-5.5 13q0 11 8 17l135 109q8 6 18 6t16.5 -7.5t6.5 -17.5q0 -14 -10 -21l-141 -101q-4 -4 -14 -4z" />
    <glyph glyph-name="ucircumflex" unicode="&#xfb;" 
d="M521 451q0 -6 -1 -8l-92 -419q-3 -12 -13 -20t-23 -8q-15 0 -25.5 11t-10.5 26q0 6 1 8l6 29q-88 -82 -170 -82q-67 0 -105.5 31.5t-38.5 87.5q0 16 5 41l69 311q2 12 12 20t23 8q16 0 26.5 -10.5t10.5 -25.5q0 -6 -1 -8l-61 -277q-4 -15 -4 -35q0 -76 93 -76
q81 0 155 76l72 328q2 12 12 20t23 8q16 0 26.5 -10.5t10.5 -25.5zM431 583l-56 99l-101 -104q-6 -6 -15 -6t-14.5 6t-5.5 14q0 5 5 13l84 95q19 21 43 21h22q26 0 35 -22l44 -95q2 -8 2 -9q0 -9 -7.5 -16t-16.5 -7q-11 0 -19 11z" />
    <glyph glyph-name="udieresis" unicode="&#xfc;" 
d="M521 451q0 -6 -1 -8l-92 -419q-3 -12 -13 -20t-23 -8q-15 0 -25.5 11t-10.5 26q0 6 1 8l6 29q-88 -82 -170 -82q-67 0 -105.5 31.5t-38.5 87.5q0 16 5 41l69 311q2 12 12 20t23 8q16 0 26.5 -10.5t10.5 -25.5q0 -6 -1 -8l-61 -277q-4 -15 -4 -35q0 -76 93 -76
q81 0 155 76l72 328q2 12 12 20t23 8q16 0 26.5 -10.5t10.5 -25.5zM216 628q0 20 16 35.5t36 15.5q17 0 29 -12t12 -29q0 -20 -15.5 -36t-36.5 -16q-17 0 -29 12.5t-12 29.5zM422 628q0 20 16 35.5t36 15.5q18 0 29.5 -12t11.5 -29q0 -20 -15.5 -36t-36.5 -16
q-17 0 -29 12.5t-12 29.5z" />
    <glyph glyph-name="yacute" unicode="&#xfd;" horiz-adv-x="490" 
d="M-3 -124q4 0 14 -1t16 -1q40 0 72 48l49 75l-84 445q-4 17 8 31t30 14q14 0 24.5 -9t12.5 -23l68 -368l241 384q10 16 30 16q15 0 25 -10.5t10 -25.5q0 -10 -5 -18l-340 -531q-33 -51 -68.5 -74.5t-82.5 -23.5q-2 0 -24 2q-13 2 -22 12t-9 23q0 15 10.5 25t24.5 10z
M324 572q-8 0 -13.5 6t-5.5 13q0 11 8 17l135 109q8 6 18 6t16.5 -7.5t6.5 -17.5q0 -14 -10 -21l-141 -101q-4 -4 -14 -4z" />
    <glyph glyph-name="thorn" unicode="&#xfe;" horiz-adv-x="572" 
d="M113 76l-52 -236q-3 -12 -13 -20t-23 -8q-17 0 -28.5 13.5t-7.5 30.5l174 787q2 12 12 20t23 8q16 0 26.5 -10.5t10.5 -25.5q0 -6 -1 -8l-47 -213q66 81 160 81q85 0 136 -53.5t51 -145.5q1 -78 -30.5 -149t-91 -116t-131.5 -43q-115 0 -168 88zM320 428q-87 0 -148 -83
l-47 -212q19 -36 57.5 -57t88.5 -21q78 0 131 68.5t53 158.5q0 66 -37 106t-98 40z" />
    <glyph glyph-name="ydieresis" unicode="&#xff;" horiz-adv-x="490" 
d="M-3 -124q4 0 14 -1t16 -1q40 0 72 48l49 75l-84 445q-4 17 8 31t30 14q14 0 24.5 -9t12.5 -23l68 -368l241 384q10 16 30 16q15 0 25 -10.5t10 -25.5q0 -10 -5 -18l-340 -531q-33 -51 -68.5 -74.5t-82.5 -23.5q-2 0 -24 2q-13 2 -22 12t-9 23q0 15 10.5 25t24.5 10z
M186 628q0 20 16 35.5t36 15.5q17 0 29 -12t12 -29q0 -20 -15.5 -36t-36.5 -16q-17 0 -29 12.5t-12 29.5zM392 628q0 20 16 35.5t36 15.5q18 0 29.5 -12t11.5 -29q0 -20 -15.5 -36t-36.5 -16q-17 0 -29 12.5t-12 29.5z" />
    <glyph glyph-name="Amacron" unicode="&#x100;" horiz-adv-x="658" 
d="M587 38q0 -18 -12.5 -30t-30.5 -12q-16 0 -27.5 10t-14.5 25l-19 117h-343l-80 -132q-12 -20 -35 -20q-17 0 -29 12t-12 29q0 8 7 21l361 579q21 34 61 34q26 0 45.5 -16.5t24.5 -42.5l103 -566q1 -2 1 -8zM185 222h285l-61 368zM289 763q0 10 7 17t17 7h267q10 0 17 -7
t7 -17t-7 -17t-17 -7h-267q-10 0 -17 7t-7 17z" />
    <glyph glyph-name="amacron" unicode="&#x101;" horiz-adv-x="575" 
d="M544 443l-93 -419q-2 -12 -12 -20t-23 -8q-16 0 -26.5 10.5t-10.5 25.5q0 6 1 8l7 31q-64 -83 -160 -83q-85 0 -136 53.5t-51 145.5q-2 122 71 216t182 92q54 0 98.5 -24t69.5 -64l12 52q2 12 12 20t23 8q17 0 28.5 -14t7.5 -30zM401 137l48 213q-19 35 -58 56.5
t-88 21.5q-78 0 -131 -68.5t-53 -158.5q0 -67 37 -106.5t98 -39.5q42 0 82 23t65 59zM217 616q0 10 7 17t17 7h267q10 0 17 -7t7 -17t-7 -17t-17 -7h-267q-10 0 -17 7t-7 17z" />
    <glyph glyph-name="Abreve" unicode="&#x102;" horiz-adv-x="658" 
d="M587 38q0 -18 -12.5 -30t-30.5 -12q-16 0 -27.5 10t-14.5 25l-19 117h-343l-80 -132q-12 -20 -35 -20q-17 0 -29 12t-12 29q0 8 7 21l361 579q21 34 61 34q26 0 45.5 -16.5t24.5 -42.5l103 -566q1 -2 1 -8zM185 222h285l-61 368zM292 786q-6 8 -6 16q0 11 8 19t19 8
q12 0 20 -11q41 -53 112 -53q79 0 142 60q5 5 15 5q9 0 15.5 -6t6.5 -16t-7 -16q-83 -75 -180 -75q-93 0 -145 69z" />
    <glyph glyph-name="abreve" unicode="&#x103;" horiz-adv-x="575" 
d="M544 443l-93 -419q-2 -12 -12 -20t-23 -8q-16 0 -26.5 10.5t-10.5 25.5q0 6 1 8l7 31q-64 -83 -160 -83q-85 0 -136 53.5t-51 145.5q-2 122 71 216t182 92q54 0 98.5 -24t69.5 -64l12 52q2 12 12 20t23 8q17 0 28.5 -14t7.5 -30zM401 137l48 213q-19 35 -58 56.5
t-88 21.5q-78 0 -131 -68.5t-53 -158.5q0 -67 37 -106.5t98 -39.5q42 0 82 23t65 59zM220 639q-6 7 -6 16q0 11 8 19t19 8q12 0 20 -11q41 -53 112 -53q79 0 142 60q5 5 15 5q9 0 15.5 -6t6.5 -16t-7 -16q-83 -75 -180 -75q-93 0 -145 69z" />
    <glyph glyph-name="Aogonek" unicode="&#x104;" horiz-adv-x="658" 
d="M463 -103q0 -30 35 -30q7 0 16 3q11 2 20 -5.5t9 -18.5q0 -18 -18 -23q-24 -9 -55 -9q-37 0 -60 16.5t-23 42.5q0 38 38 72.5t98 56.5q-16 9 -21 29l-19 117h-343l-80 -132q-12 -20 -35 -20q-17 0 -29 12t-12 29q0 8 7 21l361 579q21 34 61 34q26 0 45.5 -16.5
t24.5 -42.5l103 -566l1 -8q0 -33 -31 -40q-93 -56 -93 -101zM185 222h285l-61 368z" />
    <glyph glyph-name="aogonek" unicode="&#x105;" horiz-adv-x="575" 
d="M544 443l-93 -419q-5 -22 -27 -27q-91 -55 -91 -100q0 -30 35 -30q7 0 16 3q11 2 19.5 -5.5t8.5 -18.5q0 -18 -17 -23q-26 -9 -55 -9q-37 0 -60 16.5t-23 42.5q0 39 38.5 73.5t98.5 55.5h1q-20 13 -15 38l7 31q-64 -83 -160 -83q-85 0 -136 53.5t-51 145.5q-2 122 71 216
t182 92q54 0 98.5 -24t69.5 -64l12 52q2 12 12 20t23 8q17 0 28.5 -14t7.5 -30zM401 137l48 213q-19 35 -58 56.5t-88 21.5q-78 0 -131 -68.5t-53 -158.5q0 -67 37 -106.5t98 -39.5q42 0 82 23t65 59z" />
    <glyph glyph-name="Cacute" unicode="&#x106;" horiz-adv-x="664" 
d="M435 678q164 0 247 -114q8 -14 8 -25q0 -18 -12.5 -30.5t-29.5 -12.5q-23 0 -34 18q-63 90 -184 90q-110 2 -197.5 -91.5t-84.5 -228.5q0 -99 61.5 -160.5t163.5 -61.5q84 0 160 59q9 9 24 9q16 0 27.5 -11t11.5 -27t-15 -30q-93 -74 -213 -74q-134 0 -221 80.5
t-87 211.5q-2 84 29.5 160t84 128t121.5 81.5t140 28.5zM492 719q-8 0 -13.5 6t-5.5 13q0 11 8 17l135 109q8 6 18 6t16.5 -7.5t6.5 -17.5q0 -14 -10 -21l-141 -101q-4 -4 -14 -4z" />
    <glyph glyph-name="cacute" unicode="&#x107;" horiz-adv-x="495" 
d="M312 495q103 0 158 -61q11 -11 11 -27q0 -14 -11 -24.5t-25 -10.5t-25 11q-39 45 -106 45q-86 0 -141 -66t-55 -157q0 -70 41.5 -110t109.5 -40q60 0 102 39q7 6 21 6t23 -9t9 -23q0 -19 -13 -26q-65 -54 -149 -54q-99 0 -160.5 58.5t-61.5 157.5q-2 118 79.5 205.5
t192.5 85.5zM363 572q-8 0 -13.5 6t-5.5 13q0 11 8 17l135 109q7 6 18 6q10 0 16.5 -7.5t6.5 -17.5q0 -14 -10 -21l-141 -101q-4 -4 -14 -4z" />
    <glyph glyph-name="Ccircumflex" unicode="&#x108;" horiz-adv-x="664" 
d="M435 678q164 0 247 -114q8 -14 8 -25q0 -18 -12.5 -30.5t-29.5 -12.5q-23 0 -34 18q-63 90 -184 90q-110 2 -197.5 -91.5t-84.5 -228.5q0 -99 61.5 -160.5t163.5 -61.5q84 0 160 59q9 9 24 9q16 0 27.5 -11t11.5 -27t-15 -30q-93 -74 -213 -74q-134 0 -221 80.5
t-87 211.5q-2 84 29.5 160t84 128t121.5 81.5t140 28.5zM569 730l-56 99l-101 -104q-6 -6 -15 -6t-14.5 6t-5.5 14q0 5 5 13l84 95q19 21 43 21h22q26 0 35 -22l44 -95q2 -8 2 -9q0 -9 -7.5 -16t-16.5 -7q-11 0 -19 11z" />
    <glyph glyph-name="ccircumflex" unicode="&#x109;" horiz-adv-x="495" 
d="M312 495q103 0 158 -61q11 -11 11 -27q0 -14 -11 -24.5t-25 -10.5t-25 11q-39 45 -106 45q-86 0 -141 -66t-55 -157q0 -70 41.5 -110t109.5 -40q60 0 102 39q7 6 21 6t23 -9t9 -23q0 -19 -13 -26q-65 -54 -149 -54q-99 0 -160.5 58.5t-61.5 157.5q-2 118 79.5 205.5
t192.5 85.5zM440 583l-56 99l-101 -104q-6 -6 -15 -6t-14.5 6t-5.5 14q0 5 5 13l84 95q19 21 43 21h22q26 0 35 -22l44 -95q2 -8 2 -9q0 -9 -7.5 -16t-16.5 -7q-11 0 -19 11z" />
    <glyph glyph-name="Cdotaccent" unicode="&#x10a;" horiz-adv-x="664" 
d="M435 678q164 0 247 -114q8 -14 8 -25q0 -18 -12.5 -30.5t-29.5 -12.5q-23 0 -34 18q-63 90 -184 90q-110 2 -197.5 -91.5t-84.5 -228.5q0 -99 61.5 -160.5t163.5 -61.5q84 0 160 59q9 9 24 9q16 0 27.5 -11t11.5 -27t-15 -30q-93 -74 -213 -74q-134 0 -221 80.5
t-87 211.5q-2 84 29.5 160t84 128t121.5 81.5t140 28.5zM453 773q0 21 15.5 36.5t36.5 15.5q18 0 30 -12t12 -30q0 -21 -16 -36.5t-37 -15.5q-18 0 -29.5 12t-11.5 30z" />
    <glyph glyph-name="cdotaccent" unicode="&#x10b;" horiz-adv-x="495" 
d="M312 495q103 0 158 -61q11 -11 11 -27q0 -14 -11 -24.5t-25 -10.5t-25 11q-39 45 -106 45q-86 0 -141 -66t-55 -157q0 -70 41.5 -110t109.5 -40q60 0 102 39q7 6 21 6t23 -9t9 -23q0 -19 -13 -26q-65 -54 -149 -54q-99 0 -160.5 58.5t-61.5 157.5q-2 118 79.5 205.5
t192.5 85.5zM324 626q0 21 15.5 36.5t36.5 15.5q18 0 30 -12t12 -30q0 -21 -16 -36.5t-37 -15.5q-18 0 -29.5 12t-11.5 30z" />
    <glyph glyph-name="Ccaron" unicode="&#x10c;" horiz-adv-x="664" 
d="M435 678q164 0 247 -114q8 -14 8 -25q0 -18 -12.5 -30.5t-29.5 -12.5q-23 0 -34 18q-63 90 -184 90q-110 2 -197.5 -91.5t-84.5 -228.5q0 -99 61.5 -160.5t163.5 -61.5q84 0 160 59q9 9 24 9q16 0 27.5 -11t11.5 -27t-15 -30q-93 -74 -213 -74q-134 0 -221 80.5
t-87 211.5q-2 84 29.5 160t84 128t121.5 81.5t140 28.5zM439 860l56 -99l101 104q6 6 15 6t14.5 -6t5.5 -14q0 -5 -5 -13l-84 -95q-19 -21 -43 -21h-22q-26 0 -35 22l-44 95q-2 8 -2 9q0 9 7.5 16t16.5 7q11 0 19 -11z" />
    <glyph glyph-name="ccaron" unicode="&#x10d;" horiz-adv-x="495" 
d="M312 495q103 0 158 -61q11 -11 11 -27q0 -14 -11 -24.5t-25 -10.5t-25 11q-39 45 -106 45q-86 0 -141 -66t-55 -157q0 -70 41.5 -110t109.5 -40q60 0 102 39q7 6 21 6t23 -9t9 -23q0 -19 -13 -26q-65 -54 -149 -54q-99 0 -160.5 58.5t-61.5 157.5q-2 118 79.5 205.5
t192.5 85.5zM310 713l56 -99l101 104q6 6 15 6t14.5 -6t5.5 -14q0 -5 -5 -13l-84 -95q-19 -21 -43 -21h-22q-26 0 -35 22l-44 95q-2 8 -2 9q0 9 7.5 16t16.5 7q11 0 19 -11z" />
    <glyph glyph-name="Dcaron" unicode="&#x10e;" horiz-adv-x="700" 
d="M33 36q0 10 1 13l128 579q9 39 49 39h183q111 2 195 -81.5t82 -203.5q1 -72 -26.5 -140t-78.5 -123t-133 -87.5t-182 -31.5h-177q-41 0 -41 36zM584 378q0 92 -59 153.5t-147 61.5h-140l-116 -519h143q139 -2 230 88t89 216zM409 860l56 -99l101 104q6 6 15 6t14.5 -6
t5.5 -14q0 -5 -5 -13l-84 -95q-19 -21 -43 -21h-22q-26 0 -35 22l-44 95q-2 8 -2 9q0 9 7.5 16t16.5 7q11 0 19 -11z" />
    <glyph glyph-name="dcaron" unicode="&#x10f;" horiz-adv-x="644" 
d="M585 635q0 -6 -1 -8l-133 -603q-2 -12 -12.5 -20t-23.5 -8q-15 0 -25.5 10.5t-10.5 25.5q0 6 1 8l7 31q-64 -83 -160 -83q-85 0 -136 53.5t-51 145.5q-2 122 71 216t182 92q55 0 99.5 -23.5t68.5 -64.5l52 236q3 12 13 20t23 8q15 0 25.5 -10.5t10.5 -25.5zM401 137
l48 213q-19 35 -58 56.5t-88 21.5q-78 0 -131 -68.5t-53 -158.5q0 -67 37 -106.5t98 -39.5q42 0 82 23t65 59zM627 489q-8 0 -13.5 5.5t-5.5 12.5q0 10 8 15q46 29 60 68h-7q-15 0 -26 11t-11 28q0 21 15.5 36t36.5 15q19 0 32 -13.5t13 -36.5q0 -35 -25 -72.5t-63 -64.5
q-7 -4 -14 -4z" />
    <glyph glyph-name="Dcroat" unicode="&#x110;" horiz-adv-x="728" 
d="M699 382q1 -72 -26.5 -140t-78.5 -123t-133 -87.5t-182 -31.5h-177q-41 0 -41 36q0 10 1 13l55 250h-56q-14 0 -24.5 10.5t-10.5 24.5t10.5 24t24.5 10h72l57 260q9 39 49 39h183q111 2 195 -81.5t82 -203.5zM612 378q0 92 -59 153.5t-147 61.5h-140l-50 -225h130
q14 0 24.5 -10t10.5 -25q0 -14 -10.5 -24t-24.5 -10h-146l-50 -225h143q139 -2 230 88t89 216z" />
    <glyph glyph-name="dslash" unicode="&#x111;" horiz-adv-x="579" 
d="M627 559q0 -10 -7 -17t-17 -7h-39l-113 -511q-2 -12 -12.5 -20t-23.5 -8q-15 0 -25.5 10.5t-10.5 25.5q0 6 1 8l7 31q-64 -83 -160 -83q-85 0 -136 53.5t-51 145.5q-2 122 71 216t182 92q55 0 99.5 -23.5t68.5 -64.5l28 128h-144q-10 0 -17 7t-7 17t7 17t17 7h155l13 60
q3 12 13 20t23 8q15 0 25.5 -10.5t10.5 -25.5q0 -6 -1 -8l-10 -44h29q10 0 17 -7t7 -17zM401 137l48 213q-19 35 -58 56.5t-88 21.5q-78 0 -131 -68.5t-53 -158.5q0 -67 37 -106.5t98 -39.5q42 0 82 23t65 59z" />
    <glyph glyph-name="Emacron" unicode="&#x112;" horiz-adv-x="569" 
d="M33 36q0 10 1 13l128 579q9 39 49 39h356q15 0 25.5 -11t10.5 -26t-10.5 -26t-25.5 -11h-329l-48 -215h306q15 0 25.5 -11t10.5 -26t-10.5 -26t-25.5 -11h-323l-51 -230h313q15 0 26 -11t11 -26t-11 -26t-26 -11h-361q-41 0 -41 36zM261 763q0 10 7 17t17 7h267
q10 0 17 -7t7 -17t-7 -17t-17 -7h-267q-10 0 -17 7t-7 17z" />
    <glyph glyph-name="emacron" unicode="&#x113;" horiz-adv-x="563" 
d="M312 495q94 0 151 -59t57 -152q0 -4 -2 -26q-2 -41 -47 -41h-353l-1 -23q0 -61 44 -102.5t120 -41.5q61 0 117 33q4 4 13 4q12 0 21 -8.5t9 -21.5q0 -17 -15 -25q-73 -44 -150 -44q-109 0 -173 58q-63 58 -63 156q-2 118 79.5 207t192.5 86zM452 291q0 63 -39 102.5
t-108 39.5q-65 0 -116.5 -47.5t-62.5 -113.5h324q2 10 2 19zM211 616q0 10 7 17t17 7h267q10 0 17 -7t7 -17t-7 -17t-17 -7h-267q-10 0 -17 7t-7 17z" />
    <glyph glyph-name="Ebreve" unicode="&#x114;" horiz-adv-x="569" 
d="M33 36q0 10 1 13l128 579q9 39 49 39h356q15 0 25.5 -11t10.5 -26t-10.5 -26t-25.5 -11h-329l-48 -215h306q15 0 25.5 -11t10.5 -26t-10.5 -26t-25.5 -11h-323l-51 -230h313q15 0 26 -11t11 -26t-11 -26t-26 -11h-361q-41 0 -41 36zM264 786q-6 8 -6 16q0 11 8 19t19 8
q12 0 20 -11q41 -53 112 -53q79 0 142 60q5 5 15 5q9 0 15.5 -6t6.5 -16t-7 -16q-83 -75 -180 -75q-93 0 -145 69z" />
    <glyph glyph-name="ebreve" unicode="&#x115;" horiz-adv-x="563" 
d="M312 495q94 0 151 -59t57 -152q0 -4 -2 -26q-2 -41 -47 -41h-353l-1 -23q0 -61 44 -102.5t120 -41.5q61 0 117 33q4 4 13 4q12 0 21 -8.5t9 -21.5q0 -17 -15 -25q-73 -44 -150 -44q-109 0 -173 58q-63 58 -63 156q-2 118 79.5 207t192.5 86zM452 291q0 63 -39 102.5
t-108 39.5q-65 0 -116.5 -47.5t-62.5 -113.5h324q2 10 2 19zM214 639q-6 7 -6 16q0 11 8 19t19 8q12 0 20 -11q41 -53 112 -53q79 0 142 60q5 5 15 5q9 0 15.5 -6t6.5 -16t-7 -16q-83 -75 -180 -75q-93 0 -145 69z" />
    <glyph glyph-name="Edotaccent" unicode="&#x116;" horiz-adv-x="569" 
d="M33 36q0 10 1 13l128 579q9 39 49 39h356q15 0 25.5 -11t10.5 -26t-10.5 -26t-25.5 -11h-329l-48 -215h306q15 0 25.5 -11t10.5 -26t-10.5 -26t-25.5 -11h-323l-51 -230h313q15 0 26 -11t11 -26t-11 -26t-26 -11h-361q-41 0 -41 36zM373 773q0 21 15.5 36.5t36.5 15.5
q18 0 30 -12t12 -30q0 -21 -16 -36.5t-37 -15.5q-18 0 -29.5 12t-11.5 30z" />
    <glyph glyph-name="edotaccent" unicode="&#x117;" horiz-adv-x="563" 
d="M312 495q94 0 151 -59t57 -152q0 -4 -2 -26q-2 -41 -47 -41h-353l-1 -23q0 -61 44 -102.5t120 -41.5q61 0 117 33q4 4 13 4q12 0 21 -8.5t9 -21.5q0 -17 -15 -25q-73 -44 -150 -44q-109 0 -173 58q-63 58 -63 156q-2 118 79.5 207t192.5 86zM452 291q0 63 -39 102.5
t-108 39.5q-65 0 -116.5 -47.5t-62.5 -113.5h324q2 10 2 19zM323 626q0 21 15.5 36.5t36.5 15.5q18 0 30 -12t12 -30q0 -21 -16 -36.5t-37 -15.5q-18 0 -29.5 12t-11.5 30z" />
    <glyph glyph-name="Eogonek" unicode="&#x118;" horiz-adv-x="569" 
d="M603 630q0 -15 -10.5 -26t-25.5 -11h-329l-48 -215h306q15 0 25.5 -11t10.5 -26t-10.5 -26t-25.5 -11h-323l-51 -230h313q15 0 26 -11t11 -26q0 -14 -10.5 -25t-24.5 -12q-96 -56 -96 -103q0 -30 35 -30q7 0 16 3q11 2 19.5 -5.5t8.5 -18.5q0 -18 -17 -23q-25 -9 -55 -9
q-37 0 -60 16.5t-23 42.5q0 37 36.5 71t94.5 56h-322q-41 0 -41 36q0 10 1 13l128 579q9 39 49 39h356q15 0 25.5 -11t10.5 -26z" />
    <glyph glyph-name="eogonek" unicode="&#x119;" horiz-adv-x="563" 
d="M318 -8q-17 -4 -42 -4q-109 0 -173 58q-63 58 -63 156q-2 118 79.5 207t192.5 86q94 0 151 -59t57 -152q0 -4 -2 -26q-2 -41 -47 -41h-353l-1 -23q0 -61 44 -102.5t120 -41.5q64 0 116 34q6 2 14 2q12 0 21 -8.5t9 -20.5q0 -15 -13 -25q-81 -54 -106 -79q-28 -28 -31 -53
q-2 -14 7.5 -23.5t26.5 -9.5q8 0 17 3q11 1 19.5 -6t8.5 -18q0 -17 -17 -23q-25 -9 -55 -9q-37 0 -60 16t-23 43q0 33 28.5 65t74.5 54zM452 291q0 63 -39 102.5t-108 39.5q-65 0 -116.5 -47.5t-62.5 -113.5h324q2 10 2 19z" />
    <glyph glyph-name="Ecaron" unicode="&#x11a;" horiz-adv-x="569" 
d="M33 36q0 10 1 13l128 579q9 39 49 39h356q15 0 25.5 -11t10.5 -26t-10.5 -26t-25.5 -11h-329l-48 -215h306q15 0 25.5 -11t10.5 -26t-10.5 -26t-25.5 -11h-323l-51 -230h313q15 0 26 -11t11 -26t-11 -26t-26 -11h-361q-41 0 -41 36zM359 860l56 -99l101 104q6 6 15 6
t14.5 -6t5.5 -14q0 -5 -5 -13l-84 -95q-19 -21 -43 -21h-22q-26 0 -35 22l-44 95q-2 8 -2 9q0 9 7.5 16t16.5 7q11 0 19 -11z" />
    <glyph glyph-name="ecaron" unicode="&#x11b;" horiz-adv-x="563" 
d="M312 495q94 0 151 -59t57 -152q0 -4 -2 -26q-2 -41 -47 -41h-353l-1 -23q0 -61 44 -102.5t120 -41.5q61 0 117 33q4 4 13 4q12 0 21 -8.5t9 -21.5q0 -17 -15 -25q-73 -44 -150 -44q-109 0 -173 58q-63 58 -63 156q-2 118 79.5 207t192.5 86zM452 291q0 63 -39 102.5
t-108 39.5q-65 0 -116.5 -47.5t-62.5 -113.5h324q2 10 2 19zM309 713l56 -99l101 104q6 6 15 6t14.5 -6t5.5 -14q0 -5 -5 -13l-84 -95q-19 -21 -43 -21h-22q-26 0 -35 22l-44 95q-2 8 -2 9q0 9 7.5 16t16.5 7q11 0 19 -11z" />
    <glyph glyph-name="Gcircumflex" unicode="&#x11c;" horiz-adv-x="713" 
d="M148 284q0 -100 61.5 -161t163.5 -61q95 0 175 71l30 136h-187q-15 0 -26 11t-11 26t11 26t26 11h237q19 0 30 -9.5t11 -25.5l-2 -14l-37 -167q-6 -30 -27 -49q-102 -90 -235 -90q-136 0 -222 82t-86 210q-3 167 110.5 284t270.5 114q153 0 236 -107q10 -10 10 -25
q0 -16 -12 -28.5t-29 -12.5q-22 0 -32 15q-61 84 -184 84q-110 3 -197.5 -92.5t-84.5 -227.5zM572 730l-56 99l-101 -104q-6 -6 -15 -6t-14.5 6t-5.5 14q0 5 5 13l84 95q19 21 43 21h22q26 0 35 -22l44 -95q2 -8 2 -9q0 -9 -7.5 -16t-16.5 -7q-11 0 -19 11z" />
    <glyph glyph-name="gcircumflex" unicode="&#x11d;" horiz-adv-x="574" 
d="M544 450q0 -6 -1 -8l-95 -428q-47 -210 -236 -210q-126 0 -193 59q-13 10 -13 27q0 15 10 24.5t25 9.5t22 -7q54 -51 148 -51q128 0 162 148l14 63q-64 -82 -164 -82q-83 0 -133.5 52t-50.5 148q-2 119 70.5 210.5t181.5 89.5q49 0 96 -25t73 -64l12 53q2 12 12 20t23 8
q16 0 26.5 -11t10.5 -26zM401 139l46 209q-20 37 -61 58.5t-89 21.5q-78 0 -128.5 -66.5t-50.5 -154.5q0 -67 36.5 -106t98.5 -39q39 0 79 21.5t69 55.5zM445 583l-56 99l-101 -104q-6 -6 -15 -6t-14.5 6t-5.5 14q0 5 5 13l84 95q19 21 43 21h22q26 0 35 -22l44 -95
q2 -8 2 -9q0 -9 -7.5 -16t-16.5 -7q-11 0 -19 11z" />
    <glyph glyph-name="Gbreve" unicode="&#x11e;" horiz-adv-x="713" 
d="M148 284q0 -100 61.5 -161t163.5 -61q95 0 175 71l30 136h-187q-15 0 -26 11t-11 26t11 26t26 11h237q19 0 30 -9.5t11 -25.5l-2 -14l-37 -167q-6 -30 -27 -49q-102 -90 -235 -90q-136 0 -222 82t-86 210q-3 167 110.5 284t270.5 114q153 0 236 -107q10 -10 10 -25
q0 -16 -12 -28.5t-29 -12.5q-22 0 -32 15q-61 84 -184 84q-110 3 -197.5 -92.5t-84.5 -227.5zM348 786q-6 8 -6 16q0 11 8 19t19 8q12 0 20 -11q41 -53 112 -53q79 0 142 60q5 5 15 5q9 0 15.5 -6t6.5 -16t-7 -16q-83 -75 -180 -75q-93 0 -145 69z" />
    <glyph glyph-name="gbreve" unicode="&#x11f;" horiz-adv-x="574" 
d="M544 450q0 -6 -1 -8l-95 -428q-47 -210 -236 -210q-126 0 -193 59q-13 10 -13 27q0 15 10 24.5t25 9.5t22 -7q54 -51 148 -51q128 0 162 148l14 63q-64 -82 -164 -82q-83 0 -133.5 52t-50.5 148q-2 119 70.5 210.5t181.5 89.5q49 0 96 -25t73 -64l12 53q2 12 12 20t23 8
q16 0 26.5 -11t10.5 -26zM401 139l46 209q-20 37 -61 58.5t-89 21.5q-78 0 -128.5 -66.5t-50.5 -154.5q0 -67 36.5 -106t98.5 -39q39 0 79 21.5t69 55.5zM220 639q-6 7 -6 16q0 11 8 19t19 8q12 0 20 -11q41 -53 112 -53q79 0 142 60q5 5 15 5q9 0 15.5 -6t6.5 -16t-7 -16
q-83 -75 -180 -75q-93 0 -145 69z" />
    <glyph glyph-name="Gdotaccent" unicode="&#x120;" horiz-adv-x="713" 
d="M148 284q0 -100 61.5 -161t163.5 -61q95 0 175 71l30 136h-187q-15 0 -26 11t-11 26t11 26t26 11h237q19 0 30 -9.5t11 -25.5l-2 -14l-37 -167q-6 -30 -27 -49q-102 -90 -235 -90q-136 0 -222 82t-86 210q-3 167 110.5 284t270.5 114q153 0 236 -107q10 -10 10 -25
q0 -16 -12 -28.5t-29 -12.5q-22 0 -32 15q-61 84 -184 84q-110 3 -197.5 -92.5t-84.5 -227.5zM456 773q0 21 15.5 36.5t36.5 15.5q18 0 30 -12t12 -30q0 -21 -16 -36.5t-37 -15.5q-18 0 -29.5 12t-11.5 30z" />
    <glyph glyph-name="gdotaccent" unicode="&#x121;" horiz-adv-x="574" 
d="M544 450q0 -6 -1 -8l-95 -428q-47 -210 -236 -210q-126 0 -193 59q-13 10 -13 27q0 15 10 24.5t25 9.5t22 -7q54 -51 148 -51q128 0 162 148l14 63q-64 -82 -164 -82q-83 0 -133.5 52t-50.5 148q-2 119 70.5 210.5t181.5 89.5q49 0 96 -25t73 -64l12 53q2 12 12 20t23 8
q16 0 26.5 -11t10.5 -26zM401 139l46 209q-20 37 -61 58.5t-89 21.5q-78 0 -128.5 -66.5t-50.5 -154.5q0 -67 36.5 -106t98.5 -39q39 0 79 21.5t69 55.5zM328 626q0 21 15.5 36.5t36.5 15.5q18 0 30 -12t12 -30q0 -21 -16 -36.5t-37 -15.5q-18 0 -29.5 12t-11.5 30z" />
    <glyph glyph-name="uni0122" unicode="&#x122;" horiz-adv-x="713" 
d="M148 284q0 -100 61.5 -161t163.5 -61q95 0 175 71l30 136h-187q-15 0 -26 11t-11 26t11 26t26 11h237q19 0 30 -9.5t11 -25.5l-2 -14l-37 -167q-6 -30 -27 -49q-102 -90 -235 -90q-136 0 -222 82t-86 210q-3 167 110.5 284t270.5 114q153 0 236 -107q10 -10 10 -25
q0 -16 -12 -28.5t-29 -12.5q-22 0 -32 15q-61 84 -184 84q-110 3 -197.5 -92.5t-84.5 -227.5zM252 -262q-8 0 -13.5 5.5t-5.5 12.5q0 10 8 15q46 29 60 68h-7q-15 0 -26 11t-11 28q0 21 15.5 36t36.5 15q19 0 32 -13.5t13 -36.5q0 -35 -25 -72.5t-63 -64.5q-7 -4 -14 -4z
" />
    <glyph glyph-name="uni0123" unicode="&#x123;" horiz-adv-x="574" 
d="M314 614q0 36 25.5 73t63.5 63q7 5 13 5q8 0 13.5 -6t5.5 -12q0 -11 -8 -16q-47 -30 -60 -68h8q15 0 25.5 -11t10.5 -28q0 -21 -15 -35.5t-36 -14.5t-33.5 13t-12.5 37zM544 450q0 -6 -1 -8l-95 -428q-47 -210 -236 -210q-126 0 -193 59q-13 10 -13 27q0 15 10 24.5
t25 9.5t22 -7q54 -51 148 -51q128 0 162 148l14 63q-64 -82 -164 -82q-83 0 -133.5 52t-50.5 148q-2 119 70.5 210.5t181.5 89.5q49 0 96 -25t73 -64l12 53q2 12 12 20t23 8q16 0 26.5 -11t10.5 -26zM401 139l46 209q-20 37 -61 58.5t-89 21.5q-78 0 -128.5 -66.5
t-50.5 -154.5q0 -67 36.5 -106t98.5 -39q39 0 79 21.5t69 55.5z" />
    <glyph glyph-name="Hcircumflex" unicode="&#x124;" horiz-adv-x="712" 
d="M506 36q0 7 1 9l57 261h-390l-61 -278q-7 -32 -40 -32q-16 0 -28 12t-12 28q0 7 1 9l131 594q7 32 39 32q17 0 29 -12t12 -29q0 -6 -1 -8l-53 -242h390l57 259q7 32 39 32q17 0 29 -12t12 -28q0 -7 -1 -9l-131 -594q-7 -32 -39 -32q-17 0 -29 12t-12 28zM543 730l-56 99
l-101 -104q-6 -6 -15 -6t-14.5 6t-5.5 14q0 5 5 13l84 95q19 21 43 21h22q26 0 35 -22l44 -95q2 -8 2 -9q0 -9 -7.5 -16t-16.5 -7q-11 0 -19 11z" />
    <glyph glyph-name="hcircumflex" unicode="&#x125;" horiz-adv-x="552" 
d="M356 32q0 6 1 8l60 277q6 27 6 33q0 78 -100 78q-77 0 -149 -77l-72 -327q-3 -12 -13 -20t-23 -8q-17 0 -28.5 13.5t-7.5 30.5l133 603q2 12 12 20t23 8q16 0 26.5 -10.5t10.5 -25.5q0 -6 -1 -8l-47 -214q85 82 171 82q66 0 105 -32t39 -88q0 -22 -6 -40l-68 -311
q-2 -12 -12.5 -20t-23.5 -8q-15 0 -25.5 10.5t-10.5 25.5zM462 730l-56 99l-101 -104q-6 -6 -15 -6t-14.5 6t-5.5 14q0 5 5 13l84 95q19 21 43 21h22q26 0 35 -22l44 -95q2 -8 2 -9q0 -9 -7.5 -16t-16.5 -7q-11 0 -19 11z" />
    <glyph glyph-name="Hbar" unicode="&#x126;" horiz-adv-x="731" 
d="M784 525q0 -10 -6.5 -17t-16.5 -7h-61l-104 -473q-7 -32 -39 -32q-17 0 -29 12t-12 29q0 6 1 8l57 261h-390l-61 -278q-7 -32 -39 -32q-17 0 -29 12t-12 28q0 7 1 9l101 456h-52q-10 0 -17 7t-7 17t7 17t17 7h62l20 90q7 32 39 32q17 0 29 -12t12 -28q0 -7 -1 -9l-16 -73
h390l20 90q7 32 40 32q16 0 28 -12t12 -28q0 -7 -1 -9l-16 -73h50q10 0 16.5 -7t6.5 -17zM591 380l27 121h-390l-27 -121h390z" />
    <glyph glyph-name="hbar" unicode="&#x127;" horiz-adv-x="553" 
d="M502 375q0 -12 -5 -40l-68 -311q-2 -12 -12.5 -20t-23.5 -8q-17 0 -28.5 13.5t-7.5 30.5l61 277q6 27 6 33q0 78 -100 78q-77 0 -149 -77l-72 -327q-3 -12 -13.5 -20t-23.5 -8q-17 0 -28 13.5t-7 30.5l108 495h-40q-10 0 -17 7t-7 17t7 17t17 7h51l13 60q3 12 13 20t23 8
q17 0 28.5 -13.5t7.5 -30.5l-10 -44h132q10 0 17 -7t7 -17t-7 -17t-17 -7h-142l-27 -122q85 82 170 82q67 0 105.5 -31.5t38.5 -88.5z" />
    <glyph glyph-name="Itilde" unicode="&#x128;" horiz-adv-x="239" 
d="M33 36q0 7 1 9l131 594q7 32 39 32q17 0 29 -12t12 -29q0 -6 -1 -8l-131 -594q-7 -32 -40 -32q-16 0 -28 12t-12 28zM177 813q-39 0 -58 -74q-5 -16 -21 -16q-11 0 -17.5 8.5t-4.5 19.5q30 110 106 110q25 0 40 -12t32 -39q13 -23 23 -32t26 -9q39 0 58 74q5 16 21 16
q11 0 18 -9t4 -20q-30 -109 -106 -109q-25 0 -40 12t-32 39q-13 23 -23 32t-26 9z" />
    <glyph glyph-name="itilde" unicode="&#x129;" horiz-adv-x="225" 
d="M30 32q0 6 1 8l92 419q2 12 12.5 20t23.5 8q15 0 25.5 -10.5t10.5 -25.5q0 -6 -1 -8l-92 -419q-3 -12 -13 -20t-23 -8q-15 0 -25.5 10.5t-10.5 25.5zM137 666q-39 0 -58 -74q-5 -16 -21 -16q-11 0 -17.5 8.5t-4.5 19.5q30 110 106 110q25 0 40 -12t32 -39q13 -23 23 -32
t26 -9q39 0 58 74q5 16 21 16q11 0 18 -9t4 -20q-30 -109 -106 -109q-25 0 -40 12t-32 39q-13 23 -23 32t-26 9z" />
    <glyph glyph-name="Imacron" unicode="&#x12a;" horiz-adv-x="239" 
d="M33 36q0 7 1 9l131 594q7 32 39 32q17 0 29 -12t12 -29q0 -6 -1 -8l-131 -594q-7 -32 -40 -32q-16 0 -28 12t-12 28zM79 763q0 10 7 17t17 7h267q10 0 17 -7t7 -17t-7 -17t-17 -7h-267q-10 0 -17 7t-7 17z" />
    <glyph glyph-name="imacron" unicode="&#x12b;" horiz-adv-x="225" 
d="M30 32q0 6 1 8l92 419q2 12 12.5 20t23.5 8q15 0 25.5 -10.5t10.5 -25.5q0 -6 -1 -8l-92 -419q-3 -12 -13 -20t-23 -8q-15 0 -25.5 10.5t-10.5 25.5zM40 616q0 10 7 17t17 7h267q10 0 17 -7t7 -17t-7 -17t-17 -7h-267q-10 0 -17 7t-7 17z" />
    <glyph glyph-name="Ibreve" unicode="&#x12c;" horiz-adv-x="239" 
d="M33 36q0 7 1 9l131 594q7 32 39 32q17 0 29 -12t12 -29q0 -6 -1 -8l-131 -594q-7 -32 -40 -32q-16 0 -28 12t-12 28zM82 786q-6 8 -6 16q0 11 8 19t19 8q12 0 20 -11q41 -53 112 -53q79 0 142 60q5 5 15 5q9 0 15.5 -6t6.5 -16t-7 -16q-83 -75 -180 -75q-93 0 -145 69z
" />
    <glyph glyph-name="ibreve" unicode="&#x12d;" horiz-adv-x="225" 
d="M30 32q0 6 1 8l92 419q2 12 12.5 20t23.5 8q15 0 25.5 -10.5t10.5 -25.5q0 -6 -1 -8l-92 -419q-3 -12 -13 -20t-23 -8q-15 0 -25.5 10.5t-10.5 25.5zM43 639q-6 7 -6 16q0 11 8 19t19 8q12 0 20 -11q41 -53 112 -53q79 0 142 60q5 5 15 5q9 0 15.5 -6t6.5 -16t-7 -16
q-83 -75 -180 -75q-93 0 -145 69z" />
    <glyph glyph-name="Iogonek" unicode="&#x12e;" horiz-adv-x="239" 
d="M245 630q0 -6 -1 -8l-131 -594q-5 -26 -31 -31q-91 -54 -91 -100q0 -30 34 -30q8 0 17 3q11 2 19.5 -5.5t8.5 -18.5q0 -17 -17 -23q-25 -9 -55 -9q-38 0 -61 16.5t-23 42.5q0 40 38.5 74t99.5 55q-19 11 -19 34q0 7 1 9l131 594q7 32 39 32q17 0 29 -12t12 -29z" />
    <glyph glyph-name="iogonek" unicode="&#x12f;" horiz-adv-x="225" 
d="M250 638q0 -24 -17.5 -40.5t-39.5 -16.5q-20 0 -33.5 12.5t-13.5 31.5q0 24 17.5 40.5t39.5 16.5q20 0 33.5 -13t13.5 -31zM195 451q0 -6 -1 -8l-92 -419q-7 -26 -31 -28q-90 -54 -90 -99q0 -30 35 -30q7 0 16 3q11 2 19.5 -5.5t8.5 -18.5q0 -18 -17 -23q-25 -9 -55 -9
q-37 0 -60 16.5t-23 42.5q0 39 38.5 73.5t98.5 55.5l3 1q-19 14 -14 37l92 419q2 12 12.5 20t23.5 8q15 0 25.5 -10.5t10.5 -25.5z" />
    <glyph glyph-name="Idot" unicode="&#x130;" horiz-adv-x="239" 
d="M33 36q0 7 1 9l131 594q7 32 39 32q17 0 29 -12t12 -29q0 -6 -1 -8l-131 -594q-7 -32 -40 -32q-16 0 -28 12t-12 28zM190 773q0 21 15.5 36.5t36.5 15.5q18 0 30 -12t12 -30q0 -21 -16 -36.5t-37 -15.5q-18 0 -29.5 12t-11.5 30z" />
    <glyph glyph-name="dotlessi" unicode="&#x131;" horiz-adv-x="225" 
d="M30 32q0 6 1 8l92 419q2 12 12.5 20t23.5 8q15 0 25.5 -10.5t10.5 -25.5q0 -6 -1 -8l-92 -419q-3 -12 -13 -20t-23 -8q-15 0 -25.5 10.5t-10.5 25.5z" />
    <glyph glyph-name="IJ" unicode="&#x132;" horiz-adv-x="713" 
d="M33 36q0 7 1 9l131 594q7 32 39 32q17 0 29 -12t12 -29q0 -6 -1 -8l-131 -594q-7 -32 -40 -32q-16 0 -28 12t-12 28zM226 76q0 16 11 27.5t27 11.5q14 0 25 -9q41 -44 104 -44q59 0 97 36.5t53 103.5l97 437q7 32 39 32q17 0 29 -12t12 -29q0 -6 -1 -8l-93 -421
q-46 -213 -229 -213q-97 0 -157 60q-14 12 -14 28z" />
    <glyph glyph-name="ij" unicode="&#x133;" horiz-adv-x="451" 
d="M203 682q20 0 33.5 -13t13.5 -31q0 -24 -17.5 -40.5t-39.5 -16.5q-20 0 -33.5 12.5t-13.5 31.5q0 24 17.5 40.5t39.5 16.5zM30 32q0 6 1 8l92 419q2 12 12.5 20t23.5 8q15 0 25.5 -10.5t10.5 -25.5q0 -6 -1 -8l-92 -419q-3 -12 -13 -20t-23 -8q-15 0 -25.5 10.5
t-10.5 25.5zM371 625q0 24 17.5 40.5t39.5 16.5q20 0 33.5 -13t13.5 -31q0 -24 -17.5 -40.5t-39.5 -16.5q-20 0 -33.5 12.5t-13.5 31.5zM96 -161q0 15 10.5 24t25.5 8q8 -3 18 -3q66 0 85 85l113 506q2 12 12 20t23 8q16 0 26.5 -10.5t10.5 -25.5q0 -6 -1 -8l-109 -490
q-32 -149 -153 -149q-21 0 -34 4q-27 5 -27 31z" />
    <glyph glyph-name="Jcircumflex" unicode="&#x134;" horiz-adv-x="475" 
d="M-13 76q0 16 11 27.5t27 11.5q15 0 25 -9q41 -44 104 -44q59 0 97 36.5t53 103.5l97 437q7 32 39 32q17 0 29 -12t12 -29q0 -6 -1 -8l-93 -421q-47 -213 -229 -213q-97 0 -157 60q-14 12 -14 28zM546 747l-56 99l-101 -104q-6 -6 -15 -6t-14.5 6t-5.5 14q0 5 5 13l84 95
q19 21 43 21h22q26 0 35 -22l44 -95q2 -8 2 -9q0 -9 -7.5 -16t-16.5 -7q-11 0 -19 11z" />
    <glyph glyph-name="jcircumflex" unicode="&#x135;" horiz-adv-x="225" 
d="M-129 -161q0 15 11 24.5t25 7.5q7 -3 18 -3q66 0 85 85l113 506q2 12 12 20t23 8q16 0 26.5 -10.5t10.5 -25.5q0 -6 -1 -8l-109 -490q-32 -149 -153 -149q-21 0 -34 4q-27 5 -27 31zM267 583l-56 99l-101 -104q-6 -6 -15 -6t-14.5 6t-5.5 14q0 5 5 13l84 95q19 21 43 21
h22q26 0 35 -22l44 -95q2 -8 2 -9q0 -9 -7.5 -16t-16.5 -7q-11 0 -19 11z" />
    <glyph glyph-name="uni0136" unicode="&#x136;" horiz-adv-x="601" 
d="M612 634q0 -16 -12 -27l-294 -256l200 -292q6 -9 6 -22q0 -17 -12 -29t-29 -12q-24 0 -36 20l-191 289l-88 -81l-43 -196q-7 -32 -40 -32q-16 0 -28 12t-12 28q0 7 1 9l131 594q7 32 39 32q17 0 29 -12t12 -29q0 -6 -1 -8l-65 -293l371 332q9 10 25 10q15 0 26 -10.5
t11 -26.5zM176 -262q-8 0 -13.5 5.5t-5.5 12.5q0 10 8 15q46 29 60 68h-7q-15 0 -26 11t-11 28q0 21 15.5 36t36.5 15q19 0 32 -13.5t13 -36.5q0 -35 -25 -72.5t-63 -64.5q-7 -4 -14 -4z" />
    <glyph glyph-name="uni0137" unicode="&#x137;" horiz-adv-x="514" 
d="M514 455q0 -16 -11 -24l-214 -167l138 -210q7 -10 7 -21q0 -15 -13 -26t-28 -11q-20 0 -34 20l-131 205l-102 -83l-25 -113q-2 -13 -12 -21t-23 -8q-17 0 -28.5 13.5t-7.5 30.5l133 603q2 12 12 20t23 8q16 0 26.5 -10.5t10.5 -25.5q0 -6 -1 -8l-88 -398l314 251
q7 7 21 7t23.5 -9t9.5 -23zM126 -262q-8 0 -13.5 5.5t-5.5 12.5q0 10 8 15q46 29 60 68h-7q-15 0 -26 11t-11 28q0 21 15.5 36t36.5 15q19 0 32 -13.5t13 -36.5q0 -35 -25 -72.5t-63 -64.5q-7 -4 -14 -4z" />
    <glyph glyph-name="kgreenlandic" unicode="&#x138;" horiz-adv-x="514" 
d="M514 455q0 -16 -11 -24l-214 -167l138 -210q7 -10 7 -20q0 -15 -12.5 -26.5t-28.5 -11.5q-20 0 -34 20l-131 204l-102 -82l-25 -114q-2 -12 -12 -20t-23 -8q-17 0 -28.5 13.5t-7.5 30.5l93 419q2 12 12 20t23 8q16 0 26.5 -11t10.5 -26q0 -6 -1 -8l-47 -212l313 250
q7 7 21 7t23.5 -9t9.5 -23z" />
    <glyph glyph-name="Lacute" unicode="&#x139;" horiz-adv-x="517" 
d="M33 36q0 10 1 13l131 590q7 32 39 32q17 0 29 -12t12 -29q0 -6 -1 -8l-122 -548h269q15 0 26 -11t11 -26t-11 -26t-26 -11h-317q-41 0 -41 36zM229 719q-8 0 -13.5 6t-5.5 13q0 11 8 17l135 109q7 6 18 6q10 0 16.5 -7.5t6.5 -17.5q0 -14 -10 -21l-141 -101q-4 -4 -14 -4
z" />
    <glyph glyph-name="lacute" unicode="&#x13a;" horiz-adv-x="225" 
d="M30 40l133 603q2 12 12.5 20t23.5 8q15 0 25.5 -10.5t10.5 -25.5q0 -6 -1 -8l-132 -603q-3 -12 -13 -20t-23 -8q-17 0 -28.5 13.5t-7.5 30.5zM223 719q-8 0 -13.5 6t-5.5 13q0 11 8 17l135 109q7 6 18 6q10 0 16.5 -7.5t6.5 -17.5q0 -14 -10 -21l-141 -101q-4 -4 -14 -4z
" />
    <glyph glyph-name="uni013B" unicode="&#x13b;" horiz-adv-x="517" 
d="M33 36q0 10 1 13l131 590q7 32 39 32q17 0 29 -12t12 -29q0 -6 -1 -8l-122 -548h269q15 0 26 -11t11 -26t-11 -26t-26 -11h-317q-41 0 -41 36zM141 -262q-8 0 -13.5 5.5t-5.5 12.5q0 10 8 15q46 29 60 68h-7q-15 0 -26 11t-11 28q0 21 15.5 36t36.5 15q19 0 32 -13.5
t13 -36.5q0 -35 -25 -72.5t-63 -64.5q-7 -4 -14 -4z" />
    <glyph glyph-name="uni013C" unicode="&#x13c;" horiz-adv-x="225" 
d="M30 40l133 603q2 12 12.5 20t23.5 8q15 0 25.5 -10.5t10.5 -25.5q0 -6 -1 -8l-132 -603q-3 -12 -13 -20t-23 -8q-17 0 -28.5 13.5t-7.5 30.5zM-21 -262q-8 0 -13.5 5.5t-5.5 12.5q0 10 8 15q46 29 60 68h-7q-15 0 -26 11t-11 28q0 21 15.5 36t36.5 15q19 0 32 -13.5
t13 -36.5q0 -35 -25 -72.5t-63 -64.5q-7 -4 -14 -4z" />
    <glyph glyph-name="Lcaron" unicode="&#x13d;" horiz-adv-x="517" 
d="M33 36q0 10 1 13l131 590q7 32 39 32q17 0 29 -12t12 -29q0 -6 -1 -8l-122 -548h269q15 0 26 -11t11 -26t-11 -26t-26 -11h-317q-41 0 -41 36zM333 489q-8 0 -13.5 5.5t-5.5 12.5q0 10 8 15q46 29 60 68h-7q-15 0 -26 11t-11 28q0 21 15.5 36t36.5 15q19 0 32 -13.5
t13 -36.5q0 -35 -25 -72.5t-63 -64.5q-7 -4 -14 -4z" />
    <glyph glyph-name="lcaron" unicode="&#x13e;" horiz-adv-x="291" 
d="M30 40l133 603q2 12 12.5 20t23.5 8q15 0 25.5 -10.5t10.5 -25.5q0 -6 -1 -8l-132 -603q-3 -12 -13 -20t-23 -8q-17 0 -28.5 13.5t-7.5 30.5zM290 489q-8 0 -13.5 5.5t-5.5 12.5q0 10 8 15q46 29 60 68h-7q-15 0 -26 11t-11 28q0 21 15.5 36t36.5 15q19 0 32 -13.5
t13 -36.5q0 -35 -25 -72.5t-63 -64.5q-7 -4 -14 -4z" />
    <glyph glyph-name="Ldot" unicode="&#x13f;" horiz-adv-x="517" 
d="M33 36q0 10 1 13l131 590q7 32 39 32q17 0 29 -12t12 -29q0 -6 -1 -8l-122 -548h269q15 0 26 -11t11 -26t-11 -26t-26 -11h-317q-41 0 -41 36zM396 397q21 0 35.5 -15t14.5 -36q0 -25 -17.5 -42t-42.5 -17q-21 0 -35.5 14.5t-14.5 35.5q0 25 17.5 42.5t42.5 17.5z" />
    <glyph glyph-name="ldot" unicode="&#x140;" horiz-adv-x="307" 
d="M30 40l133 603q2 12 12.5 20t23.5 8q15 0 25.5 -10.5t10.5 -25.5q0 -6 -1 -8l-132 -603q-3 -12 -13 -20t-23 -8q-17 0 -28.5 13.5t-7.5 30.5zM271 300q21 0 35.5 -15t14.5 -36q0 -25 -17.5 -42t-42.5 -17q-21 0 -35.5 14.5t-14.5 35.5q0 25 17.5 42.5t42.5 17.5z" />
    <glyph glyph-name="Lslash" unicode="&#x141;" horiz-adv-x="547" 
d="M459 37q0 -15 -11 -26t-26 -11h-318q-19 0 -30 9.5t-11 25.5l2 14l49 222l-49 -25q-6 -3 -13 -3q-11 0 -19.5 8t-8.5 20q0 17 15 25l91 47l65 296q7 32 40 32q16 0 28 -12t12 -28q0 -7 -1 -9l-51 -231l61 31q6 3 13 3q12 0 20.5 -8t8.5 -20q0 -17 -16 -26l-103 -53
l-54 -244h269q15 0 26 -11t11 -26z" />
    <glyph glyph-name="lslash" unicode="&#x142;" horiz-adv-x="287" 
d="M291 423q10 0 16.5 -7t6.5 -17q0 -17 -13 -21l-102 -52l-67 -302q-2 -12 -12.5 -20t-23.5 -8q-15 0 -25.5 10.5t-10.5 25.5q0 6 1 8l53 243l-68 -35q-6 -3 -11 -3q-9 0 -16 7.5t-7 16.5q0 16 13 21l102 52l66 301q3 12 13 20t23 8q17 0 28.5 -13.5t7.5 -30.5l-53 -242
l68 35q6 3 11 3z" />
    <glyph glyph-name="Nacute" unicode="&#x143;" horiz-adv-x="708" 
d="M483 27l-254 529l-116 -528q-7 -32 -40 -32q-16 0 -28 12t-12 28q0 7 1 9l128 582q4 19 19.5 31.5t36.5 12.5q36 0 51 -33l250 -517l115 518q7 32 40 32q16 0 28 -12t12 -28q0 -7 -1 -9l-128 -584q-4 -18 -19 -30t-34 -12q-34 0 -49 31zM464 719q-8 0 -13.5 6t-5.5 13
q0 11 8 17l135 109q8 6 18 6t16.5 -7.5t6.5 -17.5q0 -14 -10 -21l-141 -101q-4 -4 -14 -4z" />
    <glyph glyph-name="nacute" unicode="&#x144;" 
d="M501 377q0 -14 -5 -42l-68 -311q-3 -12 -13 -20t-23 -8q-17 0 -28.5 13.5t-7.5 30.5l61 277q4 15 4 35q0 76 -93 76q-83 0 -154 -76l-72 -328q-3 -12 -13 -20t-23 -8q-17 0 -28.5 13.5t-7.5 30.5l93 419q2 12 12 20t23 8q16 0 26.5 -11t10.5 -26q0 -6 -1 -8l-7 -29
q89 82 171 82q67 0 105 -31t38 -87zM355 572q-8 0 -13.5 6t-5.5 13q0 11 8 17l135 109q7 6 18 6q10 0 16.5 -7.5t6.5 -17.5q0 -14 -10 -21l-141 -101q-4 -4 -14 -4z" />
    <glyph glyph-name="uni0145" unicode="&#x145;" horiz-adv-x="708" 
d="M483 27l-254 529l-116 -528q-7 -32 -40 -32q-16 0 -28 12t-12 28q0 7 1 9l128 582q4 19 19.5 31.5t36.5 12.5q36 0 51 -33l250 -517l115 518q7 32 40 32q16 0 28 -12t12 -28q0 -7 -1 -9l-128 -584q-4 -18 -19 -30t-34 -12q-34 0 -49 31zM215 -262q-8 0 -13.5 5.5
t-5.5 12.5q0 10 8 15q46 29 60 68h-7q-15 0 -26 11t-11 28q0 21 15.5 36t36.5 15q19 0 32 -13.5t13 -36.5q0 -35 -25 -72.5t-63 -64.5q-7 -4 -14 -4z" />
    <glyph glyph-name="uni0146" unicode="&#x146;" 
d="M501 377q0 -14 -5 -42l-68 -311q-3 -12 -13 -20t-23 -8q-17 0 -28.5 13.5t-7.5 30.5l61 277q4 15 4 35q0 76 -93 76q-83 0 -154 -76l-72 -328q-3 -12 -13 -20t-23 -8q-17 0 -28.5 13.5t-7.5 30.5l93 419q2 12 12 20t23 8q16 0 26.5 -11t10.5 -26q0 -6 -1 -8l-7 -29
q89 82 171 82q67 0 105 -31t38 -87zM142 -262q-8 0 -13.5 5.5t-5.5 12.5q0 10 8 15q46 29 60 68h-7q-15 0 -26 11t-11 28q0 21 15.5 36t36.5 15q19 0 32 -13.5t13 -36.5q0 -35 -25 -72.5t-63 -64.5q-7 -4 -14 -4z" />
    <glyph glyph-name="Ncaron" unicode="&#x147;" horiz-adv-x="708" 
d="M483 27l-254 529l-116 -528q-7 -32 -40 -32q-16 0 -28 12t-12 28q0 7 1 9l128 582q4 19 19.5 31.5t36.5 12.5q36 0 51 -33l250 -517l115 518q7 32 40 32q16 0 28 -12t12 -28q0 -7 -1 -9l-128 -584q-4 -18 -19 -30t-34 -12q-34 0 -49 31zM411 860l56 -99l101 104q6 6 15 6
t14.5 -6t5.5 -14q0 -5 -5 -13l-84 -95q-19 -21 -43 -21h-22q-26 0 -35 22l-44 95q-2 8 -2 9q0 9 7.5 16t16.5 7q11 0 19 -11z" />
    <glyph glyph-name="ncaron" unicode="&#x148;" 
d="M501 377q0 -14 -5 -42l-68 -311q-3 -12 -13 -20t-23 -8q-17 0 -28.5 13.5t-7.5 30.5l61 277q4 15 4 35q0 76 -93 76q-83 0 -154 -76l-72 -328q-3 -12 -13 -20t-23 -8q-17 0 -28.5 13.5t-7.5 30.5l93 419q2 12 12 20t23 8q16 0 26.5 -11t10.5 -26q0 -6 -1 -8l-7 -29
q89 82 171 82q67 0 105 -31t38 -87zM302 713l56 -99l101 104q6 6 15 6t14.5 -6t5.5 -14q0 -5 -5 -13l-84 -95q-19 -21 -43 -21h-22q-26 0 -35 22l-44 95q-2 8 -2 9q0 9 7.5 16t16.5 7q11 0 19 -11z" />
    <glyph glyph-name="napostrophe" unicode="&#x149;" 
d="M501 377q0 -14 -5 -42l-68 -311q-3 -12 -13 -20t-23 -8q-17 0 -28.5 13.5t-7.5 30.5l61 277q4 15 4 35q0 76 -93 76q-83 0 -154 -76l-72 -328q-3 -12 -13 -20t-23 -8q-17 0 -28.5 13.5t-7.5 30.5l93 419q2 12 12 20t23 8q16 0 26.5 -11t10.5 -26q0 -6 -1 -8l-7 -29
q89 82 171 82q67 0 105 -31t38 -87zM154 552q-8 0 -13.5 5.5t-5.5 12.5q0 10 8 15q46 29 60 68h-7q-15 0 -26 11t-11 28q0 21 15.5 36t36.5 15q19 0 32 -13.5t13 -36.5q0 -35 -25 -72.5t-63 -64.5q-7 -4 -14 -4z" />
    <glyph glyph-name="Eng" unicode="&#x14a;" horiz-adv-x="708" 
d="M714 631q0 -7 -1 -9l-134 -609q-51 -209 -229 -209q-100 0 -158 61q-13 10 -13 26q0 15 10.5 25.5t25.5 10.5q13 0 23 -9q40 -46 107 -46q115 0 148 132l-264 552l-116 -528q-7 -32 -40 -32q-16 0 -28 12t-12 28q0 7 1 9l128 582q4 19 19.5 31.5t36.5 12.5q36 0 51 -33
l250 -517l115 518q7 32 40 32q16 0 28 -12t12 -28z" />
    <glyph glyph-name="eng" unicode="&#x14b;" 
d="M501 377q0 -14 -5 -42l-84 -382q-32 -149 -153 -149q-22 0 -35 4q-27 5 -27 31q0 14 11 23.5t25 8.5q9 -3 19 -3q66 0 85 85l80 364q4 15 4 34q0 77 -93 77q-83 0 -154 -76l-72 -328q-3 -12 -13 -20t-23 -8q-17 0 -28.5 13.5t-7.5 30.5l93 419q2 12 12 20t23 8
q16 0 26.5 -11t10.5 -26q0 -6 -1 -8l-7 -29q89 82 171 82q67 0 105 -31t38 -87z" />
    <glyph glyph-name="Omacron" unicode="&#x14c;" horiz-adv-x="765" 
d="M435 678q131 2 220.5 -79t87.5 -212q3 -164 -109.5 -283t-265.5 -116q-133 0 -220.5 79.5t-87.5 212.5q-3 163 109 282t266 116zM430 604q-114 3 -199 -92t-83 -228q0 -102 63.5 -162t161.5 -60q113 -3 198.5 92t83.5 228q0 102 -64 162t-161 60zM340 763q0 10 7 17t17 7
h267q10 0 17 -7t7 -17t-7 -17t-17 -7h-267q-10 0 -17 7t-7 17z" />
    <glyph glyph-name="omacron" unicode="&#x14d;" horiz-adv-x="572" 
d="M309 495q101 0 161 -59t60 -156q2 -115 -78 -204.5t-191 -87.5q-102 0 -161.5 58.5t-59.5 155.5q-2 115 78 205.5t191 87.5zM307 428q-79 0 -133.5 -67.5t-54.5 -155.5q0 -70 38 -110t106 -40q79 0 133.5 67.5t54.5 155.5q0 70 -38 110t-106 40zM213 616q0 10 7 17t17 7
h267q10 0 17 -7t7 -17t-7 -17t-17 -7h-267q-10 0 -17 7t-7 17z" />
    <glyph glyph-name="Obreve" unicode="&#x14e;" horiz-adv-x="765" 
d="M435 678q131 2 220.5 -79t87.5 -212q3 -164 -109.5 -283t-265.5 -116q-133 0 -220.5 79.5t-87.5 212.5q-3 163 109 282t266 116zM430 604q-114 3 -199 -92t-83 -228q0 -102 63.5 -162t161.5 -60q113 -3 198.5 92t83.5 228q0 102 -64 162t-161 60zM343 786q-6 8 -6 16
q0 11 8 19t19 8q12 0 20 -11q41 -53 112 -53q79 0 142 60q5 5 15 5q9 0 15.5 -6t6.5 -16t-7 -16q-83 -75 -180 -75q-93 0 -145 69z" />
    <glyph glyph-name="obreve" unicode="&#x14f;" horiz-adv-x="572" 
d="M309 495q101 0 161 -59t60 -156q2 -115 -78 -204.5t-191 -87.5q-102 0 -161.5 58.5t-59.5 155.5q-2 115 78 205.5t191 87.5zM307 428q-79 0 -133.5 -67.5t-54.5 -155.5q0 -70 38 -110t106 -40q79 0 133.5 67.5t54.5 155.5q0 70 -38 110t-106 40zM216 639q-6 7 -6 16
q0 11 8 19t19 8q12 0 20 -11q41 -53 112 -53q79 0 142 60q5 5 15 5q9 0 15.5 -6t6.5 -16t-7 -16q-83 -75 -180 -75q-93 0 -145 69z" />
    <glyph glyph-name="Ohungarumlaut" unicode="&#x150;" horiz-adv-x="765" 
d="M435 678q131 2 220.5 -79t87.5 -212q3 -164 -109.5 -283t-265.5 -116q-133 0 -220.5 79.5t-87.5 212.5q-3 163 109 282t266 116zM430 604q-114 3 -199 -92t-83 -228q0 -102 63.5 -162t161.5 -60q113 -3 198.5 92t83.5 228q0 102 -64 162t-161 60zM407 738q0 8 4 12
l99 113q8 9 20 9q10 0 17 -7.5t7 -17.5t-7 -18l-108 -105q-5 -5 -13 -5q-19 0 -19 19zM549 738q0 8 4 12l99 113q8 9 20 9q10 0 17 -7.5t7 -17.5t-7 -18l-108 -105q-5 -5 -13 -5q-19 0 -19 19z" />
    <glyph glyph-name="ohungarumlaut" unicode="&#x151;" horiz-adv-x="572" 
d="M309 495q101 0 161 -59t60 -156q2 -115 -78 -204.5t-191 -87.5q-102 0 -161.5 58.5t-59.5 155.5q-2 115 78 205.5t191 87.5zM307 428q-79 0 -133.5 -67.5t-54.5 -155.5q0 -70 38 -110t106 -40q79 0 133.5 67.5t54.5 155.5q0 70 -38 110t-106 40zM280 591q0 8 4 12l99 113
q7 9 20 9q10 0 17 -7.5t7 -17.5t-7 -18l-108 -105q-5 -5 -13 -5q-19 0 -19 19zM422 591q0 8 4 12l99 113q7 9 20 9q10 0 17 -7.5t7 -17.5t-7 -18l-108 -105q-5 -5 -13 -5q-19 0 -19 19z" />
    <glyph glyph-name="OE" unicode="&#x152;" horiz-adv-x="1105" 
d="M1139 630q0 -15 -11 -26t-26 -11h-328l-48 -215h306q15 0 25.5 -11t10.5 -26t-10.5 -26t-25.5 -11h-323l-51 -230h313q15 0 26 -11t11 -26t-11 -26t-26 -11h-362q-19 0 -30 9.5t-11 25.5l2 14l11 52q-88 -113 -240 -113q-122 0 -201.5 82.5t-79.5 209.5q-3 168 110 284
t266 113q182 0 239 -153l23 104q8 39 48 39h356q15 0 26 -11t11 -26zM604 201l49 222q-15 86 -72.5 133t-144.5 47q-117 2 -203.5 -92.5t-84.5 -226.5q0 -101 60.5 -161.5t157.5 -60.5q72 0 135.5 37t102.5 102z" />
    <glyph glyph-name="oe" unicode="&#x153;" horiz-adv-x="962" 
d="M521 194q0 -61 44 -102.5t119 -41.5q60 0 115 33q5 3 13 3q12 0 21 -8.5t9 -20.5q0 -17 -15 -26q-70 -43 -148 -43q-83 0 -139 43t-68 95q-44 -66 -89.5 -101t-123.5 -37q-100 0 -159.5 58t-59.5 156q-2 114 77 205t190 88q78 0 129 -44t62 -94q36 55 89 97q52 41 127 41
q92 0 149.5 -57t57.5 -154q0 -14 -3 -26q-2 -41 -47 -41h-348q-2 -10 -2 -23zM852 291q0 64 -38 103t-106 39q-66 0 -117.5 -51t-59.5 -110h320q1 3 1 19zM119 205q0 -69 38 -109.5t104 -40.5q78 0 132 66.5t54 156.5q0 72 -39.5 111t-102.5 39q-76 0 -131 -66.5t-55 -156.5
z" />
    <glyph glyph-name="Racute" unicode="&#x154;" horiz-adv-x="608" 
d="M397 269l107 -215q5 -12 5 -18q0 -16 -13.5 -28t-30.5 -12q-25 0 -39 27l-114 242h-148l-52 -237q-2 -14 -13 -23t-26 -9q-16 0 -28 12t-12 28q0 7 1 9l128 583q9 39 49 39h205q77 0 133 -48.5t56 -125.5q0 -90 -58 -152.5t-150 -71.5zM517 486q0 46 -35 76
q-34 31 -78 31h-166l-57 -255h176q73 0 116.5 41.5t43.5 106.5zM416 719q-8 0 -13.5 6t-5.5 13q0 11 8 17l135 109q8 6 18 6t16.5 -7.5t6.5 -17.5q0 -14 -10 -21l-141 -101q-4 -4 -14 -4z" />
    <glyph glyph-name="racute" unicode="&#x155;" horiz-adv-x="330" 
d="M362 456q0 -16 -11.5 -26.5t-26.5 -9.5h-13q-38 0 -76 -22.5t-64 -56.5l-69 -317q-3 -12 -13 -20t-23 -8q-17 0 -28.5 13.5t-7.5 30.5l93 419q2 12 12 20t23 8q16 0 26.5 -11t10.5 -26q0 -6 -1 -8l-9 -33q75 81 140 81q37 0 37 -34zM270 572q-8 0 -13.5 6t-5.5 13
q0 11 8 17l135 109q8 6 18 6t16.5 -7.5t6.5 -17.5q0 -14 -10 -21l-141 -101q-4 -4 -14 -4z" />
    <glyph glyph-name="uni0156" unicode="&#x156;" horiz-adv-x="608" 
d="M397 269l107 -215q5 -12 5 -18q0 -16 -13.5 -28t-30.5 -12q-25 0 -39 27l-114 242h-148l-52 -237q-2 -14 -13 -23t-26 -9q-16 0 -28 12t-12 28q0 7 1 9l128 583q9 39 49 39h205q77 0 133 -48.5t56 -125.5q0 -90 -58 -152.5t-150 -71.5zM517 486q0 46 -35 76
q-34 31 -78 31h-166l-57 -255h176q73 0 116.5 41.5t43.5 106.5zM172 -262q-8 0 -13.5 5.5t-5.5 12.5q0 10 8 15q46 29 60 68h-7q-15 0 -26 11t-11 28q0 21 15.5 36t36.5 15q19 0 32 -13.5t13 -36.5q0 -35 -25 -72.5t-63 -64.5q-7 -4 -14 -4z" />
    <glyph glyph-name="uni0157" unicode="&#x157;" horiz-adv-x="330" 
d="M362 456q0 -16 -11.5 -26.5t-26.5 -9.5h-13q-38 0 -76 -22.5t-64 -56.5l-69 -317q-3 -12 -13 -20t-23 -8q-17 0 -28.5 13.5t-7.5 30.5l93 419q2 12 12 20t23 8q16 0 26.5 -11t10.5 -26q0 -6 -1 -8l-9 -33q75 81 140 81q37 0 37 -34zM-20 -262q-8 0 -13.5 5.5t-5.5 12.5
q0 10 8 15q46 29 60 68h-7q-15 0 -26 11t-11 28q0 21 15.5 36t36.5 15q19 0 32 -13.5t13 -36.5q0 -35 -25 -72.5t-63 -64.5q-7 -4 -14 -4z" />
    <glyph glyph-name="Rcaron" unicode="&#x158;" horiz-adv-x="608" 
d="M397 269l107 -215q5 -12 5 -18q0 -16 -13.5 -28t-30.5 -12q-25 0 -39 27l-114 242h-148l-52 -237q-2 -14 -13 -23t-26 -9q-16 0 -28 12t-12 28q0 7 1 9l128 583q9 39 49 39h205q77 0 133 -48.5t56 -125.5q0 -90 -58 -152.5t-150 -71.5zM517 486q0 46 -35 76
q-34 31 -78 31h-166l-57 -255h176q73 0 116.5 41.5t43.5 106.5zM363 860l56 -99l101 104q6 6 15 6t14.5 -6t5.5 -14q0 -5 -5 -13l-84 -95q-19 -21 -43 -21h-22q-26 0 -35 22l-44 95q-2 8 -2 9q0 9 7.5 16t16.5 7q11 0 19 -11z" />
    <glyph glyph-name="rcaron" unicode="&#x159;" horiz-adv-x="330" 
d="M362 456q0 -16 -11.5 -26.5t-26.5 -9.5h-13q-38 0 -76 -22.5t-64 -56.5l-69 -317q-3 -12 -13 -20t-23 -8q-17 0 -28.5 13.5t-7.5 30.5l93 419q2 12 12 20t23 8q16 0 26.5 -11t10.5 -26q0 -6 -1 -8l-9 -33q75 81 140 81q37 0 37 -34zM217 713l56 -99l101 104q6 6 15 6
t14.5 -6t5.5 -14q0 -5 -5 -13l-84 -95q-19 -21 -43 -21h-22q-26 0 -35 22l-44 95q-2 8 -2 9q0 9 7.5 16t16.5 7q11 0 19 -11z" />
    <glyph glyph-name="Sacute" unicode="&#x15a;" horiz-adv-x="586" 
d="M27 110q0 17 12.5 29t29.5 12q14 0 28 -11q78 -78 196 -78q70 0 108.5 37.5t38.5 86.5q0 38 -32 62.5t-109 54.5q-66 28 -100 45q-90 50 -90 135q-2 77 68 136.5t168 57.5q131 0 214 -77q14 -11 14 -31q0 -17 -11.5 -29t-28.5 -12q-16 0 -27 10q-66 66 -170 66
q-56 0 -97 -33.5t-41 -76.5q0 -24 18 -44q28 -29 119 -65q69 -29 100 -46q94 -51 94 -140q2 -84 -66.5 -148t-176.5 -63q-73 0 -138 24.5t-107 66.5q-14 14 -14 31zM396 719q-8 0 -13.5 6t-5.5 13q0 11 8 17l135 109q8 6 18 6t16.5 -7.5t6.5 -17.5q0 -14 -10 -21l-141 -101
q-4 -4 -14 -4z" />
    <glyph glyph-name="sacute" unicode="&#x15b;" horiz-adv-x="465" 
d="M13 77q0 14 10 24t24 10q13 0 23 -7q55 -55 141 -55q49 0 80 24.5t31 60.5q0 25 -23.5 42t-83.5 41q-52 21 -77 33q-70 36 -70 98t49.5 104.5t133.5 42.5q100 0 164 -58q12 -11 12 -25q0 -13 -9.5 -23t-23.5 -10q-12 0 -20 8q-49 47 -127 47q-47 0 -75.5 -20.5
t-28.5 -53.5q0 -23 22.5 -39t80.5 -39q48 -18 78 -33q73 -37 73 -103t-52 -112t-138 -46q-112 0 -181 63q-13 8 -13 26zM305 572q-8 0 -13.5 6t-5.5 13q0 11 8 17l135 109q7 6 18 6q10 0 16.5 -7.5t6.5 -17.5q0 -14 -10 -21l-141 -101q-4 -4 -14 -4z" />
    <glyph glyph-name="Scircumflex" unicode="&#x15c;" horiz-adv-x="586" 
d="M27 110q0 17 12.5 29t29.5 12q14 0 28 -11q78 -78 196 -78q70 0 108.5 37.5t38.5 86.5q0 38 -32 62.5t-109 54.5q-66 28 -100 45q-90 50 -90 135q-2 77 68 136.5t168 57.5q131 0 214 -77q14 -11 14 -31q0 -17 -11.5 -29t-28.5 -12q-16 0 -27 10q-66 66 -170 66
q-56 0 -97 -33.5t-41 -76.5q0 -24 18 -44q28 -29 119 -65q69 -29 100 -46q94 -51 94 -140q2 -84 -66.5 -148t-176.5 -63q-73 0 -138 24.5t-107 66.5q-14 14 -14 31zM473 730l-56 99l-101 -104q-6 -6 -15 -6t-14.5 6t-5.5 14q0 5 5 13l84 95q19 21 43 21h22q26 0 35 -22
l44 -95q2 -8 2 -9q0 -9 -7.5 -16t-16.5 -7q-11 0 -19 11z" />
    <glyph glyph-name="scircumflex" unicode="&#x15d;" horiz-adv-x="465" 
d="M13 77q0 14 10 24t24 10q13 0 23 -7q55 -55 141 -55q49 0 80 24.5t31 60.5q0 25 -23.5 42t-83.5 41q-52 21 -77 33q-70 36 -70 98t49.5 104.5t133.5 42.5q100 0 164 -58q12 -11 12 -25q0 -13 -9.5 -23t-23.5 -10q-12 0 -20 8q-49 47 -127 47q-47 0 -75.5 -20.5
t-28.5 -53.5q0 -23 22.5 -39t80.5 -39q48 -18 78 -33q73 -37 73 -103t-52 -112t-138 -46q-112 0 -181 63q-13 8 -13 26zM382 583l-56 99l-101 -104q-6 -6 -15 -6t-14.5 6t-5.5 14q0 5 5 13l84 95q19 21 43 21h22q26 0 35 -22l44 -95q2 -8 2 -9q0 -9 -7.5 -16t-16.5 -7
q-11 0 -19 11z" />
    <glyph glyph-name="uni015E" unicode="&#x15e;" horiz-adv-x="586" 
d="M573 569q0 -17 -11.5 -29t-28.5 -12q-16 0 -27 10q-66 66 -170 66q-56 0 -97 -33.5t-41 -76.5q0 -24 18 -44q28 -29 119 -65q69 -29 100 -46q94 -51 94 -140q2 -84 -66.5 -148t-176.5 -63q-27 0 -34 1l-27 -44q16 11 33 11q26 0 42 -16t16 -43q0 -39 -30 -63.5t-78 -24.5
q-53 0 -93 26q-10 7 -10 19q0 9 6.5 15.5t15.5 6.5q8 0 13 -5q32 -23 70 -23q29 0 45.5 13t16.5 34q0 30 -37 30q-14 0 -28 -11q-7 -4 -14 -4q-8 0 -13.5 5t-5.5 12q0 9 4 13l33 55q-104 20 -170 84q-14 14 -14 31t12.5 29t29.5 12q14 0 28 -11q78 -78 196 -78
q70 0 108.5 37.5t38.5 86.5q0 38 -32 62.5t-109 54.5q-66 28 -100 45q-90 50 -90 135q-2 77 68 136.5t168 57.5q131 0 214 -77q14 -11 14 -31z" />
    <glyph glyph-name="uni015F" unicode="&#x15f;" horiz-adv-x="465" 
d="M143 360q0 -23 22.5 -39t80.5 -39q48 -18 78 -33q73 -37 73 -103t-52 -112t-138 -46h-17l-26 -43q16 11 33 11q27 0 43 -16t16 -43q0 -39 -30.5 -63.5t-77.5 -24.5q-53 0 -94 26q-9 7 -9 19q0 9 6.5 15.5t14.5 6.5t13 -5q32 -23 71 -23q29 0 45 13t16 34q0 30 -37 30
q-14 0 -28 -11q-4 -4 -14 -4q-18 0 -18 17q0 10 3 13l31 53q-72 12 -122 58q-13 8 -13 26q0 14 10 24t24 10q13 0 23 -7q55 -55 141 -55q49 0 80 24.5t31 60.5q0 25 -23.5 42t-83.5 41q-52 21 -77 33q-70 36 -70 98t49.5 104.5t133.5 42.5q100 0 164 -58q12 -11 12 -25
q0 -13 -9.5 -23t-23.5 -10q-12 0 -20 8q-49 47 -127 47q-47 0 -75.5 -20.5t-28.5 -53.5z" />
    <glyph glyph-name="Scaron" unicode="&#x160;" horiz-adv-x="586" 
d="M27 110q0 17 12.5 29t29.5 12q14 0 28 -11q78 -78 196 -78q70 0 108.5 37.5t38.5 86.5q0 38 -32 62.5t-109 54.5q-66 28 -100 45q-90 50 -90 135q-2 77 68 136.5t168 57.5q131 0 214 -77q14 -11 14 -31q0 -17 -11.5 -29t-28.5 -12q-16 0 -27 10q-66 66 -170 66
q-56 0 -97 -33.5t-41 -76.5q0 -24 18 -44q28 -29 119 -65q69 -29 100 -46q94 -51 94 -140q2 -84 -66.5 -148t-176.5 -63q-73 0 -138 24.5t-107 66.5q-14 14 -14 31zM343 860l56 -99l101 104q6 6 15 6t14.5 -6t5.5 -14q0 -5 -5 -13l-84 -95q-19 -21 -43 -21h-22q-26 0 -35 22
l-44 95q-2 8 -2 9q0 9 7.5 16t16.5 7q11 0 19 -11z" />
    <glyph glyph-name="scaron" unicode="&#x161;" horiz-adv-x="465" 
d="M13 77q0 14 10 24t24 10q13 0 23 -7q55 -55 141 -55q49 0 80 24.5t31 60.5q0 25 -23.5 42t-83.5 41q-52 21 -77 33q-70 36 -70 98t49.5 104.5t133.5 42.5q100 0 164 -58q12 -11 12 -25q0 -13 -9.5 -23t-23.5 -10q-12 0 -20 8q-49 47 -127 47q-47 0 -75.5 -20.5
t-28.5 -53.5q0 -23 22.5 -39t80.5 -39q48 -18 78 -33q73 -37 73 -103t-52 -112t-138 -46q-112 0 -181 63q-13 8 -13 26zM252 713l56 -99l101 104q6 6 15 6t14.5 -6t5.5 -14q0 -5 -5 -13l-84 -95q-19 -21 -43 -21h-22q-26 0 -35 22l-44 95q-2 8 -2 9q0 9 7.5 16t16.5 7
q11 0 19 -11z" />
    <glyph glyph-name="uni0162" unicode="&#x162;" horiz-adv-x="570" 
d="M198 37q0 6 1 8l121 548h-170q-15 0 -25.5 11t-10.5 26t10.5 26t25.5 11h439q15 0 26 -11t11 -26t-11 -26t-26 -11h-186l-125 -565q-7 -32 -39 -32q-17 0 -29 12t-12 29zM152 -262q-8 0 -13.5 5.5t-5.5 12.5q0 10 8 15q46 29 60 68h-7q-15 0 -26 11t-11 28q0 21 15.5 36
t36.5 15q19 0 32 -13.5t13 -36.5q0 -35 -25 -72.5t-63 -64.5q-7 -4 -14 -4z" />
    <glyph glyph-name="uni0163" unicode="&#x163;" horiz-adv-x="294" 
d="M312 450q0 -13 -9 -22.5t-23 -9.5h-76l-66 -299q-3 -12 -3 -23q0 -41 49 -41q9 0 21 5q13 1 23 -7t12 -21q2 -24 -19 -32q-27 -12 -54 -12q-112 0 -112 84q0 17 4 32l70 314h-44q-13 0 -22.5 9.5t-9.5 23.5q0 13 9.5 22.5t22.5 9.5h58l24 108q3 12 13 20t23 8
q17 0 28.5 -13.5t7.5 -30.5l-20 -92h61q14 0 23 -9.5t9 -23.5zM23 -262q-8 0 -13.5 5.5t-5.5 12.5q0 10 8 15q46 29 60 68h-7q-15 0 -26 11t-11 28q0 21 15.5 36t36.5 15q19 0 32 -13.5t13 -36.5q0 -35 -25 -72.5t-63 -64.5q-7 -4 -14 -4z" />
    <glyph glyph-name="Tcaron" unicode="&#x164;" horiz-adv-x="570" 
d="M198 37q0 6 1 8l121 548h-170q-15 0 -25.5 11t-10.5 26t10.5 26t25.5 11h439q15 0 26 -11t11 -26t-11 -26t-26 -11h-186l-125 -565q-7 -32 -39 -32q-17 0 -29 12t-12 29zM342 860l56 -99l101 104q6 6 15 6t14.5 -6t5.5 -14q0 -5 -5 -13l-84 -95q-19 -21 -43 -21h-22
q-26 0 -35 22l-44 95q-2 8 -2 9q0 9 7.5 16t16.5 7q11 0 19 -11z" />
    <glyph glyph-name="tcaron" unicode="&#x165;" horiz-adv-x="313" 
d="M312 450q0 -13 -9 -22.5t-23 -9.5h-76l-66 -299q-3 -12 -3 -23q0 -41 49 -41q9 0 21 5q13 1 23 -7t12 -21q2 -24 -19 -32q-27 -12 -54 -12q-112 0 -112 84q0 17 4 32l70 314h-44q-13 0 -22.5 9.5t-9.5 23.5q0 13 9.5 22.5t22.5 9.5h58l24 108q3 12 13 20t23 8
q17 0 28.5 -13.5t7.5 -30.5l-20 -92h61q14 0 23 -9.5t9 -23.5zM318 552q-8 0 -13.5 5.5t-5.5 12.5q0 10 8 15q46 29 60 68h-7q-15 0 -26 11t-11 28q0 21 15.5 36t36.5 15q19 0 32 -13.5t13 -36.5q0 -35 -25 -72.5t-63 -64.5q-7 -4 -14 -4z" />
    <glyph glyph-name="Tbar" unicode="&#x166;" horiz-adv-x="570" 
d="M626 630q0 -15 -11 -26t-26 -11h-186l-56 -251h125q10 0 17 -7t7 -17t-7 -17t-17 -7h-135l-59 -266q-7 -32 -39 -32q-17 0 -29 12t-12 29q0 6 1 8l55 249h-125q-10 0 -16.5 7t-6.5 17t6.5 17t16.5 7h136l55 251h-170q-15 0 -25.5 11t-10.5 26t10.5 26t25.5 11h439
q15 0 26 -11t11 -26z" />
    <glyph glyph-name="tbar" unicode="&#x167;" horiz-adv-x="294" 
d="M312 450q0 -13 -9 -22.5t-23 -9.5h-76l-31 -143h43q10 0 17 -7t7 -17t-7 -17t-17 -7h-54l-24 -108q-3 -12 -3 -23q0 -41 49 -41q9 0 21 5q13 1 23 -7t12 -21q2 -24 -19 -32q-27 -12 -54 -12q-112 0 -112 84q0 17 4 32l27 123h-54q-10 0 -17 7t-7 17t7 17t17 7h65l32 143
h-44q-13 0 -22.5 9.5t-9.5 23.5q0 13 9.5 22.5t22.5 9.5h58l24 108q3 12 13 20t23 8q17 0 28.5 -13.5t7.5 -30.5l-20 -92h61q14 0 23 -9.5t9 -23.5z" />
    <glyph glyph-name="Utilde" unicode="&#x168;" horiz-adv-x="700" 
d="M81 259l84 380q7 32 40 32q16 0 28 -12t12 -28q0 -7 -1 -9l-79 -361q-5 -22 -5 -42q0 -71 47 -114t129 -43q86 0 135.5 49.5t70.5 149.5l84 378q7 32 40 32q16 0 28 -12t12 -28q0 -7 -1 -9l-79 -362q-31 -137 -99.5 -204.5t-190.5 -67.5t-191 59.5t-69 162.5q0 16 5 49z
M406 813q-40 0 -58 -74q-5 -16 -21 -16q-11 0 -17.5 8.5t-4.5 19.5q30 110 106 110q25 0 40 -12t32 -39q13 -23 23 -32t26 -9q40 0 58 74q5 16 21 16q11 0 18 -9t4 -20q-30 -109 -106 -109q-25 0 -40 12t-32 39q-13 23 -23 32t-26 9z" />
    <glyph glyph-name="utilde" unicode="&#x169;" 
d="M521 451q0 -6 -1 -8l-92 -419q-3 -12 -13 -20t-23 -8q-15 0 -25.5 11t-10.5 26q0 6 1 8l6 29q-88 -82 -170 -82q-67 0 -105.5 31.5t-38.5 87.5q0 16 5 41l69 311q2 12 12 20t23 8q16 0 26.5 -10.5t10.5 -25.5q0 -6 -1 -8l-61 -277q-4 -15 -4 -35q0 -76 93 -76
q81 0 155 76l72 328q2 12 12 20t23 8q16 0 26.5 -10.5t10.5 -25.5zM301 666q-39 0 -58 -74q-5 -16 -21 -16q-11 0 -17.5 8.5t-4.5 19.5q30 110 106 110q25 0 40 -12t32 -39q13 -23 23 -32t26 -9q39 0 58 74q5 16 21 16q11 0 18 -9t4 -20q-30 -109 -106 -109q-25 0 -40 12
t-32 39q-13 23 -23 32t-26 9z" />
    <glyph glyph-name="Umacron" unicode="&#x16a;" horiz-adv-x="700" 
d="M81 259l84 380q7 32 40 32q16 0 28 -12t12 -28q0 -7 -1 -9l-79 -361q-5 -22 -5 -42q0 -71 47 -114t129 -43q86 0 135.5 49.5t70.5 149.5l84 378q7 32 40 32q16 0 28 -12t12 -28q0 -7 -1 -9l-79 -362q-31 -137 -99.5 -204.5t-190.5 -67.5t-191 59.5t-69 162.5q0 16 5 49z
M309 763q0 10 7 17t17 7h267q10 0 17 -7t7 -17t-7 -17t-17 -7h-267q-10 0 -17 7t-7 17z" />
    <glyph glyph-name="umacron" unicode="&#x16b;" 
d="M521 451q0 -6 -1 -8l-92 -419q-3 -12 -13 -20t-23 -8q-15 0 -25.5 11t-10.5 26q0 6 1 8l6 29q-88 -82 -170 -82q-67 0 -105.5 31.5t-38.5 87.5q0 16 5 41l69 311q2 12 12 20t23 8q16 0 26.5 -10.5t10.5 -25.5q0 -6 -1 -8l-61 -277q-4 -15 -4 -35q0 -76 93 -76
q81 0 155 76l72 328q2 12 12 20t23 8q16 0 26.5 -10.5t10.5 -25.5zM204 616q0 10 7 17t17 7h267q10 0 17 -7t7 -17t-7 -17t-17 -7h-267q-10 0 -17 7t-7 17z" />
    <glyph glyph-name="Ubreve" unicode="&#x16c;" horiz-adv-x="700" 
d="M81 259l84 380q7 32 40 32q16 0 28 -12t12 -28q0 -7 -1 -9l-79 -361q-5 -22 -5 -42q0 -71 47 -114t129 -43q86 0 135.5 49.5t70.5 149.5l84 378q7 32 40 32q16 0 28 -12t12 -28q0 -7 -1 -9l-79 -362q-31 -137 -99.5 -204.5t-190.5 -67.5t-191 59.5t-69 162.5q0 16 5 49z
M312 786q-6 8 -6 16q0 11 8 19t19 8q12 0 20 -11q41 -53 112 -53q79 0 142 60q5 5 15 5q9 0 15.5 -6t6.5 -16t-7 -16q-83 -75 -180 -75q-93 0 -145 69z" />
    <glyph glyph-name="ubreve" unicode="&#x16d;" 
d="M521 451q0 -6 -1 -8l-92 -419q-3 -12 -13 -20t-23 -8q-15 0 -25.5 11t-10.5 26q0 6 1 8l6 29q-88 -82 -170 -82q-67 0 -105.5 31.5t-38.5 87.5q0 16 5 41l69 311q2 12 12 20t23 8q16 0 26.5 -10.5t10.5 -25.5q0 -6 -1 -8l-61 -277q-4 -15 -4 -35q0 -76 93 -76
q81 0 155 76l72 328q2 12 12 20t23 8q16 0 26.5 -10.5t10.5 -25.5zM207 639q-6 7 -6 16q0 11 8 19t19 8q12 0 20 -11q41 -53 112 -53q79 0 142 60q5 5 15 5q9 0 15.5 -6t6.5 -16t-7 -16q-83 -75 -180 -75q-93 0 -145 69z" />
    <glyph glyph-name="Uring" unicode="&#x16e;" horiz-adv-x="700" 
d="M81 259l84 380q7 32 40 32q16 0 28 -12t12 -28q0 -7 -1 -9l-79 -361q-5 -22 -5 -42q0 -71 47 -114t129 -43q86 0 135.5 49.5t70.5 149.5l84 378q7 32 40 32q16 0 28 -12t12 -28q0 -7 -1 -9l-79 -362q-31 -137 -99.5 -204.5t-190.5 -67.5t-191 59.5t-69 162.5q0 16 5 49z
M485 907q39 0 64 -25t25 -64q0 -44 -32 -76t-76 -32q-39 0 -64 25t-25 64q0 44 32 76t76 32zM482 867q-26 0 -45.5 -19t-19.5 -45q0 -23 14.5 -38t37.5 -15q26 0 45.5 19t19.5 45q0 24 -14 38.5t-38 14.5z" />
    <glyph glyph-name="uring" unicode="&#x16f;" 
d="M521 451q0 -6 -1 -8l-92 -419q-3 -12 -13 -20t-23 -8q-15 0 -25.5 11t-10.5 26q0 6 1 8l6 29q-88 -82 -170 -82q-67 0 -105.5 31.5t-38.5 87.5q0 16 5 41l69 311q2 12 12 20t23 8q16 0 26.5 -10.5t10.5 -25.5q0 -6 -1 -8l-61 -277q-4 -15 -4 -35q0 -76 93 -76
q81 0 155 76l72 328q2 12 12 20t23 8q16 0 26.5 -10.5t10.5 -25.5zM380 760q39 0 64 -25t25 -64q0 -44 -32 -76t-76 -32q-39 0 -64 25t-25 64q0 44 32 76t76 32zM377 720q-26 0 -45.5 -19t-19.5 -45q0 -23 14.5 -38t37.5 -15q26 0 45.5 19t19.5 45q0 24 -14 38.5t-38 14.5z
" />
    <glyph glyph-name="Uhungarumlaut" unicode="&#x170;" horiz-adv-x="700" 
d="M81 259l84 380q7 32 40 32q16 0 28 -12t12 -28q0 -7 -1 -9l-79 -361q-5 -22 -5 -42q0 -71 47 -114t129 -43q86 0 135.5 49.5t70.5 149.5l84 378q7 32 40 32q16 0 28 -12t12 -28q0 -7 -1 -9l-79 -362q-31 -137 -99.5 -204.5t-190.5 -67.5t-191 59.5t-69 162.5q0 16 5 49z
M376 738q0 8 4 12l99 113q7 9 20 9q10 0 17 -7.5t7 -17.5t-7 -18l-108 -105q-5 -5 -13 -5q-19 0 -19 19zM518 738q0 8 4 12l99 113q7 9 20 9q10 0 17 -7.5t7 -17.5t-7 -18l-108 -105q-5 -5 -13 -5q-19 0 -19 19z" />
    <glyph glyph-name="uhungarumlaut" unicode="&#x171;" 
d="M521 451q0 -6 -1 -8l-92 -419q-3 -12 -13 -20t-23 -8q-15 0 -25.5 11t-10.5 26q0 6 1 8l6 29q-88 -82 -170 -82q-67 0 -105.5 31.5t-38.5 87.5q0 16 5 41l69 311q2 12 12 20t23 8q16 0 26.5 -10.5t10.5 -25.5q0 -6 -1 -8l-61 -277q-4 -15 -4 -35q0 -76 93 -76
q81 0 155 76l72 328q2 12 12 20t23 8q16 0 26.5 -10.5t10.5 -25.5zM271 591q0 8 4 12l99 113q8 9 20 9q10 0 17 -7.5t7 -17.5t-7 -18l-108 -105q-5 -5 -13 -5q-19 0 -19 19zM413 591q0 8 4 12l99 113q8 9 20 9q10 0 17 -7.5t7 -17.5t-7 -18l-108 -105q-5 -5 -13 -5
q-19 0 -19 19z" />
    <glyph glyph-name="Uogonek" unicode="&#x172;" horiz-adv-x="700" 
d="M347 -133q7 0 16 3q11 2 19.5 -5.5t8.5 -18.5q0 -18 -17 -23q-26 -9 -55 -9q-37 0 -60 16t-23 43q0 32 29 62.5t76 52.5h-17q-116 3 -182 62.5t-66 159.5q0 16 5 49l84 380q7 32 40 32q16 0 28 -12t12 -28q0 -7 -1 -9l-79 -361q-5 -22 -5 -42q0 -71 47 -114t129 -43
q86 0 135.5 49.5t70.5 149.5l84 378q7 32 40 32q16 0 28 -12t12 -28q0 -7 -1 -9l-79 -362q-48 -211 -185 -256q-57 -19 -91 -46.5t-37 -57.5q-2 -14 7 -23.5t27 -9.5z" />
    <glyph glyph-name="uogonek" unicode="&#x173;" 
d="M521 451q0 -6 -1 -8l-92 -419q-5 -22 -28 -27q-92 -56 -92 -100q0 -30 35 -30q7 0 16 3q11 2 20 -5.5t9 -18.5q0 -18 -18 -23q-24 -9 -55 -9q-37 0 -60 16.5t-23 42.5q0 39 38.5 73.5t98.5 55.5l2 1q-19 14 -14 38l6 29q-88 -82 -170 -82q-67 0 -105.5 31.5t-38.5 87.5
q0 16 5 41l69 311q2 12 12 20t23 8q16 0 26.5 -10.5t10.5 -25.5q0 -6 -1 -8l-61 -277q-4 -15 -4 -35q0 -76 93 -76q81 0 155 76l72 328q2 12 12 20t23 8q16 0 26.5 -10.5t10.5 -25.5z" />
    <glyph glyph-name="Wcircumflex" unicode="&#x174;" horiz-adv-x="883" 
d="M532 49l-26 489l-252 -511q-15 -31 -51 -31q-22 0 -38 15t-18 38l-38 575q-1 20 12.5 33.5t32.5 13.5q18 0 31 -13t14 -30l22 -517l267 536q8 24 38 24q17 0 29 -11.5t13 -28.5l28 -520l261 536q11 24 38 24q18 0 30 -11.5t12 -28.5q0 -11 -5 -21l-294 -583
q-17 -31 -51 -31q-22 0 -38 15.5t-17 37.5zM627 730l-56 99l-101 -104q-6 -6 -15 -6t-14.5 6t-5.5 14q0 5 5 13l84 95q19 21 43 21h22q26 0 35 -22l44 -95q2 -8 2 -9q0 -9 -7.5 -16t-16.5 -7q-11 0 -19 11z" />
    <glyph glyph-name="wcircumflex" unicode="&#x175;" horiz-adv-x="734" 
d="M435 40l-36 348l-200 -367q-13 -25 -43 -25q-18 0 -32 13t-16 31l-39 406q-2 16 9 28.5t27 12.5q15 0 25.5 -10t11.5 -24l30 -355l203 368q11 21 37 21q16 0 27.5 -11t13.5 -27l38 -351l195 370q9 19 31 19q16 0 26 -10.5t10 -25.5q0 -10 -4 -17l-223 -413
q-13 -25 -43 -25q-18 0 -32 13t-16 31zM518 583l-56 99l-101 -104q-6 -6 -15 -6t-14.5 6t-5.5 14q0 5 5 13l84 95q19 21 43 21h22q26 0 35 -22l44 -95q2 -8 2 -9q0 -9 -7.5 -16t-16.5 -7q-11 0 -19 11z" />
    <glyph glyph-name="Ycircumflex" unicode="&#x176;" horiz-adv-x="626" 
d="M657 607l-295 -327l-55 -252q-7 -32 -40 -32q-16 0 -28 12t-12 28q0 7 1 9l52 237l-154 331q-3 9 -3 17q0 17 12 29t29 12q26 0 38 -25l130 -289l267 301q10 13 29 13q16 0 27 -11t11 -27q0 -13 -9 -26zM500 730l-56 99l-101 -104q-6 -6 -15 -6t-14.5 6t-5.5 14q0 5 5 13
l84 95q19 21 43 21h22q26 0 35 -22l44 -95q2 -8 2 -9q0 -9 -7.5 -16t-16.5 -7q-11 0 -19 11z" />
    <glyph glyph-name="ycircumflex" unicode="&#x177;" horiz-adv-x="490" 
d="M-3 -124q4 0 14 -1t16 -1q40 0 72 48l49 75l-84 445q-4 17 8 31t30 14q14 0 24.5 -9t12.5 -23l68 -368l241 384q10 16 30 16q15 0 25 -10.5t10 -25.5q0 -10 -5 -18l-340 -531q-33 -51 -68.5 -74.5t-82.5 -23.5q-2 0 -24 2q-13 2 -22 12t-9 23q0 15 10.5 25t24.5 10z
M401 583l-56 99l-101 -104q-6 -6 -15 -6t-14.5 6t-5.5 14q0 5 5 13l84 95q19 21 43 21h22q26 0 35 -22l44 -95q2 -8 2 -9q0 -9 -7.5 -16t-16.5 -7q-11 0 -19 11z" />
    <glyph glyph-name="Ydieresis" unicode="&#x178;" horiz-adv-x="626" 
d="M657 607l-295 -327l-55 -252q-7 -32 -40 -32q-16 0 -28 12t-12 28q0 7 1 9l52 237l-154 331q-3 9 -3 17q0 17 12 29t29 12q26 0 38 -25l130 -289l267 301q10 13 29 13q16 0 27 -11t11 -27q0 -13 -9 -26zM285 775q0 20 16 35.5t36 15.5q17 0 29 -12t12 -29
q0 -20 -15.5 -36t-36.5 -16q-17 0 -29 12.5t-12 29.5zM491 775q0 20 16 35.5t36 15.5q18 0 29.5 -12t11.5 -29q0 -20 -15.5 -36t-36.5 -16q-17 0 -29 12.5t-12 29.5z" />
    <glyph glyph-name="Zacute" unicode="&#x179;" horiz-adv-x="585" 
d="M-1 42q0 17 12 29l483 522h-327q-15 0 -26.5 11t-11.5 26t11.5 26t26.5 11h407q18 0 30.5 -12.5t12.5 -30.5q0 -15 -11 -29l-485 -521h336q15 0 26 -11t11 -26t-11 -26t-26 -11h-415q-17 0 -30 12.5t-13 29.5zM403 719q-8 0 -13.5 6t-5.5 13q0 11 8 17l135 109q7 6 18 6
q10 0 16.5 -7.5t6.5 -17.5q0 -14 -10 -21l-141 -101q-4 -4 -14 -4z" />
    <glyph glyph-name="zacute" unicode="&#x17a;" horiz-adv-x="472" 
d="M1 36q0 13 10 24l341 357h-225q-13 0 -23 10t-10 23q0 14 10 23.5t23 9.5h304q14 0 24 -10t10 -24q0 -13 -10 -24l-343 -360h231q14 0 23.5 -9.5t9.5 -23.5q0 -13 -9.5 -22.5t-23.5 -9.5h-306q-15 0 -25.5 10.5t-10.5 25.5zM315 572q-8 0 -13.5 6t-5.5 13q0 11 8 17
l135 109q7 6 18 6q10 0 16.5 -7.5t6.5 -17.5q0 -14 -10 -21l-141 -101q-4 -4 -14 -4z" />
    <glyph glyph-name="Zdotaccent" unicode="&#x17b;" horiz-adv-x="585" 
d="M-1 42q0 17 12 29l483 522h-327q-15 0 -26.5 11t-11.5 26t11.5 26t26.5 11h407q18 0 30.5 -12.5t12.5 -30.5q0 -15 -11 -29l-485 -521h336q15 0 26 -11t11 -26t-11 -26t-26 -11h-415q-17 0 -30 12.5t-13 29.5zM363 773q0 21 15.5 36.5t36.5 15.5q18 0 30 -12t12 -30
q0 -21 -16 -36.5t-37 -15.5q-18 0 -29.5 12t-11.5 30z" />
    <glyph glyph-name="zdotaccent" unicode="&#x17c;" horiz-adv-x="472" 
d="M1 36q0 13 10 24l341 357h-225q-13 0 -23 10t-10 23q0 14 10 23.5t23 9.5h304q14 0 24 -10t10 -24q0 -13 -10 -24l-343 -360h231q14 0 23.5 -9.5t9.5 -23.5q0 -13 -9.5 -22.5t-23.5 -9.5h-306q-15 0 -25.5 10.5t-10.5 25.5zM276 626q0 21 15.5 36.5t36.5 15.5
q18 0 30 -12t12 -30q0 -21 -16 -36.5t-37 -15.5q-18 0 -29.5 12t-11.5 30z" />
    <glyph glyph-name="Zcaron" unicode="&#x17d;" horiz-adv-x="585" 
d="M-1 42q0 17 12 29l483 522h-327q-15 0 -26.5 11t-11.5 26t11.5 26t26.5 11h407q18 0 30.5 -12.5t12.5 -30.5q0 -15 -11 -29l-485 -521h336q15 0 26 -11t11 -26t-11 -26t-26 -11h-415q-17 0 -30 12.5t-13 29.5zM350 860l56 -99l101 104q6 6 15 6t14.5 -6t5.5 -14
q0 -5 -5 -13l-84 -95q-19 -21 -43 -21h-22q-26 0 -35 22l-44 95q-2 8 -2 9q0 9 7.5 16t16.5 7q11 0 19 -11z" />
    <glyph glyph-name="zcaron" unicode="&#x17e;" horiz-adv-x="472" 
d="M1 36q0 13 10 24l341 357h-225q-13 0 -23 10t-10 23q0 14 10 23.5t23 9.5h304q14 0 24 -10t10 -24q0 -13 -10 -24l-343 -360h231q14 0 23.5 -9.5t9.5 -23.5q0 -13 -9.5 -22.5t-23.5 -9.5h-306q-15 0 -25.5 10.5t-10.5 25.5zM262 713l56 -99l101 104q6 6 15 6t14.5 -6
t5.5 -14q0 -5 -5 -13l-84 -95q-19 -21 -43 -21h-22q-26 0 -35 22l-44 95q-2 8 -2 9q0 9 7.5 16t16.5 7q11 0 19 -11z" />
    <glyph glyph-name="longs" unicode="&#x17f;" horiz-adv-x="283" 
d="M395 639q0 -13 -9.5 -22t-21.5 -9q-7 0 -9 1q-16 6 -34 6q-70 0 -89 -95l-110 -496q-2 -12 -12 -20t-23 -8q-16 0 -26.5 10.5t-10.5 25.5q0 6 1 8l83 377h-43q-13 0 -23 10t-10 23q0 14 10 23.5t23 9.5h58l8 37q36 157 158 157q36 0 59 -10q21 -5 21 -28z" />
    <glyph glyph-name="uni018F" unicode="&#x18f;" horiz-adv-x="747" 
d="M725 386q2 -84 -29.5 -160t-84 -128t-121.5 -81.5t-140 -28.5q-132 0 -214.5 80t-82.5 210q0 5 2 37q1 42 47 42h534q1 5 1 25q0 99 -61.5 160.5t-163.5 61.5q-84 0 -160 -59q-9 -9 -24 -9q-16 0 -27.5 11t-11.5 27t15 30q93 74 213 74q134 0 221 -80.5t87 -211.5z
M624 283h-487q-3 -92 58 -156.5t160 -64.5q90 0 165.5 61t103.5 160z" />
    <glyph glyph-name="uni0192" unicode="&#x192;" horiz-adv-x="431" 
d="M460 625q0 -14 -10.5 -24.5t-25.5 -10.5q-8 0 -14 3q-13 10 -38 10q-72 0 -92 -92l-42 -189h110q14 0 24 -10.5t10 -24.5q0 -13 -10 -23t-24 -10h-125l-86 -387q-7 -32 -40 -32q-17 0 -29 12t-12 29q0 7 1 9l82 369h-38q-14 0 -24 10t-10 24t10.5 24t23.5 10h52l46 204
q15 73 55.5 112t102.5 39q50 0 84 -22q19 -12 19 -30z" />
    <glyph glyph-name="uni019D" unicode="&#x19d;" horiz-adv-x="708" 
d="M674 671q16 0 28 -12t12 -28q0 -7 -1 -9l-128 -584q-4 -18 -19 -30t-34 -12q-34 0 -49 31l-254 529l-119 -539q-46 -213 -229 -213q-23 0 -40 4q-14 2 -23.5 12t-9.5 24q0 17 12.5 28.5t29.5 9.5q15 -4 27 -4q59 0 97 36.5t53 103.5l135 609q4 19 19.5 31.5t36.5 12.5
q36 0 51 -33l250 -517l115 518q7 32 40 32z" />
    <glyph glyph-name="Ohorn" unicode="&#x1a0;" horiz-adv-x="765" 
d="M702 543q41 -68 41 -156q3 -164 -109.5 -283t-265.5 -116q-133 0 -220.5 79.5t-87.5 212.5q-3 163 109 282t266 116q76 0 140.5 -27.5t106.5 -78.5q22 12 40.5 32t24.5 39h-7q-14 0 -24 10.5t-10 25.5q0 19 14.5 33.5t33.5 14.5q18 0 30 -13.5t12 -34.5q0 -38 -27 -76.5
t-67 -59.5zM655 382q0 102 -64 162t-161 60q-114 3 -199 -92t-83 -228q0 -102 63.5 -162t161.5 -60q113 -3 198.5 92t83.5 228z" />
    <glyph glyph-name="ohorn" unicode="&#x1a1;" horiz-adv-x="572" 
d="M489 415q41 -56 41 -135q2 -115 -78 -204.5t-191 -87.5q-102 0 -161.5 58.5t-59.5 155.5q-2 115 78 205.5t191 87.5q96 0 156 -54q47 27 60 69q-1 -1 -6 -1q-14 0 -24 10t-10 26q0 20 14 34t33 14t31 -13t12 -34q0 -36 -24.5 -72.5t-61.5 -58.5zM451 278q0 70 -38 110
t-106 40q-79 0 -133.5 -67.5t-54.5 -155.5q0 -70 38 -110t106 -40q79 0 133.5 67.5t54.5 155.5z" />
    <glyph glyph-name="Uhorn" unicode="&#x1af;" horiz-adv-x="700" 
d="M696 582l-70 -322q-31 -137 -99.5 -204.5t-190.5 -67.5t-191 59.5t-69 162.5q0 21 5 49l84 380q7 32 40 32q16 0 28 -12t12 -28q0 -7 -1 -9l-79 -361q-5 -22 -5 -42q0 -71 47 -114t129 -43q86 0 135.5 49.5t70.5 149.5l84 378q7 32 40 32q16 0 28 -12t12 -27q0 -7 -1 -9
q74 35 88 85q-1 -1 -6 -1q-14 0 -24 10t-10 26q0 20 14 34t33 14t31 -13t12 -34q0 -49 -41 -93t-106 -69z" />
    <glyph glyph-name="uhorn" unicode="&#x1b0;" 
d="M510 396l-82 -372q-3 -12 -13 -20t-23 -8q-15 0 -25.5 11t-10.5 26q0 6 1 8l6 29q-88 -82 -170 -82q-67 0 -105.5 31.5t-38.5 87.5q0 16 5 41l69 311q2 12 12 20t23 8q16 0 26.5 -10.5t10.5 -25.5q0 -6 -1 -8l-61 -277q-4 -15 -4 -35q0 -76 93 -76q81 0 155 76l72 328
q2 12 12 20t23 8q16 0 26.5 -10.5t10.5 -25.5q0 -6 -1 -8l-1 -5q60 35 72 77h-6q-14 0 -24.5 10.5t-10.5 25.5q0 19 14.5 33t33.5 14t31 -13t12 -34q0 -45 -36 -86.5t-95 -68.5z" />
    <glyph glyph-name="Gcaron" unicode="&#x1e6;" horiz-adv-x="713" 
d="M148 284q0 -100 61.5 -161t163.5 -61q95 0 175 71l30 136h-187q-15 0 -26 11t-11 26t11 26t26 11h237q19 0 30 -9.5t11 -25.5l-2 -14l-37 -167q-6 -30 -27 -49q-102 -90 -235 -90q-136 0 -222 82t-86 210q-3 167 110.5 284t270.5 114q153 0 236 -107q10 -10 10 -25
q0 -16 -12 -28.5t-29 -12.5q-22 0 -32 15q-61 84 -184 84q-110 3 -197.5 -92.5t-84.5 -227.5zM442 860l56 -99l101 104q6 6 15 6t14.5 -6t5.5 -14q0 -5 -5 -13l-84 -95q-19 -21 -43 -21h-22q-26 0 -35 22l-44 95q-2 8 -2 9q0 9 7.5 16t16.5 7q11 0 19 -11z" />
    <glyph glyph-name="gcaron" unicode="&#x1e7;" horiz-adv-x="574" 
d="M544 450q0 -6 -1 -8l-95 -428q-47 -210 -236 -210q-126 0 -193 59q-13 10 -13 27q0 15 10 24.5t25 9.5t22 -7q54 -51 148 -51q128 0 162 148l14 63q-64 -82 -164 -82q-83 0 -133.5 52t-50.5 148q-2 119 70.5 210.5t181.5 89.5q49 0 96 -25t73 -64l12 53q2 12 12 20t23 8
q16 0 26.5 -11t10.5 -26zM401 139l46 209q-20 37 -61 58.5t-89 21.5q-78 0 -128.5 -66.5t-50.5 -154.5q0 -67 36.5 -106t98.5 -39q39 0 79 21.5t69 55.5zM315 713l56 -99l101 104q6 6 15 6t14.5 -6t5.5 -14q0 -5 -5 -13l-84 -95q-19 -21 -43 -21h-22q-26 0 -35 22l-44 95
q-2 8 -2 9q0 9 7.5 16t16.5 7q11 0 19 -11z" />
    <glyph glyph-name="uni01EA" unicode="&#x1ea;" horiz-adv-x="765" 
d="M357 -103q0 -30 35 -30q7 0 16 3q11 2 20 -5.5t9 -18.5q0 -18 -18 -23q-24 -9 -55 -9q-37 0 -60 16.5t-23 42.5q0 33 28.5 63t75.5 52h-17q-133 0 -220.5 79.5t-87.5 212.5q-3 163 109 282t266 116q131 2 220.5 -79t87.5 -212q1 -141 -83.5 -252.5t-210.5 -137.5
q-92 -56 -92 -100zM373 62q113 -3 198.5 92t83.5 228q0 102 -64 162t-161 60q-114 3 -199 -92t-83 -228q0 -102 63.5 -162t161.5 -60z" />
    <glyph glyph-name="uni01EB" unicode="&#x1eb;" horiz-adv-x="572" 
d="M236 -103q0 -30 35 -30q9 0 16 3q11 2 20 -5.5t9 -18.5q0 -17 -17 -23q-26 -9 -56 -9q-37 0 -60 16.5t-23 42.5q0 33 28.5 63t75.5 52h-3q-102 0 -161.5 58.5t-59.5 155.5q-2 115 78 205.5t191 87.5q101 0 161 -59t60 -156t-56.5 -177.5t-145.5 -105.5q-92 -56 -92 -100z
M263 55q79 0 133.5 67.5t54.5 155.5q0 70 -38 110t-106 40q-79 0 -133.5 -67.5t-54.5 -155.5q0 -70 38 -110t106 -40z" />
    <glyph glyph-name="Aringacute" unicode="&#x1fa;" horiz-adv-x="658" 
d="M587 38q0 -18 -12.5 -30t-30.5 -12q-16 0 -27.5 10t-14.5 25l-19 117h-343l-80 -132q-12 -20 -35 -20q-17 0 -29 12t-12 29q0 8 7 21l361 579q21 34 61 34q26 0 45.5 -16.5t24.5 -42.5l103 -566q1 -2 1 -8zM185 222h285l-61 368zM465 907q39 0 64 -25t25 -64
q0 -44 -32 -76t-76 -32q-39 0 -64 25t-25 64q0 44 32 76t76 32zM462 867q-26 0 -45.5 -19t-19.5 -45q0 -23 14.5 -38t37.5 -15q26 0 45.5 19t19.5 45q0 24 -14 38.5t-38 14.5zM485 931q-8 0 -13.5 6t-5.5 13q0 11 8 17l135 109q7 6 18 6q10 0 16.5 -7.5t6.5 -17.5
q0 -14 -10 -21l-141 -101q-4 -4 -14 -4z" />
    <glyph glyph-name="aringacute" unicode="&#x1fb;" horiz-adv-x="575" 
d="M544 443l-93 -419q-2 -12 -12 -20t-23 -8q-16 0 -26.5 10.5t-10.5 25.5q0 6 1 8l7 31q-64 -83 -160 -83q-85 0 -136 53.5t-51 145.5q-2 122 71 216t182 92q54 0 98.5 -24t69.5 -64l12 52q2 12 12 20t23 8q17 0 28.5 -14t7.5 -30zM401 137l48 213q-19 35 -58 56.5
t-88 21.5q-78 0 -131 -68.5t-53 -158.5q0 -67 37 -106.5t98 -39.5q42 0 82 23t65 59zM393 760q39 0 64 -25t25 -64q0 -44 -32 -76t-76 -32q-39 0 -64 25t-25 64q0 44 32 76t76 32zM390 720q-26 0 -45.5 -19t-19.5 -45q0 -23 14.5 -38t37.5 -15q26 0 45.5 19t19.5 45
q0 24 -14 38.5t-38 14.5zM414 784q-8 0 -13.5 6t-5.5 13q0 11 8 17l135 109q8 6 18 6t16.5 -7.5t6.5 -17.5q0 -14 -10 -21l-141 -101q-4 -4 -14 -4z" />
    <glyph glyph-name="AEacute" unicode="&#x1fc;" horiz-adv-x="947" 
d="M981 630q0 -15 -10.5 -26t-25.5 -11h-329l-48 -215h306q15 0 25.5 -11t10.5 -26t-10.5 -26t-25.5 -11h-323l-51 -230h313q15 0 26 -11t11 -26t-11 -26t-26 -11h-361q-41 0 -41 36q0 10 1 13l22 99h-264l-114 -139q-10 -13 -28 -13q-16 0 -26.5 10.5t-10.5 25.5q0 12 9 23
l495 586q21 26 54 26h396q15 0 25.5 -11t10.5 -26zM450 222l81 366l-300 -366h219zM606 719q-8 0 -13.5 6t-5.5 13q0 11 8 17l135 109q8 6 18 6t16.5 -7.5t6.5 -17.5q0 -14 -10 -21l-141 -101q-4 -4 -14 -4z" />
    <glyph glyph-name="aeacute" unicode="&#x1fd;" horiz-adv-x="938" 
d="M897 288q0 -5 -2 -31q-4 -40 -48 -40h-349q-1 -3 -1 -23q0 -62 43.5 -102t119.5 -40q60 0 112 32q6 3 14 3q13 0 21.5 -8.5t8.5 -20.5q0 -18 -15 -26q-71 -44 -138 -44q-76 0 -125 33.5t-67 94.5l-20 -92q-2 -12 -12.5 -20t-23.5 -8q-15 0 -25.5 10.5t-10.5 25.5q0 6 1 8
l7 31q-64 -83 -160 -83q-85 0 -136 53.5t-51 145.5q-2 122 71 216t182 92q55 0 99.5 -23.5t68.5 -64.5l11 51q7 29 36 29q17 0 28.5 -13.5t7.5 -30.5l-9 -43q31 42 77.5 68.5t97.5 26.5q89 0 138 -55.5t49 -151.5zM827 291q0 64 -37 103t-105 39q-64 0 -116 -47.5
t-64 -113.5h320q2 10 2 19zM401 137l48 213q-19 35 -58 56.5t-88 21.5q-78 0 -131 -68.5t-53 -158.5q0 -67 37 -106.5t98 -39.5q42 0 82 23t65 59zM542 572q-8 0 -13.5 6t-5.5 13q0 11 8 17l135 109q8 6 18 6t16.5 -7.5t6.5 -17.5q0 -14 -10 -21l-141 -101q-4 -4 -14 -4z
" />
    <glyph glyph-name="Oslashacute" unicode="&#x1fe;" horiz-adv-x="765" 
d="M765 695q0 -8 -8 -16l-88 -93q74 -80 74 -199q3 -164 -109.5 -283t-265.5 -116q-118 0 -204 64l-87 -92q-8 -8 -17 -8q-8 0 -13.5 6t-5.5 14q0 9 7 16l87 92q-75 78 -75 200q-3 163 109 282t266 116q121 0 204 -65l89 94q11 8 17 8q8 0 14 -6t6 -14zM193 142l389 411
q-62 51 -152 51q-114 3 -199 -92t-83 -228q0 -84 45 -142zM610 524l-389 -411q60 -51 152 -51q113 -3 198.5 92t83.5 228q0 84 -45 142zM491 719q-8 0 -13.5 6t-5.5 13q0 11 8 17l135 109q7 6 18 6q10 0 16.5 -7.5t6.5 -17.5q0 -14 -10 -21l-141 -101q-4 -4 -14 -4z" />
    <glyph glyph-name="oslashacute" unicode="&#x1ff;" horiz-adv-x="572" 
d="M530 280q2 -115 -78 -204.5t-191 -87.5q-77 0 -130 34l-51 -63q-6 -7 -15 -7q-7 0 -12.5 5.5t-5.5 12.5q0 4 5 12l50 62q-62 57 -62 158q-2 115 78 205.5t191 87.5q77 0 133 -36l54 65q6 7 14 7q18 0 18 -17q0 -4 -5 -12l-53 -65q60 -59 60 -157zM151 103l245 299
q-35 26 -89 26q-79 0 -133.5 -67.5t-54.5 -155.5q0 -64 32 -102zM451 278q0 62 -30 99l-244 -299q35 -23 86 -23q79 0 133.5 67.5t54.5 155.5zM364 572q-8 0 -13.5 6t-5.5 13q0 11 8 17l135 109q8 6 18 6t16.5 -7.5t6.5 -17.5q0 -14 -10 -21l-141 -101q-4 -4 -14 -4z" />
    <glyph glyph-name="uni0218" unicode="&#x218;" horiz-adv-x="586" 
d="M27 110q0 17 12.5 29t29.5 12q14 0 28 -11q78 -78 196 -78q70 0 108.5 37.5t38.5 86.5q0 38 -32 62.5t-109 54.5q-66 28 -100 45q-90 50 -90 135q-2 77 68 136.5t168 57.5q131 0 214 -77q14 -11 14 -31q0 -17 -11.5 -29t-28.5 -12q-16 0 -27 10q-66 66 -170 66
q-56 0 -97 -33.5t-41 -76.5q0 -24 18 -44q28 -29 119 -65q69 -29 100 -46q94 -51 94 -140q2 -84 -66.5 -148t-176.5 -63q-73 0 -138 24.5t-107 66.5q-14 14 -14 31zM153 -262q-8 0 -13.5 5.5t-5.5 12.5q0 10 8 15q46 29 60 68h-7q-15 0 -26 11t-11 28q0 21 15.5 36t36.5 15
q19 0 32 -13.5t13 -36.5q0 -35 -25 -72.5t-63 -64.5q-7 -4 -14 -4z" />
    <glyph glyph-name="uni0219" unicode="&#x219;" horiz-adv-x="465" 
d="M13 77q0 14 10 24t24 10q13 0 23 -7q55 -55 141 -55q49 0 80 24.5t31 60.5q0 25 -23.5 42t-83.5 41q-52 21 -77 33q-70 36 -70 98t49.5 104.5t133.5 42.5q100 0 164 -58q12 -11 12 -25q0 -13 -9.5 -23t-23.5 -10q-12 0 -20 8q-49 47 -127 47q-47 0 -75.5 -20.5
t-28.5 -53.5q0 -23 22.5 -39t80.5 -39q48 -18 78 -33q73 -37 73 -103t-52 -112t-138 -46q-112 0 -181 63q-13 8 -13 26zM92 -262q-8 0 -13.5 5.5t-5.5 12.5q0 10 8 15q46 29 60 68h-7q-15 0 -26 11t-11 28q0 21 15.5 36t36.5 15q19 0 32 -13.5t13 -36.5q0 -35 -25 -72.5
t-63 -64.5q-7 -4 -14 -4z" />
    <glyph glyph-name="uni021A" unicode="&#x21a;" horiz-adv-x="570" 
d="M198 37q0 6 1 8l121 548h-170q-15 0 -25.5 11t-10.5 26t10.5 26t25.5 11h439q15 0 26 -11t11 -26t-11 -26t-26 -11h-186l-125 -565q-7 -32 -39 -32q-17 0 -29 12t-12 29zM152 -262q-8 0 -13.5 5.5t-5.5 12.5q0 10 8 15q46 29 60 68h-7q-15 0 -26 11t-11 28q0 21 15.5 36
t36.5 15q19 0 32 -13.5t13 -36.5q0 -35 -25 -72.5t-63 -64.5q-7 -4 -14 -4z" />
    <glyph glyph-name="uni021B" unicode="&#x21b;" horiz-adv-x="294" 
d="M312 450q0 -13 -9 -22.5t-23 -9.5h-76l-66 -299q-3 -12 -3 -23q0 -41 49 -41q9 0 21 5q13 1 23 -7t12 -21q2 -24 -19 -32q-27 -12 -54 -12q-112 0 -112 84q0 17 4 32l70 314h-44q-13 0 -22.5 9.5t-9.5 23.5q0 13 9.5 22.5t22.5 9.5h58l24 108q3 12 13 20t23 8
q17 0 28.5 -13.5t7.5 -30.5l-20 -92h61q14 0 23 -9.5t9 -23.5zM23 -262q-8 0 -13.5 5.5t-5.5 12.5q0 10 8 15q46 29 60 68h-7q-15 0 -26 11t-11 28q0 21 15.5 36t36.5 15q19 0 32 -13.5t13 -36.5q0 -35 -25 -72.5t-63 -64.5q-7 -4 -14 -4z" />
    <glyph glyph-name="uni0232" unicode="&#x232;" horiz-adv-x="626" 
d="M657 607l-295 -327l-55 -252q-7 -32 -40 -32q-16 0 -28 12t-12 28q0 7 1 9l52 237l-154 331q-3 9 -3 17q0 17 12 29t29 12q26 0 38 -25l130 -289l267 301q10 13 29 13q16 0 27 -11t11 -27q0 -13 -9 -26zM273 763q0 10 7 17t17 7h267q10 0 17 -7t7 -17t-7 -17t-17 -7h-267
q-10 0 -17 7t-7 17z" />
    <glyph glyph-name="uni0233" unicode="&#x233;" horiz-adv-x="490" 
d="M-3 -124q4 0 14 -1t16 -1q40 0 72 48l49 75l-84 445q-4 17 8 31t30 14q14 0 24.5 -9t12.5 -23l68 -368l241 384q10 16 30 16q15 0 25 -10.5t10 -25.5q0 -10 -5 -18l-340 -531q-33 -51 -68.5 -74.5t-82.5 -23.5q-2 0 -24 2q-13 2 -22 12t-9 23q0 15 10.5 25t24.5 10z
M173 616q0 10 7 17t17 7h267q10 0 17 -7t7 -17t-7 -17t-17 -7h-267q-10 0 -17 7t-7 17z" />
    <glyph glyph-name="uni0237" unicode="&#x237;" horiz-adv-x="225" 
d="M-129 -161q0 15 11 24.5t25 7.5q7 -3 18 -3q66 0 85 85l113 506q2 12 12 20t23 8q16 0 26.5 -10.5t10.5 -25.5q0 -6 -1 -8l-109 -490q-32 -149 -153 -149q-21 0 -34 4q-27 5 -27 31z" />
    <glyph glyph-name="uni0259" unicode="&#x259;" horiz-adv-x="563" 
d="M249 -12q-94 0 -151 59t-57 152q0 4 2 26q2 41 47 41h353l1 23q0 61 -44 102.5t-120 41.5q-62 0 -117 -33q-4 -4 -13 -4q-12 0 -20.5 8.5t-8.5 21.5q0 18 15 25q69 44 149 44q110 0 172 -58q64 -58 64 -156q2 -118 -79.5 -207t-192.5 -86zM110 192q0 -64 39 -103t107 -39
q65 0 116.5 47.5t62.5 113.5h-324q-1 -3 -1 -19z" />
    <glyph glyph-name="uni0272" unicode="&#x272;" 
d="M501 377q0 -14 -5 -42l-68 -311q-3 -12 -13 -20t-23 -8q-17 0 -28.5 13.5t-7.5 30.5l61 277q4 15 4 34q0 77 -93 77q-83 0 -154 -76l-89 -399q-32 -149 -153 -149q-21 0 -34 4q-27 5 -27 31q0 15 10.5 24t25.5 8q7 -3 18 -3q66 0 85 85l113 506q2 12 12 20t23 8
q16 0 26.5 -11t10.5 -26q0 -6 -1 -8l-7 -29q89 82 171 82q67 0 105 -31t38 -87z" />
    <glyph glyph-name="uni02B0" unicode="&#x2b0;" horiz-adv-x="398" 
d="M301 356l38 170l2 20q0 26 -17.5 40t-47.5 14q-45 0 -95 -50l-45 -206q-5 -22 -27 -22q-13 0 -22 10.5t-6 23.5l86 386q1 9 9 15.5t18 6.5q13 0 22 -10.5t6 -23.5l-30 -135q50 53 112 53q47 0 73 -21t26 -59q0 -14 -4 -31l-43 -193q-6 -22 -27 -22q-13 0 -21.5 10.5
t-6.5 23.5z" />
    <glyph glyph-name="uni02BC" unicode="&#x2bc;" horiz-adv-x="230" 
d="M141 459q-9 0 -15.5 6.5t-6.5 15.5q0 11 10 18q51 35 65 74h-8q-18 0 -30.5 12.5t-12.5 32.5q0 24 18 41.5t42 17.5t38.5 -15.5t14.5 -42.5q0 -41 -28.5 -84t-74.5 -73q-5 -3 -12 -3z" />
    <glyph glyph-name="circumflex" unicode="&#x2c6;" horiz-adv-x="265" 
d="M281 563l-56 99l-101 -104q-6 -6 -15 -6t-14.5 6t-5.5 14q0 5 5 13l84 95q19 21 43 21h22q26 0 35 -22l44 -95q2 -8 2 -9q0 -9 -7.5 -16t-16.5 -7q-11 0 -19 11z" />
    <glyph glyph-name="caron" unicode="&#x2c7;" horiz-adv-x="265" 
d="M154 693l56 -99l101 104q6 6 15 6t14.5 -6t5.5 -14q0 -5 -5 -13l-84 -95q-19 -21 -43 -21h-22q-26 0 -35 22l-44 95q-2 8 -2 9q0 9 7.5 16t16.5 7q11 0 19 -11z" />
    <glyph glyph-name="uni02C9" unicode="&#x2c9;" horiz-adv-x="363" 
d="M107 615q0 10 7 17t17 7h266q10 0 16.5 -7t6.5 -17t-6.5 -17t-16.5 -7h-266q-10 0 -17 7t-7 17z" />
    <glyph glyph-name="uni02CB" unicode="&#x2cb;" horiz-adv-x="226" 
d="M233 561l-90 95q-9 8 -9 20t8 20t20 8q13 0 22 -10l83 -102q7 -8 7 -16q0 -10 -6.5 -16.5t-16.5 -6.5t-18 8z" />
    <glyph glyph-name="breve" unicode="&#x2d8;" horiz-adv-x="351" 
d="M99 619q-6 7 -6 16q0 11 8 19t19 8q12 0 20 -11q41 -53 112 -53q79 0 142 60q5 5 15 5q9 0 15.5 -6t6.5 -16t-7 -16q-83 -75 -180 -75q-93 0 -145 69z" />
    <glyph glyph-name="dotaccent" unicode="&#x2d9;" horiz-adv-x="129" 
d="M99 606q0 21 15.5 36.5t36.5 15.5q18 0 30 -12t12 -30q0 -21 -16 -36.5t-37 -15.5q-18 0 -29.5 12t-11.5 30z" />
    <glyph glyph-name="ring" unicode="&#x2da;" horiz-adv-x="238" 
d="M217 740q39 0 64 -25t25 -64q0 -44 -32 -76t-76 -32q-39 0 -64 25t-25 64q0 44 32 76t76 32zM214 700q-26 0 -45.5 -19t-19.5 -45q0 -23 14.5 -38t37.5 -15q26 0 45.5 19t19.5 45q0 24 -14 38.5t-38 14.5z" />
    <glyph glyph-name="ogonek" unicode="&#x2db;" horiz-adv-x="195" 
d="M73 -177q-26 -9 -56 -9q-37 0 -60 16.5t-23 42.5q0 40 38.5 74t99.5 55q39 13 46 7q2 -2 -4 -5q-104 -59 -104 -107q0 -30 35 -30q9 0 16 3q11 2 20 -5.5t9 -18.5q0 -17 -17 -23z" />
    <glyph glyph-name="tilde" unicode="&#x2dc;" horiz-adv-x="313" 
d="M177 646q-39 0 -58 -74q-5 -16 -21 -16q-11 0 -17.5 8.5t-4.5 19.5q30 110 106 110q25 0 40 -12t32 -39q13 -23 23 -32t26 -9q39 0 58 74q5 16 21 16q11 0 18 -9t4 -20q-30 -109 -106 -109q-25 0 -40 12t-32 39q-13 23 -23 32t-26 9z" />
    <glyph glyph-name="hungarumlaut" unicode="&#x2dd;" horiz-adv-x="305" 
d="M86 571q0 8 4 12l99 113q7 9 20 9q10 0 17 -7.5t7 -17.5t-7 -18l-108 -105q-5 -5 -13 -5q-19 0 -19 19zM228 571q0 8 4 12l99 113q7 9 20 9q10 0 17 -7.5t7 -17.5t-7 -18l-108 -105q-5 -5 -13 -5q-19 0 -19 19z" />
    <glyph glyph-name="gravecomb" unicode="&#x300;" horiz-adv-x="0" 
d="M7 561l-90 95q-9 8 -9 20t8 20t20 8q13 0 22 -10l83 -102q7 -8 7 -16q0 -10 -6.5 -16.5t-16.5 -6.5t-18 8z" />
    <glyph glyph-name="acutecomb" unicode="&#x301;" horiz-adv-x="0" 
d="M-112 552q-8 0 -13.5 6t-5.5 13q0 11 8 17l135 109q8 6 18 6t16.5 -7.5t6.5 -17.5q0 -14 -10 -21l-141 -101q-4 -4 -14 -4z" />
    <glyph glyph-name="uni0302" unicode="&#x302;" horiz-adv-x="0" 
d="M16 563l-56 99l-101 -104q-6 -6 -15 -6t-14.5 6t-5.5 14q0 5 5 13l84 95q19 21 43 21h22q26 0 35 -22l44 -95q2 -8 2 -9q0 -9 -7.5 -16t-16.5 -7q-11 0 -19 11z" />
    <glyph glyph-name="tildecomb" unicode="&#x303;" horiz-adv-x="0" 
d="M-136 646q-40 0 -58 -74q-5 -16 -21 -16q-11 0 -17.5 8.5t-4.5 19.5q30 110 106 110q25 0 40 -12t32 -39q13 -23 23 -32t26 -9q40 0 58 74q5 16 21 16q11 0 18 -9t4 -20q-30 -109 -106 -109q-25 0 -40 12t-32 39q-13 23 -23 32t-26 9z" />
    <glyph glyph-name="uni0304" unicode="&#x304;" horiz-adv-x="0" 
d="M-260 596q0 10 7 17t17 7h267q10 0 17 -7t7 -17t-7 -17t-17 -7h-267q-10 0 -17 7t-7 17z" />
    <glyph glyph-name="uni0306" unicode="&#x306;" horiz-adv-x="0" 
d="M-252 619q-6 7 -6 16q0 11 8 19t19 8q12 0 20 -11q41 -53 112 -53q79 0 142 60q5 5 15 5q9 0 15.5 -6t6.5 -16t-7 -16q-83 -75 -180 -75q-93 0 -145 69z" />
    <glyph glyph-name="uni0307" unicode="&#x307;" horiz-adv-x="0" 
d="M-30 606q0 21 15.5 36.5t36.5 15.5q18 0 30 -12t12 -30q0 -21 -16 -36.5t-37 -15.5q-18 0 -29.5 12t-11.5 30z" />
    <glyph glyph-name="uni0308" unicode="&#x308;" horiz-adv-x="0" 
d="M-274 608q0 20 16 35.5t36 15.5q17 0 29 -12t12 -29q0 -20 -15.5 -36t-36.5 -16q-17 0 -29 12.5t-12 29.5zM-68 608q0 20 16 35.5t36 15.5q18 0 29.5 -12t11.5 -29q0 -20 -15.5 -36t-36.5 -16q-17 0 -29 12.5t-12 29.5z" />
    <glyph glyph-name="uni0309" unicode="&#x309;" horiz-adv-x="0" 
d="M16 574q0 6 4 11q17 26 17 50q0 18 -12 29t-30 11q-27 0 -47 -27q-7 -9 -17 -9q-9 0 -15 6.5t-6 14.5t5 13q33 43 83 43q36 0 61 -21t25 -56q0 -39 -30 -78q-5 -8 -17 -8q-8 0 -14.5 6t-6.5 15z" />
    <glyph glyph-name="uni030A" unicode="&#x30a;" horiz-adv-x="0" 
d="M-21 740q39 0 64 -25t25 -64q0 -44 -32 -76t-76 -32q-39 0 -64 25t-25 64q0 44 32 76t76 32zM-24 700q-26 0 -45.5 -19t-19.5 -45q0 -23 14.5 -38t37.5 -15q26 0 45.5 19t19.5 45q0 24 -14 38.5t-38 14.5z" />
    <glyph glyph-name="uni030B" unicode="&#x30b;" horiz-adv-x="0" 
d="M-219 571q0 8 4 12l99 113q7 9 20 9q10 0 17 -7.5t7 -17.5t-7 -18l-108 -105q-5 -5 -13 -5q-19 0 -19 19zM-77 571q0 8 4 12l99 113q8 9 20 9q10 0 17 -7.5t7 -17.5t-7 -18l-108 -105q-5 -5 -13 -5q-19 0 -19 19z" />
    <glyph glyph-name="uni030C" unicode="&#x30c;" horiz-adv-x="0" 
d="M-111 693l56 -99l101 104q6 6 15 6t14.5 -6t5.5 -14q0 -5 -5 -13l-84 -95q-19 -21 -43 -21h-22q-26 0 -35 22l-44 95q-2 8 -2 9q0 9 7.5 16t16.5 7q11 0 19 -11z" />
    <glyph glyph-name="dotbelowcomb" unicode="&#x323;" horiz-adv-x="0" 
d="M-192 -124q0 21 16 37t37 16q18 0 30 -12.5t12 -30.5q0 -21 -16 -36t-37 -15q-18 0 -30 11.5t-12 29.5z" />
    <glyph glyph-name="uni0326" unicode="&#x326;" horiz-adv-x="0" 
d="M-249 -262q-8 0 -13.5 5.5t-5.5 12.5q0 10 8 15q46 29 60 68h-7q-15 0 -26 11t-11 28q0 21 15.5 36t36.5 15q19 0 32 -13.5t13 -36.5q0 -35 -25 -72.5t-63 -64.5q-7 -4 -14 -4z" />
    <glyph glyph-name="uni0327" unicode="&#x327;" horiz-adv-x="0" 
d="M-289 -146q0 9 6.5 15.5t15.5 6.5q5 0 13 -5q31 -23 70 -23q29 0 45 13t16 34q0 30 -37 30q-14 0 -28 -11q-4 -4 -14 -4q-18 0 -18 17q0 7 3 13l42 71h45l-40 -66q16 11 34 11q26 0 42 -16t16 -43q0 -39 -30 -63.5t-78 -24.5q-53 0 -93 26q-10 7 -10 19z" />
    <glyph glyph-name="uni0328" unicode="&#x328;" horiz-adv-x="0" 
d="M-122 -177q-26 -9 -56 -9q-37 0 -60 16.5t-23 42.5q0 40 38.5 74t99.5 55q39 13 46 7q2 -2 -4 -5q-104 -59 -104 -107q0 -30 35 -30q8 0 16 3q11 2 20 -5.5t9 -18.5q0 -17 -17 -23z" />
    <glyph glyph-name="uni037E" unicode="&#x37e;" horiz-adv-x="230" 
d="M162 490q21 0 35.5 -15t14.5 -35q0 -25 -17.5 -42.5t-42.5 -17.5q-21 0 -35.5 15t-14.5 36q0 25 17.5 42t42.5 17zM14 -118q-10 0 -16 6.5t-6 15.5q0 12 9 18q50 33 65 74h-8q-18 0 -30.5 12t-12.5 32q0 24 18 42t42 18t38.5 -16t14.5 -43q0 -41 -28.5 -83.5t-74.5 -72.5
q-5 -3 -11 -3z" />
    <glyph glyph-name="tonos" unicode="&#x384;" horiz-adv-x="124" 
d="M94 594l52 162q7 22 30 22q14 0 24 -9.5t10 -22.5q0 -8 -5 -16l-77 -150q-5 -11 -16 -11q-10 0 -15.5 7.5t-2.5 17.5z" />
    <glyph glyph-name="dieresistonos" unicode="&#x385;" horiz-adv-x="389" 
d="M241 594l52 162q7 22 31 22q14 0 23.5 -9.5t9.5 -22.5q0 -7 -4 -16l-77 -150q-8 -11 -17 -11t-15 7.5t-3 17.5zM96 608q0 20 15.5 35.5t36.5 15.5q17 0 29 -12t12 -29q0 -20 -16 -36t-36 -16q-17 0 -29 12.5t-12 29.5zM364 608q0 20 15.5 35.5t36.5 15.5q17 0 29 -12
t12 -29q0 -20 -16 -36t-36 -16q-17 0 -29 12.5t-12 29.5z" />
    <glyph glyph-name="Alphatonos" unicode="&#x386;" horiz-adv-x="658" 
d="M587 38q0 -18 -12.5 -30t-30.5 -12q-16 0 -27.5 10t-14.5 25l-19 117h-343l-80 -132q-12 -20 -35 -20q-17 0 -29 12t-12 29q0 8 7 21l361 579q21 34 61 34q26 0 45.5 -16.5t24.5 -42.5l103 -566q1 -2 1 -8zM185 222h285l-61 368zM133 493l52 162q7 22 30 22q14 0 24 -9.5
t10 -22.5q0 -8 -5 -16l-77 -150q-5 -11 -16 -11q-10 0 -15.5 7.5t-2.5 17.5z" />
    <glyph glyph-name="Epsilontonos" unicode="&#x388;" horiz-adv-x="613" 
d="M76 36q0 10 1 13l128 579q9 39 49 39h356q15 0 25.5 -11t10.5 -26t-10.5 -26t-25.5 -11h-329l-48 -215h306q15 0 25.5 -11t10.5 -26t-10.5 -26t-25.5 -11h-323l-51 -230h313q15 0 26 -11t11 -26t-11 -26t-26 -11h-361q-41 0 -41 36zM38 493l52 162q7 22 30 22
q14 0 24 -9.5t10 -22.5q0 -8 -5 -16l-77 -150q-5 -11 -16 -11q-10 0 -15.5 7.5t-2.5 17.5z" />
    <glyph glyph-name="Etatonos" unicode="&#x389;" horiz-adv-x="755" 
d="M549 36q0 7 1 9l57 261h-390l-61 -278q-7 -32 -40 -32q-16 0 -28 12t-12 28q0 7 1 9l131 594q7 32 39 32q17 0 29 -12t12 -29q0 -6 -1 -8l-53 -242h390l57 259q7 32 39 32q17 0 29 -12t12 -28q0 -7 -1 -9l-131 -594q-7 -32 -39 -32q-17 0 -29 12t-12 28zM38 493l52 162
q7 22 30 22q14 0 24 -9.5t10 -22.5q0 -8 -5 -16l-77 -150q-5 -11 -16 -11q-10 0 -15.5 7.5t-2.5 17.5z" />
    <glyph glyph-name="Iotatonos" unicode="&#x38a;" horiz-adv-x="282" 
d="M76 36q0 7 1 9l131 594q7 32 39 32q17 0 29 -12t12 -29q0 -6 -1 -8l-131 -594q-7 -32 -40 -32q-16 0 -28 12t-12 28zM38 493l52 162q7 22 30 22q14 0 24 -9.5t10 -22.5q0 -8 -5 -16l-77 -150q-5 -11 -16 -11q-10 0 -15.5 7.5t-2.5 17.5z" />
    <glyph glyph-name="Omicrontonos" unicode="&#x38c;" horiz-adv-x="787" 
d="M457 678q131 2 220.5 -79t87.5 -212q3 -164 -109.5 -283t-265.5 -116q-133 0 -220.5 79.5t-87.5 212.5q-3 163 109 282t266 116zM452 604q-114 3 -199 -92t-83 -228q0 -102 63.5 -162t161.5 -60q113 -3 198.5 92t83.5 228q0 102 -64 162t-161 60zM38 493l52 162
q7 22 30 22q14 0 24 -9.5t10 -22.5q0 -8 -5 -16l-77 -150q-5 -11 -16 -11q-10 0 -15.5 7.5t-2.5 17.5z" />
    <glyph glyph-name="Upsilontonos" unicode="&#x38e;" horiz-adv-x="692" 
d="M723 607l-295 -327l-55 -252q-7 -32 -40 -32q-16 0 -28 12t-12 28q0 7 1 9l52 237l-154 331q-3 9 -3 17q0 17 12 29t29 12q26 0 38 -25l130 -289l267 301q10 13 29 13q16 0 27 -11t11 -27q0 -13 -9 -26zM38 493l52 162q7 22 30 22q14 0 24 -9.5t10 -22.5q0 -8 -5 -16
l-77 -150q-5 -11 -16 -11q-10 0 -15.5 7.5t-2.5 17.5z" />
    <glyph glyph-name="Omegatonos" unicode="&#x38f;" horiz-adv-x="790" 
d="M678 37q0 -15 -11 -26t-26 -11h-167q-17 0 -29.5 12t-12.5 29q0 30 30 39q94 26 155 110t61 192q0 101 -60.5 161t-160.5 60q-119 3 -202.5 -93.5t-81.5 -225.5q0 -124 101 -195q20 -15 20 -40q0 -20 -14.5 -34.5t-34.5 -14.5h-163q-15 0 -26 11t-11 26t11 26t26 11h126
q-54 40 -85.5 99.5t-31.5 131.5q-2 95 44.5 181.5t133 140t191.5 51.5q137 0 222.5 -78t85.5 -209q0 -113 -60 -194q-58 -79 -146 -123h79q15 0 26 -11t11 -26zM38 493l52 162q7 22 30 22q14 0 24 -9.5t10 -22.5q0 -8 -5 -16l-77 -150q-5 -11 -16 -11q-10 0 -15.5 7.5
t-2.5 17.5z" />
    <glyph glyph-name="iotadieresistonos" unicode="&#x390;" horiz-adv-x="238" 
d="M43 101l80 358q3 12 13 20t23 8q15 0 25.5 -11t10.5 -26q0 -6 -1 -8l-74 -329q-3 -12 -3 -22q0 -31 26 -34q7 -1 13 -5q17 -11 17 -29q0 -12 -9 -22t-21 -12q-4 -1 -19 -1q-86 0 -86 76q0 12 5 37zM181 614l52 162q7 22 31 22q14 0 23.5 -9.5t9.5 -22.5q0 -7 -4 -16
l-77 -150q-8 -11 -17 -11t-15 7.5t-3 17.5zM36 628q0 20 15.5 35.5t36.5 15.5q17 0 29 -12t12 -29q0 -20 -16 -36t-36 -16q-17 0 -29 12.5t-12 29.5zM304 628q0 20 15.5 35.5t36.5 15.5q17 0 29 -12t12 -29q0 -20 -16 -36t-36 -16q-17 0 -29 12.5t-12 29.5z" />
    <glyph glyph-name="Alpha" unicode="&#x391;" horiz-adv-x="658" 
d="M587 38q0 -18 -12.5 -30t-30.5 -12q-16 0 -27.5 10t-14.5 25l-19 117h-343l-80 -132q-12 -20 -35 -20q-17 0 -29 12t-12 29q0 8 7 21l361 579q21 34 61 34q26 0 45.5 -16.5t24.5 -42.5l103 -566q1 -2 1 -8zM185 222h285l-61 368z" />
    <glyph glyph-name="Beta" unicode="&#x392;" horiz-adv-x="629" 
d="M33 36q0 10 1 13l128 579q9 39 49 39h237q73 0 121.5 -43.5t48.5 -109.5q0 -69 -46 -121t-109 -58q42 -11 70 -50t28 -87q0 -82 -60 -140t-168 -58h-259q-41 0 -41 36zM427 593h-189l-48 -215h207q65 0 98 35t33 89q0 39 -29.5 65t-71.5 26zM369 304h-196l-51 -230h209
q66 0 105.5 37t39.5 93q0 45 -29.5 72.5t-77.5 27.5z" />
    <glyph glyph-name="Gamma" unicode="&#x393;" horiz-adv-x="544" 
d="M33 36q0 7 1 9l128 583q9 39 49 39h356q15 0 25.5 -11t10.5 -26t-10.5 -26t-25.5 -11h-329l-125 -565q-7 -32 -40 -32q-16 0 -28 12t-12 28z" />
    <glyph glyph-name="uni0394" unicode="&#x394;" horiz-adv-x="658" 
d="M-21 28q0 12 9 26l364 583q21 34 61 34q26 0 45.5 -16.5t24.5 -42.5l103 -564q1 -3 1 -11q0 -37 -41 -37h-528q-39 0 -39 28zM407 581l-312 -507h401z" />
    <glyph glyph-name="Epsilon" unicode="&#x395;" horiz-adv-x="569" 
d="M33 36q0 10 1 13l128 579q9 39 49 39h356q15 0 25.5 -11t10.5 -26t-10.5 -26t-25.5 -11h-329l-48 -215h306q15 0 25.5 -11t10.5 -26t-10.5 -26t-25.5 -11h-323l-51 -230h313q15 0 26 -11t11 -26t-11 -26t-26 -11h-361q-41 0 -41 36z" />
    <glyph glyph-name="Zeta" unicode="&#x396;" horiz-adv-x="585" 
d="M-1 42q0 17 12 29l483 522h-327q-15 0 -26.5 11t-11.5 26t11.5 26t26.5 11h407q18 0 30.5 -12.5t12.5 -30.5q0 -15 -11 -29l-485 -521h336q15 0 26 -11t11 -26t-11 -26t-26 -11h-415q-17 0 -30 12.5t-13 29.5z" />
    <glyph glyph-name="Eta" unicode="&#x397;" horiz-adv-x="712" 
d="M506 36q0 7 1 9l57 261h-390l-61 -278q-7 -32 -40 -32q-16 0 -28 12t-12 28q0 7 1 9l131 594q7 32 39 32q17 0 29 -12t12 -29q0 -6 -1 -8l-53 -242h390l57 259q7 32 39 32q17 0 29 -12t12 -28q0 -7 -1 -9l-131 -594q-7 -32 -39 -32q-17 0 -29 12t-12 28z" />
    <glyph glyph-name="Theta" unicode="&#x398;" horiz-adv-x="765" 
d="M435 678q131 2 220.5 -79t87.5 -212q3 -164 -109.5 -283t-265.5 -116q-133 0 -220.5 79.5t-87.5 212.5q-3 163 109 282t266 116zM430 604q-114 3 -199 -92t-83 -228q0 -102 63.5 -162t161.5 -60q113 -3 198.5 92t83.5 228q0 102 -64 162t-161 60zM211 341q0 15 10.5 26
t25.5 11h304q15 0 26 -11t11 -26t-11 -26t-26 -11h-304q-15 0 -25.5 11t-10.5 26z" />
    <glyph glyph-name="Iota" unicode="&#x399;" horiz-adv-x="239" 
d="M33 36q0 7 1 9l131 594q7 32 39 32q17 0 29 -12t12 -29q0 -6 -1 -8l-131 -594q-7 -32 -40 -32q-16 0 -28 12t-12 28z" />
    <glyph glyph-name="Kappa" unicode="&#x39a;" horiz-adv-x="601" 
d="M612 634q0 -16 -12 -27l-294 -256l200 -292q6 -9 6 -22q0 -17 -12 -29t-29 -12q-24 0 -36 20l-191 289l-88 -81l-43 -196q-7 -32 -40 -32q-16 0 -28 12t-12 28q0 7 1 9l131 594q7 32 39 32q17 0 29 -12t12 -29q0 -6 -1 -8l-65 -293l371 332q9 10 25 10q15 0 26 -10.5
t11 -26.5z" />
    <glyph glyph-name="Lambda" unicode="&#x39b;" horiz-adv-x="658" 
d="M499 33l-92 548l-343 -565q-12 -20 -36 -20q-18 0 -30 12t-12 29q0 11 6 23l360 577q21 34 61 34q26 0 45.5 -16.5t24.5 -42.5l103 -564l1 -8q0 -18 -13 -31t-32 -13q-16 0 -28.5 10.5t-14.5 26.5z" />
    <glyph glyph-name="Mu" unicode="&#x39c;" horiz-adv-x="809" 
d="M603 37q0 6 1 8l115 522l-345 -560q-7 -13 -21 -13q-20 0 -25 21l-97 552l-118 -539q-7 -32 -40 -32q-16 0 -28 12t-12 28q0 7 1 9l126 572q5 24 24 39t43 15q25 0 44.5 -16.5t23.5 -40.5l83 -472l306 497q19 32 57 32q29 0 48.5 -19.5t19.5 -49.5q0 -10 -1 -13
l-125 -561q-7 -32 -39 -32q-17 0 -29 12t-12 29z" />
    <glyph glyph-name="Nu" unicode="&#x39d;" horiz-adv-x="708" 
d="M483 27l-254 529l-116 -528q-7 -32 -40 -32q-16 0 -28 12t-12 28q0 7 1 9l128 582q4 19 19.5 31.5t36.5 12.5q36 0 51 -33l250 -517l115 518q7 32 40 32q16 0 28 -12t12 -28q0 -7 -1 -9l-128 -584q-4 -18 -19 -30t-34 -12q-34 0 -49 31z" />
    <glyph glyph-name="Xi" unicode="&#x39e;" horiz-adv-x="615" 
d="M137 630q0 15 11 26t26 11h439q15 0 26 -11t11 -26t-11 -26t-26 -11h-439q-15 0 -26 11t-11 26zM80 341q0 15 11 26t26 11h425q15 0 26 -11t11 -26t-11 -26t-26 -11h-425q-15 0 -26 11t-11 26zM6 37q0 15 11.5 26t26.5 11h438q15 0 26 -11t11 -26t-11 -26t-26 -11h-438
q-15 0 -26.5 11t-11.5 26z" />
    <glyph glyph-name="Omicron" unicode="&#x39f;" horiz-adv-x="765" 
d="M435 678q131 2 220.5 -79t87.5 -212q3 -164 -109.5 -283t-265.5 -116q-133 0 -220.5 79.5t-87.5 212.5q-3 163 109 282t266 116zM430 604q-114 3 -199 -92t-83 -228q0 -102 63.5 -162t161.5 -60q113 -3 198.5 92t83.5 228q0 102 -64 162t-161 60z" />
    <glyph glyph-name="Pi" unicode="&#x3a0;" horiz-adv-x="712" 
d="M506 36q0 7 1 9l120 548h-390l-124 -565q-7 -32 -40 -32q-16 0 -28 12t-12 28q0 7 1 9l128 583q9 39 49 39h466q41 0 41 -35l-2 -14l-130 -590q-7 -32 -39 -32q-17 0 -29 12t-12 28z" />
    <glyph glyph-name="Rho" unicode="&#x3a1;" horiz-adv-x="587" 
d="M33 36q0 7 1 9l128 583q9 39 49 39h208q83 0 134 -50t51 -123q0 -92 -65.5 -160.5t-189.5 -68.5h-184l-52 -237q-7 -32 -40 -32q-16 0 -28 12t-12 28zM517 488q0 45 -31.5 75t-79.5 30h-168l-57 -254h175q74 0 117.5 42t43.5 107z" />
    <glyph glyph-name="Sigma" unicode="&#x3a3;" horiz-adv-x="545" 
d="M126 74h292q15 0 26 -11t11 -26t-11 -26t-26 -11h-356q-20 0 -35 14.5t-15 35.5t17 36l284 262l-164 237q-10 17 -10 31q0 21 15.5 36t36.5 15h358q15 0 26 -11t11 -26t-11 -26t-26 -11h-313l152 -221q10 -13 10 -29q0 -17 -17 -34z" />
    <glyph glyph-name="Tau" unicode="&#x3a4;" horiz-adv-x="570" 
d="M198 37q0 6 1 8l121 548h-170q-15 0 -25.5 11t-10.5 26t10.5 26t25.5 11h439q15 0 26 -11t11 -26t-11 -26t-26 -11h-186l-125 -565q-7 -32 -39 -32q-17 0 -29 12t-12 29z" />
    <glyph glyph-name="Upsilon" unicode="&#x3a5;" horiz-adv-x="626" 
d="M657 607l-295 -327l-55 -252q-7 -32 -40 -32q-16 0 -28 12t-12 28q0 7 1 9l52 237l-154 331q-3 9 -3 17q0 17 12 29t29 12q26 0 38 -25l130 -289l267 301q10 13 29 13q16 0 27 -11t11 -27q0 -13 -9 -26z" />
    <glyph glyph-name="Phi" unicode="&#x3a6;" horiz-adv-x="806" 
d="M405 64l-9 -37q-7 -31 -39 -31q-17 0 -28.5 11.5t-11.5 28.5q0 7 1 9l5 22q-125 11 -191 71t-66 160q-2 122 107.5 211t270.5 93l9 38q7 31 40 31q16 0 28 -12t12 -29q0 -6 -1 -8l-5 -23q124 -11 190 -71.5t66 -160.5q3 -120 -108 -209.5t-270 -93.5zM340 140l87 386
q-123 -9 -198.5 -72t-75.5 -156q0 -66 49 -108t138 -50zM696 367q0 67 -48.5 109t-137.5 50l-88 -386q123 9 198.5 72t75.5 155z" />
    <glyph glyph-name="Chi" unicode="&#x3a7;" horiz-adv-x="652" 
d="M669 605l-270 -269l166 -279q6 -11 6 -20q0 -17 -13 -29t-30 -12q-24 0 -36 21l-158 267l-276 -276q-12 -12 -28 -12t-27.5 11.5t-11.5 27.5q0 13 11 27l288 286l-154 262q-6 10 -6 20q0 16 13 28.5t30 12.5q22 0 37 -22l145 -249l256 259q12 12 29 12t28 -11t11 -28
q0 -16 -10 -27z" />
    <glyph glyph-name="Psi" unicode="&#x3a8;" horiz-adv-x="796" 
d="M766 671q17 0 29 -12.5t12 -29.5q0 -6 -1 -8l-55 -242q-26 -110 -114 -179t-223 -75l-22 -98q-7 -31 -40 -31q-16 0 -28 12t-12 28q0 7 1 9l18 81q-224 19 -224 204q0 39 10 80l53 230q3 13 14 22t25 9q17 0 29 -12t12 -29q0 -6 -1 -8l-51 -225q-7 -21 -7 -57
q0 -60 39.5 -96t118.5 -43l100 439q7 31 39 31q17 0 28.5 -11.5t11.5 -28.5q0 -7 -1 -9l-95 -421q96 8 157.5 59t80.5 137l56 243q3 13 14 22t26 9z" />
    <glyph glyph-name="uni03A9" unicode="&#x3a9;" horiz-adv-x="765" 
d="M653 37q0 -15 -11 -26t-26 -11h-167q-17 0 -29.5 12t-12.5 29q0 30 30 39q94 26 155 110t61 192q0 101 -60.5 161t-160.5 60q-119 3 -202.5 -93.5t-81.5 -225.5q0 -124 101 -195q20 -15 20 -40q0 -20 -14.5 -34.5t-34.5 -14.5h-163q-15 0 -26 11t-11 26t11 26t26 11h126
q-54 40 -85.5 99.5t-31.5 131.5q-2 95 44.5 181.5t133 140t191.5 51.5q137 0 222.5 -78t85.5 -209q0 -113 -60 -194q-58 -79 -146 -123h79q15 0 26 -11t11 -26z" />
    <glyph glyph-name="Iotadieresis" unicode="&#x3aa;" horiz-adv-x="239" 
d="M33 36q0 7 1 9l131 594q7 32 39 32q17 0 29 -12t12 -29q0 -6 -1 -8l-131 -594q-7 -32 -40 -32q-16 0 -28 12t-12 28zM91 775q0 20 16 35.5t36 15.5q17 0 29 -12t12 -29q0 -20 -15.5 -36t-36.5 -16q-17 0 -29 12.5t-12 29.5zM297 775q0 20 16 35.5t36 15.5q18 0 29.5 -12
t11.5 -29q0 -20 -15.5 -36t-36.5 -16q-17 0 -29 12.5t-12 29.5z" />
    <glyph glyph-name="Upsilondieresis" unicode="&#x3ab;" horiz-adv-x="626" 
d="M657 607l-295 -327l-55 -252q-7 -32 -40 -32q-16 0 -28 12t-12 28q0 7 1 9l52 237l-154 331q-3 9 -3 17q0 17 12 29t29 12q26 0 38 -25l130 -289l267 301q10 13 29 13q16 0 27 -11t11 -27q0 -13 -9 -26zM285 775q0 20 16 35.5t36 15.5q17 0 29 -12t12 -29
q0 -20 -15.5 -36t-36.5 -16q-17 0 -29 12.5t-12 29.5zM491 775q0 20 16 35.5t36 15.5q18 0 29.5 -12t11.5 -29q0 -20 -15.5 -36t-36.5 -16q-17 0 -29 12.5t-12 29.5z" />
    <glyph glyph-name="alphatonos" unicode="&#x3ac;" horiz-adv-x="589" 
d="M544 443l-73 -330q-3 -12 -3 -22q0 -31 26 -34l13 -5q17 -11 17 -29q0 -12 -9 -22t-21 -12q-5 -1 -19 -1q-91 0 -83 89q-71 -89 -165 -89q-85 0 -136 53.5t-51 145.5q-2 122 71 216t182 92q54 0 98.5 -24t69.5 -64l12 52q2 12 12 20t23 8q17 0 28.5 -14t7.5 -30zM401 137
l48 213q-19 35 -58 56.5t-88 21.5q-78 0 -131 -68.5t-53 -158.5q0 -67 37 -106.5t98 -39.5q42 0 82 23t65 59zM355 614l52 162q7 22 30 22q14 0 24 -9.5t10 -22.5q0 -8 -5 -16l-77 -150q-5 -11 -16 -11q-10 0 -15.5 7.5t-2.5 17.5z" />
    <glyph glyph-name="epsilontonos" unicode="&#x3ad;" horiz-adv-x="485" 
d="M19 125q0 53 43 90q42 36 113 38q-40 9 -66.5 37.5t-26.5 69.5q0 52 44 93q46 41 151 41q115 0 186 -73q10 -9 10 -23t-9.5 -24t-23.5 -10q-12 0 -23 11q-52 58 -142 58q-53 0 -86 -23t-33 -60q0 -34 31.5 -54t87.5 -21h39q13 0 22 -9t9 -22q0 -12 -9 -21t-22 -9h-81
q-132 0 -132 -78q0 -37 36.5 -61.5t95.5 -24.5q72 0 127 36q9 4 16 4q14 0 23 -9t9 -23q0 -20 -15 -28q-65 -42 -159 -42q-99 0 -157 40t-58 97zM326 614l52 162q7 22 30 22q14 0 24 -9.5t10 -22.5q0 -8 -5 -16l-77 -150q-5 -11 -16 -11q-10 0 -15.5 7.5t-2.5 17.5z" />
    <glyph glyph-name="etatonos" unicode="&#x3ae;" 
d="M502 375q0 -22 -6 -40l-110 -495q-3 -12 -13 -20t-23 -8q-15 0 -25.5 11t-10.5 26q0 6 1 8l102 460q6 24 6 33q0 78 -100 78q-77 0 -149 -76l-72 -328q-3 -12 -13 -20t-23 -8q-17 0 -28.5 13.5t-7.5 30.5l93 419q2 12 12 20t23 8q16 0 26.5 -11t10.5 -26q0 -6 -1 -8
l-7 -29q89 82 171 82q66 0 105 -32t39 -88zM342 614l52 162q7 22 30 22q14 0 24 -9.5t10 -22.5q0 -8 -5 -16l-77 -150q-5 -11 -16 -11q-10 0 -15.5 7.5t-2.5 17.5z" />
    <glyph glyph-name="iotatonos" unicode="&#x3af;" horiz-adv-x="238" 
d="M43 101l80 358q3 12 13 20t23 8q15 0 25.5 -11t10.5 -26q0 -6 -1 -8l-74 -329q-3 -12 -3 -22q0 -31 26 -34q7 -1 13 -5q17 -11 17 -29q0 -12 -9 -22t-21 -12q-4 -1 -19 -1q-86 0 -86 76q0 12 5 37zM178 614l52 162q7 22 30 22q14 0 24 -9.5t10 -22.5q0 -8 -5 -16
l-77 -150q-5 -11 -16 -11q-10 0 -15.5 7.5t-2.5 17.5z" />
    <glyph glyph-name="upsilondieresistonos" unicode="&#x3b0;" horiz-adv-x="562" 
d="M71 221l55 238q2 12 12 20t23 8q16 0 26.5 -11t10.5 -26q0 -6 -1 -8l-53 -229q-6 -30 -6 -54q0 -104 106 -104q87 0 148 80t61 189q0 65 -22 115q-2 10 -2 13q0 15 11 25.5t26 10.5q28 0 36 -25q26 -64 26 -138q2 -138 -82 -238.5t-202 -98.5q-88 0 -134.5 44t-46.5 121
q0 34 8 68zM344 614l52 162q7 22 31 22q14 0 23.5 -9.5t9.5 -22.5q0 -7 -4 -16l-77 -150q-8 -11 -17 -11t-15 7.5t-3 17.5zM199 628q0 20 15.5 35.5t36.5 15.5q17 0 29 -12t12 -29q0 -20 -16 -36t-36 -16q-17 0 -29 12.5t-12 29.5zM467 628q0 20 15.5 35.5t36.5 15.5
q17 0 29 -12t12 -29q0 -20 -16 -36t-36 -16q-17 0 -29 12.5t-12 29.5z" />
    <glyph glyph-name="alpha" unicode="&#x3b1;" horiz-adv-x="589" 
d="M544 443l-73 -330q-3 -12 -3 -22q0 -31 26 -34l13 -5q17 -11 17 -29q0 -12 -9 -22t-21 -12q-5 -1 -19 -1q-91 0 -83 89q-71 -89 -165 -89q-85 0 -136 53.5t-51 145.5q-2 122 71 216t182 92q54 0 98.5 -24t69.5 -64l12 52q2 12 12 20t23 8q17 0 28.5 -14t7.5 -30zM401 137
l48 213q-19 35 -58 56.5t-88 21.5q-78 0 -131 -68.5t-53 -158.5q0 -67 37 -106.5t98 -39.5q42 0 82 23t65 59z" />
    <glyph glyph-name="beta" unicode="&#x3b2;" horiz-adv-x="575" 
d="M112 71l-52 -231q-3 -12 -13 -20t-23 -8q-15 0 -25.5 11t-10.5 26q0 6 1 8l135 598q26 109 100.5 165.5t165.5 56.5q87 0 137 -39.5t50 -110.5q0 -75 -54.5 -123t-124.5 -60q46 -6 83 -41q37 -34 37 -97q0 -91 -73 -154.5t-170 -63.5q-116 0 -163 83zM441 209
q0 47 -34.5 72.5t-90.5 25.5q-17 0 -26.5 9.5t-9.5 23.5q0 16 11.5 26t30.5 10q74 0 123 36q50 38 50 102q0 45 -31 70.5t-83 25.5q-60 0 -113 -41q-52 -41 -69 -114l-74 -324q15 -34 52 -55t86 -21q79 0 128.5 43.5t49.5 110.5z" />
    <glyph glyph-name="gamma" unicode="&#x3b3;" horiz-adv-x="490" 
d="M508 451q0 -2 -2 -10q-35 -112 -108 -227q-72 -113 -168 -209l-38 -165q-2 -12 -12 -20t-23 -8q-16 0 -26.5 11t-10.5 26q0 6 1 8l21 94q19 80 19 164q0 182 -79 318q-3 7 -3 15q0 15 11 27t26 12q21 0 33 -19q36 -57 59 -146q23 -87 23 -167q0 -38 -4 -62q68 71 127 171
q57 98 83 197q7 26 34 26q15 0 26 -10.5t11 -25.5z" />
    <glyph glyph-name="delta" unicode="&#x3b4;" horiz-adv-x="572" 
d="M245 533q0 -25 21.5 -41t78.5 -39q58 -23 92 -44q91 -52 91 -159q2 -102 -77 -183t-193 -79q-106 0 -163 56t-57 142q0 80 53 147q54 66 140 99q-60 35 -60 96q0 60 59.5 105.5t146.5 45.5q93 0 148 -48q13 -8 13 -26q0 -13 -9.5 -23t-23.5 -10q-12 0 -20 7
q-41 39 -114 39q-54 0 -90 -24.5t-36 -60.5zM306 397l-7 3q-85 -26 -133 -81.5t-48 -125.5q0 -60 38 -99t107 -39q77 -2 134.5 57t55.5 132q0 42 -20 71q-19 27 -45 43t-82 39z" />
    <glyph glyph-name="epsilon" unicode="&#x3b5;" horiz-adv-x="485" 
d="M19 125q0 53 43 90q42 36 113 38q-40 9 -66.5 37.5t-26.5 69.5q0 52 44 93q46 41 151 41q115 0 186 -73q10 -9 10 -23t-9.5 -24t-23.5 -10q-12 0 -23 11q-52 58 -142 58q-53 0 -86 -23t-33 -60q0 -34 31.5 -54t87.5 -21h39q13 0 22 -9t9 -22q0 -12 -9 -21t-22 -9h-81
q-132 0 -132 -78q0 -37 36.5 -61.5t95.5 -24.5q72 0 127 36q9 4 16 4q14 0 23 -9t9 -23q0 -20 -15 -28q-65 -42 -159 -42q-99 0 -157 40t-58 97z" />
    <glyph glyph-name="zeta" unicode="&#x3b6;" horiz-adv-x="489" 
d="M35 168q0 121 102.5 230.5t291.5 202.5h-246q-13 0 -23 10t-10 23q0 14 10 23.5t23 9.5h321q14 0 24 -10t10 -24q0 -21 -19 -31q-403 -204 -403 -419q0 -116 169 -116q57 0 83.5 -16t26.5 -51q0 -50 -68 -147q-12 -14 -27 -14t-24.5 9.5t-9.5 23.5q0 11 6 20q39 52 39 81
q0 27 -50 27q-107 0 -166.5 43.5t-59.5 124.5z" />
    <glyph glyph-name="eta" unicode="&#x3b7;" 
d="M502 375q0 -22 -6 -40l-110 -495q-3 -12 -13 -20t-23 -8q-15 0 -25.5 11t-10.5 26q0 6 1 8l102 460q6 24 6 33q0 78 -100 78q-77 0 -149 -76l-72 -328q-3 -12 -13 -20t-23 -8q-17 0 -28.5 13.5t-7.5 30.5l93 419q2 12 12 20t23 8q16 0 26.5 -11t10.5 -26q0 -6 -1 -8
l-7 -29q89 82 171 82q66 0 105 -32t39 -88z" />
    <glyph glyph-name="theta" unicode="&#x3b8;" horiz-adv-x="572" 
d="M564 418q0 -101 -38 -203q-37 -100 -106 -164q-69 -63 -159 -63q-99 0 -153.5 68.5t-54.5 191.5q-2 102 36 201.5t110.5 165.5t158.5 63q99 0 152.5 -69t53.5 -191zM148 368h334q4 25 4 61q0 86 -33 134.5t-101 48.5q-69 0 -125 -71q-53 -69 -79 -173zM469 302h-334
q-5 -30 -5 -65q0 -86 34 -134t102 -48q72 0 124 72q53 71 79 175z" />
    <glyph glyph-name="iota" unicode="&#x3b9;" horiz-adv-x="238" 
d="M43 101l80 358q3 12 13 20t23 8q15 0 25.5 -11t10.5 -26q0 -6 -1 -8l-74 -329q-3 -12 -3 -22q0 -31 26 -34q7 -1 13 -5q17 -11 17 -29q0 -12 -9 -22t-21 -12q-4 -1 -19 -1q-86 0 -86 76q0 12 5 37z" />
    <glyph glyph-name="kappa" unicode="&#x3ba;" horiz-adv-x="514" 
d="M514 455q0 -16 -11 -24l-214 -167l138 -210q7 -10 7 -20q0 -15 -12.5 -26.5t-28.5 -11.5q-20 0 -34 20l-131 204l-102 -82l-25 -114q-2 -12 -12 -20t-23 -8q-17 0 -28.5 13.5t-7.5 30.5l93 419q2 12 12 20t23 8q16 0 26.5 -11t10.5 -26q0 -6 -1 -8l-47 -212l313 250
q7 7 21 7t23.5 -9t9.5 -23z" />
    <glyph glyph-name="lambda" unicode="&#x3bb;" horiz-adv-x="490" 
d="M323 580l102 -539q4 -16 -8 -30.5t-29 -14.5q-14 0 -25 9t-13 23l-68 368l-241 -384q-10 -16 -30 -16q-15 0 -25 10t-10 24q0 11 6 20l279 436l-15 73q-11 51 -50 52q-17 0 -22 -1q-13 -1 -22.5 9t-9.5 24q0 12 8 21t20 11q16 3 33 3q103 -2 120 -98z" />
    <glyph glyph-name="uni03BC" unicode="&#x3bc;" horiz-adv-x="564" 
d="M23 -188q-17 0 -28.5 14t-7.5 31l136 602q3 12 13 20t23 8q17 0 28.5 -14t7.5 -31l-62 -276q-4 -15 -4 -34q0 -38 23.5 -58.5t64.5 -20.5q39 0 83 21.5t74 53.5l73 331q3 12 13 20t23 8q17 0 28.5 -13.5t7.5 -30.5l-73 -330q-3 -12 -3 -22q0 -31 26 -34q7 -1 13 -5
q17 -11 17 -29q0 -12 -9 -22t-21 -12q-4 -1 -19 -1q-89 0 -84 86q-83 -86 -173 -86q-69 0 -90 48l-44 -196q-3 -12 -13 -20t-23 -8z" />
    <glyph glyph-name="nu" unicode="&#x3bd;" horiz-adv-x="490" 
d="M142 44l-75 397q-3 18 8.5 32t30.5 14q15 0 26 -9.5t13 -23.5l67 -378q81 84 140 185t85 200q7 26 35 26q15 0 25.5 -11.5t10.5 -24.5q0 -2 -2 -10q-33 -108 -103 -219q-70 -114 -160 -207q-16 -19 -43 -19q-22 0 -38 14t-20 34z" />
    <glyph glyph-name="xi" unicode="&#x3be;" horiz-adv-x="489" 
d="M530 634q0 -13 -9.5 -23t-23.5 -10h-166q-58 -14 -100 -53q-43 -40 -43 -84q0 -42 36.5 -65.5t95.5 -23.5h105q13 0 23 -10t10 -23t-10 -22.5t-23 -9.5h-116q-89 0 -144 -39.5t-55 -109.5q0 -94 175 -94q57 0 83.5 -16t26.5 -51q0 -50 -69 -148q-8 -13 -26 -13
q-14 0 -24 9.5t-10 22.5q0 1 6 19q39 56 39 83t-44 27q-240 0 -240 146q0 76 53.5 124.5t125.5 62.5q-43 7 -72 36.5t-29 75.5q0 47 42 92t100 64h-62q-13 0 -23 10t-10 23q0 14 10 23.5t23 9.5h312q14 0 23.5 -9.5t9.5 -23.5z" />
    <glyph glyph-name="omicron" unicode="&#x3bf;" horiz-adv-x="572" 
d="M309 495q101 0 161 -59t60 -156q2 -115 -78 -204.5t-191 -87.5q-102 0 -161.5 58.5t-59.5 155.5q-2 115 78 205.5t191 87.5zM307 428q-79 0 -133.5 -67.5t-54.5 -155.5q0 -70 38 -110t106 -40q79 0 133.5 67.5t54.5 155.5q0 70 -38 110t-106 40z" />
    <glyph glyph-name="pi" unicode="&#x3c0;" horiz-adv-x="582" 
d="M623 450q0 -13 -9.5 -23t-22.5 -10h-58l-90 -393q-2 -12 -12 -20t-23 -8q-16 0 -26.5 11t-10.5 26q0 6 1 8l86 376h-252l-89 -393q-3 -12 -13 -20t-23 -8q-15 0 -25.5 11t-10.5 26q0 6 1 8l86 376h-44q-13 0 -22.5 10t-9.5 23t9.5 23t22.5 10h503q13 0 22.5 -10t9.5 -23z
" />
    <glyph glyph-name="rho" unicode="&#x3c1;" horiz-adv-x="572" 
d="M113 76l-53 -236q-3 -12 -13 -20t-23 -8q-15 0 -25.5 11t-10.5 26q0 6 1 8l86 385q25 115 96 184q72 69 173 69q89 0 139.5 -56.5t50.5 -148.5q1 -76 -30.5 -146t-91 -114t-131.5 -42q-54 0 -99 24t-69 64zM335 428q-68 0 -117 -51t-68 -135l-25 -109q19 -36 57.5 -57
t88.5 -21q78 0 131 68.5t53 158.5q0 64 -32 105t-88 41z" />
    <glyph glyph-name="uni03C2" unicode="&#x3c2;" horiz-adv-x="483" 
d="M312 495q103 0 158 -61q11 -11 11 -27q0 -14 -11 -24.5t-25 -10.5t-25 11q-39 45 -106 45q-86 0 -141 -66t-55 -157q0 -138 175 -138q102 0 102 -69q0 -49 -68 -146q-10 -13 -27 -13q-13 0 -22.5 9t-9.5 23q0 9 6 18q42 59 42 83q0 28 -53 28q-102 0 -162.5 53t-60.5 151
q-2 118 79.5 205.5t192.5 85.5z" />
    <glyph glyph-name="sigma" unicode="&#x3c3;" horiz-adv-x="572" 
d="M41 202q-2 114 87.5 198.5t220.5 82.5h216q14 0 23.5 -9.5t9.5 -23.5t-9.5 -24t-23.5 -10h-94q54 -52 54 -141q2 -112 -76.5 -200.5t-187.5 -86.5q-101 0 -160.5 58.5t-59.5 155.5zM387 416h-47q-97 0 -158.5 -63.5t-61.5 -147.5q0 -69 38 -109.5t105 -40.5
q77 -2 134 66.5t55 152.5q0 50 -17.5 87.5t-47.5 54.5z" />
    <glyph glyph-name="tau" unicode="&#x3c4;" horiz-adv-x="468" 
d="M494 450q0 -13 -9.5 -23t-23.5 -10h-149l-66 -298q-2 -10 -2 -20q0 -44 49 -44q8 0 20 5q14 2 25 -7.5t11 -23.5q0 -21 -20 -29q-27 -12 -54 -12q-111 0 -111 88q0 13 3 28l70 313h-133q-13 0 -22.5 10t-9.5 23t9.5 23t22.5 10h357q14 0 23.5 -9.5t9.5 -23.5z" />
    <glyph glyph-name="upsilon" unicode="&#x3c5;" horiz-adv-x="562" 
d="M71 221l55 238q2 12 12 20t23 8q16 0 26.5 -11t10.5 -26q0 -6 -1 -8l-53 -229q-6 -30 -6 -54q0 -104 106 -104q87 0 148 80t61 189q0 65 -22 115q-2 10 -2 13q0 15 11 25.5t26 10.5q28 0 36 -25q26 -64 26 -138q2 -138 -82 -238.5t-202 -98.5q-88 0 -134.5 44t-46.5 121
q0 34 8 68z" />
    <glyph glyph-name="phi" unicode="&#x3c6;" horiz-adv-x="683" 
d="M324 -12l-32 -148q-3 -12 -13 -20t-23 -8q-17 0 -28.5 13.5t-7.5 30.5l30 137q-87 10 -148 68.5t-61 149.5q0 193 194 273q6 3 13 3q13 0 23 -10t10 -24q0 -20 -19 -30q-141 -61 -141 -209q0 -66 40.5 -106.5t103.5 -47.5l88 403q6 32 42 32q106 0 176.5 -63.5
t70.5 -159.5q0 -121 -80.5 -202.5t-237.5 -81.5zM562 269q0 67 -42.5 109t-101.5 45l-80 -368q105 0 164.5 60.5t59.5 153.5z" />
    <glyph glyph-name="chi" unicode="&#x3c7;" horiz-adv-x="486" 
d="M502 449q0 -13 -9 -23l-226 -274l110 -291q3 -8 3 -14q0 -15 -12 -25t-28 -10q-25 0 -37 27l-91 250l-214 -264q-13 -13 -28 -13t-25.5 11.5t-10.5 26.5q0 13 8 23l241 292l-104 273q-2 6 -2 12q0 15 12 26t28 11q27 0 36 -27l85 -232l199 245q12 14 28 14q15 0 26 -11.5
t11 -26.5z" />
    <glyph glyph-name="psi" unicode="&#x3c8;" horiz-adv-x="708" 
d="M641 487q17 0 28.5 -13.5t7.5 -30.5l-51 -233q-22 -105 -95.5 -163.5t-193.5 -58.5l-32 -148q-2 -12 -12 -20t-23 -8q-16 0 -26.5 10.5t-10.5 25.5q0 6 1 8l30 137q-85 12 -140 61t-55 123q0 32 11 85l44 197q2 12 12.5 20t23.5 8q15 0 25.5 -10.5t10.5 -25.5q0 -6 -1 -8
l-41 -190q-9 -42 -9 -72q0 -46 36.5 -79.5t96.5 -41.5l128 583q2 12 12 20t23 8q17 0 28.5 -13.5t7.5 -30.5l-126 -572q82 0 133.5 44t69.5 123l52 236q2 13 12 21t23 8z" />
    <glyph glyph-name="omega" unicode="&#x3c9;" horiz-adv-x="771" 
d="M367 135q-61 -147 -175 -147q-72 0 -112.5 52t-40.5 138q0 76 39 162q39 87 111 144q8 8 22 8t24.5 -10t10.5 -24q0 -13 -11 -24q-56 -51 -87.5 -119.5t-31.5 -135.5q0 -57 22.5 -90.5t67.5 -33.5q50 0 87 50.5t56 136.5l22 98q2 13 12 21t23 8q16 0 26.5 -10.5
t10.5 -25.5q0 -6 -1 -8l-18 -83q-9 -39 -9 -75q0 -52 23 -82t68 -30q61 -2 107 79t44 175q0 75 -28 130q-3 6 -3 15q0 15 10.5 26t26.5 11q21 0 33 -20q36 -69 36 -161q1 -80 -30.5 -156t-85 -122t-111.5 -44q-69 0 -100.5 38t-37.5 109z" />
    <glyph glyph-name="iotadieresis" unicode="&#x3ca;" horiz-adv-x="238" 
d="M43 101l80 358q3 12 13 20t23 8q15 0 25.5 -11t10.5 -26q0 -6 -1 -8l-74 -329q-3 -12 -3 -22q0 -31 26 -34q7 -1 13 -5q17 -11 17 -29q0 -12 -9 -22t-21 -12q-4 -1 -19 -1q-86 0 -86 76q0 12 5 37zM53 628q0 20 16 35.5t36 15.5q17 0 29 -12t12 -29q0 -20 -15.5 -36
t-36.5 -16q-17 0 -29 12.5t-12 29.5zM259 628q0 20 16 35.5t36 15.5q18 0 29.5 -12t11.5 -29q0 -20 -15.5 -36t-36.5 -16q-17 0 -29 12.5t-12 29.5z" />
    <glyph glyph-name="upsilondieresis" unicode="&#x3cb;" horiz-adv-x="562" 
d="M71 221l55 238q2 12 12 20t23 8q16 0 26.5 -11t10.5 -26q0 -6 -1 -8l-53 -229q-6 -30 -6 -54q0 -104 106 -104q87 0 148 80t61 189q0 65 -22 115q-2 10 -2 13q0 15 11 25.5t26 10.5q28 0 36 -25q26 -64 26 -138q2 -138 -82 -238.5t-202 -98.5q-88 0 -134.5 44t-46.5 121
q0 34 8 68zM216 628q0 20 16 35.5t36 15.5q17 0 29 -12t12 -29q0 -20 -15.5 -36t-36.5 -16q-17 0 -29 12.5t-12 29.5zM422 628q0 20 16 35.5t36 15.5q18 0 29.5 -12t11.5 -29q0 -20 -15.5 -36t-36.5 -16q-17 0 -29 12.5t-12 29.5z" />
    <glyph glyph-name="omicrontonos" unicode="&#x3cc;" horiz-adv-x="572" 
d="M309 495q101 0 161 -59t60 -156q2 -115 -78 -204.5t-191 -87.5q-102 0 -161.5 58.5t-59.5 155.5q-2 115 78 205.5t191 87.5zM307 428q-79 0 -133.5 -67.5t-54.5 -155.5q0 -70 38 -110t106 -40q79 0 133.5 67.5t54.5 155.5q0 70 -38 110t-106 40zM350 614l52 162
q7 22 30 22q14 0 24 -9.5t10 -22.5q0 -8 -5 -16l-77 -150q-5 -11 -16 -11q-10 0 -15.5 7.5t-2.5 17.5z" />
    <glyph glyph-name="upsilontonos" unicode="&#x3cd;" horiz-adv-x="562" 
d="M71 221l55 238q2 12 12 20t23 8q16 0 26.5 -11t10.5 -26q0 -6 -1 -8l-53 -229q-6 -30 -6 -54q0 -104 106 -104q87 0 148 80t61 189q0 65 -22 115q-2 10 -2 13q0 15 11 25.5t26 10.5q28 0 36 -25q26 -64 26 -138q2 -138 -82 -238.5t-202 -98.5q-88 0 -134.5 44t-46.5 121
q0 34 8 68zM341 614l52 162q7 22 30 22q14 0 24 -9.5t10 -22.5q0 -8 -5 -16l-77 -150q-5 -11 -16 -11q-10 0 -15.5 7.5t-2.5 17.5z" />
    <glyph glyph-name="omegatonos" unicode="&#x3ce;" horiz-adv-x="771" 
d="M367 135q-61 -147 -175 -147q-72 0 -112.5 52t-40.5 138q0 76 39 162q39 87 111 144q8 8 22 8t24.5 -10t10.5 -24q0 -13 -11 -24q-56 -51 -87.5 -119.5t-31.5 -135.5q0 -57 22.5 -90.5t67.5 -33.5q50 0 87 50.5t56 136.5l22 98q2 13 12 21t23 8q16 0 26.5 -10.5
t10.5 -25.5q0 -6 -1 -8l-18 -83q-9 -39 -9 -75q0 -52 23 -82t68 -30q61 -2 107 79t44 175q0 75 -28 130q-3 6 -3 15q0 15 10.5 26t26.5 11q21 0 33 -20q36 -69 36 -161q1 -80 -30.5 -156t-85 -122t-111.5 -44q-69 0 -100.5 38t-37.5 109zM445 614l52 162q7 22 30 22
q14 0 24 -9.5t10 -22.5q0 -8 -5 -16l-77 -150q-5 -11 -16 -11q-10 0 -15.5 7.5t-2.5 17.5z" />
    <glyph glyph-name="uni0401" unicode="&#x401;" horiz-adv-x="569" 
d="M33 36q0 10 1 13l128 579q9 39 49 39h356q15 0 25.5 -11t10.5 -26t-10.5 -26t-25.5 -11h-329l-48 -215h306q15 0 25.5 -11t10.5 -26t-10.5 -26t-25.5 -11h-323l-51 -230h313q15 0 26 -11t11 -26t-11 -26t-26 -11h-361q-41 0 -41 36zM274 775q0 20 16 35.5t36 15.5
q17 0 29 -12t12 -29q0 -20 -15.5 -36t-36.5 -16q-17 0 -29 12.5t-12 29.5zM480 775q0 20 16 35.5t36 15.5q18 0 29.5 -12t11.5 -29q0 -20 -15.5 -36t-36.5 -16q-17 0 -29 12.5t-12 29.5z" />
    <glyph glyph-name="uni0402" unicode="&#x402;" horiz-adv-x="769" 
d="M450 27q0 31 32 36q118 9 140 123l2 8q4 15 4 34q0 52 -38.5 82t-107.5 30q-71 0 -142 -31l-62 -281q-7 -32 -39 -32q-17 0 -29 12t-12 29q0 6 1 8l121 548h-170q-15 0 -26 11t-11 26t11 26t26 11h438q15 0 26 -11t11 -26t-11 -26t-26 -11h-185l-49 -217q68 38 153 38
q96 0 150.5 -47.5t54.5 -125.5q0 -17 -5 -47l-2 -8q-21 -99 -90 -149q-26 -21 -63 -34t-67 -13q-14 0 -24.5 10.5t-10.5 26.5z" />
    <glyph glyph-name="uni0403" unicode="&#x403;" horiz-adv-x="544" 
d="M33 36q0 7 1 9l128 583q9 39 49 39h356q15 0 25.5 -11t10.5 -26t-10.5 -26t-25.5 -11h-329l-125 -565q-7 -32 -40 -32q-16 0 -28 12t-12 28zM423 719q-10 0 -16.5 6.5t-6.5 15.5t9 17l135 107q6 6 17 6t18.5 -7.5t7.5 -18.5q0 -14 -11 -22l-140 -100q-7 -4 -13 -4z" />
    <glyph glyph-name="uni0404" unicode="&#x404;" horiz-adv-x="676" 
d="M690 539q0 -18 -12 -30.5t-30 -12.5q-23 0 -34 18q-63 90 -184 90q-91 0 -167 -62.5t-103 -163.5h346q15 0 25.5 -11t10.5 -26t-10.5 -26t-25.5 -11h-357q-1 -5 -1 -20q0 -99 61.5 -160.5t163.5 -61.5q84 0 160 59q9 9 24 9q16 0 27.5 -11t11.5 -27t-15 -30
q-93 -74 -213 -74q-134 0 -221 80.5t-87 211.5q-2 84 29.5 160t84 128t121.5 81.5t140 28.5q164 0 247 -114q8 -11 8 -25z" />
    <glyph glyph-name="uni0405" unicode="&#x405;" horiz-adv-x="586" 
d="M27 110q0 17 12.5 29t29.5 12q14 0 28 -11q78 -78 196 -78q70 0 108.5 37.5t38.5 86.5q0 38 -32 62.5t-109 54.5q-66 28 -100 45q-90 50 -90 135q-2 77 68 136.5t168 57.5q131 0 214 -77q14 -11 14 -31q0 -17 -11.5 -29t-28.5 -12q-16 0 -27 10q-66 66 -170 66
q-56 0 -97 -33.5t-41 -76.5q0 -24 18 -44q28 -29 119 -65q69 -29 100 -46q94 -51 94 -140q2 -84 -66.5 -148t-176.5 -63q-73 0 -138 24.5t-107 66.5q-14 14 -14 31z" />
    <glyph glyph-name="uni0406" unicode="&#x406;" horiz-adv-x="239" 
d="M33 36q0 7 1 9l131 594q7 32 39 32q17 0 29 -12t12 -29q0 -6 -1 -8l-131 -594q-7 -32 -40 -32q-16 0 -28 12t-12 28z" />
    <glyph glyph-name="uni0407" unicode="&#x407;" horiz-adv-x="239" 
d="M33 36q0 7 1 9l131 594q7 32 39 32q17 0 29 -12t12 -29q0 -6 -1 -8l-131 -594q-7 -32 -40 -32q-16 0 -28 12t-12 28zM91 775q0 20 16 35.5t36 15.5q17 0 29 -12t12 -29q0 -20 -15.5 -36t-36.5 -16q-17 0 -29 12.5t-12 29.5zM297 775q0 20 16 35.5t36 15.5q18 0 29.5 -12
t11.5 -29q0 -20 -15.5 -36t-36.5 -16q-17 0 -29 12.5t-12 29.5z" />
    <glyph glyph-name="uni0408" unicode="&#x408;" horiz-adv-x="475" 
d="M-13 76q0 16 11 27.5t27 11.5q15 0 25 -9q41 -44 104 -44q59 0 97 36.5t53 103.5l97 437q7 32 39 32q17 0 29 -12t12 -29q0 -6 -1 -8l-93 -421q-47 -213 -229 -213q-97 0 -157 60q-14 12 -14 28z" />
    <glyph glyph-name="uni0409" unicode="&#x409;" horiz-adv-x="1060" 
d="M764 0h-217q-41 0 -41 35l2 14l119 544h-255l-37 -121q-54 -175 -104 -279t-94 -147.5t-99 -56.5q-14 -2 -18 -2q-16 0 -27.5 12t-11.5 28q0 14 9 25t22 13q65 11 120 97.5t127 312.5l47 155q10 37 50 37h320q41 0 41 -35l-2 -14l-47 -216h171q83 0 132 -46.5t49 -120.5
q1 -90 -68 -163.5t-188 -71.5zM652 328l-56 -254h173q72 0 117.5 44t45.5 110q0 44 -29.5 72t-78.5 28h-172z" />
    <glyph glyph-name="uni040A" unicode="&#x40a;" horiz-adv-x="1060" 
d="M506 35l2 14l56 257h-391l-61 -278q-2 -14 -13 -23t-26 -9q-16 0 -28 12t-12 28q0 7 1 9l130 594q7 32 39 32q17 0 29 -12t12 -29q0 -6 -1 -8l-53 -242h390l57 259q7 32 39 32q17 0 29 -12t12 -28q0 -7 -1 -9l-53 -242h182q80 0 126 -43.5t46 -113.5q0 -88 -64 -155.5
t-178 -67.5h-228q-41 0 -41 35zM647 306l-51 -232h186q66 0 107.5 40t41.5 100q0 41 -27 66.5t-72 25.5h-185z" />
    <glyph glyph-name="uni040B" unicode="&#x40b;" horiz-adv-x="785" 
d="M628 233q0 107 -146 107q-71 0 -142 -31l-62 -281q-7 -32 -39 -32q-17 0 -29 12t-12 29q0 6 1 8l121 548h-170q-15 0 -26 11t-11 26t11 26t26 11h438q15 0 26 -11t11 -26t-11 -26t-26 -11h-185l-49 -217q68 38 153 38q98 0 152 -41t54 -123q0 -25 -8 -65l-35 -157
q-2 -14 -13.5 -23t-25.5 -9q-17 0 -29 12t-12 29q0 6 1 8l31 141q6 25 6 47z" />
    <glyph glyph-name="uni040C" unicode="&#x40c;" horiz-adv-x="601" 
d="M612 634q0 -16 -12 -27l-294 -256l200 -292q6 -9 6 -22q0 -17 -12 -29t-29 -12q-24 0 -36 20l-191 289l-88 -81l-43 -196q-7 -32 -40 -32q-16 0 -28 12t-12 28q0 7 1 9l131 594q7 32 39 32q17 0 29 -12t12 -29q0 -6 -1 -8l-65 -293l371 332q9 10 25 10q15 0 26 -10.5
t11 -26.5zM436 719q-10 0 -16.5 6.5t-6.5 15.5t9 17l135 107q6 6 17 6t18.5 -7.5t7.5 -18.5q0 -14 -11 -22l-140 -100q-7 -4 -13 -4z" />
    <glyph glyph-name="uni040E" unicode="&#x40e;" horiz-adv-x="626" 
d="M674 630q0 -13 -7 -23l-345 -489q-47 -68 -95.5 -99t-113.5 -31q-13 0 -23 3q-14 1 -24.5 12t-10.5 26q0 18 14.5 29.5t31.5 7.5q12 -4 23 -4q35 0 61 19.5t66 73.5l21 29l-154 432q-2 10 -2 12q0 18 12 30.5t30 12.5q31 0 40 -29l131 -388l270 399q11 18 34 18
q17 0 29 -12.5t12 -28.5zM281 777q-9 9 -9 20q0 12 8.5 20.5t20.5 8.5q13 0 21 -9q42 -45 105 -45q59 0 112 48q6 7 17 7t19 -8t8 -19q0 -10 -8 -18q-68 -65 -155 -65q-85 0 -139 60z" />
    <glyph glyph-name="uni040F" unicode="&#x40f;" horiz-adv-x="696" 
d="M701 631q0 -7 -1 -9l-128 -583q-8 -39 -48 -39h-194l-23 -103q-2 -12 -12 -20.5t-23 -8.5q-17 0 -28 13.5t-7 30.5l19 88h-182q-41 0 -41 36q0 10 1 13l130 590q7 32 39 32q17 0 29 -12t12 -29q0 -6 -1 -8l-121 -548h375l124 565q7 32 39 32q17 0 29 -11.5t12 -28.5z" />
    <glyph glyph-name="uni0410" unicode="&#x410;" horiz-adv-x="658" 
d="M587 38q0 -18 -12.5 -30t-30.5 -12q-16 0 -27.5 10t-14.5 25l-19 117h-343l-80 -132q-12 -20 -35 -20q-17 0 -29 12t-12 29q0 8 7 21l361 579q21 34 61 34q26 0 45.5 -16.5t24.5 -42.5l103 -566q1 -2 1 -8zM185 222h285l-61 368z" />
    <glyph glyph-name="uni0411" unicode="&#x411;" horiz-adv-x="587" 
d="M599 630q0 -15 -11 -26t-26 -11h-325l-42 -191h166q81 0 133 -50.5t52 -122.5q0 -91 -65.5 -160t-188.5 -69h-218q-41 0 -41 36q0 10 1 13l127 579q9 39 49 39h352q15 0 26 -11t11 -26zM179 328l-57 -254h176q74 0 117.5 42.5t43.5 106.5q0 42 -32 74q-31 31 -79 31h-169
z" />
    <glyph glyph-name="uni0412" unicode="&#x412;" horiz-adv-x="629" 
d="M33 36q0 10 1 13l128 579q9 39 49 39h237q73 0 121.5 -43.5t48.5 -109.5q0 -69 -46 -121t-109 -58q42 -11 70 -50t28 -87q0 -82 -60 -140t-168 -58h-259q-41 0 -41 36zM427 593h-189l-48 -215h207q65 0 98 35t33 89q0 39 -29.5 65t-71.5 26zM369 304h-196l-51 -230h209
q66 0 105.5 37t39.5 93q0 45 -29.5 72.5t-77.5 27.5z" />
    <glyph glyph-name="uni0413" unicode="&#x413;" horiz-adv-x="544" 
d="M33 36q0 7 1 9l128 583q9 39 49 39h356q15 0 25.5 -11t10.5 -26t-10.5 -26t-25.5 -11h-329l-125 -565q-7 -32 -40 -32q-16 0 -28 12t-12 28z" />
    <glyph glyph-name="uni0414" unicode="&#x414;" horiz-adv-x="723" 
d="M701 632l-2 -14l-119 -544h26q19 0 30 -10t11 -27q0 -9 -1 -12l-28 -124q-2 -12 -12 -20t-23 -8q-17 0 -28 13t-7 30l18 84h-515l-22 -99q-2 -12 -12 -20t-22 -8q-17 0 -28.5 13.5t-7.5 29.5l26 118q9 40 49 40h11q97 76 214 425l43 131q12 37 50 37h308q41 0 41 -35z
M497 74l114 519h-247l-32 -99q-60 -189 -108 -286q-48 -95 -89 -134h362z" />
    <glyph glyph-name="uni0415" unicode="&#x415;" horiz-adv-x="569" 
d="M33 36q0 10 1 13l128 579q9 39 49 39h356q15 0 25.5 -11t10.5 -26t-10.5 -26t-25.5 -11h-329l-48 -215h306q15 0 25.5 -11t10.5 -26t-10.5 -26t-25.5 -11h-323l-51 -230h313q15 0 26 -11t11 -26t-11 -26t-26 -11h-361q-41 0 -41 36z" />
    <glyph glyph-name="uni0416" unicode="&#x416;" horiz-adv-x="891" 
d="M891 606l-277 -271l181 -278q7 -10 7 -22q0 -16 -12 -27.5t-29 -11.5q-22 0 -34 19l-185 295h-41l-62 -282q-7 -32 -39 -32q-17 0 -29 12t-12 29q0 6 1 8l58 265h-41l-306 -303q-14 -11 -28 -11q-16 0 -27.5 11t-11.5 27q0 14 11 28l307 294l-164 255q-6 11 -6 20
q0 16 11.5 28t28.5 12q23 0 34 -19l170 -276h36l58 263q7 32 40 32q17 0 28.5 -11.5t11.5 -28.5q0 -7 -1 -9l-54 -246h40l280 283q13 12 28 12q16 0 27.5 -11t11.5 -27t-11 -27z" />
    <glyph glyph-name="uni0417" unicode="&#x417;" horiz-adv-x="584" 
d="M16 121q0 16 11 28t28 12q16 0 30 -14q29 -40 77.5 -62.5t105.5 -22.5q76 0 121.5 39t45.5 101q0 46 -42 74.5t-115 28.5h-64q-15 0 -25.5 10.5t-10.5 26.5q0 15 10.5 26t25.5 11h108q69 0 119 30q50 32 50 88q0 46 -45 76t-116 30q-84 0 -152 -48q-8 -5 -17 -5
q-15 0 -25 10.5t-10 24.5q0 16 15 28q85 64 195 64q107 0 173 -45q66 -44 66 -123q0 -69 -57 -117t-129 -54q56 -10 92 -48.5t36 -94.5q0 -86 -71 -146.5t-177 -60.5q-78 0 -143.5 29t-100.5 79q-9 12 -9 25z" />
    <glyph glyph-name="uni0418" unicode="&#x418;" horiz-adv-x="708" 
d="M34 43q0 7 1 9l130 587q7 32 39 32q17 0 29 -12t12 -29q0 -7 -1 -9l-109 -494l493 529q13 15 36 15q20 0 34 -15t14 -35q0 -7 -1 -9l-129 -584q-7 -32 -40 -32q-19 0 -31.5 15.5t-8.5 34.5l112 504l-500 -539q-12 -15 -34 -15q-19 0 -32.5 14t-13.5 33z" />
    <glyph glyph-name="uni0419" unicode="&#x419;" horiz-adv-x="708" 
d="M34 43q0 7 1 9l130 587q7 32 39 32q17 0 29 -12t12 -29q0 -7 -1 -9l-109 -494l493 529q13 15 36 15q20 0 34 -15t14 -35q0 -7 -1 -9l-129 -584q-7 -32 -40 -32q-19 0 -31.5 15.5t-8.5 34.5l112 504l-500 -539q-12 -15 -34 -15q-19 0 -32.5 14t-13.5 33zM330 777
q-9 9 -9 20q0 12 8.5 20.5t20.5 8.5q14 0 21 -9q42 -45 105 -45q60 0 112 48q6 7 17 7t19 -8t8 -19q0 -10 -8 -18q-68 -65 -155 -65q-85 0 -139 60z" />
    <glyph glyph-name="uni041A" unicode="&#x41a;" horiz-adv-x="601" 
d="M612 634q0 -16 -12 -27l-294 -256l200 -292q6 -9 6 -22q0 -17 -12 -29t-29 -12q-24 0 -36 20l-191 289l-88 -81l-43 -196q-7 -32 -40 -32q-16 0 -28 12t-12 28q0 7 1 9l131 594q7 32 39 32q17 0 29 -12t12 -29q0 -6 -1 -8l-65 -293l371 332q9 10 25 10q15 0 26 -10.5
t11 -26.5z" />
    <glyph glyph-name="uni041B" unicode="&#x41b;" horiz-adv-x="712" 
d="M506 36q0 7 1 9l120 548h-255l-37 -121q-54 -175 -104 -279t-94 -147.5t-99 -56.5q-14 -2 -18 -2q-16 0 -27.5 12t-11.5 28q0 14 9 25t22 13q65 11 120 97.5t127 312.5l47 155q10 37 50 37h320q41 0 41 -35l-2 -14l-129 -590q-7 -32 -39 -32q-17 0 -29 11.5t-12 28.5z
" />
    <glyph glyph-name="uni041C" unicode="&#x41c;" horiz-adv-x="809" 
d="M603 37q0 6 1 8l115 522l-345 -560q-7 -13 -21 -13q-20 0 -25 21l-97 552l-118 -539q-7 -32 -40 -32q-16 0 -28 12t-12 28q0 7 1 9l126 572q5 24 24 39t43 15q25 0 44.5 -16.5t23.5 -40.5l83 -472l306 497q19 32 57 32q29 0 48.5 -19.5t19.5 -49.5q0 -10 -1 -13
l-125 -561q-7 -32 -39 -32q-17 0 -29 12t-12 29z" />
    <glyph glyph-name="uni041D" unicode="&#x41d;" horiz-adv-x="712" 
d="M506 36q0 7 1 9l57 261h-390l-61 -278q-7 -32 -40 -32q-16 0 -28 12t-12 28q0 7 1 9l131 594q7 32 39 32q17 0 29 -12t12 -29q0 -6 -1 -8l-53 -242h390l57 259q7 32 39 32q17 0 29 -12t12 -28q0 -7 -1 -9l-131 -594q-7 -32 -39 -32q-17 0 -29 12t-12 28z" />
    <glyph glyph-name="uni041E" unicode="&#x41e;" horiz-adv-x="765" 
d="M435 678q131 2 220.5 -79t87.5 -212q3 -164 -109.5 -283t-265.5 -116q-133 0 -220.5 79.5t-87.5 212.5q-3 163 109 282t266 116zM430 604q-114 3 -199 -92t-83 -228q0 -102 63.5 -162t161.5 -60q113 -3 198.5 92t83.5 228q0 102 -64 162t-161 60z" />
    <glyph glyph-name="uni041F" unicode="&#x41f;" horiz-adv-x="712" 
d="M506 36q0 7 1 9l120 548h-390l-124 -565q-7 -32 -40 -32q-16 0 -28 12t-12 28q0 7 1 9l128 583q9 39 49 39h466q41 0 41 -35l-2 -14l-130 -590q-7 -32 -39 -32q-17 0 -29 12t-12 28z" />
    <glyph glyph-name="uni0420" unicode="&#x420;" horiz-adv-x="587" 
d="M33 36q0 7 1 9l128 583q9 39 49 39h208q83 0 134 -50t51 -123q0 -92 -65.5 -160.5t-189.5 -68.5h-184l-52 -237q-7 -32 -40 -32q-16 0 -28 12t-12 28zM517 488q0 45 -31.5 75t-79.5 30h-168l-57 -254h175q74 0 117.5 42t43.5 107z" />
    <glyph glyph-name="uni0421" unicode="&#x421;" horiz-adv-x="664" 
d="M435 678q164 0 247 -114q8 -14 8 -25q0 -18 -12.5 -30.5t-29.5 -12.5q-23 0 -34 18q-63 90 -184 90q-110 2 -197.5 -91.5t-84.5 -228.5q0 -99 61.5 -160.5t163.5 -61.5q84 0 160 59q9 9 24 9q16 0 27.5 -11t11.5 -27t-15 -30q-93 -74 -213 -74q-134 0 -221 80.5
t-87 211.5q-2 84 29.5 160t84 128t121.5 81.5t140 28.5z" />
    <glyph glyph-name="uni0422" unicode="&#x422;" horiz-adv-x="570" 
d="M198 37q0 6 1 8l121 548h-170q-15 0 -25.5 11t-10.5 26t10.5 26t25.5 11h439q15 0 26 -11t11 -26t-11 -26t-26 -11h-186l-125 -565q-7 -32 -39 -32q-17 0 -29 12t-12 29z" />
    </font>
</defs>
</svg>
