<?xml version="1.0" standalone="no"?>
<!DOCTYPE svg PUBLIC "-//W3C//DTD SVG 1.1//EN" "http://www.w3.org/Graphics/SVG/1.1/DTD/svg11.dtd" >
<svg xmlns="http://www.w3.org/2000/svg" xmlns:xlink="http://www.w3.org/1999/xlink" version="1.1">
<metadata>
Created by FontForge 20170731 at Tue Dec 25 03:00:00 2018
 By Aleksey,,,
Copyright (c) 2018 by Mark Simonson. All rights reserved.
</metadata>
<defs>
<font id="ProximaSoft-SemiBold" horiz-adv-x="567" >
  <font-face 
    font-family="Proxima Soft SemiBold"
    font-weight="600"
    font-stretch="normal"
    units-per-em="1000"
    panose-1="2 0 5 6 3 0 0 2 0 4"
    ascent="790"
    descent="-210"
    x-height="483"
    cap-height="667"
    bbox="-373 -335 1170 1085"
    underline-thickness="74"
    underline-position="-369"
    unicode-range="U+000D-FB04"
  />
<missing-glyph horiz-adv-x="493" 
d="M71 -48v758q0 19 11.5 30.5t30.5 11.5h267q19 0 30.5 -11.5t11.5 -30.5v-758q0 -19 -11.5 -30.5t-30.5 -11.5h-267q-19 0 -30.5 11.5t-11.5 30.5zM390 722h-288v-782h288v782z" />
    <glyph glyph-name="f_f_j" unicode="ffj" horiz-adv-x="857" 
d="M198 510v-27h58q19 0 32.5 -13.5t13.5 -32.5t-13.5 -32.5t-32.5 -13.5h-58v-344q0 -22 -15.5 -37.5t-36.5 -15.5q-22 0 -37.5 15.5t-15.5 37.5v344h-40q-19 0 -32.5 13.5t-13.5 32.5t13.5 32.5t32.5 13.5h40v27q0 78 41.5 122.5t111.5 44.5q26 0 49 -6q32 -8 32 -40
q0 -42 -41 -42q-4 0 -11.5 1t-9.5 1q-31 0 -49 -21t-18 -60zM506 510v-27h58q19 0 32.5 -13.5t13.5 -32.5t-13.5 -32.5t-32.5 -13.5h-58v-344q0 -22 -15.5 -37.5t-36.5 -15.5q-22 0 -37.5 15.5t-15.5 37.5v344h-40q-19 0 -32.5 13.5t-13.5 32.5t13.5 32.5t32.5 13.5h40v27
q0 78 41.5 122.5t111.5 44.5q26 0 49 -6q32 -8 32 -40q0 -42 -41 -42q-4 0 -11.5 1t-9.5 1q-31 0 -49 -21t-18 -60zM671 642q0 27 19.5 46t45.5 19q27 0 46 -19t19 -46t-19 -46t-46 -19q-26 0 -45.5 19t-19.5 46zM629 -196h-12q-17 0 -30 13t-13 31t11.5 31.5t27.5 13.5h3
q68 0 68 79v464q0 22 15.5 37.5t37.5 15.5q21 0 36.5 -15.5t15.5 -37.5v-464q0 -80 -41.5 -124t-118.5 -44z" />
    <glyph glyph-name="f_j" unicode="fj" horiz-adv-x="549" 
d="M198 510v-27h58q19 0 32.5 -13.5t13.5 -32.5t-13.5 -32.5t-32.5 -13.5h-58v-344q0 -22 -15.5 -37.5t-36.5 -15.5q-22 0 -37.5 15.5t-15.5 37.5v344h-40q-19 0 -32.5 13.5t-13.5 32.5t13.5 32.5t32.5 13.5h40v27q0 78 41.5 122.5t111.5 44.5q26 0 49 -6q32 -8 32 -40
q0 -42 -41 -42q-4 0 -11.5 1t-9.5 1q-31 0 -49 -21t-18 -60zM363 642q0 27 19.5 46t45.5 19q27 0 46 -19t19 -46t-19 -46t-46 -19q-26 0 -45.5 19t-19.5 46zM321 -196h-12q-17 0 -30 13t-13 31t11.5 31.5t27.5 13.5h3q68 0 68 79v464q0 22 15.5 37.5t37.5 15.5
q21 0 36.5 -15.5t15.5 -37.5v-464q0 -80 -41.5 -124t-118.5 -44z" />
    <glyph glyph-name="f_f" unicode="ff" horiz-adv-x="616" 
d="M198 510v-27h58q19 0 32.5 -13.5t13.5 -32.5t-13.5 -32.5t-32.5 -13.5h-58v-344q0 -22 -15.5 -37.5t-36.5 -15.5q-22 0 -37.5 15.5t-15.5 37.5v344h-40q-19 0 -32.5 13.5t-13.5 32.5t13.5 32.5t32.5 13.5h40v27q0 78 41.5 122.5t111.5 44.5q26 0 49 -6q32 -8 32 -40
q0 -42 -41 -42q-4 0 -11.5 1t-9.5 1q-31 0 -49 -21t-18 -60zM506 510v-27h58q19 0 32.5 -13.5t13.5 -32.5t-13.5 -32.5t-32.5 -13.5h-58v-344q0 -22 -15.5 -37.5t-36.5 -15.5q-22 0 -37.5 15.5t-15.5 37.5v344h-40q-19 0 -32.5 13.5t-13.5 32.5t13.5 32.5t32.5 13.5h40v27
q0 78 41.5 122.5t111.5 44.5q26 0 49 -6q32 -8 32 -40q0 -42 -41 -42q-4 0 -11.5 1t-9.5 1q-31 0 -49 -21t-18 -60z" />
    <glyph glyph-name="fi" unicode="fi" horiz-adv-x="549" 
d="M198 510v-27h58q19 0 32.5 -13.5t13.5 -32.5t-13.5 -32.5t-32.5 -13.5h-58v-344q0 -22 -15.5 -37.5t-36.5 -15.5q-22 0 -37.5 15.5t-15.5 37.5v344h-40q-19 0 -32.5 13.5t-13.5 32.5t13.5 32.5t32.5 13.5h40v27q0 78 41.5 122.5t111.5 44.5q26 0 49 -6q32 -8 32 -40
q0 -42 -41 -42q-4 0 -11.5 1t-9.5 1q-31 0 -49 -21t-18 -60zM363 642q0 27 19.5 46t45.5 19q27 0 46 -19t19 -46t-19 -46t-46 -19q-26 0 -45.5 19t-19.5 46zM376 47v389q0 22 15.5 37.5t37.5 15.5q21 0 36.5 -15.5t15.5 -37.5v-389q0 -22 -15.5 -37.5t-37.5 -15.5
q-21 0 -36.5 15.5t-15.5 37.5z" />
    <glyph glyph-name="fl" unicode="fl" horiz-adv-x="549" 
d="M198 510v-27h58q19 0 32.5 -13.5t13.5 -32.5t-13.5 -32.5t-32.5 -13.5h-58v-344q0 -22 -15.5 -37.5t-36.5 -15.5q-22 0 -37.5 15.5t-15.5 37.5v344h-40q-19 0 -32.5 13.5t-13.5 32.5t13.5 32.5t32.5 13.5h40v27q0 78 41.5 122.5t111.5 44.5q26 0 49 -6q32 -8 32 -40
q0 -42 -41 -42q-4 0 -11.5 1t-9.5 1q-31 0 -49 -21t-18 -60zM376 47v573q0 22 15.5 37.5t37.5 15.5q21 0 36.5 -15.5t15.5 -37.5v-573q0 -22 -15.5 -37.5t-36.5 -15.5q-22 0 -37.5 15.5t-15.5 37.5z" />
    <glyph glyph-name="f_f_i" unicode="ffi" horiz-adv-x="857" 
d="M198 510v-27h58q19 0 32.5 -13.5t13.5 -32.5t-13.5 -32.5t-32.5 -13.5h-58v-344q0 -22 -15.5 -37.5t-36.5 -15.5q-22 0 -37.5 15.5t-15.5 37.5v344h-40q-19 0 -32.5 13.5t-13.5 32.5t13.5 32.5t32.5 13.5h40v27q0 78 41.5 122.5t111.5 44.5q26 0 49 -6q32 -8 32 -40
q0 -42 -41 -42q-4 0 -11.5 1t-9.5 1q-31 0 -49 -21t-18 -60zM506 510v-27h58q19 0 32.5 -13.5t13.5 -32.5t-13.5 -32.5t-32.5 -13.5h-58v-344q0 -22 -15.5 -37.5t-36.5 -15.5q-22 0 -37.5 15.5t-15.5 37.5v344h-40q-19 0 -32.5 13.5t-13.5 32.5t13.5 32.5t32.5 13.5h40v27
q0 78 41.5 122.5t111.5 44.5q26 0 49 -6q32 -8 32 -40q0 -42 -41 -42q-4 0 -11.5 1t-9.5 1q-31 0 -49 -21t-18 -60zM671 642q0 27 19.5 46t45.5 19q27 0 46 -19t19 -46t-19 -46t-46 -19q-26 0 -45.5 19t-19.5 46zM684 47v389q0 22 15.5 37.5t37.5 15.5q21 0 36.5 -15.5
t15.5 -37.5v-389q0 -22 -15.5 -37.5t-37.5 -15.5q-21 0 -36.5 15.5t-15.5 37.5z" />
    <glyph glyph-name="f_f_l" unicode="ffl" horiz-adv-x="857" 
d="M198 510v-27h58q19 0 32.5 -13.5t13.5 -32.5t-13.5 -32.5t-32.5 -13.5h-58v-344q0 -22 -15.5 -37.5t-36.5 -15.5q-22 0 -37.5 15.5t-15.5 37.5v344h-40q-19 0 -32.5 13.5t-13.5 32.5t13.5 32.5t32.5 13.5h40v27q0 78 41.5 122.5t111.5 44.5q26 0 49 -6q32 -8 32 -40
q0 -42 -41 -42q-4 0 -11.5 1t-9.5 1q-31 0 -49 -21t-18 -60zM506 510v-27h58q19 0 32.5 -13.5t13.5 -32.5t-13.5 -32.5t-32.5 -13.5h-58v-344q0 -22 -15.5 -37.5t-36.5 -15.5q-22 0 -37.5 15.5t-15.5 37.5v344h-40q-19 0 -32.5 13.5t-13.5 32.5t13.5 32.5t32.5 13.5h40v27
q0 78 41.5 122.5t111.5 44.5q26 0 49 -6q32 -8 32 -40q0 -42 -41 -42q-4 0 -11.5 1t-9.5 1q-31 0 -49 -21t-18 -60zM684 47v573q0 22 15.5 37.5t37.5 15.5q21 0 36.5 -15.5t15.5 -37.5v-573q0 -22 -15.5 -37.5t-36.5 -15.5q-22 0 -37.5 15.5t-15.5 37.5z" />
    <glyph glyph-name="f_b" unicode="fb" horiz-adv-x="889" 
d="M198 510v-27h58q19 0 32.5 -13.5t13.5 -32.5t-13.5 -32.5t-32.5 -13.5h-58v-344q0 -22 -15.5 -37.5t-36.5 -15.5q-22 0 -37.5 15.5t-15.5 37.5v344h-40q-19 0 -32.5 13.5t-13.5 32.5t13.5 32.5t32.5 13.5h40v27q0 78 41.5 122.5t111.5 44.5q26 0 49 -6q32 -8 32 -40
q0 -42 -41 -42q-4 0 -11.5 1t-9.5 1q-31 0 -49 -21t-18 -60zM850 241q0 -116 -59.5 -184.5t-154.5 -68.5q-96 0 -155 78v-19q0 -22 -15.5 -37.5t-36.5 -15.5q-22 0 -37.5 15.5t-15.5 37.5v573q0 22 15.5 37.5t37.5 15.5q21 0 36.5 -15.5t15.5 -37.5v-204q57 79 155 79
q94 0 154 -69.5t60 -184.5zM742 241q0 72 -37.5 116.5t-99.5 44.5q-36 0 -71 -19t-53 -47v-191q17 -27 52.5 -45.5t71.5 -18.5q62 0 99.5 44t37.5 116z" />
    <glyph glyph-name="f_h" unicode="fh" horiz-adv-x="876" 
d="M198 510v-27h58q19 0 32.5 -13.5t13.5 -32.5t-13.5 -32.5t-32.5 -13.5h-58v-344q0 -22 -15.5 -37.5t-36.5 -15.5q-22 0 -37.5 15.5t-15.5 37.5v344h-40q-19 0 -32.5 13.5t-13.5 32.5t13.5 32.5t32.5 13.5h40v27q0 78 41.5 122.5t111.5 44.5q26 0 49 -6q32 -8 32 -40
q0 -42 -41 -42q-4 0 -11.5 1t-9.5 1q-31 0 -49 -21t-18 -60zM703 47v257q0 52 -24.5 75t-73.5 23q-73 0 -124 -65v-290q0 -22 -15.5 -37.5t-36.5 -15.5q-22 0 -37.5 15.5t-15.5 37.5v573q0 22 15.5 37.5t37.5 15.5q21 0 36.5 -15.5t15.5 -37.5v-203q28 34 74 56t97 22
q156 0 156 -153v-295q0 -22 -15.5 -37.5t-37.5 -15.5q-21 0 -36.5 15.5t-15.5 37.5z" />
    <glyph glyph-name="f_k" unicode="fk" horiz-adv-x="834" 
d="M198 510v-27h58q19 0 32.5 -13.5t13.5 -32.5t-13.5 -32.5t-32.5 -13.5h-58v-344q0 -22 -15.5 -37.5t-36.5 -15.5q-22 0 -37.5 15.5t-15.5 37.5v344h-40q-19 0 -32.5 13.5t-13.5 32.5t13.5 32.5t32.5 13.5h40v27q0 78 41.5 122.5t111.5 44.5q26 0 49 -6q32 -8 32 -40
q0 -42 -41 -42q-4 0 -11.5 1t-9.5 1q-31 0 -49 -21t-18 -60zM798 47q0 -23 -14.5 -38t-36.5 -15q-26 0 -40 17l-157 187l-69 -65v-86q0 -22 -15.5 -37.5t-37.5 -15.5q-21 0 -36.5 15.5t-15.5 37.5v573q0 22 15.5 37.5t37.5 15.5q21 0 36.5 -15.5t15.5 -37.5v-371l226 227
q13 13 34 13q19 0 33 -14.5t14 -34.5q0 -19 -14 -33l-147 -146l159 -180q12 -13 12 -34z" />
    <glyph glyph-name=".notdef" horiz-adv-x="493" 
d="M71 -48v758q0 19 11.5 30.5t30.5 11.5h267q19 0 30.5 -11.5t11.5 -30.5v-758q0 -19 -11.5 -30.5t-30.5 -11.5h-267q-19 0 -30.5 11.5t-11.5 30.5zM390 722h-288v-782h288v782z" />
    <glyph glyph-name=".null" horiz-adv-x="0" 
 />
    <glyph glyph-name="nonmarkingreturn" horiz-adv-x="333" 
 />
    <glyph glyph-name="CR" unicode="&#xd;" horiz-adv-x="0" 
 />
    <glyph glyph-name="space" unicode=" " horiz-adv-x="257" 
 />
    <glyph glyph-name="exclam" unicode="!" horiz-adv-x="245" 
d="M75 243l-15 366q-1 26 17.5 45t44.5 19t44.5 -18.5t17.5 -45.5l-14 -366q-1 -19 -14.5 -32t-33.5 -13q-19 0 -32.5 13t-14.5 32zM122 129q29 0 49.5 -20.5t20.5 -49.5q0 -28 -21 -48.5t-49 -20.5t-48.5 20.5t-20.5 48.5q0 29 20.5 49.5t48.5 20.5z" />
    <glyph glyph-name="quotedbl" unicode="&#x22;" horiz-adv-x="379" 
d="M80 409l-5 33q-27 160 -27 176q0 24 17 41.5t42 17.5q24 0 41.5 -17.5t17.5 -41.5q0 -16 -27 -176l-5 -33q-5 -24 -27 -24t-27 24zM246 409q-7 35 -23 136q-9 64 -9 73q0 24 17 41.5t42 17.5q24 0 41 -17.5t17 -41.5q0 -12 -10 -73q-10 -73 -22 -136q-5 -24 -26 -24
q-22 0 -27 24z" />
    <glyph glyph-name="numbersign" unicode="#" horiz-adv-x="606" 
d="M582 457q0 -14 -10 -24t-24 -10h-85l-60 -180h65q14 0 24 -10t10 -24q0 -15 -10 -25t-24 -10h-88l-51 -154q-9 -26 -36 -26q-16 0 -27 11t-11 27q0 4 2 12l44 130h-102l-51 -154q-9 -26 -36 -26q-16 0 -27 11t-11 27q0 4 2 12l43 130h-59q-14 0 -24 10t-10 24q0 15 10 25
t24 10h83l59 180h-62q-14 0 -24 10t-10 24t10 24t24 10h86l51 156q8 26 36 26q16 0 27 -11t11 -27q0 -10 -1 -12l-44 -132h101l51 156q9 26 36 26q16 0 27 -11t11 -27q0 -4 -2 -12l-44 -132h62q14 0 24 -10t10 -24zM323 243l60 180h-101l-59 -180h100z" />
    <glyph glyph-name="dollar" unicode="$" horiz-adv-x="605" 
d="M348 -10v-56q0 -17 -11.5 -28.5t-28.5 -11.5q-16 0 -28 11.5t-12 28.5v55q-115 8 -197 72q-22 19 -22 45q0 23 16.5 39t39.5 16q19 0 33 -11q60 -45 130 -55v193q-52 14 -85 27t-64 34.5t-46.5 54.5t-16.5 78q0 77 58.5 132t153.5 62v58q0 17 12 28.5t28 11.5
q17 0 28.5 -11.5t11.5 -28.5v-60q91 -9 161 -57q24 -18 24 -46q0 -22 -16 -38.5t-39 -16.5q-18 0 -31 10q-44 31 -99 41v-172q55 -16 87 -29t64.5 -35.5t48 -56t16.5 -80.5q0 -84 -56 -139.5t-160 -64.5zM268 416v156q-43 -5 -67.5 -26.5t-24.5 -55.5q0 -26 23 -43.5
t69 -30.5zM445 183q0 31 -23.5 50t-73.5 34v-172q47 6 72 31t25 57z" />
    <glyph glyph-name="percent" unicode="%" horiz-adv-x="746" 
d="M28 510q0 71 46 119t119 48t120 -48t47 -119q0 -70 -47 -117t-120 -47t-119 46.5t-46 117.5zM148 22q0 7 5 15l397 623q9 13 24 13q12 0 20 -8.5t8 -19.5q0 -9 -4 -16l-399 -622q-9 -13 -23 -13q-11 0 -19.5 8.5t-8.5 19.5zM282 510q0 48 -25 76.5t-64 28.5t-63.5 -29
t-24.5 -76q0 -46 25 -75t63 -29q39 0 64 29t25 75zM387 152q0 71 46 119t119 48q72 0 119 -48t47 -119q0 -70 -46.5 -117t-119.5 -47t-119 46.5t-46 117.5zM641 152q0 48 -25 76.5t-64 28.5t-63.5 -28.5t-24.5 -76.5q0 -46 24.5 -75t63.5 -29t64 29t25 75z" />
    <glyph glyph-name="ampersand" unicode="&#x26;" horiz-adv-x="644" 
d="M591 44q0 -21 -15 -35.5t-35 -14.5q-15 0 -29 9q-30 22 -74 62q-86 -77 -194 -77q-94 0 -155 49q-60 49 -60 141q0 66 36 111.5t109 83.5q-47 85 -47 146q0 67 52 112.5t129 45.5q72 0 118 -37q47 -38 47 -100q0 -46 -23 -81q-20 -31 -51 -52.5t-92 -51.5q29 -40 65 -82
q27 -34 68 -75q30 48 50 98q12 28 42 28q19 0 32.5 -13t13.5 -32q0 -8 -5 -20q-32 -67 -70 -121q26 -22 68 -54q20 -15 20 -40zM266 417q59 28 86.5 54.5t27.5 63.5q0 30 -18.5 47t-48.5 17q-34 0 -57 -23t-23 -59q0 -39 33 -100zM376 123q-62 59 -86 88q-45 55 -74 96
q-75 -50 -75 -120q0 -52 33.5 -83.5t82.5 -31.5q63 0 119 51z" />
    <glyph glyph-name="quotesingle" unicode="'" horiz-adv-x="214" 
d="M80 409l-5 33q-27 160 -27 176q0 24 17 41.5t42 17.5q24 0 41.5 -17.5t17.5 -41.5q0 -16 -27 -176l-5 -33q-5 -24 -27 -24t-27 24z" />
    <glyph glyph-name="parenleft" unicode="(" horiz-adv-x="276" 
d="M169 -167q-61 87 -94 194t-33 216t33 216t94 194q13 19 36 19q19 0 31.5 -13t12.5 -31q0 -13 -4 -20q-47 -91 -68 -176.5t-21 -188.5t21 -188t67 -176q5 -12 5 -20q0 -19 -12.5 -32t-31.5 -13q-23 0 -36 19z" />
    <glyph glyph-name="parenright" unicode=")" horiz-adv-x="276" 
d="M26 -141q0 8 5 20q47 91 68 176t21 188t-21 188.5t-68 176.5q-5 12 -5 20q0 18 13 31t31 13q23 0 36 -19q61 -87 94.5 -194.5t33.5 -215.5t-33.5 -215.5t-94.5 -194.5q-13 -19 -36 -19q-18 0 -31 13t-13 32z" />
    <glyph glyph-name="asterisk" unicode="*" horiz-adv-x="346" 
d="M146 398l4 90l-75 -49q-7 -4 -15 -4q-10 0 -18 8t-8 18q0 16 14 24l80 41l-80 41q-14 8 -14 24q0 11 8 18.5t18 7.5q8 0 15 -4l75 -48l-4 90q-1 11 7.5 19.5t19.5 8.5q12 0 20 -8t7 -20l-5 -90l75 48q7 4 15 4q11 0 19 -7.5t8 -18.5q0 -17 -15 -24l-79 -41l79 -41
q15 -7 15 -24q0 -11 -8 -18.5t-19 -7.5t-15 4l-75 49l5 -90q1 -11 -7.5 -19.5t-19.5 -8.5t-19.5 8.5t-7.5 19.5z" />
    <glyph glyph-name="plus" unicode="+" horiz-adv-x="502" 
d="M288 303v-176q0 -15 -11 -26t-26 -11t-26 11t-11 26v176h-157q-14 0 -24 10t-10 24t10 24t24 10h157v169q0 15 11 26t26 11t26 -11t11 -26v-169h157q14 0 24 -10t10 -24t-10 -24t-24 -10h-157z" />
    <glyph glyph-name="comma" unicode="," horiz-adv-x="245" 
d="M100 -129q-12 0 -20.5 8.5t-8.5 21.5t9 22q41 40 49 77q-9 -3 -17 -3q-26 0 -43 17.5t-17 45.5t20 48.5t48 20.5q33 0 55.5 -25t22.5 -66q0 -91 -78 -159q-8 -8 -20 -8z" />
    <glyph glyph-name="hyphen" unicode="-" horiz-adv-x="300" 
d="M24 242q0 19 13.5 32t31.5 13h162q18 0 31.5 -13t13.5 -32t-13.5 -32t-31.5 -13h-162q-18 0 -31.5 13t-13.5 32z" />
    <glyph glyph-name="period" unicode="." horiz-adv-x="245" 
d="M122 129q29 0 49.5 -20.5t20.5 -49.5q0 -28 -20.5 -49t-49.5 -21q-28 0 -49 21t-21 49q0 29 21 49.5t49 20.5z" />
    <glyph glyph-name="slash" unicode="/" horiz-adv-x="315" 
d="M12 11q0 4 2 12l217 645q8 25 35 25q15 0 26 -11t11 -26q0 -4 -2 -12l-217 -645q-8 -25 -35 -25q-15 0 -26 11t-11 26z" />
    <glyph glyph-name="zero" unicode="0" horiz-adv-x="616" 
d="M308 677q86 1 148 -49t91 -127t28 -168q0 -67 -16.5 -128t-49 -110.5t-84.5 -78.5t-117 -28q-65 -1 -117 28t-84.5 78.5t-49 110.5t-16.5 128q-1 91 28 168t91 127t148 49zM308 573q-77 0 -113 -68q-35 -68 -35 -172q0 -105 36 -173t112 -68t112 68q36 67 36 173
q0 104 -36 172q-35 68 -112 68z" />
    <glyph glyph-name="one" unicode="1" horiz-adv-x="380" 
d="M192 53v462l-78 -81q-15 -15 -35 -15t-34.5 14.5t-14.5 34.5q0 18 14 35l149 150q20 20 48 20t48 -20t20 -48v-552q0 -24 -17 -41.5t-41 -17.5q-25 0 -42 17.5t-17 41.5z" />
    <glyph glyph-name="two" unicode="2" horiz-adv-x="585" 
d="M34 61q0 31 25 49q139 104 204 160q71 61 104 108.5t33 92.5q0 47 -34.5 74.5t-86.5 27.5q-82 0 -149 -50q-14 -11 -32 -11q-22 0 -37 15t-15 37q0 26 19 40q90 73 212 73q103 0 172.5 -56t69.5 -150q0 -85 -72 -171q-71 -84 -220 -197h250q21 0 36.5 -15t15.5 -36
q0 -22 -15.5 -37t-36.5 -15h-382q-25 0 -43 18t-18 43z" />
    <glyph glyph-name="three" unicode="3" horiz-adv-x="574" 
d="M54 63q-18 17 -18 39t15 37t37 15q17 0 31 -11q68 -51 153 -51q65 0 102 27.5t37 74.5q0 94 -148 94h-31q-21 0 -36.5 15t-15.5 37q0 21 15.5 36t36.5 15h31q64 0 100.5 22.5t36.5 65.5q0 44 -37 69t-98 25q-76 0 -141 -47q-13 -10 -30 -10q-20 0 -34.5 14.5t-14.5 34.5
q0 21 18 37q89 75 213 75q110 0 175 -49q66 -48 66 -131q0 -62 -44 -103q-42 -39 -101 -50q58 -5 106.5 -49t48.5 -113q0 -85 -69 -139.5t-182 -54.5q-134 0 -222 75z" />
    <glyph glyph-name="four" unicode="4" horiz-adv-x="580" 
d="M558 203q0 -22 -15.5 -37t-36.5 -15h-43v-98q0 -24 -17 -41.5t-41 -17.5q-25 0 -42 17.5t-17 41.5v98h-258q-27 0 -46.5 19t-19.5 47q0 16 11 35l243 374q31 47 85 47q42 0 72 -30t30 -72v-317h43q21 0 36.5 -15t15.5 -36zM143 254h203v308z" />
    <glyph glyph-name="five" unicode="5" horiz-adv-x="600" 
d="M70 98q0 22 15.5 37.5t37.5 15.5q19 0 33 -11q62 -48 147 -48q61 0 99 33t38 84q0 54 -36.5 86.5t-97.5 32.5q-72 0 -124 -42q-17 -14 -41 -14q-26 0 -45 19t-19 45v269q0 62 62 62h329q21 0 36.5 -15t15.5 -37q0 -21 -15.5 -36t-36.5 -15h-274v-193q58 58 151 58
q89 0 151 -59t62 -156q0 -103 -70.5 -164.5t-183.5 -61.5q-130 0 -215 69q-19 16 -19 41z" />
    <glyph glyph-name="six" unicode="6" horiz-adv-x="601" 
d="M335 677q91 0 158 -46q23 -14 23 -43q0 -21 -15 -36t-36 -15q-18 0 -29 8q-43 28 -101 28q-79 0 -127.5 -64t-48.5 -156q0 -15 1 -19q25 37 74 65t105 28q96 0 159.5 -57.5t63.5 -157.5q0 -95 -69 -159.5t-177 -64.5q-136 0 -205.5 95.5t-69.5 248.5q0 152 78 248.5
t216 96.5zM307 327q-42 0 -80.5 -21.5t-65.5 -57.5q6 -63 42 -110q36 -46 107 -46q61 0 97.5 35t36.5 81q0 56 -38 87.5t-99 31.5z" />
    <glyph glyph-name="seven" unicode="7" horiz-adv-x="532" 
d="M150 52q0 9 5 24l218 488h-300q-21 0 -36.5 15t-15.5 36q0 22 15.5 37t36.5 15h385q23 0 39.5 -16.5t16.5 -39.5q0 -9 -5 -22l-247 -560q-15 -35 -54 -35q-24 0 -41 17t-17 41z" />
    <glyph glyph-name="eight" unicode="8" horiz-adv-x="595" 
d="M192 344q-139 45 -139 158q0 84 71.5 129.5t173.5 45.5q100 0 172.5 -46t72.5 -129q0 -112 -140 -158q67 -22 108.5 -68t41.5 -105q0 -84 -73.5 -133.5t-181.5 -49.5q-110 0 -183 48.5t-73 134.5q0 59 41.5 105t108.5 68zM298 573q-57 0 -92 -24t-35 -65q0 -42 40 -64
q41 -22 87 -30q45 7 86 30q40 22 40 64q0 41 -35 65t-91 24zM298 291q-48 -6 -93 -34t-45 -71q0 -42 39 -68t99 -26q58 0 97.5 26.5t39.5 67.5q0 43 -45 71t-92 34z" />
    <glyph glyph-name="nine" unicode="9" horiz-adv-x="601" 
d="M85 78q0 21 15 36t36 15q14 0 28 -8q43 -28 101 -28q83 0 129.5 64t46.5 155v20q-28 -39 -77.5 -66.5t-101.5 -27.5q-95 0 -159.5 58t-64.5 158q0 95 69 159.5t177 64.5q136 0 205.5 -96t69.5 -249q0 -152 -78 -248t-216 -96q-88 0 -158 46q-22 15 -22 43zM290 574
q-60 0 -96.5 -35.5t-36.5 -80.5q0 -56 38 -87.5t98 -31.5q43 0 82 21t64 57q-5 64 -42 110q-36 47 -107 47z" />
    <glyph glyph-name="colon" unicode=":" horiz-adv-x="245" 
d="M122 490q29 0 49.5 -20.5t20.5 -49.5q0 -28 -20.5 -49t-49.5 -21q-28 0 -49 21t-21 49q0 29 21 49.5t49 20.5zM122 129q29 0 49.5 -20.5t20.5 -49.5q0 -28 -20.5 -49t-49.5 -21q-28 0 -49 21t-21 49q0 29 21 49.5t49 20.5z" />
    <glyph glyph-name="semicolon" unicode=";" horiz-adv-x="245" 
d="M52 420q0 29 21 49.5t49 20.5q29 0 49.5 -20.5t20.5 -49.5q0 -28 -21 -49t-49 -21t-49 21t-21 49zM100 -129q-12 0 -20.5 8.5t-8.5 21.5t9 22q41 40 49 77q-9 -3 -17 -3q-26 0 -43 17.5t-17 45.5t20 48.5t48 20.5q33 0 55.5 -25t22.5 -66q0 -91 -78 -159q-8 -8 -20 -8z
" />
    <glyph glyph-name="less" unicode="&#x3c;" horiz-adv-x="502" 
d="M23 335q0 34 32 49l372 174q7 4 15 4q16 0 26.5 -11t10.5 -26q0 -21 -22 -33l-349 -158l350 -157q21 -9 21 -33q0 -15 -10.5 -25.5t-25.5 -10.5q-10 0 -16 3l-372 174q-32 15 -32 50z" />
    <glyph glyph-name="equal" unicode="=" horiz-adv-x="502" 
d="M23 429q0 14 10 24t24 10h388q14 0 24 -10t10 -24t-10 -24t-24 -10h-388q-14 0 -24 10t-10 24zM23 238q0 14 10 24t24 10h388q14 0 24 -10t10 -24q0 -13 -10 -23t-24 -10h-388q-14 0 -24 10t-10 23z" />
    <glyph glyph-name="greater" unicode="&#x3e;" horiz-adv-x="502" 
d="M59 108q-15 0 -25.5 10.5t-10.5 25.5q0 21 21 33l349 157l-348 158q-22 12 -22 33q0 15 10.5 26t26.5 11q8 0 15 -4l372 -174q32 -15 32 -49q0 -35 -32 -50l-372 -174q-6 -3 -16 -3z" />
    <glyph glyph-name="question" unicode="?" horiz-adv-x="458" 
d="M244 413q39 27 54.5 45t15.5 43q0 32 -25 52t-70 20q-63 0 -109 -40q-14 -11 -32 -11q-21 0 -36 14.5t-15 35.5q0 24 18 39q78 66 186 66q92 0 147.5 -44t55.5 -113q-3 -57 -27 -88.5t-79 -69.5q-42 -30 -57.5 -48t-15.5 -43q0 -1 0.5 -2.5t1 -4.5t0.5 -6l1 -10
q0 -21 -14 -35.5t-35 -14.5q-29 0 -42 26q-14 30 -14 57q0 41 20.5 68.5t70.5 63.5zM225 129q29 0 49.5 -20.5t20.5 -49.5q0 -28 -20.5 -49t-49.5 -21q-28 0 -49 21t-21 49q0 29 21 49.5t49 20.5z" />
    <glyph glyph-name="at" unicode="@" horiz-adv-x="783" 
d="M747 327q0 -110 -57 -176t-130 -66q-41 0 -66 21.5t-29 55.5l-1 6q-28 -38 -68 -60.5t-82 -22.5q-70 0 -112 46t-42 120q-2 97 70.5 173t159.5 74q91 0 126 -71l5 26q3 16 15.5 26t29.5 10q19 0 32.5 -13.5t13.5 -32.5q0 -8 -1 -10l-43 -205q-2 -16 -2 -23
q0 -23 11.5 -35.5t29.5 -12.5q37 0 68.5 44.5t31.5 125.5q0 121 -77 197.5t-202 76.5q-90 2 -174 -48.5t-134 -134t-48 -172.5q0 -119 81.5 -199.5t202.5 -80.5q91 0 171 47q4 4 11 4q17 0 17 -18q0 -9 -8 -14q-88 -55 -195 -55q-132 -2 -225.5 91t-91.5 223
q-2 76 31.5 149.5t88.5 127.5t128.5 86t148.5 31q136 2 226.5 -90t88.5 -221zM475 236l27 126q-11 26 -34.5 43.5t-56.5 17.5q-63 0 -108.5 -50.5t-45.5 -114.5q0 -44 24.5 -71t66.5 -27q73 0 127 76z" />
    <glyph glyph-name="A" unicode="A" horiz-adv-x="673" 
d="M646 54q0 -25 -17.5 -42.5t-42.5 -17.5q-19 0 -34 10.5t-21 27.5l-35 96h-320l-35 -96q-6 -17 -21 -27.5t-34 -10.5q-25 0 -42.5 17.5t-17.5 42.5q0 4 5 21l209 532q12 30 38 48t58 18t58 -18t38 -48l209 -532q5 -17 5 -21zM213 231h246l-123 337z" />
    <glyph glyph-name="B" unicode="B" horiz-adv-x="648" 
d="M71 62v543q0 62 62 62h266q87 0 138.5 -48t51.5 -122q0 -59 -33 -101t-83 -52q53 -8 91 -56t38 -108q0 -81 -52 -130.5t-142 -49.5h-275q-62 0 -62 62zM188 391h187q44 0 69 23.5t25 62.5t-25 63t-69 24h-187v-173zM188 103h192q48 0 75 24.5t27 68.5q0 40 -27.5 66
t-74.5 26h-192v-185z" />
    <glyph glyph-name="C" unicode="C" horiz-adv-x="672" 
d="M41 333q-2 148 99.5 247.5t245.5 97.5q144 0 234 -99q14 -14 14 -37q0 -22 -16 -38.5t-39 -16.5q-26 0 -42 19q-59 68 -151 68q-96 0 -160.5 -68.5t-64.5 -172.5t64.5 -172.5t160.5 -68.5q93 0 152 68q16 19 41 19q23 0 39 -16t16 -39t-14 -37q-90 -99 -234 -99
q-144 -3 -245.5 97t-99.5 248z" />
    <glyph glyph-name="D" unicode="D" horiz-adv-x="710" 
d="M71 62v543q0 62 62 62h186q155 0 252 -93.5t97 -240.5t-97 -240t-252 -93h-186q-62 0 -62 62zM188 103h131q104 0 166.5 65.5t62.5 164.5q0 101 -61 166t-168 65h-131v-461z" />
    <glyph glyph-name="E" unicode="E" horiz-adv-x="577" 
d="M71 62v543q0 62 62 62h349q21 0 36.5 -15t15.5 -37q0 -21 -15.5 -36t-36.5 -15h-294v-173h287q21 0 36.5 -15t15.5 -36q0 -22 -15.5 -37t-36.5 -15h-287v-185h294q21 0 36.5 -15t15.5 -36q0 -22 -15.5 -37t-36.5 -15h-349q-62 0 -62 62z" />
    <glyph glyph-name="F" unicode="F" horiz-adv-x="562" 
d="M71 53v552q0 62 62 62h349q21 0 36.5 -15t15.5 -37q0 -21 -15.5 -36t-36.5 -15h-294v-173h287q21 0 36.5 -15t15.5 -36q0 -22 -15.5 -37t-36.5 -15h-287v-235q0 -24 -17 -41.5t-41 -17.5q-25 0 -42 17.5t-17 41.5z" />
    <glyph glyph-name="G" unicode="G" horiz-adv-x="717" 
d="M666 296v-143q0 -48 -32 -76q-104 -90 -243 -90q-146 -2 -249 97t-101 249q-2 150 101 248.5t249 96.5q137 0 227 -90q16 -16 16 -39q0 -22 -15.5 -38t-38.5 -16t-39 16q-63 63 -150 63q-99 0 -164.5 -68.5t-65.5 -172.5q0 -103 66 -172.5t164 -69.5q92 0 158 60v104
h-153q-21 0 -36.5 15t-15.5 37q0 21 15.5 36t36.5 15h208q62 0 62 -62z" />
    <glyph glyph-name="H" unicode="H" horiz-adv-x="723" 
d="M535 53v238h-347v-238q0 -24 -17 -41.5t-41 -17.5q-25 0 -42 17.5t-17 41.5v561q0 24 17 41.5t41 17.5q25 0 42 -17.5t17 -41.5v-220h347v220q0 24 17 41.5t42 17.5q24 0 41 -17.5t17 -41.5v-561q0 -24 -17 -41.5t-42 -17.5q-24 0 -41 17.5t-17 41.5z" />
    <glyph glyph-name="I" unicode="I" horiz-adv-x="259" 
d="M71 53v561q0 24 17 41.5t42 17.5q24 0 41 -17.5t17 -41.5v-561q0 -24 -17 -41.5t-41 -17.5q-25 0 -42 17.5t-17 41.5z" />
    <glyph glyph-name="J" unicode="J" horiz-adv-x="481" 
d="M18 72q0 22 15 37t37 15q14 0 28 -8q34 -24 78 -24q54 0 85.5 33t31.5 88v401q0 24 17 41.5t41 17.5q25 0 42 -17.5t17 -41.5v-403q0 -108 -60.5 -165.5t-164.5 -57.5q-82 0 -144 41q-23 17 -23 43z" />
    <glyph glyph-name="K" unicode="K" horiz-adv-x="621" 
d="M586 50q0 -23 -15.5 -39.5t-38.5 -16.5q-24 0 -41 17l-244 267l-59 -63v-162q0 -24 -17 -41.5t-42 -17.5q-24 0 -41 17.5t-17 41.5v561q0 24 17 41.5t41 17.5q25 0 42 -17.5t17 -41.5v-267l281 308q17 18 41 18q22 0 38.5 -16t16.5 -38t-15 -37l-224 -235l245 -260
q15 -16 15 -37z" />
    <glyph glyph-name="L" unicode="L" horiz-adv-x="517" 
d="M71 62v552q0 24 17 41.5t42 17.5q24 0 41 -17.5t17 -41.5v-511h248q21 0 36.5 -15t15.5 -36q0 -22 -15.5 -37t-36.5 -15h-303q-62 0 -62 62z" />
    <glyph glyph-name="M" unicode="M" horiz-adv-x="835" 
d="M647 53v452l-199 -490q-8 -21 -31 -21t-31 21l-198 490v-452q0 -24 -17 -41.5t-41 -17.5q-25 0 -42 17.5t-17 41.5v523q0 40 28.5 68.5t68.5 28.5q30 0 54.5 -17t35.5 -44l159 -394l160 394q11 27 35.5 44t54.5 17q40 0 68.5 -28.5t28.5 -68.5v-523q0 -24 -17 -41.5
t-42 -17.5q-24 0 -41 17.5t-17 41.5z" />
    <glyph glyph-name="N" unicode="N" horiz-adv-x="720" 
d="M519 24l-331 462v-433q0 -24 -17 -41.5t-41 -17.5q-25 0 -42 17.5t-17 41.5v543q0 32 22.5 54.5t54.5 22.5q38 0 62 -32l322 -447v420q0 24 17 41.5t41 17.5q25 0 42 -17.5t17 -41.5v-548q0 -29 -21 -50.5t-51 -21.5q-37 0 -58 30z" />
    <glyph glyph-name="O" unicode="O" horiz-adv-x="765" 
d="M382 678q147 2 245 -98t96 -247q2 -147 -96 -247.5t-245 -97.5q-147 -3 -245 97.5t-96 247.5q-2 147 96 247t245 98zM382 574q-98 0 -159.5 -68t-61.5 -173q0 -104 61.5 -172.5t159.5 -68.5t159.5 68.5t61.5 172.5q0 105 -61.5 173t-159.5 68z" />
    <glyph glyph-name="P" unicode="P" horiz-adv-x="608" 
d="M71 53v552q0 62 62 62h231q99 0 158.5 -60t59.5 -149t-59.5 -149t-158.5 -60h-176v-196q0 -24 -17 -41.5t-41 -17.5q-25 0 -42 17.5t-17 41.5zM348 564h-160v-212h160q51 0 82.5 29t31.5 77t-31.5 77t-82.5 29z" />
    <glyph glyph-name="Q" unicode="Q" horiz-adv-x="765" 
d="M634 93l23 -26q13 -14 13 -35q0 -22 -15.5 -37.5t-37.5 -15.5q-24 0 -39 18l-28 31q-73 -40 -168 -40q-147 -3 -245 97.5t-96 247.5q-2 147 96 247t245 98q147 2 245 -98t96 -247q0 -142 -89 -240zM477 112l-51 58q-13 16 -13 34q0 22 15 37.5t37 15.5q25 0 40 -18
l52 -59q46 62 46 153q0 105 -61.5 173t-159.5 68t-159.5 -68t-61.5 -173q0 -104 61.5 -172.5t159.5 -68.5q50 0 95 20z" />
    <glyph glyph-name="R" unicode="R" horiz-adv-x="628" 
d="M585 47q0 -20 -16.5 -36.5t-38.5 -16.5q-31 0 -49 25l-157 230h-136v-196q0 -24 -17 -41.5t-41 -17.5q-25 0 -42 17.5t-17 41.5v552q0 62 62 62h231q98 0 158 -58t60 -151q0 -75 -38 -125.5t-100 -66.5l130 -182q11 -17 11 -37zM188 564v-212h160q51 0 82.5 29t31.5 77
t-31.5 77t-82.5 29h-160z" />
    <glyph glyph-name="S" unicode="S" horiz-adv-x="594" 
d="M42 105q0 23 16 39.5t39 16.5q20 0 34 -11q77 -58 173 -58q64 0 99 26t35 65q-4 41 -35 58.5t-117 40.5q-79 19 -122 37q-115 46 -115 163q0 84 70 139.5t183 55.5q106 0 206 -61q25 -15 25 -45q0 -22 -16 -38.5t-39 -16.5q-18 0 -31 10q-71 47 -155 47q-57 0 -90 -22.5
t-33 -60.5q0 -24 19 -40q29 -25 128 -49q75 -19 123 -39q118 -49 118 -168q0 -91 -66.5 -148.5t-191.5 -57.5q-140 0 -235 73q-22 16 -22 44z" />
    <glyph glyph-name="T" unicode="T" horiz-adv-x="577" 
d="M230 53v511h-156q-21 0 -36.5 15t-15.5 36q0 22 15.5 37t36.5 15h429q21 0 36.5 -15t15.5 -37q0 -21 -15.5 -36t-36.5 -15h-156v-511q0 -24 -17 -41.5t-41 -17.5q-25 0 -42 17.5t-17 41.5z" />
    <glyph glyph-name="U" unicode="U" horiz-adv-x="719" 
d="M71 263v351q0 24 17 41.5t42 17.5t42 -17.5t17 -41.5v-347q0 -82 45 -128.5t126 -46.5t125.5 46.5t44.5 128.5v347q0 24 17 41.5t42 17.5t42 -17.5t17 -41.5v-350q0 -130 -74.5 -203t-213.5 -73q-140 0 -214.5 73t-74.5 202z" />
    <glyph glyph-name="V" unicode="V" horiz-adv-x="673" 
d="M239 60l-207 529q-5 13 -5 22q0 26 18.5 44t43.5 18q19 0 35 -11t23 -29l189 -506l189 506q7 18 23 29t35 11q26 0 44 -18t18 -44q0 -9 -5 -22l-207 -529q-11 -29 -38 -47.5t-59 -18.5t-59 18.5t-38 47.5z" />
    <glyph glyph-name="W" unicode="W" horiz-adv-x="903" 
d="M567 54l-116 438l-115 -438q-7 -26 -28 -43t-49 -17q-27 0 -48.5 16.5t-28.5 41.5l-155 541q-2 14 -2 18q0 26 18.5 44t43.5 18q21 0 38 -13t22 -34l120 -473l128 477q5 19 20.5 31t36.5 12q20 0 35.5 -12t20.5 -31l128 -477l119 473q5 21 22 34t38 13q26 0 44 -18
t18 -44q0 -4 -2 -18l-154 -541q-7 -25 -28.5 -41.5t-48.5 -16.5q-28 0 -49 17t-28 43z" />
    <glyph glyph-name="X" unicode="X" horiz-adv-x="661" 
d="M638 51q0 -24 -16 -40.5t-40 -16.5q-29 0 -44 18l-207 245l-208 -245q-15 -18 -44 -18q-24 0 -40 16.5t-16 40.5q0 19 14 36l221 255l-207 238q-13 16 -13 35q0 24 16 41t39 17q27 0 44 -20l194 -228l193 228q17 20 44 20q23 0 39 -17t16 -41q0 -19 -13 -35l-207 -238
l221 -255q14 -17 14 -36z" />
    <glyph glyph-name="Y" unicode="Y" horiz-adv-x="636" 
d="M582 587l-205 -310v-224q0 -24 -17 -41.5t-41 -17.5q-25 0 -42 17.5t-17 41.5v224l-206 309q-9 12 -9 31q0 23 16.5 39.5t39.5 16.5q29 0 47 -26l171 -266l169 266q18 26 47 26q23 0 39.5 -16.5t16.5 -39.5q0 -18 -9 -30z" />
    <glyph glyph-name="Z" unicode="Z" horiz-adv-x="589" 
d="M38 66q0 22 13 38l334 460h-295q-21 0 -36.5 15t-15.5 36q0 22 15.5 37t36.5 15h387q27 0 46.5 -19t19.5 -47q0 -22 -13 -38l-334 -460h302q21 0 36.5 -15t15.5 -36q0 -22 -15.5 -37t-36.5 -15h-394q-27 0 -46.5 19t-19.5 47z" />
    <glyph glyph-name="bracketleft" unicode="[" horiz-adv-x="264" 
d="M44 -147v781q0 19 13 31.5t31 12.5h131q15 0 25.5 -10.5t10.5 -25.5t-10.5 -25.5t-25.5 -10.5h-98v-724h98q15 0 25.5 -10.5t10.5 -25.5t-10.5 -25.5t-24.5 -10.5h-132q-18 0 -31 12.5t-13 30.5z" />
    <glyph glyph-name="backslash" unicode="\" horiz-adv-x="315" 
d="M231 -1l-217 645q-2 8 -2 12q0 15 11 26t26 11q27 0 35 -25l217 -645q2 -8 2 -12q0 -15 -11 -26t-26 -11q-27 0 -35 25z" />
    <glyph glyph-name="bracketright" unicode="]" horiz-adv-x="264" 
d="M9 -154q0 15 10.5 25.5t25.5 10.5h98v724h-98q-15 0 -25.5 10.5t-10.5 25.5t10.5 25.5t25.5 10.5h131q18 0 31 -12.5t13 -31.5v-781q0 -18 -13 -30.5t-31 -12.5h-132q-14 0 -24.5 10.5t-10.5 25.5z" />
    <glyph glyph-name="asciicircum" unicode="^" horiz-adv-x="437" 
d="M331 348l-113 246l-112 -246q-9 -21 -33 -21q-15 0 -25.5 10.5t-10.5 25.5q0 9 4 16l126 261q15 33 52 33t52 -33l125 -261q4 -7 4 -16q0 -15 -10.5 -25.5t-25.5 -10.5q-22 0 -33 21z" />
    <glyph glyph-name="underscore" unicode="_" horiz-adv-x="564" 
d="M-9 -76q0 15 11 25.5t25 10.5h510q14 0 25 -10.5t11 -25.5t-11 -25.5t-25 -10.5h-510q-14 0 -25 10.5t-11 25.5z" />
    <glyph glyph-name="grave" unicode="`" horiz-adv-x="240" 
d="M164 557l-105 92q-11 9 -11 24q0 14 9.5 23.5t22.5 9.5q14 0 24 -10l97 -100q8 -11 8 -19q0 -11 -8 -19t-19 -8t-18 7z" />
    <glyph glyph-name="a" unicode="a" horiz-adv-x="536" 
d="M468 320v-273q0 -22 -15.5 -37.5t-37.5 -15.5q-21 0 -36.5 15.5t-15.5 37.5v5q-56 -64 -156 -64q-67 0 -117.5 43.5t-50.5 116.5q0 75 49.5 116t118.5 41q102 0 156 -62v72q0 42 -31 66t-82 24q-60 0 -113 -36q-10 -7 -24 -7q-17 0 -29.5 12.5t-12.5 29.5q0 23 18 34
q77 57 178 57q93 0 147 -43.5t54 -131.5zM363 110v73q-37 50 -115 50q-45 0 -74 -24t-29 -63t29 -62.5t74 -23.5q78 0 115 50z" />
    <glyph glyph-name="b" unicode="b" horiz-adv-x="581" 
d="M542 241q0 -116 -59.5 -184.5t-154.5 -68.5q-96 0 -155 78v-19q0 -22 -15.5 -37.5t-36.5 -15.5q-22 0 -37.5 15.5t-15.5 37.5v573q0 22 15.5 37.5t37.5 15.5q21 0 36.5 -15.5t15.5 -37.5v-204q57 79 155 79q94 0 154 -69.5t60 -184.5zM434 241q0 72 -37.5 116.5
t-99.5 44.5q-36 0 -71 -19t-53 -47v-191q17 -27 52.5 -45.5t71.5 -18.5q62 0 99.5 44t37.5 116z" />
    <glyph glyph-name="c" unicode="c" horiz-adv-x="497" 
d="M288 495q94 0 153 -52q17 -12 17 -36q0 -19 -13.5 -33t-33.5 -14q-17 0 -31 11q-37 31 -87 31q-66 0 -106 -44t-40 -116t40 -116.5t106 -44.5q50 0 87 31q14 11 30 11q20 0 34 -13.5t14 -33.5q0 -24 -17 -36q-59 -52 -153 -52q-109 0 -179.5 72t-70.5 182t70.5 181.5
t179.5 71.5z" />
    <glyph glyph-name="d" unicode="d" horiz-adv-x="581" 
d="M513 620v-573q0 -22 -15.5 -37.5t-37.5 -15.5q-21 0 -36.5 15.5t-15.5 37.5v18q-59 -77 -155 -77q-95 0 -155 68.5t-60 184.5q0 115 60 184.5t155 69.5t155 -79v204q0 22 15.5 37.5t36.5 15.5q22 0 37.5 -15.5t15.5 -37.5zM408 145v192q-18 28 -53.5 46.5t-71.5 18.5
q-62 0 -99 -44.5t-37 -116.5t37 -116t99 -44q37 0 72 18t53 46z" />
    <glyph glyph-name="e" unicode="e" horiz-adv-x="557" 
d="M283 495q104 0 171 -70t67 -169q0 -49 -62 -49h-311q6 -58 47.5 -95.5t106.5 -37.5q57 0 110 32q9 6 23 6q17 0 29.5 -12.5t12.5 -29.5q0 -22 -19 -35q-71 -47 -167 -47q-109 0 -181 70.5t-72 183.5q0 106 70 179.5t175 73.5zM147 281h272q-2 51 -37.5 89.5t-98.5 38.5
q-60 0 -96 -37t-40 -91z" />
    <glyph glyph-name="f" unicode="f" horiz-adv-x="308" 
d="M198 510v-27h58q19 0 32.5 -13.5t13.5 -32.5t-13.5 -32.5t-32.5 -13.5h-58v-344q0 -22 -15.5 -37.5t-36.5 -15.5q-22 0 -37.5 15.5t-15.5 37.5v344h-40q-19 0 -32.5 13.5t-13.5 32.5t13.5 32.5t32.5 13.5h40v27q0 78 41.5 122.5t111.5 44.5q26 0 49 -6q32 -8 32 -40
q0 -42 -41 -42q-4 0 -11.5 1t-9.5 1q-31 0 -49 -21t-18 -60z" />
    <glyph glyph-name="g" unicode="g" horiz-adv-x="580" 
d="M512 436v-411q0 -119 -72 -170q-70 -51 -176 -51q-105 0 -174 49q-19 13 -19 36q0 18 13 31t31 13q14 0 25 -8q50 -35 124 -35q64 0 103.5 33t39.5 98v58q-64 -80 -155 -80q-95 0 -154.5 66.5t-59.5 181.5q0 114 59.5 181t154.5 67t155 -79v20q0 22 15.5 37.5t37.5 15.5
q21 0 36.5 -15.5t15.5 -37.5zM407 157v180q-18 27 -53.5 46t-70.5 19q-62 0 -99 -42.5t-37 -112.5t37 -112.5t99 -42.5q35 0 70.5 19t53.5 46z" />
    <glyph glyph-name="h" unicode="h" horiz-adv-x="568" 
d="M395 47v257q0 52 -24.5 75t-73.5 23q-73 0 -124 -65v-290q0 -22 -15.5 -37.5t-36.5 -15.5q-22 0 -37.5 15.5t-15.5 37.5v573q0 22 15.5 37.5t37.5 15.5q21 0 36.5 -15.5t15.5 -37.5v-203q28 34 74 56t97 22q156 0 156 -153v-295q0 -22 -15.5 -37.5t-37.5 -15.5
q-21 0 -36.5 15.5t-15.5 37.5z" />
    <glyph glyph-name="i" unicode="i" horiz-adv-x="241" 
d="M55 642q0 27 19.5 46t45.5 19q27 0 46 -19t19 -46t-19 -46t-46 -19q-26 0 -45.5 19t-19.5 46zM68 47v389q0 22 15.5 37.5t37.5 15.5q21 0 36.5 -15.5t15.5 -37.5v-389q0 -22 -15.5 -37.5t-37.5 -15.5q-21 0 -36.5 15.5t-15.5 37.5z" />
    <glyph glyph-name="j" unicode="j" horiz-adv-x="241" 
d="M55 642q0 27 19.5 46t45.5 19q27 0 46 -19t19 -46t-19 -46t-46 -19q-26 0 -45.5 19t-19.5 46zM13 -196h-12q-17 0 -30 13t-13 31t11.5 31.5t27.5 13.5h3q68 0 68 79v464q0 22 15.5 37.5t37.5 15.5q21 0 36.5 -15.5t15.5 -37.5v-464q0 -80 -41.5 -124t-118.5 -44z" />
    <glyph glyph-name="k" unicode="k" horiz-adv-x="526" 
d="M490 47q0 -23 -14.5 -38t-36.5 -15q-26 0 -40 17l-157 187l-69 -65v-86q0 -22 -15.5 -37.5t-37.5 -15.5q-21 0 -36.5 15.5t-15.5 37.5v573q0 22 15.5 37.5t37.5 15.5q21 0 36.5 -15.5t15.5 -37.5v-371l226 227q13 13 34 13q19 0 33 -14.5t14 -34.5q0 -19 -14 -33
l-147 -146l159 -180q12 -13 12 -34z" />
    <glyph glyph-name="l" unicode="l" horiz-adv-x="241" 
d="M68 47v573q0 22 15.5 37.5t37.5 15.5q21 0 36.5 -15.5t15.5 -37.5v-573q0 -22 -15.5 -37.5t-36.5 -15.5q-22 0 -37.5 15.5t-15.5 37.5z" />
    <glyph glyph-name="m" unicode="m" horiz-adv-x="833" 
d="M765 349v-302q0 -22 -15.5 -37.5t-37.5 -15.5q-21 0 -36.5 15.5t-15.5 37.5v268q0 87 -79 87q-32 0 -63 -18.5t-49 -45.5v-291q0 -22 -15.5 -37.5t-37.5 -15.5q-21 0 -36.5 15.5t-15.5 37.5v268q0 87 -80 87q-31 0 -61.5 -18.5t-49.5 -46.5v-290q0 -22 -15.5 -37.5
t-36.5 -15.5q-22 0 -37.5 15.5t-15.5 37.5v389q0 22 15.5 37.5t36.5 15.5q22 0 37.5 -15.5t15.5 -37.5v-19q17 26 63 52t94 26q51 0 85.5 -23.5t46.5 -65.5q24 38 69.5 63.5t94.5 25.5q139 0 139 -146z" />
    <glyph glyph-name="n" unicode="n" 
d="M499 340v-293q0 -22 -15.5 -37.5t-37.5 -15.5q-21 0 -36.5 15.5t-15.5 37.5v255q0 53 -24 76.5t-73 23.5q-75 0 -124 -65v-290q0 -22 -15.5 -37.5t-36.5 -15.5q-22 0 -37.5 15.5t-15.5 37.5v389q0 22 15.5 37.5t36.5 15.5q22 0 37.5 -15.5t15.5 -37.5v-19q29 34 74 56
t96 22q77 0 116.5 -40t39.5 -115z" />
    <glyph glyph-name="o" unicode="o" horiz-adv-x="573" 
d="M38 242q0 107 69 180t179 73q111 0 180 -73t69 -180q0 -108 -69 -181t-180 -73q-110 0 -179 73t-69 181zM426 242q0 66 -38 113t-102 47t-102 -47q-37 -46 -37 -113q0 -69 37 -115t102 -46t102 46q38 47 38 115z" />
    <glyph glyph-name="p" unicode="p" horiz-adv-x="580" 
d="M542 242q0 -116 -59 -185t-155 -69t-155 79v-204q0 -22 -15.5 -37.5t-36.5 -15.5q-22 0 -37.5 15.5t-15.5 37.5v573q0 22 15.5 37.5t37.5 15.5q21 0 36.5 -15.5t15.5 -37.5v-19q57 78 155 78q96 0 155 -68.5t59 -184.5zM433 242q0 72 -37 116t-99 44q-35 0 -70.5 -19
t-53.5 -46v-191q18 -27 53.5 -46t70.5 -19q62 0 99 44.5t37 116.5z" />
    <glyph glyph-name="q" unicode="q" horiz-adv-x="580" 
d="M512 436v-573q0 -22 -15.5 -37.5t-37.5 -15.5q-21 0 -36.5 15.5t-15.5 37.5v204q-59 -79 -155 -79t-155 69t-59 185t59 184.5t155 68.5q98 0 155 -78v19q0 22 15.5 37.5t36.5 15.5q22 0 37.5 -15.5t15.5 -37.5zM407 146v191q-18 27 -53.5 46t-70.5 19q-62 0 -99 -44
t-37 -116t37 -116.5t99 -44.5q35 0 70.5 19t53.5 46z" />
    <glyph glyph-name="r" unicode="r" horiz-adv-x="347" 
d="M337 442q0 -19 -14 -32.5t-40 -17.5q-31 -4 -63 -22t-47 -41v-282q0 -22 -15.5 -37.5t-36.5 -15.5q-22 0 -37.5 15.5t-15.5 37.5v389q0 22 15.5 37.5t36.5 15.5q22 0 37.5 -15.5t15.5 -37.5v-24q46 59 93 73q18 6 28 6q20 0 31.5 -13.5t11.5 -35.5z" />
    <glyph glyph-name="s" unicode="s" horiz-adv-x="472" 
d="M35 76q0 19 13 32t32 13q14 0 25 -7q64 -43 133 -43q45 0 70 15.5t25 43.5t-25.5 42.5t-84.5 27.5q-59 12 -94 25q-88 35 -88 123q0 62 51.5 104.5t138.5 42.5q90 0 161 -47q19 -13 19 -35q0 -17 -12.5 -29.5t-29.5 -12.5q-13 0 -23 7q-51 33 -114 33q-42 0 -66 -14.5
t-24 -39.5q0 -24 24 -37t81 -26q58 -12 95 -27q92 -34 92 -129q0 -67 -53.5 -108.5t-147.5 -41.5q-103 0 -178 51q-20 13 -20 37z" />
    <glyph glyph-name="t" unicode="t" horiz-adv-x="319" 
d="M310 40q0 -28 -28 -40t-69 -12q-61 0 -92.5 32t-31.5 92v279h-40q-19 0 -32.5 13.5t-13.5 32.5t13.5 32.5t32.5 13.5h40v85q0 22 15.5 37.5t37.5 15.5q21 0 36.5 -15.5t15.5 -37.5v-85h58q19 0 32.5 -13.5t13.5 -32.5t-13.5 -32.5t-32.5 -13.5h-58v-253q0 -26 12 -41.5
t34 -15.5q5 0 14 1.5t12 1.5q20 0 32 -12.5t12 -31.5z" />
    <glyph glyph-name="u" unicode="u" 
d="M499 436v-389q0 -22 -15.5 -37.5t-36.5 -15.5q-22 0 -37.5 15.5t-15.5 37.5v16q-70 -75 -171 -75q-155 0 -155 153v295q0 22 15.5 37.5t37.5 15.5q21 0 36.5 -15.5t15.5 -37.5v-257q0 -52 24 -75t73 -23q77 0 124 63v292q0 22 15.5 37.5t36.5 15.5q22 0 37.5 -15.5
t15.5 -37.5z" />
    <glyph glyph-name="v" unicode="v" horiz-adv-x="503" 
d="M482 437q0 -9 -4 -20l-152 -373q-9 -23 -29 -36.5t-45 -13.5t-45.5 13.5t-29.5 36.5l-152 374q-4 11 -4 19q0 22 15 37t36 15q16 0 30 -9.5t19 -23.5l130 -336l130 336q5 14 19 23.5t30 9.5q22 0 37 -15t15 -37z" />
    <glyph glyph-name="w" unicode="w" horiz-adv-x="754" 
d="M475 45l-98 309l-98 -309q-7 -23 -26 -37t-43 -14t-43 14t-26 37l-117 377q-2 10 -2 15q0 22 15 37t36 15q18 0 31.5 -10.5t18.5 -26.5l93 -320l103 315q6 19 22 30.5t36 11.5t36 -11.5t22 -30.5l103 -315l93 320q5 16 18.5 26.5t31.5 10.5q21 0 36 -15t15 -37
q0 -5 -2 -15l-117 -377q-7 -23 -26 -37t-43 -14t-43 14t-26 37z" />
    <glyph glyph-name="x" unicode="x" horiz-adv-x="496" 
d="M470 42q0 -19 -13 -33.5t-35 -14.5q-25 0 -37 17l-137 169l-136 -166q-17 -20 -38 -20q-22 0 -35 14.5t-13 33.5q0 16 11 30l149 179l-139 158q-12 14 -12 30q0 19 14.5 34.5t34.5 15.5q22 0 35 -16l129 -151l129 151q13 16 35 16q20 0 34.5 -15.5t14.5 -34.5
q0 -16 -12 -30l-139 -158l149 -179q11 -14 11 -30z" />
    <glyph glyph-name="y" unicode="y" horiz-adv-x="503" 
d="M98 -103h5q51 0 69 42l24 55l-172 424q-3 9 -3 19q0 22 15 37t36 15q16 0 30 -9.5t19 -23.5l130 -335l130 335q5 14 19 23.5t30 9.5q22 0 37 -15t15 -37q0 -9 -4 -20l-206 -504q-23 -58 -63.5 -83t-102.5 -26q-11 0 -15 1q-18 2 -30.5 15t-12.5 31q0 19 15 32.5t35 13.5z
" />
    <glyph glyph-name="z" unicode="z" horiz-adv-x="476" 
d="M40 53q0 19 11 33l234 305h-199q-19 0 -32.5 13.5t-13.5 32.5t13.5 32.5t32.5 13.5h293q21 0 36.5 -15t15.5 -37q0 -15 -11 -31l-236 -309h205q19 0 32.5 -13t13.5 -32t-13.5 -32.5t-32.5 -13.5h-296q-22 0 -37.5 15.5t-15.5 37.5z" />
    <glyph glyph-name="braceleft" unicode="{" horiz-adv-x="276" 
d="M56 -42v187q0 50 -35 64q-24 11 -24 35t24 35q35 14 35 64v186q0 65 42.5 107t99.5 42h35q14 0 24.5 -10.5t10.5 -25.5t-10.5 -25.5t-24.5 -10.5h-35q-27 0 -45.5 -22t-18.5 -55v-196q0 -70 -46 -89q46 -19 46 -89v-196q0 -33 18.5 -55t45.5 -22h35q14 0 24.5 -10.5
t10.5 -25.5q0 -16 -10 -26t-25 -10h-35q-57 0 -99.5 42t-42.5 106z" />
    <glyph glyph-name="bar" unicode="|" horiz-adv-x="214" 
d="M71 10v647q0 14 10.5 25t25.5 11t25.5 -11t10.5 -25v-647q0 -14 -10.5 -25t-25.5 -11t-25.5 11t-10.5 25z" />
    <glyph glyph-name="braceright" unicode="}" horiz-adv-x="276" 
d="M78 -190h-35q-15 0 -25 10t-10 26q0 15 10.5 25.5t24.5 10.5h35q27 0 45.5 22t18.5 55v196q0 70 46 89q-46 19 -46 89v196q0 33 -18.5 55t-45.5 22h-35q-14 0 -24.5 10.5t-10.5 25.5t10.5 25.5t24.5 10.5h35q57 0 99.5 -42t42.5 -107v-186q0 -50 35 -64q24 -11 24 -35
t-24 -35q-35 -14 -35 -64v-187q0 -64 -42.5 -106t-99.5 -42z" />
    <glyph glyph-name="asciitilde" unicode="~" horiz-adv-x="507" 
d="M477 628q-12 -104 -44.5 -157.5t-96.5 -53.5q-49 3 -70.5 28.5t-42.5 84.5q-14 39 -24 54t-28 15q-49 0 -68 -152q-1 -14 -12 -23.5t-25 -9.5q-17 0 -28 13t-9 29q13 103 46 156.5t96 53.5q49 -3 71 -28.5t42 -84.5q13 -39 23.5 -54.5t28.5 -15.5q52 0 68 153
q1 14 12 23.5t25 9.5q16 0 27 -12.5t9 -28.5z" />
    <glyph glyph-name="uni00A0" unicode="&#xa0;" horiz-adv-x="257" 
 />
    <glyph glyph-name="exclamdown" unicode="&#xa1;" horiz-adv-x="245" 
d="M192 424q0 -28 -20.5 -49t-49.5 -21q-28 0 -48.5 20.5t-20.5 49.5q0 28 20.5 48.5t48.5 20.5t49 -20.5t21 -48.5zM123 284q19 0 32.5 -13t14.5 -32l15 -365q1 -26 -17.5 -45t-44.5 -19t-44.5 18.5t-17.5 45.5l14 365q1 19 14.5 32t33.5 13z" />
    <glyph glyph-name="cent" unicode="&#xa2;" horiz-adv-x="497" 
d="M458 76q0 -24 -17 -36q-49 -43 -117 -50v-57q0 -16 -11.5 -27.5t-27.5 -11.5t-27.5 11.5t-11.5 27.5v58q-93 14 -150.5 83t-57.5 168t57.5 167.5t150.5 82.5v40q0 16 11.5 27.5t27.5 11.5t27.5 -11.5t11.5 -27.5v-39q68 -7 117 -50q17 -12 17 -36q0 -19 -13.5 -33
t-33.5 -14q-17 0 -31 11q-25 21 -56 28v-315q31 7 56 28q14 11 30 11q20 0 34 -13.5t14 -33.5zM246 88v307q-46 -14 -72.5 -55t-26.5 -98t26.5 -98t72.5 -56z" />
    <glyph glyph-name="sterling" unicode="&#xa3;" horiz-adv-x="536" 
d="M516 55q0 -31 -29 -46q-41 -22 -104 -22q-45 0 -103 25q-44 20 -77 20q-41 0 -94 -36q-8 -5 -18 -5q-19 0 -32.5 13.5t-13.5 32.5q0 26 22 41q98 70 98 134q0 29 -13 56h-102q-14 0 -24.5 10.5t-10.5 24.5t10.5 24.5t24.5 10.5h54q-31 41 -44.5 70.5t-13.5 65.5
q-2 85 70.5 145t164.5 58q118 0 185 -70q14 -17 14 -36q0 -22 -15 -37.5t-37 -15.5q-25 0 -41 19q-38 44 -93 44q-52 0 -86.5 -30.5t-34.5 -78.5q0 -31 11 -55t36 -58l15 -21h118q14 0 24.5 -10.5t10.5 -24.5t-10.5 -24.5t-24.5 -10.5h-87q3 -14 3 -29q0 -74 -70 -120
q26 8 51 8q32 0 74 -19q37 -17 64 -17q28 0 55 12q7 4 21 4q22 0 37 -15t15 -37z" />
    <glyph glyph-name="currency" unicode="&#xa4;" horiz-adv-x="612" 
d="M511 190l51 -51q13 -13 13 -31t-13 -31t-32 -13q-18 0 -31 13l-51 51q-61 -39 -142 -39q-80 0 -142 39l-51 -51q-13 -13 -31 -13q-19 0 -32 13t-13 31t13 31l51 51q-43 61 -43 143t43 143l-51 51q-13 13 -13 31t13 31t32 13q18 0 31 -13l52 -52q59 39 141 39t141 -39
l52 52q13 13 31 13q19 0 32 -13t13 -31t-13 -31l-51 -51q43 -61 43 -143t-43 -143zM448 333q0 61 -38 105q-37 43 -104 43t-104 -43q-38 -44 -38 -105q0 -65 38.5 -107.5t103.5 -42.5t103.5 42.5t38.5 107.5z" />
    <glyph glyph-name="yen" unicode="&#xa5;" horiz-adv-x="637" 
d="M591 617q0 -18 -9 -30l-161 -243h166q14 0 24 -10t10 -24q0 -13 -10 -23t-24 -10h-210v-92h210q14 0 24 -10t10 -24q0 -13 -10 -23t-24 -10h-210v-65q0 -24 -17 -41.5t-41 -17.5q-25 0 -42 17.5t-17 41.5v65h-209q-14 0 -24 10t-10 24q0 13 10 23t24 10h209v92h-209
q-14 0 -24 10t-10 23q0 14 10 24t24 10h165l-161 242q-10 13 -10 31q0 23 16.5 39.5t39.5 16.5q29 0 47 -26l171 -266l169 266q18 26 47 26q23 0 39.5 -16.5t16.5 -39.5z" />
    <glyph glyph-name="brokenbar" unicode="&#xa6;" horiz-adv-x="214" 
d="M71 401v256q0 14 10.5 25t25.5 11t25.5 -11t10.5 -25v-256q0 -14 -10.5 -25t-25.5 -11t-25.5 11t-10.5 25zM71 10v256q0 14 10.5 25t25.5 11t25.5 -11t10.5 -25v-256q0 -14 -10.5 -25t-25.5 -11t-25.5 11t-10.5 25z" />
    <glyph glyph-name="section" unicode="&#xa7;" horiz-adv-x="477" 
d="M434 71q0 -70 -55 -111t-146 -41q-103 0 -180 57q-16 13 -16 32q0 17 12 28.5t28 11.5q13 0 24 -8q64 -47 132 -47q46 0 73 18.5t27 51.5q0 29 -26 44.5t-91 30.5q-59 16 -91 28q-84 35 -84 119q0 46 29 78.5t76 47.5q-105 37 -105 125q0 60 52.5 100.5t137.5 40.5
q97 0 164 -48q15 -12 15 -31q0 -16 -11 -27t-27 -11q-12 0 -21 6q-52 36 -116 36q-42 0 -67.5 -17.5t-25.5 -47.5q0 -25 23.5 -37.5t87.5 -28.5q54 -12 92 -26q89 -35 89 -124q0 -86 -87 -128q87 -36 87 -122zM142 299q0 -33 26.5 -48.5t93.5 -31.5q69 29 69 84
q0 32 -24 50.5t-72 30.5q-50 -12 -71.5 -32.5t-21.5 -52.5z" />
    <glyph glyph-name="dieresis" unicode="&#xa8;" horiz-adv-x="419" 
d="M46 623q0 24 17 41t42 17q24 0 41 -17t17 -41q0 -25 -17 -42t-41 -17q-25 0 -42 17t-17 42zM255 623q0 24 17.5 41t41.5 17t41.5 -17t17.5 -41q0 -25 -17.5 -42t-41.5 -17t-41.5 17t-17.5 42z" />
    <glyph glyph-name="copyright" unicode="&#xa9;" horiz-adv-x="778" 
d="M389 679q139 2 243 -101.5t102 -243.5q2 -140 -102 -244t-243 -101q-139 -3 -243.5 101.5t-101.5 243.5q-3 139 101 243t244 102zM389 645q-125 3 -219.5 -91.5t-91.5 -219.5q-3 -125 91.5 -219.5t219.5 -91.5q125 -3 219.5 91.5t91.5 219.5q3 125 -91.5 219.5
t-219.5 91.5zM393 546q85 0 141 -59q4 -4 4 -12q0 -21 -20 -21q-8 0 -15 7q-45 48 -110 48q-69 0 -117.5 -49.5t-48.5 -124.5q0 -74 49 -125t117 -51q65 0 110 48q7 7 15 7q20 0 20 -21q0 -8 -4 -12q-56 -59 -141 -59q-86 0 -147 62t-61 151t61 150t147 61z" />
    <glyph glyph-name="ordfeminine" unicode="&#xaa;" horiz-adv-x="382" 
d="M327 529v-170q0 -16 -11.5 -27.5t-27.5 -11.5q-15 0 -26 11.5t-12 27.5q-38 -41 -104 -41q-46 0 -78.5 28.5t-32.5 75.5t32.5 74.5t78.5 27.5q68 0 104 -40v46q0 27 -20 43t-53 16q-39 0 -77 -26q-7 -5 -16 -5q-12 0 -20.5 8t-8.5 20q0 15 12 24q56 38 122 38
q64 0 101 -29.5t37 -89.5zM250 400v44q-24 32 -73 32q-28 0 -46.5 -15t-18.5 -39t18.5 -39.5t46.5 -15.5q48 0 73 33z" />
    <glyph glyph-name="guillemotleft" unicode="&#xab;" horiz-adv-x="489" 
d="M184 70l-115 129q-19 22 -19 44q0 25 19 44l115 127q10 12 28 12q15 0 25.5 -11t10.5 -26t-9 -24l-110 -122l111 -124q9 -9 9 -25q0 -15 -11 -26t-26 -11t-28 13zM354 70l-115 129q-19 22 -19 44q0 25 19 44l115 127q10 12 28 12q15 0 25.5 -11t10.5 -26t-9 -24
l-110 -122l111 -124q9 -9 9 -25q0 -15 -11 -26t-26 -11t-28 13z" />
    <glyph glyph-name="logicalnot" unicode="&#xac;" horiz-adv-x="510" 
d="M438 199q-14 0 -24.5 10.5t-10.5 24.5v161h-346q-14 0 -24 10t-10 24t10 24t24 10h354q62 0 62 -62v-167q0 -14 -10.5 -24.5t-24.5 -10.5z" />
    <glyph glyph-name="uni00AD" unicode="&#xad;" horiz-adv-x="300" 
d="M24 242q0 19 13.5 32t31.5 13h162q18 0 31.5 -13t13.5 -32t-13.5 -32t-31.5 -13h-162q-18 0 -31.5 13t-13.5 32z" />
    <glyph glyph-name="registered" unicode="&#xae;" horiz-adv-x="494" 
d="M247 677q88 0 150 -62t62 -150t-62 -150t-150 -62t-150 62t-62 150t62 150t150 62zM247 646q-75 0 -128.5 -53t-53.5 -128q0 -74 53.5 -128t128.5 -54q74 0 127.5 54t53.5 128q0 75 -53 128t-128 53zM311 346l-61 93h-51v-84q0 -16 -16 -16q-7 0 -12 4.5t-5 11.5v211
q0 8 6 14t14 6h79q33 0 55.5 -21t22.5 -53q0 -29 -17 -48t-38 -23l52 -76q3 -5 3 -9q0 -7 -5.5 -12.5t-12.5 -5.5q-9 0 -14 8zM265 557h-66v-88h66q18 0 31 12.5t13 30.5t-13.5 31.5t-30.5 13.5z" />
    <glyph glyph-name="overscore" unicode="&#xaf;" horiz-adv-x="363" 
d="M14 597q0 13 9 22t22 9h273q13 0 22 -9t9 -22t-9 -22t-22 -9h-273q-13 0 -22 9t-9 22z" />
    <glyph glyph-name="degree" unicode="&#xb0;" horiz-adv-x="302" 
d="M21 547q0 53 38 91.5t91 38.5t91.5 -38.5t38.5 -91.5q0 -54 -38 -91.5t-92 -37.5q-53 0 -91 37.5t-38 91.5zM82 547q0 -29 20 -49t48 -20q29 0 49.5 20.5t20.5 48.5q0 29 -20.5 49.5t-49.5 20.5q-28 0 -48 -20.5t-20 -49.5z" />
    <glyph glyph-name="plusminus" unicode="&#xb1;" horiz-adv-x="502" 
d="M288 325v-177q0 -15 -11 -26t-26 -11t-26 11t-11 26v177h-157q-14 0 -24 10t-10 23q0 14 10 24t24 10h157v170q0 15 11 26t26 11t26 -11t11 -26v-170h157q14 0 24 -10t10 -23q0 -14 -10 -24t-24 -10h-157zM23 34q0 13 10 23t24 10h388q14 0 24 -10t10 -24q0 -13 -10 -23
t-24 -10h-388q-14 0 -24 10t-10 24z" />
    <glyph glyph-name="uni00B2" unicode="&#xb2;" horiz-adv-x="353" 
d="M12 460q0 19 17 31q124 86 166 127t44 81q0 30 -21 46.5t-54 16.5q-49 0 -92 -32q-11 -8 -20 -8q-14 0 -23.5 10t-9.5 24q0 16 12 26q55 45 135 45q68 0 110.5 -32.5t42.5 -89.5q0 -50 -43 -100.5t-141 -118.5h160q13 0 23 -9.5t10 -22.5t-9.5 -23t-23.5 -10h-244
q-16 0 -27.5 11.5t-11.5 27.5z" />
    <glyph glyph-name="uni00B3" unicode="&#xb3;" horiz-adv-x="373" 
d="M35 458q-12 10 -12 27q0 14 10 23.5t24 9.5q13 0 20 -6q43 -33 95 -33q39 0 60.5 15.5t21.5 41.5q0 57 -95 57h-17q-13 0 -22.5 9.5t-9.5 22.5t9.5 22t22.5 9h16q89 0 89 53q0 24 -22 38.5t-58 14.5q-49 0 -89 -30q-8 -6 -19 -6q-13 0 -22 9t-9 22q0 15 12 25
q57 45 135 45q69 0 110.5 -29.5t41.5 -78.5q0 -35 -25.5 -60.5t-63.5 -31.5q36 -3 65 -28q31 -25 31 -68q0 -52 -43.5 -84.5t-115.5 -32.5q-84 0 -140 44z" />
    <glyph glyph-name="acute" unicode="&#xb4;" horiz-adv-x="240" 
d="M58 550q-11 0 -19 8t-8 19q0 8 8 19l97 100q10 10 24 10q13 0 22.5 -9.5t9.5 -23.5q0 -15 -11 -24l-105 -92q-7 -7 -18 -7z" />
    <glyph glyph-name="uni00B5" unicode="&#xb5;" horiz-adv-x="581" 
d="M571 34q0 -19 -13 -32t-31 -14h-9q-96 0 -119 86q-25 -39 -63 -62.5t-80 -23.5q-61 0 -83 36v-161q0 -22 -15.5 -37.5t-37.5 -15.5q-21 0 -36.5 15.5t-15.5 37.5v573q0 22 15.5 37.5t37.5 15.5q21 0 36.5 -15.5t15.5 -37.5v-257q0 -99 98 -99q36 0 69 18t54 46v292
q0 22 15.5 37.5t36.5 15.5q22 0 37.5 -15.5t15.5 -37.5v-305q0 -45 30 -50l6 -1q17 -3 26.5 -16t9.5 -30z" />
    <glyph glyph-name="paragraph" unicode="&#xb6;" horiz-adv-x="449" 
d="M337 -78v690h-83v-690q0 -11 -8 -19.5t-20 -8.5q-11 0 -19 8.5t-8 19.5v401q-71 0 -121.5 50.5t-50.5 121.5t50.5 121.5t121.5 50.5h131q62 0 62 -62v-683q0 -11 -8 -19.5t-19 -8.5q-12 0 -20 8.5t-8 19.5z" />
    <glyph glyph-name="middot" unicode="&#xb7;" horiz-adv-x="245" 
d="M52 244q0 29 21 49.5t49 20.5q29 0 49.5 -20.5t20.5 -49.5q0 -28 -21 -48.5t-49 -20.5t-49 20.5t-21 48.5z" />
    <glyph glyph-name="cedilla" unicode="&#xb8;" horiz-adv-x="214" 
d="M14 -172q-14 8 -14 22q0 11 7.5 18.5t17.5 7.5q6 0 13 -4q32 -18 65 -18q24 0 40 9.5t16 26.5q0 30 -33 30q-16 0 -27 -9q-8 -5 -16 -5q-12 0 -20 8t-8 20q0 2 2 10l25 67h55l-26 -64q17 11 36 11q29 0 48 -19.5t19 -49.5q0 -36 -31 -59.5t-77 -23.5q-52 0 -92 22z" />
    <glyph glyph-name="uni00B9" unicode="&#xb9;" horiz-adv-x="254" 
d="M113 456v261l-47 -48q-9 -10 -24 -10q-13 0 -23 10t-10 23q0 14 10 24l98 98q13 13 32 13t32 -13t13 -32v-326q0 -17 -12 -29t-29 -12q-16 0 -28 12t-12 29z" />
    <glyph glyph-name="ordmasculine" unicode="&#xba;" horiz-adv-x="405" 
d="M202 648q76 0 122.5 -47.5t46.5 -117.5t-46.5 -117.5t-122.5 -47.5q-75 0 -121.5 47.5t-46.5 117.5t46.5 117.5t121.5 47.5zM202 583q-41 0 -64.5 -27.5t-23.5 -72.5q0 -46 23.5 -74t64.5 -28t65 28t24 74q0 45 -24 72.5t-65 27.5z" />
    <glyph glyph-name="guillemotright" unicode="&#xbb;" horiz-adv-x="489" 
d="M70 94q0 16 9 25l111 124l-110 122q-9 9 -9 24t10.5 26t25.5 11q17 0 28 -12l115 -127q19 -19 19 -44q0 -22 -19 -44l-115 -129q-13 -13 -28 -13t-26 11t-11 26zM240 94q0 16 9 25l111 124l-110 122q-9 9 -9 24t10.5 26t25.5 11q17 0 28 -12l115 -127q19 -19 19 -44
q0 -22 -19 -44l-115 -129q-13 -13 -28 -13t-26 11t-11 26z" />
    <glyph glyph-name="onequarter" unicode="&#xbc;" horiz-adv-x="742" 
d="M113 302v261l-47 -48q-9 -10 -24 -10q-13 0 -23 10t-10 23q0 14 10 24l98 98q13 13 32 13t32 -13t13 -32v-326q0 -17 -12 -29t-29 -12q-16 0 -28 12t-12 29zM155 -6q-12 0 -20 8.5t-8 19.5q0 9 4 16l397 622q7 13 24 13q12 0 20.5 -8.5t8.5 -20.5q0 -8 -4 -15l-398 -622
q-9 -13 -24 -13zM739 124q0 -13 -9.5 -22.5t-22.5 -9.5h-29v-58q0 -16 -11.5 -28t-28.5 -12q-16 0 -28 12t-12 28v58h-166q-15 0 -25.5 10.5t-10.5 25.5q0 10 6 20l147 226q19 32 59 32q29 0 49.5 -20.5t20.5 -49.5v-180h29q13 0 22.5 -9.5t9.5 -22.5zM482 156h116v175z" />
    <glyph glyph-name="onehalf" unicode="&#xbd;" horiz-adv-x="782" 
d="M113 302v261l-47 -48q-9 -10 -24 -10q-13 0 -23 10t-10 23q0 14 10 24l98 98q13 13 32 13t32 -13t13 -32v-326q0 -17 -12 -29t-29 -12q-16 0 -28 12t-12 29zM155 -6q-12 0 -20 8.5t-8 19.5q0 9 4 16l397 622q7 13 24 13q12 0 20.5 -8.5t8.5 -20.5q0 -8 -4 -15l-398 -622
q-9 -13 -24 -13zM441 39q0 19 17 31q124 86 166 127t44 81q0 30 -21 46.5t-54 16.5q-49 0 -92 -32q-11 -8 -20 -8q-14 0 -23.5 10t-9.5 24q0 15 12 26q56 45 135 45q68 0 110.5 -32.5t42.5 -89.5q0 -50 -43 -100.5t-141 -118.5h160q13 0 23 -9.5t10 -22.5t-9.5 -23
t-23.5 -10h-244q-16 0 -27.5 11.5t-11.5 27.5z" />
    <glyph glyph-name="threequarters" unicode="&#xbe;" horiz-adv-x="836" 
d="M35 304q-12 10 -12 27q0 14 10 23.5t24 9.5q13 0 20 -6q43 -33 95 -33q39 0 60.5 15.5t21.5 41.5q0 57 -95 57h-17q-13 0 -22.5 9.5t-9.5 22.5t9.5 22t22.5 9h16q89 0 89 53q0 24 -22 38.5t-58 14.5q-49 0 -89 -30q-8 -6 -19 -6q-13 0 -22 9t-9 22q0 15 12 25
q57 45 135 45q69 0 110.5 -29.5t41.5 -78.5q0 -35 -25.5 -60.5t-63.5 -31.5q36 -3 65 -28q31 -25 31 -68q0 -52 -43.5 -84.5t-115.5 -32.5q-84 0 -140 44zM249 -6q-12 0 -20 8.5t-8 19.5q0 9 4 16l397 622q7 13 24 13q12 0 20.5 -8.5t8.5 -20.5q0 -8 -4 -15l-398 -622
q-9 -13 -24 -13zM833 124q0 -13 -9.5 -22.5t-22.5 -9.5h-29v-58q0 -16 -11.5 -28t-28.5 -12q-16 0 -28 12t-12 28v58h-166q-15 0 -25.5 10.5t-10.5 25.5q0 10 6 20l147 226q19 32 59 32q29 0 49.5 -20.5t20.5 -49.5v-180h29q13 0 22.5 -9.5t9.5 -22.5zM576 156h116v175z" />
    <glyph glyph-name="questiondown" unicode="&#xbf;" horiz-adv-x="396" 
d="M233 353q-28 0 -49 21t-21 49q0 29 21 49.5t49 20.5q29 0 49.5 -20.5t20.5 -49.5q0 -28 -20.5 -49t-49.5 -21zM214 69q-39 -27 -54.5 -45t-15.5 -43q0 -32 25 -52t70 -20q63 0 109 40q14 11 32 11q21 0 36 -14.5t15 -35.5q0 -24 -18 -39q-78 -66 -186 -66
q-92 0 -147.5 44t-55.5 113q3 57 27 88.5t79 69.5q42 30 57.5 48t15.5 43q0 1 -0.5 2.5t-1 4.5t-0.5 6l-1 10q0 21 14 35.5t35 14.5q29 0 42 -26q14 -30 14 -57q0 -41 -20.5 -68.5t-70.5 -63.5z" />
    <glyph glyph-name="Agrave" unicode="&#xc0;" horiz-adv-x="673" 
d="M646 54q0 -25 -17.5 -42.5t-42.5 -17.5q-19 0 -34 10.5t-21 27.5l-35 96h-320l-35 -96q-6 -17 -21 -27.5t-34 -10.5q-25 0 -42.5 17.5t-17.5 42.5q0 4 5 21l209 532q12 30 38 48t58 18t58 -18t38 -48l209 -532q5 -17 5 -21zM213 231h246l-123 337zM317 724l-105 92
q-11 9 -11 24q0 14 9.5 23.5t22.5 9.5q14 0 24 -10l97 -100q8 -11 8 -19q0 -11 -8 -19t-19 -8t-18 7z" />
    <glyph glyph-name="Aacute" unicode="&#xc1;" horiz-adv-x="673" 
d="M646 54q0 -25 -17.5 -42.5t-42.5 -17.5q-19 0 -34 10.5t-21 27.5l-35 96h-320l-35 -96q-6 -17 -21 -27.5t-34 -10.5q-25 0 -42.5 17.5t-17.5 42.5q0 4 5 21l209 532q12 30 38 48t58 18t58 -18t38 -48l209 -532q5 -17 5 -21zM213 231h246l-123 337zM343 717q-11 0 -19 8
t-8 19q0 8 8 19l97 100q10 10 24 10q13 0 22.5 -9.5t9.5 -23.5q0 -15 -11 -24l-105 -92q-7 -7 -18 -7z" />
    <glyph glyph-name="Acircumflex" unicode="&#xc2;" horiz-adv-x="673" 
d="M646 54q0 -25 -17.5 -42.5t-42.5 -17.5q-19 0 -34 10.5t-21 27.5l-35 96h-320l-35 -96q-6 -17 -21 -27.5t-34 -10.5q-25 0 -42.5 17.5t-17.5 42.5q0 4 5 21l209 532q12 30 38 48t58 18t58 -18t38 -48l209 -532q5 -17 5 -21zM213 231h246l-123 337zM409 727l-72 92
l-72 -92q-7 -10 -21 -10q-12 0 -20.5 8t-8.5 21q0 10 4 14l57 88q15 25 47 25h28q32 0 47 -25l57 -88q4 -4 4 -14q0 -13 -8.5 -21t-20.5 -8q-14 0 -21 10z" />
    <glyph glyph-name="Atilde" unicode="&#xc3;" horiz-adv-x="673" 
d="M646 54q0 -25 -17.5 -42.5t-42.5 -17.5q-19 0 -34 10.5t-21 27.5l-35 96h-320l-35 -96q-6 -17 -21 -27.5t-34 -10.5q-25 0 -42.5 17.5t-17.5 42.5q0 4 5 21l209 532q12 30 38 48t58 18t58 -18t38 -48l209 -532q5 -17 5 -21zM213 231h246l-123 337zM318 767q-24 32 -43 32
q-34 0 -41 -53q-5 -25 -28 -25q-13 0 -21.5 10t-6.5 22q6 52 32 80t69 28q24 0 39.5 -10.5t35.5 -35.5q26 -32 44 -32q33 0 40 53q2 25 28 25q13 0 21.5 -9.5t7.5 -22.5q-6 -52 -32 -80t-69 -28q-24 0 -40.5 11t-35.5 35z" />
    <glyph glyph-name="Adieresis" unicode="&#xc4;" horiz-adv-x="673" 
d="M646 54q0 -25 -17.5 -42.5t-42.5 -17.5q-19 0 -34 10.5t-21 27.5l-35 96h-320l-35 -96q-6 -17 -21 -27.5t-34 -10.5q-25 0 -42.5 17.5t-17.5 42.5q0 4 5 21l209 532q12 30 38 48t58 18t58 -18t38 -48l209 -532q5 -17 5 -21zM213 231h246l-123 337zM173 790q0 24 17 41
t42 17q24 0 41 -17t17 -41q0 -25 -17 -42t-41 -17q-25 0 -42 17t-17 42zM382 790q0 24 17.5 41t41.5 17t41.5 -17t17.5 -41q0 -25 -17.5 -42t-41.5 -17t-41.5 17t-17.5 42z" />
    <glyph glyph-name="Aring" unicode="&#xc5;" horiz-adv-x="673" 
d="M646 54q0 -25 -17.5 -42.5t-42.5 -17.5q-19 0 -34 10.5t-21 27.5l-35 96h-320l-35 -96q-6 -17 -21 -27.5t-34 -10.5q-25 0 -42.5 17.5t-17.5 42.5q0 4 5 21l209 532q12 30 38 48t58 18t58 -18t38 -48l209 -532q5 -17 5 -21zM213 231h246l-123 337zM337 908
q42 0 71.5 -30.5t29.5 -72.5t-29.5 -72t-71.5 -30t-72 30t-30 72t30 72.5t72 30.5zM337 857q-21 0 -36.5 -15t-15.5 -37q0 -21 15.5 -36.5t36.5 -15.5t36 15.5t15 36.5q0 22 -14.5 37t-36.5 15z" />
    <glyph glyph-name="AE" unicode="&#xc6;" horiz-adv-x="959" 
d="M918 52q0 -22 -15.5 -37t-36.5 -15h-349q-62 0 -62 62v66h-255l-62 -108q-16 -26 -46 -26q-23 0 -39 16t-16 39q0 14 8 28l337 548q28 42 75 42h409q21 0 36.5 -15t15.5 -37q0 -21 -15.5 -36t-36.5 -15h-294v-173h287q21 0 36.5 -15t15.5 -36q0 -22 -15.5 -37t-36.5 -15
h-287v-185h294q21 0 36.5 -15t15.5 -36zM260 231h195v338z" />
    <glyph glyph-name="Ccedilla" unicode="&#xc7;" horiz-adv-x="672" 
d="M634 124q0 -23 -14 -37q-86 -94 -213 -98l-17 -42q17 11 36 11q29 0 48 -19.5t19 -49.5q0 -36 -31 -59.5t-77 -23.5q-52 0 -92 22q-14 8 -14 22q0 11 7.5 18.5t17.5 7.5q6 0 13 -4q31 -18 65 -18q24 0 40 9.5t16 26.5q0 30 -33 30q-17 0 -27 -9q-8 -5 -16 -5q-12 0 -20 8
t-8 20q0 2 2 10l17 45q-133 8 -223.5 106.5t-88.5 237.5q-2 148 99.5 247.5t245.5 97.5q144 0 234 -99q14 -14 14 -37q0 -22 -16 -38.5t-39 -16.5q-26 0 -42 19q-59 68 -151 68q-96 0 -160.5 -68.5t-64.5 -172.5t64.5 -172.5t160.5 -68.5q93 0 152 68q16 19 41 19
q23 0 39 -16t16 -39z" />
    <glyph glyph-name="Egrave" unicode="&#xc8;" horiz-adv-x="577" 
d="M71 62v543q0 62 62 62h349q21 0 36.5 -15t15.5 -37q0 -21 -15.5 -36t-36.5 -15h-294v-173h287q21 0 36.5 -15t15.5 -36q0 -22 -15.5 -37t-36.5 -15h-287v-185h294q21 0 36.5 -15t15.5 -36q0 -22 -15.5 -37t-36.5 -15h-349q-62 0 -62 62zM287 724l-105 92q-11 9 -11 24
q0 14 9.5 23.5t22.5 9.5q14 0 24 -10l97 -100q8 -11 8 -19q0 -11 -8 -19t-19 -8t-18 7z" />
    <glyph glyph-name="Eacute" unicode="&#xc9;" horiz-adv-x="577" 
d="M71 62v543q0 62 62 62h349q21 0 36.5 -15t15.5 -37q0 -21 -15.5 -36t-36.5 -15h-294v-173h287q21 0 36.5 -15t15.5 -36q0 -22 -15.5 -37t-36.5 -15h-287v-185h294q21 0 36.5 -15t15.5 -36q0 -22 -15.5 -37t-36.5 -15h-349q-62 0 -62 62zM313 717q-11 0 -19 8t-8 19
q0 8 8 19l97 100q10 10 24 10q13 0 22.5 -9.5t9.5 -23.5q0 -15 -11 -24l-105 -92q-7 -7 -18 -7z" />
    <glyph glyph-name="Ecircumflex" unicode="&#xca;" horiz-adv-x="577" 
d="M71 62v543q0 62 62 62h349q21 0 36.5 -15t15.5 -37q0 -21 -15.5 -36t-36.5 -15h-294v-173h287q21 0 36.5 -15t15.5 -36q0 -22 -15.5 -37t-36.5 -15h-287v-185h294q21 0 36.5 -15t15.5 -36q0 -22 -15.5 -37t-36.5 -15h-349q-62 0 -62 62zM379 727l-72 92l-72 -92
q-7 -10 -21 -10q-12 0 -20.5 8t-8.5 21q0 10 4 14l57 88q15 25 47 25h28q32 0 47 -25l57 -88q4 -4 4 -14q0 -13 -8.5 -21t-20.5 -8q-14 0 -21 10z" />
    <glyph glyph-name="Edieresis" unicode="&#xcb;" horiz-adv-x="577" 
d="M71 62v543q0 62 62 62h349q21 0 36.5 -15t15.5 -37q0 -21 -15.5 -36t-36.5 -15h-294v-173h287q21 0 36.5 -15t15.5 -36q0 -22 -15.5 -37t-36.5 -15h-287v-185h294q21 0 36.5 -15t15.5 -36q0 -22 -15.5 -37t-36.5 -15h-349q-62 0 -62 62zM143 790q0 24 17 41t42 17
q24 0 41 -17t17 -41q0 -25 -17 -42t-41 -17q-25 0 -42 17t-17 42zM352 790q0 24 17.5 41t41.5 17t41.5 -17t17.5 -41q0 -25 -17.5 -42t-41.5 -17t-41.5 17t-17.5 42z" />
    <glyph glyph-name="Igrave" unicode="&#xcc;" horiz-adv-x="259" 
d="M71 53v561q0 24 17 41.5t42 17.5q24 0 41 -17.5t17 -41.5v-561q0 -24 -17 -41.5t-41 -17.5q-25 0 -42 17.5t-17 41.5zM111 724l-105 92q-11 9 -11 24q0 14 9.5 23.5t22.5 9.5q14 0 24 -10l97 -100q8 -11 8 -19q0 -11 -8 -19t-19 -8t-18 7z" />
    <glyph glyph-name="Iacute" unicode="&#xcd;" horiz-adv-x="259" 
d="M71 53v561q0 24 17 41.5t42 17.5q24 0 41 -17.5t17 -41.5v-561q0 -24 -17 -41.5t-41 -17.5q-25 0 -42 17.5t-17 41.5zM137 717q-11 0 -19 8t-8 19q0 8 8 19l97 100q10 10 24 10q13 0 22.5 -9.5t9.5 -23.5q0 -15 -11 -24l-105 -92q-7 -7 -18 -7z" />
    <glyph glyph-name="Icircumflex" unicode="&#xce;" horiz-adv-x="259" 
d="M71 53v561q0 24 17 41.5t42 17.5q24 0 41 -17.5t17 -41.5v-561q0 -24 -17 -41.5t-41 -17.5q-25 0 -42 17.5t-17 41.5zM203 727l-72 92l-72 -92q-7 -10 -21 -10q-12 0 -20.5 8t-8.5 21q0 10 4 14l57 88q15 25 47 25h28q32 0 47 -25l57 -88q4 -4 4 -14q0 -13 -8.5 -21
t-20.5 -8q-14 0 -21 10z" />
    <glyph glyph-name="Idieresis" unicode="&#xcf;" horiz-adv-x="259" 
d="M71 53v561q0 24 17 41.5t42 17.5q24 0 41 -17.5t17 -41.5v-561q0 -24 -17 -41.5t-41 -17.5q-25 0 -42 17.5t-17 41.5zM-33 790q0 24 17 41t42 17q24 0 41 -17t17 -41q0 -25 -17 -42t-41 -17q-25 0 -42 17t-17 42zM176 790q0 24 17.5 41t41.5 17t41.5 -17t17.5 -41
q0 -25 -17.5 -42t-41.5 -17t-41.5 17t-17.5 42z" />
    <glyph glyph-name="Eth" unicode="&#xd0;" horiz-adv-x="736" 
d="M694 333q0 -147 -97 -240t-252 -93h-186q-62 0 -62 62v223h-51q-17 0 -30 12.5t-13 30.5t13 30.5t30 12.5h51v234q0 62 62 62h186q155 0 252 -93.5t97 -240.5zM574 333q0 101 -61 166t-168 65h-131v-193h121q17 0 30 -12.5t13 -30.5t-13 -30.5t-30 -12.5h-121v-182h131
q104 0 166.5 65.5t62.5 164.5z" />
    <glyph glyph-name="Ntilde" unicode="&#xd1;" horiz-adv-x="720" 
d="M519 24l-331 462v-433q0 -24 -17 -41.5t-41 -17.5q-25 0 -42 17.5t-17 41.5v543q0 32 22.5 54.5t54.5 22.5q38 0 62 -32l322 -447v420q0 24 17 41.5t41 17.5q25 0 42 -17.5t17 -41.5v-548q0 -29 -21 -50.5t-51 -21.5q-37 0 -58 30zM342 767q-24 32 -43 32q-34 0 -41 -53
q-5 -25 -28 -25q-13 0 -21.5 10t-6.5 22q6 52 32 80t69 28q24 0 39.5 -10.5t35.5 -35.5q26 -32 44 -32q33 0 40 53q2 25 28 25q13 0 21.5 -9.5t7.5 -22.5q-6 -52 -32 -80t-69 -28q-24 0 -40.5 11t-35.5 35z" />
    <glyph glyph-name="Ograve" unicode="&#xd2;" horiz-adv-x="765" 
d="M382 678q147 2 245 -98t96 -247q2 -147 -96 -247.5t-245 -97.5q-147 -3 -245 97.5t-96 247.5q-2 147 96 247t245 98zM382 574q-98 0 -159.5 -68t-61.5 -173q0 -104 61.5 -172.5t159.5 -68.5t159.5 68.5t61.5 172.5q0 105 -61.5 173t-159.5 68zM362 724l-105 92
q-11 9 -11 24q0 14 9.5 23.5t22.5 9.5q14 0 24 -10l97 -100q8 -11 8 -19q0 -11 -8 -19t-19 -8t-18 7z" />
    <glyph glyph-name="Oacute" unicode="&#xd3;" horiz-adv-x="765" 
d="M382 678q147 2 245 -98t96 -247q2 -147 -96 -247.5t-245 -97.5q-147 -3 -245 97.5t-96 247.5q-2 147 96 247t245 98zM382 574q-98 0 -159.5 -68t-61.5 -173q0 -104 61.5 -172.5t159.5 -68.5t159.5 68.5t61.5 172.5q0 105 -61.5 173t-159.5 68zM388 717q-11 0 -19 8t-8 19
q0 8 8 19l97 100q10 10 24 10q13 0 22.5 -9.5t9.5 -23.5q0 -15 -11 -24l-105 -92q-7 -7 -18 -7z" />
    <glyph glyph-name="Ocircumflex" unicode="&#xd4;" horiz-adv-x="765" 
d="M382 678q147 2 245 -98t96 -247q2 -147 -96 -247.5t-245 -97.5q-147 -3 -245 97.5t-96 247.5q-2 147 96 247t245 98zM382 574q-98 0 -159.5 -68t-61.5 -173q0 -104 61.5 -172.5t159.5 -68.5t159.5 68.5t61.5 172.5q0 105 -61.5 173t-159.5 68zM454 727l-72 92l-72 -92
q-7 -10 -21 -10q-12 0 -20.5 8t-8.5 21q0 10 4 14l57 88q15 25 47 25h28q32 0 47 -25l57 -88q4 -4 4 -14q0 -13 -8.5 -21t-20.5 -8q-14 0 -21 10z" />
    <glyph glyph-name="Otilde" unicode="&#xd5;" horiz-adv-x="765" 
d="M382 678q147 2 245 -98t96 -247q2 -147 -96 -247.5t-245 -97.5q-147 -3 -245 97.5t-96 247.5q-2 147 96 247t245 98zM382 574q-98 0 -159.5 -68t-61.5 -173q0 -104 61.5 -172.5t159.5 -68.5t159.5 68.5t61.5 172.5q0 105 -61.5 173t-159.5 68zM363 767q-24 32 -43 32
q-34 0 -41 -53q-5 -25 -28 -25q-13 0 -21.5 10t-6.5 22q6 52 32 80t69 28q24 0 39.5 -10.5t35.5 -35.5q26 -32 44 -32q33 0 40 53q2 25 28 25q13 0 21.5 -9.5t7.5 -22.5q-6 -52 -32 -80t-69 -28q-24 0 -40.5 11t-35.5 35z" />
    <glyph glyph-name="Odieresis" unicode="&#xd6;" horiz-adv-x="765" 
d="M382 678q147 2 245 -98t96 -247q2 -147 -96 -247.5t-245 -97.5q-147 -3 -245 97.5t-96 247.5q-2 147 96 247t245 98zM382 574q-98 0 -159.5 -68t-61.5 -173q0 -104 61.5 -172.5t159.5 -68.5t159.5 68.5t61.5 172.5q0 105 -61.5 173t-159.5 68zM218 790q0 24 17 41t42 17
q24 0 41 -17t17 -41q0 -25 -17 -42t-41 -17q-25 0 -42 17t-17 42zM427 790q0 24 17.5 41t41.5 17t41.5 -17t17.5 -41q0 -25 -17.5 -42t-41.5 -17t-41.5 17t-17.5 42z" />
    <glyph glyph-name="multiply" unicode="&#xd7;" horiz-adv-x="502" 
d="M251 286l-125 -125q-9 -9 -23 -9t-24 9.5t-10 23.5t10 24l124 125l-124 124q-10 10 -10 24t10 24t24 10t24 -10l124 -125l124 125q10 10 24 10t24 -10t10 -24t-10 -24l-124 -124l124 -125q10 -10 10 -24t-10 -23.5t-24 -9.5t-23 9z" />
    <glyph glyph-name="Oslash" unicode="&#xd8;" horiz-adv-x="765" 
d="M723 333q2 -147 -96 -247.5t-245 -97.5q-102 0 -184 49l-52 -71q-11 -14 -25 -14q-11 0 -19.5 8t-8.5 20q0 10 7 20l52 71q-111 98 -111 262q-2 147 96 247t245 98q98 0 176 -45l49 68q11 14 25 14q11 0 19.5 -8t8.5 -20q0 -10 -7 -20l-48 -66q118 -99 118 -268zM218 164
l276 381q-50 29 -112 29q-98 0 -159.5 -68t-61.5 -173q0 -99 57 -169zM603 333q0 109 -64 176l-277 -383q50 -34 120 -34q98 0 159.5 68.5t61.5 172.5z" />
    <glyph glyph-name="Ugrave" unicode="&#xd9;" horiz-adv-x="719" 
d="M71 263v351q0 24 17 41.5t42 17.5t42 -17.5t17 -41.5v-347q0 -82 45 -128.5t126 -46.5t125.5 46.5t44.5 128.5v347q0 24 17 41.5t42 17.5t42 -17.5t17 -41.5v-350q0 -130 -74.5 -203t-213.5 -73q-140 0 -214.5 73t-74.5 202zM341 724l-105 92q-11 9 -11 24q0 14 9.5 23.5
t22.5 9.5q14 0 24 -10l97 -100q8 -11 8 -19q0 -11 -8 -19t-19 -8t-18 7z" />
    <glyph glyph-name="Uacute" unicode="&#xda;" horiz-adv-x="719" 
d="M71 263v351q0 24 17 41.5t42 17.5t42 -17.5t17 -41.5v-347q0 -82 45 -128.5t126 -46.5t125.5 46.5t44.5 128.5v347q0 24 17 41.5t42 17.5t42 -17.5t17 -41.5v-350q0 -130 -74.5 -203t-213.5 -73q-140 0 -214.5 73t-74.5 202zM367 717q-11 0 -19 8t-8 19q0 8 8 19l97 100
q10 10 24 10q13 0 22.5 -9.5t9.5 -23.5q0 -15 -11 -24l-105 -92q-7 -7 -18 -7z" />
    <glyph glyph-name="Ucircumflex" unicode="&#xdb;" horiz-adv-x="719" 
d="M71 263v351q0 24 17 41.5t42 17.5t42 -17.5t17 -41.5v-347q0 -82 45 -128.5t126 -46.5t125.5 46.5t44.5 128.5v347q0 24 17 41.5t42 17.5t42 -17.5t17 -41.5v-350q0 -130 -74.5 -203t-213.5 -73q-140 0 -214.5 73t-74.5 202zM433 727l-72 92l-72 -92q-7 -10 -21 -10
q-12 0 -20.5 8t-8.5 21q0 10 4 14l57 88q15 25 47 25h28q32 0 47 -25l57 -88q4 -4 4 -14q0 -13 -8.5 -21t-20.5 -8q-14 0 -21 10z" />
    <glyph glyph-name="Udieresis" unicode="&#xdc;" horiz-adv-x="719" 
d="M71 263v351q0 24 17 41.5t42 17.5t42 -17.5t17 -41.5v-347q0 -82 45 -128.5t126 -46.5t125.5 46.5t44.5 128.5v347q0 24 17 41.5t42 17.5t42 -17.5t17 -41.5v-350q0 -130 -74.5 -203t-213.5 -73q-140 0 -214.5 73t-74.5 202zM197 790q0 24 17 41t42 17q24 0 41 -17
t17 -41q0 -25 -17 -42t-41 -17q-25 0 -42 17t-17 42zM406 790q0 24 17.5 41t41.5 17t41.5 -17t17.5 -41q0 -25 -17.5 -42t-41.5 -17t-41.5 17t-17.5 42z" />
    <glyph glyph-name="Yacute" unicode="&#xdd;" horiz-adv-x="636" 
d="M582 587l-205 -310v-224q0 -24 -17 -41.5t-41 -17.5q-25 0 -42 17.5t-17 41.5v224l-206 309q-9 12 -9 31q0 23 16.5 39.5t39.5 16.5q29 0 47 -26l171 -266l169 266q18 26 47 26q23 0 39.5 -16.5t16.5 -39.5q0 -18 -9 -30zM326 717q-11 0 -19 8t-8 19q0 8 8 19l97 100
q10 10 24 10q13 0 22.5 -9.5t9.5 -23.5q0 -15 -11 -24l-105 -92q-7 -7 -18 -7z" />
    <glyph glyph-name="Thorn" unicode="&#xde;" horiz-adv-x="608" 
d="M71 53v561q0 24 17 41.5t41 17.5q25 0 42 -17.5t17 -41.5v-60h176q99 0 158.5 -60t59.5 -150q0 -89 -59.5 -148t-158.5 -59h-176v-84q0 -24 -17 -41.5t-41 -17.5q-25 0 -42 17.5t-17 41.5zM348 451h-160v-211h160q50 0 82 29t32 76t-32 76.5t-82 29.5z" />
    <glyph glyph-name="germandbls" unicode="&#xdf;" horiz-adv-x="581" 
d="M543 182q0 -90 -57 -142t-143 -52q-51 0 -95 19q-27 12 -27 40q0 19 13 31.5t31 12.5q9 0 24 -5q24 -8 54 -8q37 0 64.5 29.5t27.5 78.5q0 55 -40.5 89t-116.5 39q-17 1 -28.5 13.5t-11.5 29.5q0 16 10.5 28t26.5 14q52 8 79 34.5t27 63.5q0 39 -28 63t-65 24
q-55 0 -85 -37t-30 -110v-390q0 -22 -15.5 -37t-36.5 -15q-22 0 -37.5 15t-15.5 37v390q0 108 64 174t154 66q88 0 146 -47.5t58 -119.5q0 -51 -29 -89t-81 -56q69 -15 115 -66q48 -51 48 -117z" />
    <glyph glyph-name="agrave" unicode="&#xe0;" horiz-adv-x="536" 
d="M468 320v-273q0 -22 -15.5 -37.5t-37.5 -15.5q-21 0 -36.5 15.5t-15.5 37.5v5q-56 -64 -156 -64q-67 0 -117.5 43.5t-50.5 116.5q0 75 49.5 116t118.5 41q102 0 156 -62v72q0 42 -31 66t-82 24q-60 0 -113 -36q-10 -7 -24 -7q-17 0 -29.5 12.5t-12.5 29.5q0 23 18 34
q77 57 178 57q93 0 147 -43.5t54 -131.5zM363 110v73q-37 50 -115 50q-45 0 -74 -24t-29 -63t29 -62.5t74 -23.5q78 0 115 50zM249 577l-105 92q-11 9 -11 24q0 14 9.5 23.5t22.5 9.5q14 0 24 -10l97 -100q8 -11 8 -19q0 -11 -8 -19t-19 -8t-18 7z" />
    <glyph glyph-name="aacute" unicode="&#xe1;" horiz-adv-x="536" 
d="M468 320v-273q0 -22 -15.5 -37.5t-37.5 -15.5q-21 0 -36.5 15.5t-15.5 37.5v5q-56 -64 -156 -64q-67 0 -117.5 43.5t-50.5 116.5q0 75 49.5 116t118.5 41q102 0 156 -62v72q0 42 -31 66t-82 24q-60 0 -113 -36q-10 -7 -24 -7q-17 0 -29.5 12.5t-12.5 29.5q0 23 18 34
q77 57 178 57q93 0 147 -43.5t54 -131.5zM363 110v73q-37 50 -115 50q-45 0 -74 -24t-29 -63t29 -62.5t74 -23.5q78 0 115 50zM275 570q-11 0 -19 8t-8 19q0 8 8 19l97 100q10 10 24 10q13 0 22.5 -9.5t9.5 -23.5q0 -15 -11 -24l-105 -92q-7 -7 -18 -7z" />
    <glyph glyph-name="acircumflex" unicode="&#xe2;" horiz-adv-x="536" 
d="M468 320v-273q0 -22 -15.5 -37.5t-37.5 -15.5q-21 0 -36.5 15.5t-15.5 37.5v5q-56 -64 -156 -64q-67 0 -117.5 43.5t-50.5 116.5q0 75 49.5 116t118.5 41q102 0 156 -62v72q0 42 -31 66t-82 24q-60 0 -113 -36q-10 -7 -24 -7q-17 0 -29.5 12.5t-12.5 29.5q0 23 18 34
q77 57 178 57q93 0 147 -43.5t54 -131.5zM363 110v73q-37 50 -115 50q-45 0 -74 -24t-29 -63t29 -62.5t74 -23.5q78 0 115 50zM341 580l-72 92l-72 -92q-7 -10 -21 -10q-12 0 -20.5 8t-8.5 21q0 10 4 14l57 88q15 25 47 25h28q32 0 47 -25l57 -88q4 -4 4 -14q0 -13 -8.5 -21
t-20.5 -8q-14 0 -21 10z" />
    <glyph glyph-name="atilde" unicode="&#xe3;" horiz-adv-x="536" 
d="M468 320v-273q0 -22 -15.5 -37.5t-37.5 -15.5q-21 0 -36.5 15.5t-15.5 37.5v5q-56 -64 -156 -64q-67 0 -117.5 43.5t-50.5 116.5q0 75 49.5 116t118.5 41q102 0 156 -62v72q0 42 -31 66t-82 24q-60 0 -113 -36q-10 -7 -24 -7q-17 0 -29.5 12.5t-12.5 29.5q0 23 18 34
q77 57 178 57q93 0 147 -43.5t54 -131.5zM363 110v73q-37 50 -115 50q-45 0 -74 -24t-29 -63t29 -62.5t74 -23.5q78 0 115 50zM250 620q-24 32 -43 32q-34 0 -41 -53q-5 -25 -28 -25q-13 0 -21.5 10t-6.5 22q6 52 32 80t69 28q24 0 39.5 -10.5t35.5 -35.5q26 -32 44 -32
q33 0 40 53q2 25 28 25q13 0 21.5 -9.5t7.5 -22.5q-6 -52 -32 -80t-69 -28q-24 0 -40.5 11t-35.5 35z" />
    <glyph glyph-name="adieresis" unicode="&#xe4;" horiz-adv-x="536" 
d="M468 320v-273q0 -22 -15.5 -37.5t-37.5 -15.5q-21 0 -36.5 15.5t-15.5 37.5v5q-56 -64 -156 -64q-67 0 -117.5 43.5t-50.5 116.5q0 75 49.5 116t118.5 41q102 0 156 -62v72q0 42 -31 66t-82 24q-60 0 -113 -36q-10 -7 -24 -7q-17 0 -29.5 12.5t-12.5 29.5q0 23 18 34
q77 57 178 57q93 0 147 -43.5t54 -131.5zM363 110v73q-37 50 -115 50q-45 0 -74 -24t-29 -63t29 -62.5t74 -23.5q78 0 115 50zM105 643q0 24 17 41t42 17q24 0 41 -17t17 -41q0 -25 -17 -42t-41 -17q-25 0 -42 17t-17 42zM314 643q0 24 17.5 41t41.5 17t41.5 -17t17.5 -41
q0 -25 -17.5 -42t-41.5 -17t-41.5 17t-17.5 42z" />
    <glyph glyph-name="aring" unicode="&#xe5;" horiz-adv-x="536" 
d="M468 320v-273q0 -22 -15.5 -37.5t-37.5 -15.5q-21 0 -36.5 15.5t-15.5 37.5v5q-56 -64 -156 -64q-67 0 -117.5 43.5t-50.5 116.5q0 75 49.5 116t118.5 41q102 0 156 -62v72q0 42 -31 66t-82 24q-60 0 -113 -36q-10 -7 -24 -7q-17 0 -29.5 12.5t-12.5 29.5q0 23 18 34
q77 57 178 57q93 0 147 -43.5t54 -131.5zM363 110v73q-37 50 -115 50q-45 0 -74 -24t-29 -63t29 -62.5t74 -23.5q78 0 115 50zM269 761q42 0 71.5 -30.5t29.5 -72.5t-29.5 -72t-71.5 -30t-72 30t-30 72t30 72.5t72 30.5zM269 710q-21 0 -36.5 -15t-15.5 -37
q0 -21 15.5 -36.5t36.5 -15.5t36 15.5t15 36.5q0 22 -14.5 37t-36.5 15z" />
    <glyph glyph-name="ae" unicode="&#xe6;" horiz-adv-x="878" 
d="M633 76q53 0 100 30q10 7 23 7q17 0 29.5 -12.5t12.5 -30.5q0 -22 -19 -35q-68 -47 -151 -47q-131 0 -190 98q-30 -45 -84 -71.5t-119 -26.5q-83 0 -139.5 42.5t-56.5 116.5q0 76 51 116q51 42 126 42q110 0 170 -60v71q0 41 -34 65t-89 24q-70 0 -126 -37q-10 -7 -23 -7
q-17 0 -29.5 12.5t-12.5 30.5q0 24 18 35q80 56 182 56q137 0 174 -93q63 93 177 93q97 0 158 -69.5t61 -169.5q0 -49 -62 -49h-289q6 -58 44 -94.5t98 -36.5zM615 409q-57 0 -90 -39q-32 -40 -35 -89h250q-1 49 -34 89q-32 39 -91 39zM258 233q-51 0 -82 -20.5t-31 -58.5
t30.5 -58t82.5 -20q50 0 89 31.5t39 67.5v7q-45 51 -128 51z" />
    <glyph glyph-name="ccedilla" unicode="&#xe7;" horiz-adv-x="497" 
d="M458 76q0 -24 -17 -36q-54 -46 -129 -51l-17 -42q17 11 36 11q29 0 48 -19.5t19 -49.5q0 -36 -31 -59.5t-77 -23.5q-52 0 -92 22q-14 8 -14 22q0 11 7.5 18.5t17.5 7.5q6 0 13 -4q31 -18 65 -18q24 0 40 9.5t16 26.5q0 30 -33 30q-16 0 -27 -9q-8 -5 -16 -5q-12 0 -20 8
t-8 20q0 2 2 10l17 46q-98 9 -159 79.5t-61 172.5q0 110 70.5 181.5t179.5 71.5q94 0 153 -52q17 -12 17 -36q0 -19 -13.5 -33t-33.5 -14q-17 0 -31 11q-37 31 -87 31q-66 0 -106 -44t-40 -116t40 -116.5t106 -44.5q50 0 87 31q14 11 30 11q20 0 34 -13.5t14 -33.5z" />
    <glyph glyph-name="egrave" unicode="&#xe8;" horiz-adv-x="557" 
d="M283 495q104 0 171 -70t67 -169q0 -49 -62 -49h-311q6 -58 47.5 -95.5t106.5 -37.5q57 0 110 32q9 6 23 6q17 0 29.5 -12.5t12.5 -29.5q0 -22 -19 -35q-71 -47 -167 -47q-109 0 -181 70.5t-72 183.5q0 106 70 179.5t175 73.5zM147 281h272q-2 51 -37.5 89.5t-98.5 38.5
q-60 0 -96 -37t-40 -91zM264 577l-105 92q-11 9 -11 24q0 14 9.5 23.5t22.5 9.5q14 0 24 -10l97 -100q8 -11 8 -19q0 -11 -8 -19t-19 -8t-18 7z" />
    <glyph glyph-name="eacute" unicode="&#xe9;" horiz-adv-x="557" 
d="M283 495q104 0 171 -70t67 -169q0 -49 -62 -49h-311q6 -58 47.5 -95.5t106.5 -37.5q57 0 110 32q9 6 23 6q17 0 29.5 -12.5t12.5 -29.5q0 -22 -19 -35q-71 -47 -167 -47q-109 0 -181 70.5t-72 183.5q0 106 70 179.5t175 73.5zM147 281h272q-2 51 -37.5 89.5t-98.5 38.5
q-60 0 -96 -37t-40 -91zM290 570q-11 0 -19 8t-8 19q0 8 8 19l97 100q10 10 24 10q13 0 22.5 -9.5t9.5 -23.5q0 -15 -11 -24l-105 -92q-7 -7 -18 -7z" />
    <glyph glyph-name="ecircumflex" unicode="&#xea;" horiz-adv-x="557" 
d="M283 495q104 0 171 -70t67 -169q0 -49 -62 -49h-311q6 -58 47.5 -95.5t106.5 -37.5q57 0 110 32q9 6 23 6q17 0 29.5 -12.5t12.5 -29.5q0 -22 -19 -35q-71 -47 -167 -47q-109 0 -181 70.5t-72 183.5q0 106 70 179.5t175 73.5zM147 281h272q-2 51 -37.5 89.5t-98.5 38.5
q-60 0 -96 -37t-40 -91zM356 580l-72 92l-72 -92q-7 -10 -21 -10q-12 0 -20.5 8t-8.5 21q0 10 4 14l57 88q15 25 47 25h28q32 0 47 -25l57 -88q4 -4 4 -14q0 -13 -8.5 -21t-20.5 -8q-14 0 -21 10z" />
    <glyph glyph-name="edieresis" unicode="&#xeb;" horiz-adv-x="557" 
d="M283 495q104 0 171 -70t67 -169q0 -49 -62 -49h-311q6 -58 47.5 -95.5t106.5 -37.5q57 0 110 32q9 6 23 6q17 0 29.5 -12.5t12.5 -29.5q0 -22 -19 -35q-71 -47 -167 -47q-109 0 -181 70.5t-72 183.5q0 106 70 179.5t175 73.5zM147 281h272q-2 51 -37.5 89.5t-98.5 38.5
q-60 0 -96 -37t-40 -91zM120 643q0 24 17 41t42 17q24 0 41 -17t17 -41q0 -25 -17 -42t-41 -17q-25 0 -42 17t-17 42zM329 643q0 24 17.5 41t41.5 17t41.5 -17t17.5 -41q0 -25 -17.5 -42t-41.5 -17t-41.5 17t-17.5 42z" />
    <glyph glyph-name="igrave" unicode="&#xec;" horiz-adv-x="241" 
d="M68 47v389q0 22 15.5 37.5t37.5 15.5q21 0 36.5 -15.5t15.5 -37.5v-389q0 -22 -15.5 -37.5t-37.5 -15.5q-21 0 -36.5 15.5t-15.5 37.5zM101 577l-105 92q-11 9 -11 24q0 14 9.5 23.5t22.5 9.5q14 0 24 -10l97 -100q8 -11 8 -19q0 -11 -8 -19t-19 -8t-18 7z" />
    <glyph glyph-name="iacute" unicode="&#xed;" horiz-adv-x="241" 
d="M68 47v389q0 22 15.5 37.5t37.5 15.5q21 0 36.5 -15.5t15.5 -37.5v-389q0 -22 -15.5 -37.5t-37.5 -15.5q-21 0 -36.5 15.5t-15.5 37.5zM127 570q-11 0 -19 8t-8 19q0 8 8 19l97 100q10 10 24 10q13 0 22.5 -9.5t9.5 -23.5q0 -15 -11 -24l-105 -92q-7 -7 -18 -7z" />
    <glyph glyph-name="icircumflex" unicode="&#xee;" horiz-adv-x="241" 
d="M68 47v389q0 22 15.5 37.5t37.5 15.5q21 0 36.5 -15.5t15.5 -37.5v-389q0 -22 -15.5 -37.5t-37.5 -15.5q-21 0 -36.5 15.5t-15.5 37.5zM193 580l-72 92l-72 -92q-7 -10 -21 -10q-12 0 -20.5 8t-8.5 21q0 10 4 14l57 88q15 25 47 25h28q32 0 47 -25l57 -88q4 -4 4 -14
q0 -13 -8.5 -21t-20.5 -8q-14 0 -21 10z" />
    <glyph glyph-name="idieresis" unicode="&#xef;" horiz-adv-x="241" 
d="M68 47v389q0 22 15.5 37.5t37.5 15.5q21 0 36.5 -15.5t15.5 -37.5v-389q0 -22 -15.5 -37.5t-37.5 -15.5q-21 0 -36.5 15.5t-15.5 37.5zM-43 643q0 24 17 41t42 17q24 0 41 -17t17 -41q0 -25 -17 -42t-41 -17q-25 0 -42 17t-17 42zM166 643q0 24 17.5 41t41.5 17t41.5 -17
t17.5 -41q0 -25 -17.5 -42t-41.5 -17t-41.5 17t-17.5 42z" />
    <glyph glyph-name="eth" unicode="&#xf0;" horiz-adv-x="573" 
d="M535 250q0 -116 -68 -189t-181 -73q-109 0 -178.5 68t-69.5 172t61.5 172t155.5 68q99 0 159 -91q-40 79 -159 168l-123 -55q-4 -2 -12 -2q-11 0 -19.5 8t-8.5 20q0 18 17 26l92 40l-27 18q-24 14 -24 43q0 21 15 36t36 15q14 0 28 -8q40 -25 80 -56l85 37q4 2 11 2
q11 0 19.5 -8t8.5 -19q0 -18 -17 -26l-58 -26q177 -155 177 -340zM426 228q0 64 -38 105.5t-102 41.5q-65 0 -102 -43q-37 -41 -37 -104q0 -62 37 -105q38 -42 102 -42t102 41.5t38 105.5z" />
    <glyph glyph-name="ntilde" unicode="&#xf1;" 
d="M499 340v-293q0 -22 -15.5 -37.5t-37.5 -15.5q-21 0 -36.5 15.5t-15.5 37.5v255q0 53 -24 76.5t-73 23.5q-75 0 -124 -65v-290q0 -22 -15.5 -37.5t-36.5 -15.5q-22 0 -37.5 15.5t-15.5 37.5v389q0 22 15.5 37.5t36.5 15.5q22 0 37.5 -15.5t15.5 -37.5v-19q29 34 74 56
t96 22q77 0 116.5 -40t39.5 -115zM266 620q-24 32 -43 32q-34 0 -41 -53q-5 -25 -28 -25q-13 0 -21.5 10t-6.5 22q6 52 32 80t69 28q24 0 39.5 -10.5t35.5 -35.5q26 -32 44 -32q33 0 40 53q2 25 28 25q13 0 21.5 -9.5t7.5 -22.5q-6 -52 -32 -80t-69 -28q-24 0 -40.5 11
t-35.5 35z" />
    <glyph glyph-name="ograve" unicode="&#xf2;" horiz-adv-x="573" 
d="M38 242q0 107 69 180t179 73q111 0 180 -73t69 -180q0 -108 -69 -181t-180 -73q-110 0 -179 73t-69 181zM426 242q0 66 -38 113t-102 47t-102 -47q-37 -46 -37 -113q0 -69 37 -115t102 -46t102 46q38 47 38 115zM267 577l-105 92q-11 9 -11 24q0 14 9.5 23.5t22.5 9.5
q14 0 24 -10l97 -100q8 -11 8 -19q0 -11 -8 -19t-19 -8t-18 7z" />
    <glyph glyph-name="oacute" unicode="&#xf3;" horiz-adv-x="573" 
d="M38 242q0 107 69 180t179 73q111 0 180 -73t69 -180q0 -108 -69 -181t-180 -73q-110 0 -179 73t-69 181zM426 242q0 66 -38 113t-102 47t-102 -47q-37 -46 -37 -113q0 -69 37 -115t102 -46t102 46q38 47 38 115zM293 570q-11 0 -19 8t-8 19q0 8 8 19l97 100q10 10 24 10
q13 0 22.5 -9.5t9.5 -23.5q0 -15 -11 -24l-105 -92q-7 -7 -18 -7z" />
    <glyph glyph-name="ocircumflex" unicode="&#xf4;" horiz-adv-x="573" 
d="M38 242q0 107 69 180t179 73q111 0 180 -73t69 -180q0 -108 -69 -181t-180 -73q-110 0 -179 73t-69 181zM426 242q0 66 -38 113t-102 47t-102 -47q-37 -46 -37 -113q0 -69 37 -115t102 -46t102 46q38 47 38 115zM359 580l-72 92l-72 -92q-7 -10 -21 -10q-12 0 -20.5 8
t-8.5 21q0 10 4 14l57 88q15 25 47 25h28q32 0 47 -25l57 -88q4 -4 4 -14q0 -13 -8.5 -21t-20.5 -8q-14 0 -21 10z" />
    <glyph glyph-name="otilde" unicode="&#xf5;" horiz-adv-x="573" 
d="M38 242q0 107 69 180t179 73q111 0 180 -73t69 -180q0 -108 -69 -181t-180 -73q-110 0 -179 73t-69 181zM426 242q0 66 -38 113t-102 47t-102 -47q-37 -46 -37 -113q0 -69 37 -115t102 -46t102 46q38 47 38 115zM268 620q-24 32 -43 32q-34 0 -41 -53q-5 -25 -28 -25
q-13 0 -21.5 10t-6.5 22q6 52 32 80t69 28q24 0 39.5 -10.5t35.5 -35.5q26 -32 44 -32q33 0 40 53q2 25 28 25q13 0 21.5 -9.5t7.5 -22.5q-6 -52 -32 -80t-69 -28q-24 0 -40.5 11t-35.5 35z" />
    <glyph glyph-name="odieresis" unicode="&#xf6;" horiz-adv-x="573" 
d="M38 242q0 107 69 180t179 73q111 0 180 -73t69 -180q0 -108 -69 -181t-180 -73q-110 0 -179 73t-69 181zM426 242q0 66 -38 113t-102 47t-102 -47q-37 -46 -37 -113q0 -69 37 -115t102 -46t102 46q38 47 38 115zM123 643q0 24 17 41t42 17q24 0 41 -17t17 -41
q0 -25 -17 -42t-41 -17q-25 0 -42 17t-17 42zM332 643q0 24 17.5 41t41.5 17t41.5 -17t17.5 -41q0 -25 -17.5 -42t-41.5 -17t-41.5 17t-17.5 42z" />
    <glyph glyph-name="divide" unicode="&#xf7;" horiz-adv-x="511" 
d="M201 520q0 23 16 38.5t38 15.5q23 0 39 -16t16 -38t-16 -38.5t-39 -16.5q-22 0 -38 16t-16 39zM23 337q0 14 10 24t24 10h397q14 0 24 -10t10 -24t-10 -24t-24 -10h-397q-14 0 -24 10t-10 24zM201 151q0 23 16 39t38 16q23 0 39 -16t16 -39q0 -22 -16 -38t-39 -16
q-22 0 -38 16t-16 38z" />
    <glyph glyph-name="oslash" unicode="&#xf8;" horiz-adv-x="573" 
d="M535 242q0 -108 -69 -181t-180 -73q-73 0 -126 31l-40 -55q-8 -12 -22 -12q-9 0 -16.5 7t-7.5 17q0 7 6 16l40 56q-82 74 -82 194q0 107 69 180t179 73q76 0 132 -34l41 57q9 13 23 13q9 0 16 -6.5t7 -15.5q0 -8 -6 -17l-43 -59q79 -73 79 -191zM181 132l179 249
q-32 21 -74 21q-64 0 -102 -47q-37 -46 -37 -113q0 -66 34 -110zM426 242q0 61 -31 105l-178 -248q31 -18 69 -18q65 0 102 46q38 47 38 115z" />
    <glyph glyph-name="ugrave" unicode="&#xf9;" 
d="M499 436v-389q0 -22 -15.5 -37.5t-36.5 -15.5q-22 0 -37.5 15.5t-15.5 37.5v16q-70 -75 -171 -75q-155 0 -155 153v295q0 22 15.5 37.5t37.5 15.5q21 0 36.5 -15.5t15.5 -37.5v-257q0 -52 24 -75t73 -23q77 0 124 63v292q0 22 15.5 37.5t36.5 15.5q22 0 37.5 -15.5
t15.5 -37.5zM264 577l-105 92q-11 9 -11 24q0 14 9.5 23.5t22.5 9.5q14 0 24 -10l97 -100q8 -11 8 -19q0 -11 -8 -19t-19 -8t-18 7z" />
    <glyph glyph-name="uacute" unicode="&#xfa;" 
d="M499 436v-389q0 -22 -15.5 -37.5t-36.5 -15.5q-22 0 -37.5 15.5t-15.5 37.5v16q-70 -75 -171 -75q-155 0 -155 153v295q0 22 15.5 37.5t37.5 15.5q21 0 36.5 -15.5t15.5 -37.5v-257q0 -52 24 -75t73 -23q77 0 124 63v292q0 22 15.5 37.5t36.5 15.5q22 0 37.5 -15.5
t15.5 -37.5zM290 570q-11 0 -19 8t-8 19q0 8 8 19l97 100q10 10 24 10q13 0 22.5 -9.5t9.5 -23.5q0 -15 -11 -24l-105 -92q-7 -7 -18 -7z" />
    <glyph glyph-name="ucircumflex" unicode="&#xfb;" 
d="M499 436v-389q0 -22 -15.5 -37.5t-36.5 -15.5q-22 0 -37.5 15.5t-15.5 37.5v16q-70 -75 -171 -75q-155 0 -155 153v295q0 22 15.5 37.5t37.5 15.5q21 0 36.5 -15.5t15.5 -37.5v-257q0 -52 24 -75t73 -23q77 0 124 63v292q0 22 15.5 37.5t36.5 15.5q22 0 37.5 -15.5
t15.5 -37.5zM356 580l-72 92l-72 -92q-7 -10 -21 -10q-12 0 -20.5 8t-8.5 21q0 10 4 14l57 88q15 25 47 25h28q32 0 47 -25l57 -88q4 -4 4 -14q0 -13 -8.5 -21t-20.5 -8q-14 0 -21 10z" />
    <glyph glyph-name="udieresis" unicode="&#xfc;" 
d="M499 436v-389q0 -22 -15.5 -37.5t-36.5 -15.5q-22 0 -37.5 15.5t-15.5 37.5v16q-70 -75 -171 -75q-155 0 -155 153v295q0 22 15.5 37.5t37.5 15.5q21 0 36.5 -15.5t15.5 -37.5v-257q0 -52 24 -75t73 -23q77 0 124 63v292q0 22 15.5 37.5t36.5 15.5q22 0 37.5 -15.5
t15.5 -37.5zM120 643q0 24 17 41t42 17q24 0 41 -17t17 -41q0 -25 -17 -42t-41 -17q-25 0 -42 17t-17 42zM329 643q0 24 17.5 41t41.5 17t41.5 -17t17.5 -41q0 -25 -17.5 -42t-41.5 -17t-41.5 17t-17.5 42z" />
    <glyph glyph-name="yacute" unicode="&#xfd;" horiz-adv-x="503" 
d="M98 -103h5q51 0 69 42l24 55l-172 424q-3 9 -3 19q0 22 15 37t36 15q16 0 30 -9.5t19 -23.5l130 -335l130 335q5 14 19 23.5t30 9.5q22 0 37 -15t15 -37q0 -9 -4 -20l-206 -504q-23 -58 -63.5 -83t-102.5 -26q-11 0 -15 1q-18 2 -30.5 15t-12.5 31q0 19 15 32.5t35 13.5z
M258 570q-11 0 -19 8t-8 19q0 8 8 19l97 100q10 10 24 10q13 0 22.5 -9.5t9.5 -23.5q0 -15 -11 -24l-105 -92q-7 -7 -18 -7z" />
    <glyph glyph-name="thorn" unicode="&#xfe;" horiz-adv-x="580" 
d="M173 67v-204q0 -22 -15.5 -37.5t-36.5 -15.5q-22 0 -37.5 15.5t-15.5 37.5v757q0 22 15.5 37.5t36.5 15.5q22 0 37.5 -15.5t15.5 -37.5v-203q57 78 155 78q96 0 155 -68.5t59 -184.5t-59 -185t-155 -69t-155 79zM297 402q-35 0 -70.5 -19t-53.5 -46v-191q18 -27 53.5 -46
t70.5 -19q62 0 99 44.5t37 116.5t-37 116t-99 44z" />
    <glyph glyph-name="ydieresis" unicode="&#xff;" horiz-adv-x="503" 
d="M98 -103h5q51 0 69 42l24 55l-172 424q-3 9 -3 19q0 22 15 37t36 15q16 0 30 -9.5t19 -23.5l130 -335l130 335q5 14 19 23.5t30 9.5q22 0 37 -15t15 -37q0 -9 -4 -20l-206 -504q-23 -58 -63.5 -83t-102.5 -26q-11 0 -15 1q-18 2 -30.5 15t-12.5 31q0 19 15 32.5t35 13.5z
M88 643q0 24 17 41t42 17q24 0 41 -17t17 -41q0 -25 -17 -42t-41 -17q-25 0 -42 17t-17 42zM297 643q0 24 17.5 41t41.5 17t41.5 -17t17.5 -41q0 -25 -17.5 -42t-41.5 -17t-41.5 17t-17.5 42z" />
    <glyph glyph-name="Amacron" unicode="&#x100;" horiz-adv-x="673" 
d="M646 54q0 -25 -17.5 -42.5t-42.5 -17.5q-19 0 -34 10.5t-21 27.5l-35 96h-320l-35 -96q-6 -17 -21 -27.5t-34 -10.5q-25 0 -42.5 17.5t-17.5 42.5q0 4 5 21l209 532q12 30 38 48t58 18t58 -18t38 -48l209 -532q5 -17 5 -21zM213 231h246l-123 337zM168 764q0 13 9 22
t22 9h273q13 0 22 -9t9 -22t-9 -22t-22 -9h-273q-13 0 -22 9t-9 22z" />
    <glyph glyph-name="amacron" unicode="&#x101;" horiz-adv-x="536" 
d="M468 320v-273q0 -22 -15.5 -37.5t-37.5 -15.5q-21 0 -36.5 15.5t-15.5 37.5v5q-56 -64 -156 -64q-67 0 -117.5 43.5t-50.5 116.5q0 75 49.5 116t118.5 41q102 0 156 -62v72q0 42 -31 66t-82 24q-60 0 -113 -36q-10 -7 -24 -7q-17 0 -29.5 12.5t-12.5 29.5q0 23 18 34
q77 57 178 57q93 0 147 -43.5t54 -131.5zM363 110v73q-37 50 -115 50q-45 0 -74 -24t-29 -63t29 -62.5t74 -23.5q78 0 115 50zM100 617q0 13 9 22t22 9h273q13 0 22 -9t9 -22t-9 -22t-22 -9h-273q-13 0 -22 9t-9 22z" />
    <glyph glyph-name="Abreve" unicode="&#x102;" horiz-adv-x="673" 
d="M646 54q0 -25 -17.5 -42.5t-42.5 -17.5q-19 0 -34 10.5t-21 27.5l-35 96h-320l-35 -96q-6 -17 -21 -27.5t-34 -10.5q-25 0 -42.5 17.5t-17.5 42.5q0 4 5 21l209 532q12 30 38 48t58 18t58 -18t38 -48l209 -532q5 -17 5 -21zM213 231h246l-123 337zM178 788q-9 9 -9 22
t9 22t22 9q15 0 23 -9q46 -49 113 -49q66 0 112 48q7 10 23 10q13 0 22 -9t9 -22q0 -11 -9 -22q-64 -67 -157 -67q-91 0 -158 67z" />
    <glyph glyph-name="abreve" unicode="&#x103;" horiz-adv-x="536" 
d="M468 320v-273q0 -22 -15.5 -37.5t-37.5 -15.5q-21 0 -36.5 15.5t-15.5 37.5v5q-56 -64 -156 -64q-67 0 -117.5 43.5t-50.5 116.5q0 75 49.5 116t118.5 41q102 0 156 -62v72q0 42 -31 66t-82 24q-60 0 -113 -36q-10 -7 -24 -7q-17 0 -29.5 12.5t-12.5 29.5q0 23 18 34
q77 57 178 57q93 0 147 -43.5t54 -131.5zM363 110v73q-37 50 -115 50q-45 0 -74 -24t-29 -63t29 -62.5t74 -23.5q78 0 115 50zM110 641q-9 9 -9 22t9 22t22 9q16 0 23 -9q46 -49 113 -49q66 0 112 48q7 10 23 10q13 0 22 -9t9 -22q0 -11 -9 -22q-64 -67 -157 -67
q-91 0 -158 67z" />
    <glyph glyph-name="Aogonek" unicode="&#x104;" horiz-adv-x="673" 
d="M644 -147q0 -24 -23 -32q-22 -7 -57 -7q-46 0 -76 20.5t-30 56.5q0 32 30 60.5t77 46.5q-25 10 -34 34l-35 96h-320l-35 -96q-6 -17 -21 -27.5t-34 -10.5q-25 0 -42.5 17.5t-17.5 42.5q0 4 5 21l209 532q12 30 38 48t58 18t58 -18t38 -48l209 -532q5 -17 5 -21
q0 -29 -23 -47l-1 -1q-38 -31 -52.5 -50t-14.5 -40q0 -14 10 -22.5t25 -8.5q4 0 11 1t10 1q13 0 23 -9.5t10 -24.5zM213 231h246l-123 337z" />
    <glyph glyph-name="aogonek" unicode="&#x105;" horiz-adv-x="536" 
d="M471 -147q0 -24 -23 -32q-22 -7 -57 -7q-46 0 -76 20.5t-30 56.5q0 34 30.5 62t78.5 45q-31 15 -31 49v5q-56 -64 -156 -64q-67 0 -117.5 43.5t-50.5 116.5q0 75 49.5 116t118.5 41q102 0 156 -62v72q0 42 -31 66t-82 24q-60 0 -113 -36q-10 -7 -24 -7q-17 0 -29.5 12.5
t-12.5 29.5q0 23 18 34q77 57 178 57q93 0 147 -43.5t54 -131.5v-273q0 -22 -17 -39l-2 -2q-38 -31 -52.5 -50t-14.5 -40q0 -14 10 -22.5t25 -8.5q4 0 11 1t10 1q13 0 23 -9.5t10 -24.5zM363 110v73q-37 50 -115 50q-45 0 -74 -24t-29 -63t29 -62.5t74 -23.5q78 0 115 50z
" />
    <glyph glyph-name="Cacute" unicode="&#x106;" horiz-adv-x="672" 
d="M41 333q-2 148 99.5 247.5t245.5 97.5q144 0 234 -99q14 -14 14 -37q0 -22 -16 -38.5t-39 -16.5q-26 0 -42 19q-59 68 -151 68q-96 0 -160.5 -68.5t-64.5 -172.5t64.5 -172.5t160.5 -68.5q93 0 152 68q16 19 41 19q23 0 39 -16t16 -39t-14 -37q-90 -99 -234 -99
q-144 -3 -245.5 97t-99.5 248zM393 717q-11 0 -19 8t-8 19q0 8 8 19l97 100q10 10 24 10q13 0 22.5 -9.5t9.5 -23.5q0 -15 -11 -24l-105 -92q-7 -7 -18 -7z" />
    <glyph glyph-name="cacute" unicode="&#x107;" horiz-adv-x="497" 
d="M288 495q94 0 153 -52q17 -12 17 -36q0 -19 -13.5 -33t-33.5 -14q-17 0 -31 11q-37 31 -87 31q-66 0 -106 -44t-40 -116t40 -116.5t106 -44.5q50 0 87 31q14 11 30 11q20 0 34 -13.5t14 -33.5q0 -24 -17 -36q-59 -52 -153 -52q-109 0 -179.5 72t-70.5 182t70.5 181.5
t179.5 71.5zM293 570q-11 0 -19 8t-8 19q0 8 8 19l97 100q10 10 24 10q13 0 22.5 -9.5t9.5 -23.5q0 -15 -11 -24l-105 -92q-7 -7 -18 -7z" />
    <glyph glyph-name="Ccircumflex" unicode="&#x108;" horiz-adv-x="672" 
d="M41 333q-2 148 99.5 247.5t245.5 97.5q144 0 234 -99q14 -14 14 -37q0 -22 -16 -38.5t-39 -16.5q-26 0 -42 19q-59 68 -151 68q-96 0 -160.5 -68.5t-64.5 -172.5t64.5 -172.5t160.5 -68.5q93 0 152 68q16 19 41 19q23 0 39 -16t16 -39t-14 -37q-90 -99 -234 -99
q-144 -3 -245.5 97t-99.5 248zM459 727l-72 92l-72 -92q-7 -10 -21 -10q-12 0 -20.5 8t-8.5 21q0 10 4 14l57 88q15 25 47 25h28q32 0 47 -25l57 -88q4 -4 4 -14q0 -13 -8.5 -21t-20.5 -8q-14 0 -21 10z" />
    <glyph glyph-name="ccircumflex" unicode="&#x109;" horiz-adv-x="497" 
d="M288 495q94 0 153 -52q17 -12 17 -36q0 -19 -13.5 -33t-33.5 -14q-17 0 -31 11q-37 31 -87 31q-66 0 -106 -44t-40 -116t40 -116.5t106 -44.5q50 0 87 31q14 11 30 11q20 0 34 -13.5t14 -33.5q0 -24 -17 -36q-59 -52 -153 -52q-109 0 -179.5 72t-70.5 182t70.5 181.5
t179.5 71.5zM359 580l-72 92l-72 -92q-7 -10 -21 -10q-12 0 -20.5 8t-8.5 21q0 10 4 14l57 88q15 25 47 25h28q32 0 47 -25l57 -88q4 -4 4 -14q0 -13 -8.5 -21t-20.5 -8q-14 0 -21 10z" />
    <glyph glyph-name="Cdotaccent" unicode="&#x10a;" horiz-adv-x="672" 
d="M41 333q-2 148 99.5 247.5t245.5 97.5q144 0 234 -99q14 -14 14 -37q0 -22 -16 -38.5t-39 -16.5q-26 0 -42 19q-59 68 -151 68q-96 0 -160.5 -68.5t-64.5 -172.5t64.5 -172.5t160.5 -68.5q93 0 152 68q16 19 41 19q23 0 39 -16t16 -39t-14 -37q-90 -99 -234 -99
q-144 -3 -245.5 97t-99.5 248zM386 848q24 0 41 -17.5t17 -41.5q0 -25 -17 -42t-41 -17t-41.5 17t-17.5 42q0 24 17.5 41.5t41.5 17.5z" />
    <glyph glyph-name="cdotaccent" unicode="&#x10b;" horiz-adv-x="497" 
d="M288 495q94 0 153 -52q17 -12 17 -36q0 -19 -13.5 -33t-33.5 -14q-17 0 -31 11q-37 31 -87 31q-66 0 -106 -44t-40 -116t40 -116.5t106 -44.5q50 0 87 31q14 11 30 11q20 0 34 -13.5t14 -33.5q0 -24 -17 -36q-59 -52 -153 -52q-109 0 -179.5 72t-70.5 182t70.5 181.5
t179.5 71.5zM286 701q24 0 41 -17.5t17 -41.5q0 -25 -17 -42t-41 -17t-41.5 17t-17.5 42q0 24 17.5 41.5t41.5 17.5z" />
    <glyph glyph-name="Ccaron" unicode="&#x10c;" horiz-adv-x="672" 
d="M41 333q-2 148 99.5 247.5t245.5 97.5q144 0 234 -99q14 -14 14 -37q0 -22 -16 -38.5t-39 -16.5q-26 0 -42 19q-59 68 -151 68q-96 0 -160.5 -68.5t-64.5 -172.5t64.5 -172.5t160.5 -68.5q93 0 152 68q16 19 41 19q23 0 39 -16t16 -39t-14 -37q-90 -99 -234 -99
q-144 -3 -245.5 97t-99.5 248zM506 844q0 -10 -4 -14l-57 -88q-15 -25 -47 -25h-28q-32 0 -47 25l-57 88q-4 4 -4 14q0 13 8.5 21t20.5 8q14 0 21 -10l72 -92l72 92q7 10 21 10q12 0 20.5 -8t8.5 -21z" />
    <glyph glyph-name="ccaron" unicode="&#x10d;" horiz-adv-x="497" 
d="M288 495q94 0 153 -52q17 -12 17 -36q0 -19 -13.5 -33t-33.5 -14q-17 0 -31 11q-37 31 -87 31q-66 0 -106 -44t-40 -116t40 -116.5t106 -44.5q50 0 87 31q14 11 30 11q20 0 34 -13.5t14 -33.5q0 -24 -17 -36q-59 -52 -153 -52q-109 0 -179.5 72t-70.5 182t70.5 181.5
t179.5 71.5zM406 697q0 -10 -4 -14l-57 -88q-15 -25 -47 -25h-28q-32 0 -47 25l-57 88q-4 4 -4 14q0 13 8.5 21t20.5 8q14 0 21 -10l72 -92l72 92q7 10 21 10q12 0 20.5 -8t8.5 -21z" />
    <glyph glyph-name="Dcaron" unicode="&#x10e;" horiz-adv-x="710" 
d="M71 62v543q0 62 62 62h186q155 0 252 -93.5t97 -240.5t-97 -240t-252 -93h-186q-62 0 -62 62zM188 103h131q104 0 166.5 65.5t62.5 164.5q0 101 -61 166t-168 65h-131v-461zM476 844q0 -10 -4 -14l-57 -88q-15 -25 -47 -25h-28q-32 0 -47 25l-57 88q-4 4 -4 14
q0 13 8.5 21t20.5 8q14 0 21 -10l72 -92l72 92q7 10 21 10q12 0 20.5 -8t8.5 -21z" />
    <glyph glyph-name="dcaron" unicode="&#x10f;" horiz-adv-x="670" 
d="M513 620v-573q0 -22 -15.5 -37.5t-37.5 -15.5q-21 0 -36.5 15.5t-15.5 37.5v18q-59 -77 -155 -77q-95 0 -155 68.5t-60 184.5q0 115 60 184.5t155 69.5t155 -79v204q0 22 15.5 37.5t36.5 15.5q22 0 37.5 -15.5t15.5 -37.5zM408 145v192q-18 28 -53.5 46.5t-71.5 18.5
q-62 0 -99 -44.5t-37 -116.5t37 -116t99 -44q37 0 72 18t53 46zM567 487q0 9 13 22q33 33 39 65q-6 -2 -14 -2q-20 0 -34 14.5t-14 36.5q0 23 16 39.5t39 16.5q27 0 45 -20.5t18 -54.5q0 -76 -67 -135q-8 -6 -16 -6q-10 0 -17.5 7t-7.5 17z" />
    <glyph glyph-name="Dcroat" unicode="&#x110;" horiz-adv-x="736" 
d="M694 333q0 -147 -97 -240t-252 -93h-186q-62 0 -62 62v223h-51q-17 0 -30 12.5t-13 30.5t13 30.5t30 12.5h51v234q0 62 62 62h186q155 0 252 -93.5t97 -240.5zM574 333q0 101 -61 166t-168 65h-131v-193h121q17 0 30 -12.5t13 -30.5t-13 -30.5t-30 -12.5h-121v-182h131
q104 0 166.5 65.5t62.5 164.5z" />
    <glyph glyph-name="dslash" unicode="&#x111;" horiz-adv-x="585" 
d="M582 562q0 -13 -9 -22t-22 -9h-38v-484q0 -22 -15.5 -37.5t-37.5 -15.5q-21 0 -36.5 15.5t-15.5 37.5v18q-59 -77 -155 -77q-95 0 -155 68.5t-60 184.5q0 115 60 184.5t155 69.5t155 -79v115h-125q-13 0 -22 9t-9 22t9 22t22 9h125v27q0 22 15.5 37.5t36.5 15.5
q22 0 37.5 -15.5t15.5 -37.5v-27h38q13 0 22 -9t9 -22zM408 145v192q-18 28 -53.5 46.5t-71.5 18.5q-62 0 -99 -44.5t-37 -116.5t37 -116t99 -44q37 0 72 18t53 46z" />
    <glyph glyph-name="Emacron" unicode="&#x112;" horiz-adv-x="577" 
d="M71 62v543q0 62 62 62h349q21 0 36.5 -15t15.5 -37q0 -21 -15.5 -36t-36.5 -15h-294v-173h287q21 0 36.5 -15t15.5 -36q0 -22 -15.5 -37t-36.5 -15h-287v-185h294q21 0 36.5 -15t15.5 -36q0 -22 -15.5 -37t-36.5 -15h-349q-62 0 -62 62zM138 764q0 13 9 22t22 9h273
q13 0 22 -9t9 -22t-9 -22t-22 -9h-273q-13 0 -22 9t-9 22z" />
    <glyph glyph-name="emacron" unicode="&#x113;" horiz-adv-x="557" 
d="M283 495q104 0 171 -70t67 -169q0 -49 -62 -49h-311q6 -58 47.5 -95.5t106.5 -37.5q57 0 110 32q9 6 23 6q17 0 29.5 -12.5t12.5 -29.5q0 -22 -19 -35q-71 -47 -167 -47q-109 0 -181 70.5t-72 183.5q0 106 70 179.5t175 73.5zM147 281h272q-2 51 -37.5 89.5t-98.5 38.5
q-60 0 -96 -37t-40 -91zM115 617q0 13 9 22t22 9h273q13 0 22 -9t9 -22t-9 -22t-22 -9h-273q-13 0 -22 9t-9 22z" />
    <glyph glyph-name="Ebreve" unicode="&#x114;" horiz-adv-x="577" 
d="M71 62v543q0 62 62 62h349q21 0 36.5 -15t15.5 -37q0 -21 -15.5 -36t-36.5 -15h-294v-173h287q21 0 36.5 -15t15.5 -36q0 -22 -15.5 -37t-36.5 -15h-287v-185h294q21 0 36.5 -15t15.5 -36q0 -22 -15.5 -37t-36.5 -15h-349q-62 0 -62 62zM148 788q-9 9 -9 22t9 22t22 9
q16 0 23 -9q46 -49 113 -49q66 0 112 48q7 10 23 10q13 0 22 -9t9 -22q0 -11 -9 -22q-64 -67 -157 -67q-91 0 -158 67z" />
    <glyph glyph-name="ebreve" unicode="&#x115;" horiz-adv-x="557" 
d="M283 495q104 0 171 -70t67 -169q0 -49 -62 -49h-311q6 -58 47.5 -95.5t106.5 -37.5q57 0 110 32q9 6 23 6q17 0 29.5 -12.5t12.5 -29.5q0 -22 -19 -35q-71 -47 -167 -47q-109 0 -181 70.5t-72 183.5q0 106 70 179.5t175 73.5zM147 281h272q-2 51 -37.5 89.5t-98.5 38.5
q-60 0 -96 -37t-40 -91zM125 641q-9 9 -9 22t9 22t22 9q15 0 23 -9q46 -49 113 -49q65 0 112 48q7 10 23 10q13 0 22 -9t9 -22q0 -11 -9 -22q-64 -67 -157 -67q-91 0 -158 67z" />
    <glyph glyph-name="Edotaccent" unicode="&#x116;" horiz-adv-x="577" 
d="M71 62v543q0 62 62 62h349q21 0 36.5 -15t15.5 -37q0 -21 -15.5 -36t-36.5 -15h-294v-173h287q21 0 36.5 -15t15.5 -36q0 -22 -15.5 -37t-36.5 -15h-287v-185h294q21 0 36.5 -15t15.5 -36q0 -22 -15.5 -37t-36.5 -15h-349q-62 0 -62 62zM306 848q24 0 41 -17.5t17 -41.5
q0 -25 -17 -42t-41 -17t-41.5 17t-17.5 42q0 24 17.5 41.5t41.5 17.5z" />
    <glyph glyph-name="edotaccent" unicode="&#x117;" horiz-adv-x="557" 
d="M283 495q104 0 171 -70t67 -169q0 -49 -62 -49h-311q6 -58 47.5 -95.5t106.5 -37.5q57 0 110 32q9 6 23 6q17 0 29.5 -12.5t12.5 -29.5q0 -22 -19 -35q-71 -47 -167 -47q-109 0 -181 70.5t-72 183.5q0 106 70 179.5t175 73.5zM147 281h272q-2 51 -37.5 89.5t-98.5 38.5
q-60 0 -96 -37t-40 -91zM283 701q24 0 41 -17.5t17 -41.5q0 -25 -17 -42t-41 -17t-41.5 17t-17.5 42q0 24 17.5 41.5t41.5 17.5z" />
    <glyph glyph-name="Eogonek" unicode="&#x118;" horiz-adv-x="577" 
d="M439 -84q0 -14 10 -22.5t25 -8.5q4 0 11 1t10 1q13 0 23 -9.5t10 -24.5q0 -24 -23 -32q-22 -7 -57 -7q-46 0 -76 20.5t-30 56.5q0 35 32 63.5t82 45.5h-323q-62 0 -62 62v543q0 62 62 62h349q21 0 36.5 -15t15.5 -37q0 -21 -15.5 -36t-36.5 -15h-294v-173h287
q21 0 36.5 -15t15.5 -36q0 -22 -15.5 -37t-36.5 -15h-287v-185h294q21 0 36.5 -15t15.5 -36q0 -30 -28 -46q-38 -31 -52.5 -50t-14.5 -40z" />
    <glyph glyph-name="eogonek" unicode="&#x119;" horiz-adv-x="557" 
d="M38 242q0 106 70 179.5t175 73.5q104 0 171 -70t67 -169q0 -49 -62 -49h-311q6 -58 47.5 -95.5t106.5 -37.5q57 0 110 32q9 6 22 6q18 0 30.5 -12.5t12.5 -30.5q0 -19 -15 -32q-76 -67 -76 -112q0 -19 10.5 -29.5t26.5 -10.5q8 0 10 1q15 2 27.5 -8t12.5 -26
q0 -26 -26 -33q-30 -5 -50 -5q-46 0 -76 20.5t-30 56.5q0 52 80 106q-41 -9 -80 -9q-109 0 -181 70.5t-72 183.5zM147 281h272q-2 51 -37.5 89.5t-98.5 38.5q-60 0 -96 -37t-40 -91z" />
    <glyph glyph-name="Ecaron" unicode="&#x11a;" horiz-adv-x="577" 
d="M71 62v543q0 62 62 62h349q21 0 36.5 -15t15.5 -37q0 -21 -15.5 -36t-36.5 -15h-294v-173h287q21 0 36.5 -15t15.5 -36q0 -22 -15.5 -37t-36.5 -15h-287v-185h294q21 0 36.5 -15t15.5 -36q0 -22 -15.5 -37t-36.5 -15h-349q-62 0 -62 62zM426 844q0 -10 -4 -14l-57 -88
q-15 -25 -47 -25h-28q-32 0 -47 25l-57 88q-4 4 -4 14q0 13 8.5 21t20.5 8q14 0 21 -10l72 -92l72 92q7 10 21 10q12 0 20.5 -8t8.5 -21z" />
    <glyph glyph-name="ecaron" unicode="&#x11b;" horiz-adv-x="557" 
d="M283 495q104 0 171 -70t67 -169q0 -49 -62 -49h-311q6 -58 47.5 -95.5t106.5 -37.5q57 0 110 32q9 6 23 6q17 0 29.5 -12.5t12.5 -29.5q0 -22 -19 -35q-71 -47 -167 -47q-109 0 -181 70.5t-72 183.5q0 106 70 179.5t175 73.5zM147 281h272q-2 51 -37.5 89.5t-98.5 38.5
q-60 0 -96 -37t-40 -91zM403 697q0 -10 -4 -14l-57 -88q-15 -25 -47 -25h-28q-32 0 -47 25l-57 88q-4 4 -4 14q0 13 8.5 21t20.5 8q14 0 21 -10l72 -92l72 92q7 10 21 10q12 0 20.5 -8t8.5 -21z" />
    <glyph glyph-name="Gcircumflex" unicode="&#x11c;" horiz-adv-x="717" 
d="M666 296v-143q0 -48 -32 -76q-104 -90 -243 -90q-146 -2 -249 97t-101 249q-2 150 101 248.5t249 96.5q137 0 227 -90q16 -16 16 -39q0 -22 -15.5 -38t-38.5 -16t-39 16q-63 63 -150 63q-99 0 -164.5 -68.5t-65.5 -172.5q0 -103 66 -172.5t164 -69.5q92 0 158 60v104
h-153q-21 0 -36.5 15t-15.5 37q0 21 15.5 36t36.5 15h208q62 0 62 -62zM464 727l-72 92l-72 -92q-7 -10 -21 -10q-12 0 -20.5 8t-8.5 21q0 10 4 14l57 88q15 25 47 25h28q32 0 47 -25l57 -88q4 -4 4 -14q0 -13 -8.5 -21t-20.5 -8q-14 0 -21 10z" />
    <glyph glyph-name="gcircumflex" unicode="&#x11d;" horiz-adv-x="580" 
d="M512 436v-411q0 -119 -72 -170q-70 -51 -176 -51q-105 0 -174 49q-19 13 -19 36q0 18 13 31t31 13q14 0 25 -8q50 -35 124 -35q64 0 103.5 33t39.5 98v58q-64 -80 -155 -80q-95 0 -154.5 66.5t-59.5 181.5q0 114 59.5 181t154.5 67t155 -79v20q0 22 15.5 37.5t37.5 15.5
q21 0 36.5 -15.5t15.5 -37.5zM407 157v180q-18 27 -53.5 46t-70.5 19q-62 0 -99 -42.5t-37 -112.5t37 -112.5t99 -42.5q35 0 70.5 19t53.5 46zM366 580l-72 92l-72 -92q-7 -10 -21 -10q-12 0 -20.5 8t-8.5 21q0 10 4 14l57 88q15 25 47 25h28q32 0 47 -25l57 -88q4 -4 4 -14
q0 -13 -8.5 -21t-20.5 -8q-14 0 -21 10z" />
    <glyph glyph-name="Gbreve" unicode="&#x11e;" horiz-adv-x="717" 
d="M666 296v-143q0 -48 -32 -76q-104 -90 -243 -90q-146 -2 -249 97t-101 249q-2 150 101 248.5t249 96.5q137 0 227 -90q16 -16 16 -39q0 -22 -15.5 -38t-38.5 -16t-39 16q-63 63 -150 63q-99 0 -164.5 -68.5t-65.5 -172.5q0 -103 66 -172.5t164 -69.5q92 0 158 60v104
h-153q-21 0 -36.5 15t-15.5 37q0 21 15.5 36t36.5 15h208q62 0 62 -62zM233 788q-9 9 -9 22t9 22t22 9q15 0 23 -9q46 -49 113 -49q66 0 112 48q7 10 23 10q13 0 22 -9t9 -22q0 -11 -9 -22q-64 -67 -157 -67q-91 0 -158 67z" />
    <glyph glyph-name="gbreve" unicode="&#x11f;" horiz-adv-x="580" 
d="M512 436v-411q0 -119 -72 -170q-70 -51 -176 -51q-105 0 -174 49q-19 13 -19 36q0 18 13 31t31 13q14 0 25 -8q50 -35 124 -35q64 0 103.5 33t39.5 98v58q-64 -80 -155 -80q-95 0 -154.5 66.5t-59.5 181.5q0 114 59.5 181t154.5 67t155 -79v20q0 22 15.5 37.5t37.5 15.5
q21 0 36.5 -15.5t15.5 -37.5zM407 157v180q-18 27 -53.5 46t-70.5 19q-62 0 -99 -42.5t-37 -112.5t37 -112.5t99 -42.5q35 0 70.5 19t53.5 46zM135 641q-9 9 -9 22t9 22t22 9q15 0 23 -9q46 -49 113 -49q65 0 112 48q7 10 23 10q13 0 22 -9t9 -22q0 -11 -9 -22
q-64 -67 -157 -67q-91 0 -158 67z" />
    <glyph glyph-name="Gdotaccent" unicode="&#x120;" horiz-adv-x="717" 
d="M666 296v-143q0 -48 -32 -76q-104 -90 -243 -90q-146 -2 -249 97t-101 249q-2 150 101 248.5t249 96.5q137 0 227 -90q16 -16 16 -39q0 -22 -15.5 -38t-38.5 -16t-39 16q-63 63 -150 63q-99 0 -164.5 -68.5t-65.5 -172.5q0 -103 66 -172.5t164 -69.5q92 0 158 60v104
h-153q-21 0 -36.5 15t-15.5 37q0 21 15.5 36t36.5 15h208q62 0 62 -62zM391 848q24 0 41 -17.5t17 -41.5q0 -25 -17 -42t-41 -17t-41.5 17t-17.5 42q0 24 17.5 41.5t41.5 17.5z" />
    <glyph glyph-name="gdotaccent" unicode="&#x121;" horiz-adv-x="580" 
d="M512 436v-411q0 -119 -72 -170q-70 -51 -176 -51q-105 0 -174 49q-19 13 -19 36q0 18 13 31t31 13q14 0 25 -8q50 -35 124 -35q64 0 103.5 33t39.5 98v58q-64 -80 -155 -80q-95 0 -154.5 66.5t-59.5 181.5q0 114 59.5 181t154.5 67t155 -79v20q0 22 15.5 37.5t37.5 15.5
q21 0 36.5 -15.5t15.5 -37.5zM407 157v180q-18 27 -53.5 46t-70.5 19q-62 0 -99 -42.5t-37 -112.5t37 -112.5t99 -42.5q35 0 70.5 19t53.5 46zM293 701q24 0 41 -17.5t17 -41.5q0 -25 -17 -42t-41 -17t-41.5 17t-17.5 42q0 24 17.5 41.5t41.5 17.5z" />
    <glyph glyph-name="uni0122" unicode="&#x122;" horiz-adv-x="717" 
d="M666 296v-143q0 -48 -32 -76q-104 -90 -243 -90q-146 -2 -249 97t-101 249q-2 150 101 248.5t249 96.5q137 0 227 -90q16 -16 16 -39q0 -22 -15.5 -38t-38.5 -16t-39 16q-63 63 -150 63q-99 0 -164.5 -68.5t-65.5 -172.5q0 -103 66 -172.5t164 -69.5q92 0 158 60v104
h-153q-21 0 -36.5 15t-15.5 37q0 21 15.5 36t36.5 15h208q62 0 62 -62zM346 -255q0 9 13 22q33 33 39 65q-6 -2 -14 -2q-20 0 -34 14.5t-14 36.5q0 23 16 39.5t39 16.5q27 0 45 -20.5t18 -54.5q0 -76 -67 -135q-7 -6 -16 -6q-10 0 -17.5 7t-7.5 17z" />
    <glyph glyph-name="uni0123" unicode="&#x123;" horiz-adv-x="580" 
d="M232 632q0 76 67 135q8 6 16 6q10 0 17.5 -7t7.5 -17q0 -9 -13 -22q-33 -33 -39 -65q6 2 14 2q20 0 34 -14.5t14 -36.5q0 -23 -16 -39.5t-39 -16.5q-27 0 -45 20.5t-18 54.5zM512 436v-411q0 -119 -72 -170q-70 -51 -176 -51q-105 0 -174 49q-19 13 -19 36q0 18 13 31
t31 13q14 0 25 -8q50 -35 124 -35q64 0 103.5 33t39.5 98v58q-64 -80 -155 -80q-95 0 -154.5 66.5t-59.5 181.5q0 114 59.5 181t154.5 67t155 -79v20q0 22 15.5 37.5t37.5 15.5q21 0 36.5 -15.5t15.5 -37.5zM407 157v180q-18 27 -53.5 46t-70.5 19q-62 0 -99 -42.5
t-37 -112.5t37 -112.5t99 -42.5q35 0 70.5 19t53.5 46z" />
    <glyph glyph-name="Hcircumflex" unicode="&#x124;" horiz-adv-x="723" 
d="M535 53v238h-347v-238q0 -24 -17 -41.5t-41 -17.5q-25 0 -42 17.5t-17 41.5v561q0 24 17 41.5t41 17.5q25 0 42 -17.5t17 -41.5v-220h347v220q0 24 17 41.5t42 17.5q24 0 41 -17.5t17 -41.5v-561q0 -24 -17 -41.5t-42 -17.5q-24 0 -41 17.5t-17 41.5zM435 727l-72 92
l-72 -92q-7 -10 -21 -10q-12 0 -20.5 8t-8.5 21q0 10 4 14l57 88q15 25 47 25h28q32 0 47 -25l57 -88q4 -4 4 -14q0 -13 -8.5 -21t-20.5 -8q-14 0 -21 10z" />
    <glyph glyph-name="hcircumflex" unicode="&#x125;" horiz-adv-x="568" 
d="M395 47v257q0 52 -24.5 75t-73.5 23q-73 0 -124 -65v-290q0 -22 -15.5 -37.5t-36.5 -15.5q-22 0 -37.5 15.5t-15.5 37.5v573q0 22 15.5 37.5t37.5 15.5q21 0 36.5 -15.5t15.5 -37.5v-203q28 34 74 56t97 22q156 0 156 -153v-295q0 -22 -15.5 -37.5t-37.5 -15.5
q-21 0 -36.5 15.5t-15.5 37.5zM357 727l-72 92l-72 -92q-7 -10 -21 -10q-12 0 -20.5 8t-8.5 21q0 10 4 14l57 88q15 25 47 25h28q32 0 47 -25l57 -88q4 -4 4 -14q0 -13 -8.5 -21t-20.5 -8q-14 0 -21 10z" />
    <glyph glyph-name="Hbar" unicode="&#x126;" horiz-adv-x="741" 
d="M741 527q0 -13 -9 -22t-22 -9h-49v-443q0 -24 -17 -41.5t-42 -17.5q-24 0 -41 17.5t-17 41.5v238h-347v-238q0 -24 -17 -41.5t-41 -17.5q-25 0 -42 17.5t-17 41.5v443h-46q-13 0 -22 9t-9 22t9 22t22 9h46v56q0 24 17 41.5t41 17.5q25 0 42 -17.5t17 -41.5v-56h347v56
q0 24 17 41.5t42 17.5q24 0 41 -17.5t17 -41.5v-56h49q13 0 22 -9t9 -22zM544 394v102h-347v-102h347z" />
    <glyph glyph-name="hbar" unicode="&#x127;" horiz-adv-x="571" 
d="M503 342v-295q0 -22 -15.5 -37.5t-37.5 -15.5q-21 0 -36.5 15.5t-15.5 37.5v257q0 52 -24.5 75t-73.5 23q-73 0 -124 -65v-290q0 -22 -15.5 -37.5t-36.5 -15.5q-22 0 -37.5 15.5t-15.5 37.5v484h-37q-13 0 -22 9t-9 22t9 22t22 9h37v27q0 22 15.5 37.5t37.5 15.5
q21 0 36.5 -15.5t15.5 -37.5v-27h126q13 0 22 -9t9 -22t-9 -22t-22 -9h-126v-114q28 34 74 56t97 22q156 0 156 -153z" />
    <glyph glyph-name="Itilde" unicode="&#x128;" horiz-adv-x="259" 
d="M71 53v561q0 24 17 41.5t42 17.5q24 0 41 -17.5t17 -41.5v-561q0 -24 -17 -41.5t-41 -17.5q-25 0 -42 17.5t-17 41.5zM112 767q-24 32 -43 32q-34 0 -41 -53q-5 -25 -28 -25q-13 0 -21.5 10t-6.5 22q6 52 32 80t69 28q24 0 39.5 -10.5t35.5 -35.5q26 -32 44 -32
q33 0 40 53q2 25 28 25q13 0 21.5 -9.5t7.5 -22.5q-6 -52 -32 -80t-69 -28q-24 0 -40.5 11t-35.5 35z" />
    <glyph glyph-name="itilde" unicode="&#x129;" horiz-adv-x="241" 
d="M68 47v389q0 22 15.5 37.5t37.5 15.5q21 0 36.5 -15.5t15.5 -37.5v-389q0 -22 -15.5 -37.5t-37.5 -15.5q-21 0 -36.5 15.5t-15.5 37.5zM102 620q-24 32 -43 32q-34 0 -41 -53q-5 -25 -28 -25q-13 0 -21.5 10t-6.5 22q6 52 32 80t69 28q24 0 39.5 -10.5t35.5 -35.5
q26 -32 44 -32q33 0 40 53q2 25 28 25q13 0 21.5 -9.5t7.5 -22.5q-6 -52 -32 -80t-69 -28q-24 0 -40.5 11t-35.5 35z" />
    <glyph glyph-name="Imacron" unicode="&#x12a;" horiz-adv-x="259" 
d="M71 53v561q0 24 17 41.5t42 17.5q24 0 41 -17.5t17 -41.5v-561q0 -24 -17 -41.5t-41 -17.5q-25 0 -42 17.5t-17 41.5zM-38 764q0 13 9 22t22 9h273q13 0 22 -9t9 -22t-9 -22t-22 -9h-273q-13 0 -22 9t-9 22z" />
    <glyph glyph-name="imacron" unicode="&#x12b;" horiz-adv-x="241" 
d="M68 47v389q0 22 15.5 37.5t37.5 15.5q21 0 36.5 -15.5t15.5 -37.5v-389q0 -22 -15.5 -37.5t-37.5 -15.5q-21 0 -36.5 15.5t-15.5 37.5zM-48 617q0 13 9 22t22 9h273q13 0 22 -9t9 -22t-9 -22t-22 -9h-273q-13 0 -22 9t-9 22z" />
    <glyph glyph-name="Ibreve" unicode="&#x12c;" horiz-adv-x="259" 
d="M71 53v561q0 24 17 41.5t42 17.5q24 0 41 -17.5t17 -41.5v-561q0 -24 -17 -41.5t-41 -17.5q-25 0 -42 17.5t-17 41.5zM-28 788q-9 9 -9 22t9 22t22 9q16 0 23 -9q46 -49 113 -49q66 0 112 48q7 10 23 10q13 0 22 -9t9 -22q0 -11 -9 -22q-64 -67 -157 -67q-91 0 -158 67z
" />
    <glyph glyph-name="ibreve" unicode="&#x12d;" horiz-adv-x="241" 
d="M68 47v389q0 22 15.5 37.5t37.5 15.5q21 0 36.5 -15.5t15.5 -37.5v-389q0 -22 -15.5 -37.5t-37.5 -15.5q-21 0 -36.5 15.5t-15.5 37.5zM-38 641q-9 9 -9 22t9 22t22 9q16 0 23 -9q46 -49 113 -49q66 0 112 48q7 10 23 10q13 0 22 -9t9 -22q0 -11 -9 -22q-64 -67 -157 -67
q-91 0 -158 67z" />
    <glyph glyph-name="Iogonek" unicode="&#x12e;" horiz-adv-x="259" 
d="M99 -84q0 -14 10 -22.5t25 -8.5q4 0 11 1t10 1q13 0 23 -9.5t10 -24.5q0 -24 -23 -32q-22 -7 -57 -7q-46 0 -76 20.5t-30 56.5q0 32 30 60.5t77 46.5q-17 6 -27.5 21t-10.5 34v561q0 24 17 41.5t42 17.5q24 0 41 -17.5t17 -41.5v-561q0 -26 -20 -44q0 -1 -2 -3
q-38 -31 -52.5 -50t-14.5 -40z" />
    <glyph glyph-name="iogonek" unicode="&#x12f;" horiz-adv-x="241" 
d="M55 642q0 27 19.5 46t45.5 19q27 0 46 -19t19 -46t-19 -46t-46 -19q-26 0 -45.5 19t-19.5 46zM173 436v-389q0 -34 -30 -48q-59 -48 -59 -83q0 -14 10 -22.5t25 -8.5q4 0 11 1t10 1q13 0 23 -9.5t10 -24.5q0 -24 -23 -32q-22 -7 -57 -7q-46 0 -76 20.5t-30 56.5
q0 34 31.5 62.5t79.5 45.5q-30 16 -30 48v389q0 22 15.5 37.5t37.5 15.5q21 0 36.5 -15.5t15.5 -37.5z" />
    <glyph glyph-name="Idot" unicode="&#x130;" horiz-adv-x="259" 
d="M71 53v561q0 24 17 41.5t42 17.5q24 0 41 -17.5t17 -41.5v-561q0 -24 -17 -41.5t-41 -17.5q-25 0 -42 17.5t-17 41.5zM130 848q24 0 41 -17.5t17 -41.5q0 -25 -17 -42t-41 -17t-41.5 17t-17.5 42q0 24 17.5 41.5t41.5 17.5z" />
    <glyph glyph-name="dotlessi" unicode="&#x131;" horiz-adv-x="241" 
d="M68 47v389q0 22 15.5 37.5t37.5 15.5q21 0 36.5 -15.5t15.5 -37.5v-389q0 -22 -15.5 -37.5t-37.5 -15.5q-21 0 -36.5 15.5t-15.5 37.5z" />
    <glyph glyph-name="IJ" unicode="&#x132;" horiz-adv-x="740" 
d="M71 53v561q0 24 17 41.5t42 17.5q24 0 41 -17.5t17 -41.5v-561q0 -24 -17 -41.5t-41 -17.5q-25 0 -42 17.5t-17 41.5zM277 72q0 22 15 37t37 15q14 0 28 -8q35 -24 78 -24q54 0 85.5 33t31.5 88v401q0 24 17 41.5t41 17.5q25 0 42 -17.5t17 -41.5v-403
q0 -108 -60.5 -165.5t-164.5 -57.5q-82 0 -144 41q-23 17 -23 43z" />
    <glyph glyph-name="ij" unicode="&#x133;" horiz-adv-x="482" 
d="M55 642q0 27 19.5 46t45.5 19q27 0 46 -19t19 -46t-19 -46t-46 -19q-26 0 -45.5 19t-19.5 46zM68 47v389q0 22 15.5 37.5t37.5 15.5q21 0 36.5 -15.5t15.5 -37.5v-389q0 -22 -15.5 -37.5t-37.5 -15.5q-21 0 -36.5 15.5t-15.5 37.5zM296 642q0 27 19.5 46t45.5 19
q27 0 46 -19t19 -46t-19 -46t-46 -19q-26 0 -45.5 19t-19.5 46zM254 -196h-12q-17 0 -30 13t-13 31t11.5 31.5t27.5 13.5h3q68 0 68 79v464q0 22 15.5 37.5t37.5 15.5q21 0 36.5 -15.5t15.5 -37.5v-464q0 -80 -41.5 -124t-118.5 -44z" />
    <glyph glyph-name="Jcircumflex" unicode="&#x134;" horiz-adv-x="481" 
d="M18 72q0 22 15 37t37 15q14 0 28 -8q34 -24 78 -24q54 0 85.5 33t31.5 88v401q0 24 17 41.5t41 17.5q25 0 42 -17.5t17 -41.5v-403q0 -108 -60.5 -165.5t-164.5 -57.5q-82 0 -144 41q-23 17 -23 43zM427 744l-72 92l-72 -92q-7 -10 -21 -10q-12 0 -20.5 8t-8.5 21
q0 10 4 14l57 88q15 25 47 25h28q32 0 47 -25l57 -88q4 -4 4 -14q0 -13 -8.5 -21t-20.5 -8q-14 0 -21 10z" />
    <glyph glyph-name="jcircumflex" unicode="&#x135;" horiz-adv-x="241" 
d="M13 -196h-12q-17 0 -30 13t-13 31t11.5 31.5t27.5 13.5h3q68 0 68 79v464q0 22 15.5 37.5t37.5 15.5q21 0 36.5 -15.5t15.5 -37.5v-464q0 -80 -41.5 -124t-118.5 -44zM193 580l-72 92l-72 -92q-7 -10 -21 -10q-12 0 -20.5 8t-8.5 21q0 10 4 14l57 88q15 25 47 25h28
q32 0 47 -25l57 -88q4 -4 4 -14q0 -13 -8.5 -21t-20.5 -8q-14 0 -21 10z" />
    <glyph glyph-name="uni0136" unicode="&#x136;" horiz-adv-x="621" 
d="M586 50q0 -23 -15.5 -39.5t-38.5 -16.5q-24 0 -41 17l-244 267l-59 -63v-162q0 -24 -17 -41.5t-42 -17.5q-24 0 -41 17.5t-17 41.5v561q0 24 17 41.5t41 17.5q25 0 42 -17.5t17 -41.5v-267l281 308q17 18 41 18q22 0 38.5 -16t16.5 -38t-15 -37l-224 -235l245 -260
q15 -16 15 -37zM269 -255q0 9 13 22q33 33 39 65q-6 -2 -14 -2q-20 0 -34 14.5t-14 36.5q0 23 16 39.5t39 16.5q27 0 45 -20.5t18 -54.5q0 -76 -67 -135q-8 -6 -16 -6q-10 0 -17.5 7t-7.5 17z" />
    <glyph glyph-name="uni0137" unicode="&#x137;" horiz-adv-x="526" 
d="M490 47q0 -23 -14.5 -38t-36.5 -15q-26 0 -40 17l-157 187l-69 -65v-86q0 -22 -15.5 -37.5t-37.5 -15.5q-21 0 -36.5 15.5t-15.5 37.5v573q0 22 15.5 37.5t37.5 15.5q21 0 36.5 -15.5t15.5 -37.5v-371l226 227q13 13 34 13q19 0 33 -14.5t14 -34.5q0 -19 -14 -33
l-147 -146l159 -180q12 -13 12 -34zM220 -255q0 9 13 22q33 33 39 65q-6 -2 -14 -2q-20 0 -34 14.5t-14 36.5q0 23 16 39.5t39 16.5q27 0 45 -20.5t18 -54.5q0 -76 -67 -135q-7 -6 -16 -6q-10 0 -17.5 7t-7.5 17z" />
    <glyph glyph-name="kgreenlandic" unicode="&#x138;" horiz-adv-x="526" 
d="M490 47q0 -23 -14.5 -38t-36.5 -15q-26 0 -40 17l-157 187l-69 -65v-86q0 -22 -15.5 -37.5t-37.5 -15.5q-21 0 -36.5 15.5t-15.5 37.5v389q0 22 15.5 37.5t37.5 15.5q21 0 36.5 -15.5t15.5 -37.5v-187l226 227q13 13 34 13q19 0 33 -14.5t14 -34.5q0 -19 -14 -33
l-147 -146l159 -180q12 -13 12 -34z" />
    <glyph glyph-name="Lacute" unicode="&#x139;" horiz-adv-x="517" 
d="M71 62v552q0 24 17 41.5t42 17.5q24 0 41 -17.5t17 -41.5v-511h248q21 0 36.5 -15t15.5 -36q0 -22 -15.5 -37t-36.5 -15h-303q-62 0 -62 62zM137 717q-11 0 -19 8t-8 19q0 8 8 19l97 100q10 10 24 10q13 0 22.5 -9.5t9.5 -23.5q0 -15 -11 -24l-105 -92q-7 -7 -18 -7z" />
    <glyph glyph-name="lacute" unicode="&#x13a;" horiz-adv-x="241" 
d="M68 47v573q0 22 15.5 37.5t37.5 15.5q21 0 36.5 -15.5t15.5 -37.5v-573q0 -22 -15.5 -37.5t-36.5 -15.5q-22 0 -37.5 15.5t-15.5 37.5zM127 717q-11 0 -19 8t-8 19q0 8 8 19l97 100q10 10 24 10q13 0 22.5 -9.5t9.5 -23.5q0 -15 -11 -24l-105 -92q-7 -7 -18 -7z" />
    <glyph glyph-name="uni013B" unicode="&#x13b;" horiz-adv-x="517" 
d="M71 62v552q0 24 17 41.5t42 17.5q24 0 41 -17.5t17 -41.5v-511h248q21 0 36.5 -15t15.5 -36q0 -22 -15.5 -37t-36.5 -15h-303q-62 0 -62 62zM232 -255q0 9 13 22q33 33 39 65q-6 -2 -14 -2q-20 0 -34 14.5t-14 36.5q0 23 16 39.5t39 16.5q27 0 45 -20.5t18 -54.5
q0 -76 -67 -135q-8 -6 -16 -6q-10 0 -17.5 7t-7.5 17z" />
    <glyph glyph-name="uni013C" unicode="&#x13c;" horiz-adv-x="241" 
d="M68 47v573q0 22 15.5 37.5t37.5 15.5q21 0 36.5 -15.5t15.5 -37.5v-573q0 -22 -15.5 -37.5t-36.5 -15.5q-22 0 -37.5 15.5t-15.5 37.5zM75 -255q0 9 13 22q33 33 39 65q-6 -2 -14 -2q-20 0 -34 14.5t-14 36.5q0 23 16 39.5t39 16.5q27 0 45 -20.5t18 -54.5
q0 -76 -67 -135q-7 -6 -16 -6q-10 0 -17.5 7t-7.5 17z" />
    <glyph glyph-name="Lcaron" unicode="&#x13d;" horiz-adv-x="517" 
d="M71 62v552q0 24 17 41.5t42 17.5q24 0 41 -17.5t17 -41.5v-511h248q21 0 36.5 -15t15.5 -36q0 -22 -15.5 -37t-36.5 -15h-303q-62 0 -62 62zM284 488q0 9 13 22q33 33 39 65q-6 -2 -14 -2q-20 0 -34 14.5t-14 36.5q0 23 16 39.5t39 16.5q27 0 45 -20.5t18 -54.5
q0 -76 -67 -135q-7 -6 -16 -6q-10 0 -17.5 7t-7.5 17z" />
    <glyph glyph-name="lcaron" unicode="&#x13e;" horiz-adv-x="327" 
d="M68 47v573q0 22 15.5 37.5t37.5 15.5q21 0 36.5 -15.5t15.5 -37.5v-573q0 -22 -15.5 -37.5t-36.5 -15.5q-22 0 -37.5 15.5t-15.5 37.5zM227 487q0 9 13 22q33 33 39 65q-6 -2 -14 -2q-20 0 -34 14.5t-14 36.5q0 23 16 39.5t39 16.5q27 0 45 -20.5t18 -54.5
q0 -76 -67 -135q-8 -6 -16 -6q-10 0 -17.5 7t-7.5 17z" />
    <glyph glyph-name="Ldot" unicode="&#x13f;" horiz-adv-x="517" 
d="M71 62v552q0 24 17 41.5t42 17.5q24 0 41 -17.5t17 -41.5v-511h248q21 0 36.5 -15t15.5 -36q0 -22 -15.5 -37t-36.5 -15h-303q-62 0 -62 62zM315 341q0 29 21 49.5t49 20.5q29 0 49.5 -20.5t20.5 -49.5q0 -28 -21 -48.5t-49 -20.5t-49 20.5t-21 48.5z" />
    <glyph glyph-name="ldot" unicode="&#x140;" horiz-adv-x="351" 
d="M68 47v573q0 22 15.5 37.5t37.5 15.5q21 0 36.5 -15.5t15.5 -37.5v-573q0 -22 -15.5 -37.5t-36.5 -15.5q-22 0 -37.5 15.5t-15.5 37.5zM225 244q0 29 21 49.5t49 20.5q29 0 49.5 -20.5t20.5 -49.5q0 -28 -21 -48.5t-49 -20.5t-49 20.5t-21 48.5z" />
    <glyph glyph-name="Lslash" unicode="&#x141;" horiz-adv-x="533" 
d="M504 52q0 -22 -15.5 -37t-36.5 -15h-303q-62 0 -62 62v187l-21 -12q-9 -6 -21 -6q-17 0 -29.5 12.5t-12.5 29.5q0 25 21 37l63 36v268q0 24 17 41.5t42 17.5q24 0 41 -17.5t17 -41.5v-200l28 16q9 6 21 6q17 0 29.5 -12.5t12.5 -29.5q0 -25 -21 -37l-70 -40v-214h248
q21 0 36.5 -15t15.5 -36z" />
    <glyph glyph-name="lslash" unicode="&#x142;" horiz-adv-x="299" 
d="M295 398q0 -18 -17 -29l-76 -44v-278q0 -22 -15.5 -37.5t-36.5 -15.5q-22 0 -37.5 15.5t-15.5 37.5v218l-43 -25q-7 -4 -17 -4q-14 0 -24 10t-10 24q0 18 17 29l77 44v277q0 22 15.5 37.5t37.5 15.5q21 0 36.5 -15.5t15.5 -37.5v-216l42 24q7 4 17 4q14 0 24 -10t10 -24z
" />
    <glyph glyph-name="Nacute" unicode="&#x143;" horiz-adv-x="720" 
d="M519 24l-331 462v-433q0 -24 -17 -41.5t-41 -17.5q-25 0 -42 17.5t-17 41.5v543q0 32 22.5 54.5t54.5 22.5q38 0 62 -32l322 -447v420q0 24 17 41.5t41 17.5q25 0 42 -17.5t17 -41.5v-548q0 -29 -21 -50.5t-51 -21.5q-37 0 -58 30zM367 717q-11 0 -19 8t-8 19q0 8 8 19
l97 100q10 10 24 10q13 0 22.5 -9.5t9.5 -23.5q0 -15 -11 -24l-105 -92q-7 -7 -18 -7z" />
    <glyph glyph-name="nacute" unicode="&#x144;" 
d="M499 340v-293q0 -22 -15.5 -37.5t-37.5 -15.5q-21 0 -36.5 15.5t-15.5 37.5v255q0 53 -24 76.5t-73 23.5q-75 0 -124 -65v-290q0 -22 -15.5 -37.5t-36.5 -15.5q-22 0 -37.5 15.5t-15.5 37.5v389q0 22 15.5 37.5t36.5 15.5q22 0 37.5 -15.5t15.5 -37.5v-19q29 34 74 56
t96 22q77 0 116.5 -40t39.5 -115zM291 570q-11 0 -19 8t-8 19q0 8 8 19l97 100q10 10 24 10q13 0 22.5 -9.5t9.5 -23.5q0 -15 -11 -24l-105 -92q-7 -7 -18 -7z" />
    <glyph glyph-name="uni0145" unicode="&#x145;" horiz-adv-x="720" 
d="M519 24l-331 462v-433q0 -24 -17 -41.5t-41 -17.5q-25 0 -42 17.5t-17 41.5v543q0 32 22.5 54.5t54.5 22.5q38 0 62 -32l322 -447v420q0 24 17 41.5t41 17.5q25 0 42 -17.5t17 -41.5v-548q0 -29 -21 -50.5t-51 -21.5q-37 0 -58 30zM315 -255q0 9 13 22q33 33 39 65
q-6 -2 -14 -2q-20 0 -34 14.5t-14 36.5q0 23 16 39.5t39 16.5q27 0 45 -20.5t18 -54.5q0 -76 -67 -135q-8 -6 -16 -6q-10 0 -17.5 7t-7.5 17z" />
    <glyph glyph-name="uni0146" unicode="&#x146;" 
d="M499 340v-293q0 -22 -15.5 -37.5t-37.5 -15.5q-21 0 -36.5 15.5t-15.5 37.5v255q0 53 -24 76.5t-73 23.5q-75 0 -124 -65v-290q0 -22 -15.5 -37.5t-36.5 -15.5q-22 0 -37.5 15.5t-15.5 37.5v389q0 22 15.5 37.5t36.5 15.5q22 0 37.5 -15.5t15.5 -37.5v-19q29 34 74 56
t96 22q77 0 116.5 -40t39.5 -115zM239 -255q0 9 13 22q33 33 39 65q-6 -2 -14 -2q-20 0 -34 14.5t-14 36.5q0 23 16 39.5t39 16.5q27 0 45 -20.5t18 -54.5q0 -76 -67 -135q-8 -6 -16 -6q-10 0 -17.5 7t-7.5 17z" />
    <glyph glyph-name="Ncaron" unicode="&#x147;" horiz-adv-x="720" 
d="M519 24l-331 462v-433q0 -24 -17 -41.5t-41 -17.5q-25 0 -42 17.5t-17 41.5v543q0 32 22.5 54.5t54.5 22.5q38 0 62 -32l322 -447v420q0 24 17 41.5t41 17.5q25 0 42 -17.5t17 -41.5v-548q0 -29 -21 -50.5t-51 -21.5q-37 0 -58 30zM480 844q0 -10 -4 -14l-57 -88
q-15 -25 -47 -25h-28q-32 0 -47 25l-57 88q-4 4 -4 14q0 13 8.5 21t20.5 8q14 0 21 -10l72 -92l72 92q7 10 21 10q12 0 20.5 -8t8.5 -21z" />
    <glyph glyph-name="ncaron" unicode="&#x148;" 
d="M499 340v-293q0 -22 -15.5 -37.5t-37.5 -15.5q-21 0 -36.5 15.5t-15.5 37.5v255q0 53 -24 76.5t-73 23.5q-75 0 -124 -65v-290q0 -22 -15.5 -37.5t-36.5 -15.5q-22 0 -37.5 15.5t-15.5 37.5v389q0 22 15.5 37.5t36.5 15.5q22 0 37.5 -15.5t15.5 -37.5v-19q29 34 74 56
t96 22q77 0 116.5 -40t39.5 -115zM404 697q0 -10 -4 -14l-57 -88q-15 -25 -47 -25h-28q-32 0 -47 25l-57 88q-4 4 -4 14q0 13 8.5 21t20.5 8q14 0 21 -10l72 -92l72 92q7 10 21 10q12 0 20.5 -8t8.5 -21z" />
    <glyph glyph-name="napostrophe" unicode="&#x149;" 
d="M499 340v-293q0 -22 -15.5 -37.5t-37.5 -15.5q-21 0 -36.5 15.5t-15.5 37.5v255q0 53 -24 76.5t-73 23.5q-75 0 -124 -65v-290q0 -22 -15.5 -37.5t-36.5 -15.5q-22 0 -37.5 15.5t-15.5 37.5v389q0 22 15.5 37.5t36.5 15.5q22 0 37.5 -15.5t15.5 -37.5v-19q29 34 74 56
t96 22q77 0 116.5 -40t39.5 -115zM61 563q0 9 13 22q33 33 39 65q-6 -2 -14 -2q-20 0 -34 14.5t-14 36.5q0 23 16 39.5t39 16.5q27 0 45 -20.5t18 -54.5q0 -76 -67 -135q-7 -6 -16 -6q-10 0 -17.5 7t-7.5 17z" />
    <glyph glyph-name="Eng" unicode="&#x14a;" horiz-adv-x="720" 
d="M649 614v-588q0 -108 -60.5 -165t-164.5 -57q-83 0 -145 41q-23 17 -23 43q0 22 15.5 37t36.5 15q15 0 29 -8q35 -24 78 -24q50 0 79 28.5t32 79.5l-338 470v-433q0 -24 -17 -41.5t-41 -17.5q-25 0 -42 17.5t-17 41.5v543q0 32 22.5 54.5t54.5 22.5q38 0 62 -32l322 -447
v420q0 24 17 41.5t41 17.5q25 0 42 -17.5t17 -41.5z" />
    <glyph glyph-name="eng" unicode="&#x14b;" 
d="M499 340v-368q0 -80 -41.5 -124t-118.5 -44h-12q-17 0 -30 13t-13 31t11.5 31.5t27.5 13.5h3q68 0 68 79v330q0 53 -24 76.5t-73 23.5q-75 0 -124 -65v-290q0 -22 -15.5 -37.5t-36.5 -15.5q-22 0 -37.5 15.5t-15.5 37.5v389q0 22 15.5 37.5t36.5 15.5q22 0 37.5 -15.5
t15.5 -37.5v-19q29 34 74 56t96 22q77 0 116.5 -40t39.5 -115z" />
    <glyph glyph-name="Omacron" unicode="&#x14c;" horiz-adv-x="765" 
d="M382 678q147 2 245 -98t96 -247q2 -147 -96 -247.5t-245 -97.5q-147 -3 -245 97.5t-96 247.5q-2 147 96 247t245 98zM382 574q-98 0 -159.5 -68t-61.5 -173q0 -104 61.5 -172.5t159.5 -68.5t159.5 68.5t61.5 172.5q0 105 -61.5 173t-159.5 68zM213 764q0 13 9 22t22 9
h273q13 0 22 -9t9 -22t-9 -22t-22 -9h-273q-13 0 -22 9t-9 22z" />
    <glyph glyph-name="omacron" unicode="&#x14d;" horiz-adv-x="573" 
d="M38 242q0 107 69 180t179 73q111 0 180 -73t69 -180q0 -108 -69 -181t-180 -73q-110 0 -179 73t-69 181zM426 242q0 66 -38 113t-102 47t-102 -47q-37 -46 -37 -113q0 -69 37 -115t102 -46t102 46q38 47 38 115zM118 617q0 13 9 22t22 9h273q13 0 22 -9t9 -22t-9 -22
t-22 -9h-273q-13 0 -22 9t-9 22z" />
    <glyph glyph-name="Obreve" unicode="&#x14e;" horiz-adv-x="765" 
d="M382 678q147 2 245 -98t96 -247q2 -147 -96 -247.5t-245 -97.5q-147 -3 -245 97.5t-96 247.5q-2 147 96 247t245 98zM382 574q-98 0 -159.5 -68t-61.5 -173q0 -104 61.5 -172.5t159.5 -68.5t159.5 68.5t61.5 172.5q0 105 -61.5 173t-159.5 68zM223 788q-9 9 -9 22t9 22
t22 9q15 0 23 -9q46 -49 113 -49q65 0 112 48q7 10 23 10q13 0 22 -9t9 -22q0 -11 -9 -22q-64 -67 -157 -67q-91 0 -158 67z" />
    <glyph glyph-name="obreve" unicode="&#x14f;" horiz-adv-x="573" 
d="M38 242q0 107 69 180t179 73q111 0 180 -73t69 -180q0 -108 -69 -181t-180 -73q-110 0 -179 73t-69 181zM426 242q0 66 -38 113t-102 47t-102 -47q-37 -46 -37 -113q0 -69 37 -115t102 -46t102 46q38 47 38 115zM128 641q-9 9 -9 22t9 22t22 9q16 0 23 -9q46 -49 113 -49
q66 0 112 48q7 10 23 10q13 0 22 -9t9 -22q0 -11 -9 -22q-64 -67 -157 -67q-91 0 -158 67z" />
    <glyph glyph-name="Ohungarumlaut" unicode="&#x150;" horiz-adv-x="765" 
d="M382 678q147 2 245 -98t96 -247q2 -147 -96 -247.5t-245 -97.5q-147 -3 -245 97.5t-96 247.5q-2 147 96 247t245 98zM382 574q-98 0 -159.5 -68t-61.5 -173q0 -104 61.5 -172.5t159.5 -68.5t159.5 68.5t61.5 172.5q0 105 -61.5 173t-159.5 68zM290 743q0 10 4 14l64 101
q9 16 28 16q13 0 23 -10.5t10 -24.5q0 -13 -7 -20l-74 -93q-7 -10 -20 -10q-11 0 -19.5 8t-8.5 19zM436 743q0 10 4 14l64 101q9 16 28 16q13 0 23 -10.5t10 -24.5q0 -13 -7 -20l-74 -93q-7 -10 -20 -10q-11 0 -19.5 8t-8.5 19z" />
    <glyph glyph-name="ohungarumlaut" unicode="&#x151;" horiz-adv-x="573" 
d="M38 242q0 107 69 180t179 73q111 0 180 -73t69 -180q0 -108 -69 -181t-180 -73q-110 0 -179 73t-69 181zM426 242q0 66 -38 113t-102 47t-102 -47q-37 -46 -37 -113q0 -69 37 -115t102 -46t102 46q38 47 38 115zM195 596q0 10 4 14l64 101q9 16 28 16q13 0 23 -10.5
t10 -24.5q0 -13 -7 -20l-74 -93q-7 -10 -20 -10q-11 0 -19.5 8t-8.5 19zM341 596q0 10 4 14l64 101q9 16 28 16q13 0 23 -10.5t10 -24.5q0 -13 -7 -20l-74 -93q-7 -10 -20 -10q-11 0 -19.5 8t-8.5 19z" />
    <glyph glyph-name="OE" unicode="&#x152;" horiz-adv-x="1093" 
d="M1051 52q0 -22 -15.5 -37t-36.5 -15h-349q-62 0 -62 62v34q-33 -51 -92.5 -79.5t-124.5 -28.5q-144 0 -237 97.5t-93 247.5q-2 148 92.5 247t237.5 97q65 0 124.5 -28.5t92.5 -78.5v35q0 62 62 62h349q21 0 36.5 -15t15.5 -37q0 -21 -15.5 -36t-36.5 -15h-294v-173h287
q21 0 36.5 -15t15.5 -36q0 -22 -15.5 -37t-36.5 -15h-287v-185h294q21 0 36.5 -15t15.5 -36zM588 227v212q-26 65 -79 99.5t-123 34.5q-101 0 -163 -67.5t-62 -172.5q0 -106 62 -173.5t163 -67.5q70 0 123 35t79 100z" />
    <glyph glyph-name="oe" unicode="&#x153;" horiz-adv-x="944" 
d="M689 74q58 0 111 32q9 6 22 6q18 0 30.5 -12t12.5 -30q0 -22 -20 -35q-71 -47 -166 -47q-129 0 -200 120q-69 -120 -193 -120q-110 0 -179 73t-69 181q0 107 69 180t179 73q124 0 194 -121q67 121 191 121q107 0 172 -74t65 -189q0 -25 -62 -25h-310q6 -59 47 -96
t106 -37zM670 409q-62 0 -97 -39q-35 -40 -38 -89h272q-3 49 -38 89q-35 39 -99 39zM147 242q0 -71 38.5 -116.5t100.5 -45.5q63 0 101.5 45.5t38.5 116.5q0 70 -38.5 115t-101.5 45q-62 0 -100.5 -45t-38.5 -115z" />
    <glyph glyph-name="Racute" unicode="&#x154;" horiz-adv-x="628" 
d="M585 47q0 -20 -16.5 -36.5t-38.5 -16.5q-31 0 -49 25l-157 230h-136v-196q0 -24 -17 -41.5t-41 -17.5q-25 0 -42 17.5t-17 41.5v552q0 62 62 62h231q98 0 158 -58t60 -151q0 -75 -38 -125.5t-100 -66.5l130 -182q11 -17 11 -37zM188 564v-212h160q51 0 82.5 29t31.5 77
t-31.5 77t-82.5 29h-160zM321 717q-11 0 -19 8t-8 19q0 8 8 19l97 100q10 10 24 10q13 0 22.5 -9.5t9.5 -23.5q0 -15 -11 -24l-105 -92q-7 -7 -18 -7z" />
    <glyph glyph-name="racute" unicode="&#x155;" horiz-adv-x="347" 
d="M337 442q0 -19 -14 -32.5t-40 -17.5q-31 -4 -63 -22t-47 -41v-282q0 -22 -15.5 -37.5t-36.5 -15.5q-22 0 -37.5 15.5t-15.5 37.5v389q0 22 15.5 37.5t36.5 15.5q22 0 37.5 -15.5t15.5 -37.5v-24q46 59 93 73q18 6 28 6q20 0 31.5 -13.5t11.5 -35.5zM202 570q-11 0 -19 8
t-8 19q0 8 8 19l97 100q10 10 24 10q13 0 22.5 -9.5t9.5 -23.5q0 -15 -11 -24l-105 -92q-7 -7 -18 -7z" />
    <glyph glyph-name="uni0156" unicode="&#x156;" horiz-adv-x="628" 
d="M585 47q0 -20 -16.5 -36.5t-38.5 -16.5q-31 0 -49 25l-157 230h-136v-196q0 -24 -17 -41.5t-41 -17.5q-25 0 -42 17.5t-17 41.5v552q0 62 62 62h231q98 0 158 -58t60 -151q0 -75 -38 -125.5t-100 -66.5l130 -182q11 -17 11 -37zM188 564v-212h160q51 0 82.5 29t31.5 77
t-31.5 77t-82.5 29h-160zM269 -255q0 9 13 22q33 33 39 65q-6 -2 -14 -2q-20 0 -34 14.5t-14 36.5q0 23 16 39.5t39 16.5q27 0 45 -20.5t18 -54.5q0 -76 -67 -135q-8 -6 -16 -6q-10 0 -17.5 7t-7.5 17z" />
    <glyph glyph-name="uni0157" unicode="&#x157;" horiz-adv-x="347" 
d="M337 442q0 -19 -14 -32.5t-40 -17.5q-31 -4 -63 -22t-47 -41v-282q0 -22 -15.5 -37.5t-36.5 -15.5q-22 0 -37.5 15.5t-15.5 37.5v389q0 22 15.5 37.5t36.5 15.5q22 0 37.5 -15.5t15.5 -37.5v-24q46 59 93 73q18 6 28 6q20 0 31.5 -13.5t11.5 -35.5zM78 -255q0 9 13 22
q33 33 39 65q-6 -2 -14 -2q-20 0 -34 14.5t-14 36.5q0 23 16 39.5t39 16.5q27 0 45 -20.5t18 -54.5q0 -76 -67 -135q-8 -6 -16 -6q-10 0 -17.5 7t-7.5 17z" />
    <glyph glyph-name="Rcaron" unicode="&#x158;" horiz-adv-x="628" 
d="M585 47q0 -20 -16.5 -36.5t-38.5 -16.5q-31 0 -49 25l-157 230h-136v-196q0 -24 -17 -41.5t-41 -17.5q-25 0 -42 17.5t-17 41.5v552q0 62 62 62h231q98 0 158 -58t60 -151q0 -75 -38 -125.5t-100 -66.5l130 -182q11 -17 11 -37zM188 564v-212h160q51 0 82.5 29t31.5 77
t-31.5 77t-82.5 29h-160zM434 844q0 -10 -4 -14l-57 -88q-15 -25 -47 -25h-28q-32 0 -47 25l-57 88q-4 4 -4 14q0 13 8.5 21t20.5 8q14 0 21 -10l72 -92l72 92q7 10 21 10q12 0 20.5 -8t8.5 -21z" />
    <glyph glyph-name="rcaron" unicode="&#x159;" horiz-adv-x="347" 
d="M337 442q0 -19 -14 -32.5t-40 -17.5q-31 -4 -63 -22t-47 -41v-282q0 -22 -15.5 -37.5t-36.5 -15.5q-22 0 -37.5 15.5t-15.5 37.5v389q0 22 15.5 37.5t36.5 15.5q22 0 37.5 -15.5t15.5 -37.5v-24q46 59 93 73q18 6 28 6q20 0 31.5 -13.5t11.5 -35.5zM315 697q0 -10 -4 -14
l-57 -88q-15 -25 -47 -25h-28q-32 0 -47 25l-57 88q-4 4 -4 14q0 13 8.5 21t20.5 8q14 0 21 -10l72 -92l72 92q7 10 21 10q12 0 20.5 -8t8.5 -21z" />
    <glyph glyph-name="Sacute" unicode="&#x15a;" horiz-adv-x="594" 
d="M42 105q0 23 16 39.5t39 16.5q20 0 34 -11q77 -58 173 -58q64 0 99 26t35 65q-4 41 -35 58.5t-117 40.5q-79 19 -122 37q-115 46 -115 163q0 84 70 139.5t183 55.5q106 0 206 -61q25 -15 25 -45q0 -22 -16 -38.5t-39 -16.5q-18 0 -31 10q-71 47 -155 47q-57 0 -90 -22.5
t-33 -60.5q0 -24 19 -40q29 -25 128 -49q75 -19 123 -39q118 -49 118 -168q0 -91 -66.5 -148.5t-191.5 -57.5q-140 0 -235 73q-22 16 -22 44zM299 717q-11 0 -19 8t-8 19q0 8 8 19l97 100q10 10 24 10q13 0 22.5 -9.5t9.5 -23.5q0 -15 -11 -24l-105 -92q-7 -7 -18 -7z" />
    <glyph glyph-name="sacute" unicode="&#x15b;" horiz-adv-x="472" 
d="M35 76q0 19 13 32t32 13q14 0 25 -7q64 -43 133 -43q45 0 70 15.5t25 43.5t-25.5 42.5t-84.5 27.5q-59 12 -94 25q-88 35 -88 123q0 62 51.5 104.5t138.5 42.5q90 0 161 -47q19 -13 19 -35q0 -17 -12.5 -29.5t-29.5 -12.5q-13 0 -23 7q-51 33 -114 33q-42 0 -66 -14.5
t-24 -39.5q0 -24 24 -37t81 -26q58 -12 95 -27q92 -34 92 -129q0 -67 -53.5 -108.5t-147.5 -41.5q-103 0 -178 51q-20 13 -20 37zM238 570q-11 0 -19 8t-8 19q0 8 8 19l97 100q10 10 24 10q13 0 22.5 -9.5t9.5 -23.5q0 -15 -11 -24l-105 -92q-7 -7 -18 -7z" />
    <glyph glyph-name="Scircumflex" unicode="&#x15c;" horiz-adv-x="594" 
d="M42 105q0 23 16 39.5t39 16.5q20 0 34 -11q77 -58 173 -58q64 0 99 26t35 65q-4 41 -35 58.5t-117 40.5q-79 19 -122 37q-115 46 -115 163q0 84 70 139.5t183 55.5q106 0 206 -61q25 -15 25 -45q0 -22 -16 -38.5t-39 -16.5q-18 0 -31 10q-71 47 -155 47q-57 0 -90 -22.5
t-33 -60.5q0 -24 19 -40q29 -25 128 -49q75 -19 123 -39q118 -49 118 -168q0 -91 -66.5 -148.5t-191.5 -57.5q-140 0 -235 73q-22 16 -22 44zM365 727l-72 92l-72 -92q-7 -10 -21 -10q-12 0 -20.5 8t-8.5 21q0 10 4 14l57 88q15 25 47 25h28q32 0 47 -25l57 -88q4 -4 4 -14
q0 -13 -8.5 -21t-20.5 -8q-14 0 -21 10z" />
    <glyph glyph-name="scircumflex" unicode="&#x15d;" horiz-adv-x="472" 
d="M35 76q0 19 13 32t32 13q14 0 25 -7q64 -43 133 -43q45 0 70 15.5t25 43.5t-25.5 42.5t-84.5 27.5q-59 12 -94 25q-88 35 -88 123q0 62 51.5 104.5t138.5 42.5q90 0 161 -47q19 -13 19 -35q0 -17 -12.5 -29.5t-29.5 -12.5q-13 0 -23 7q-51 33 -114 33q-42 0 -66 -14.5
t-24 -39.5q0 -24 24 -37t81 -26q58 -12 95 -27q92 -34 92 -129q0 -67 -53.5 -108.5t-147.5 -41.5q-103 0 -178 51q-20 13 -20 37zM304 580l-72 92l-72 -92q-7 -10 -21 -10q-12 0 -20.5 8t-8.5 21q0 10 4 14l57 88q15 25 47 25h28q32 0 47 -25l57 -88q4 -4 4 -14
q0 -13 -8.5 -21t-20.5 -8q-14 0 -21 10z" />
    <glyph glyph-name="uni015E" unicode="&#x15e;" horiz-adv-x="594" 
d="M318 -12l-17 -41q17 11 36 11q29 0 48 -19.5t19 -49.5q0 -36 -31 -59.5t-77 -23.5q-52 0 -92 22q-14 8 -14 22q0 11 7.5 18.5t17.5 7.5q6 0 13 -4q32 -18 65 -18q24 0 40 9.5t16 26.5q0 30 -33 30q-16 0 -27 -9q-8 -5 -16 -5q-12 0 -20 8t-8 20q0 2 2 10l17 45
q-117 9 -200 72q-22 16 -22 44q0 23 16 39.5t39 16.5q20 0 34 -11q77 -58 173 -58q64 0 99 26t35 65q-4 41 -35 58.5t-117 40.5q-79 19 -122 37q-115 46 -115 163q0 84 70 139.5t183 55.5q106 0 206 -61q25 -15 25 -45q0 -22 -16 -38.5t-39 -16.5q-18 0 -31 10
q-71 47 -155 47q-57 0 -90 -22.5t-33 -60.5q0 -24 19 -40q29 -25 128 -49q75 -19 123 -39q118 -49 118 -168q0 -89 -62 -145t-177 -61z" />
    <glyph glyph-name="uni015F" unicode="&#x15f;" horiz-adv-x="472" 
d="M257 -11l-17 -42q17 11 36 11q29 0 48 -19.5t19 -49.5q0 -36 -31 -59.5t-77 -23.5q-52 0 -92 22q-14 8 -14 22q0 11 7.5 18.5t17.5 7.5q6 0 13 -4q31 -18 65 -18q24 0 40 9.5t16 26.5q0 30 -33 30q-17 0 -27 -9q-8 -5 -16 -5q-12 0 -20 8t-8 20q0 2 2 10l17 45
q-86 7 -148 50q-20 13 -20 37q0 19 13 32t32 13q14 0 25 -7q64 -43 133 -43q45 0 70 15.5t25 43.5t-25.5 42.5t-84.5 27.5q-59 12 -94 25q-88 35 -88 123q0 62 51.5 104.5t138.5 42.5q90 0 161 -47q19 -13 19 -35q0 -17 -12.5 -29.5t-29.5 -12.5q-13 0 -23 7q-51 33 -114 33
q-42 0 -66 -14.5t-24 -39.5q0 -24 24 -37t81 -26q58 -12 95 -27q92 -34 92 -129q0 -63 -47 -103.5t-130 -45.5z" />
    <glyph glyph-name="Scaron" unicode="&#x160;" horiz-adv-x="594" 
d="M42 105q0 23 16 39.5t39 16.5q20 0 34 -11q77 -58 173 -58q64 0 99 26t35 65q-4 41 -35 58.5t-117 40.5q-79 19 -122 37q-115 46 -115 163q0 84 70 139.5t183 55.5q106 0 206 -61q25 -15 25 -45q0 -22 -16 -38.5t-39 -16.5q-18 0 -31 10q-71 47 -155 47q-57 0 -90 -22.5
t-33 -60.5q0 -24 19 -40q29 -25 128 -49q75 -19 123 -39q118 -49 118 -168q0 -91 -66.5 -148.5t-191.5 -57.5q-140 0 -235 73q-22 16 -22 44zM412 844q0 -10 -4 -14l-57 -88q-15 -25 -47 -25h-28q-32 0 -47 25l-57 88q-4 4 -4 14q0 13 8.5 21t20.5 8q14 0 21 -10l72 -92
l72 92q7 10 21 10q12 0 20.5 -8t8.5 -21z" />
    <glyph glyph-name="scaron" unicode="&#x161;" horiz-adv-x="472" 
d="M35 76q0 19 13 32t32 13q14 0 25 -7q64 -43 133 -43q45 0 70 15.5t25 43.5t-25.5 42.5t-84.5 27.5q-59 12 -94 25q-88 35 -88 123q0 62 51.5 104.5t138.5 42.5q90 0 161 -47q19 -13 19 -35q0 -17 -12.5 -29.5t-29.5 -12.5q-13 0 -23 7q-51 33 -114 33q-42 0 -66 -14.5
t-24 -39.5q0 -24 24 -37t81 -26q58 -12 95 -27q92 -34 92 -129q0 -67 -53.5 -108.5t-147.5 -41.5q-103 0 -178 51q-20 13 -20 37zM351 697q0 -10 -4 -14l-57 -88q-15 -25 -47 -25h-28q-32 0 -47 25l-57 88q-4 4 -4 14q0 13 8.5 21t20.5 8q14 0 21 -10l72 -92l72 92
q7 10 21 10q12 0 20.5 -8t8.5 -21z" />
    <glyph glyph-name="uni0162" unicode="&#x162;" horiz-adv-x="577" 
d="M230 53v511h-156q-21 0 -36.5 15t-15.5 36q0 22 15.5 37t36.5 15h429q21 0 36.5 -15t15.5 -37q0 -21 -15.5 -36t-36.5 -15h-156v-511q0 -24 -17 -41.5t-41 -17.5q-25 0 -42 17.5t-17 41.5zM244 -255q0 9 13 22q33 33 39 65q-6 -2 -14 -2q-20 0 -34 14.5t-14 36.5
q0 23 16 39.5t39 16.5q27 0 45 -20.5t18 -54.5q0 -76 -67 -135q-7 -6 -16 -6q-10 0 -17.5 7t-7.5 17z" />
    <glyph glyph-name="uni0163" unicode="&#x163;" horiz-adv-x="319" 
d="M310 40q0 -28 -28 -40t-69 -12q-61 0 -92.5 32t-31.5 92v279h-40q-19 0 -32.5 13.5t-13.5 32.5t13.5 32.5t32.5 13.5h40v85q0 22 15.5 37.5t37.5 15.5q21 0 36.5 -15.5t15.5 -37.5v-85h58q19 0 32.5 -13.5t13.5 -32.5t-13.5 -32.5t-32.5 -13.5h-58v-253q0 -26 12 -41.5
t34 -15.5q5 0 14 1.5t12 1.5q20 0 32 -12.5t12 -31.5zM116 -255q0 9 13 22q33 33 39 65q-6 -2 -14 -2q-20 0 -34 14.5t-14 36.5q0 23 16 39.5t39 16.5q27 0 45 -20.5t18 -54.5q0 -76 -67 -135q-7 -6 -16 -6q-10 0 -17.5 7t-7.5 17z" />
    <glyph glyph-name="Tcaron" unicode="&#x164;" horiz-adv-x="577" 
d="M230 53v511h-156q-21 0 -36.5 15t-15.5 36q0 22 15.5 37t36.5 15h429q21 0 36.5 -15t15.5 -37q0 -21 -15.5 -36t-36.5 -15h-156v-511q0 -24 -17 -41.5t-41 -17.5q-25 0 -42 17.5t-17 41.5zM409 844q0 -10 -4 -14l-57 -88q-15 -25 -47 -25h-28q-32 0 -47 25l-57 88
q-4 4 -4 14q0 13 8.5 21t20.5 8q14 0 21 -10l72 -92l72 92q7 10 21 10q12 0 20.5 -8t8.5 -21z" />
    <glyph glyph-name="tcaron" unicode="&#x165;" horiz-adv-x="351" 
d="M310 40q0 -28 -28 -40t-69 -12q-61 0 -92.5 32t-31.5 92v279h-40q-19 0 -32.5 13.5t-13.5 32.5t13.5 32.5t32.5 13.5h40v85q0 22 15.5 37.5t37.5 15.5q21 0 36.5 -15.5t15.5 -37.5v-85h58q19 0 32.5 -13.5t13.5 -32.5t-13.5 -32.5t-32.5 -13.5h-58v-253q0 -26 12 -41.5
t34 -15.5q5 0 14 1.5t12 1.5q20 0 32 -12.5t12 -31.5zM261 563q0 9 13 22q33 33 39 65q-6 -2 -14 -2q-20 0 -34 14.5t-14 36.5q0 23 16 39.5t39 16.5q27 0 45 -20.5t18 -54.5q0 -76 -67 -135q-8 -6 -16 -6q-10 0 -17.5 7t-7.5 17z" />
    <glyph glyph-name="Tbar" unicode="&#x166;" horiz-adv-x="577" 
d="M555 615q0 -21 -15.5 -36t-36.5 -15h-156v-226h116q13 0 22 -9t9 -22t-9 -22t-22 -9h-116v-223q0 -24 -17 -41.5t-41 -17.5q-25 0 -42 17.5t-17 41.5v223h-116q-13 0 -22 9t-9 22t9 22t22 9h116v226h-156q-21 0 -36.5 15t-15.5 36q0 22 15.5 37t36.5 15h429
q21 0 36.5 -15t15.5 -37z" />
    <glyph glyph-name="tbar" unicode="&#x167;" horiz-adv-x="319" 
d="M310 40q0 -28 -28 -40t-69 -12q-61 0 -92.5 32t-31.5 92v104h-55q-13 0 -22 9t-9 22t9 22t22 9h55v113h-40q-19 0 -32.5 13.5t-13.5 32.5t13.5 32.5t32.5 13.5h40v85q0 22 15.5 37.5t37.5 15.5q21 0 36.5 -15.5t15.5 -37.5v-85h58q19 0 32.5 -13.5t13.5 -32.5
t-13.5 -32.5t-32.5 -13.5h-58v-113h44q13 0 22 -9t9 -22t-9 -22t-22 -9h-44v-78q0 -26 12 -41.5t34 -15.5q5 0 14 1.5t12 1.5q20 0 32 -12.5t12 -31.5z" />
    <glyph glyph-name="Utilde" unicode="&#x168;" horiz-adv-x="719" 
d="M71 263v351q0 24 17 41.5t42 17.5t42 -17.5t17 -41.5v-347q0 -82 45 -128.5t126 -46.5t125.5 46.5t44.5 128.5v347q0 24 17 41.5t42 17.5t42 -17.5t17 -41.5v-350q0 -130 -74.5 -203t-213.5 -73q-140 0 -214.5 73t-74.5 202zM342 767q-24 32 -43 32q-34 0 -41 -53
q-5 -25 -28 -25q-13 0 -21.5 10t-6.5 22q6 52 32 80t69 28q24 0 39.5 -10.5t35.5 -35.5q26 -32 44 -32q33 0 40 53q2 25 28 25q13 0 21.5 -9.5t7.5 -22.5q-6 -52 -32 -80t-69 -28q-24 0 -40.5 11t-35.5 35z" />
    <glyph glyph-name="utilde" unicode="&#x169;" 
d="M499 436v-389q0 -22 -15.5 -37.5t-36.5 -15.5q-22 0 -37.5 15.5t-15.5 37.5v16q-70 -75 -171 -75q-155 0 -155 153v295q0 22 15.5 37.5t37.5 15.5q21 0 36.5 -15.5t15.5 -37.5v-257q0 -52 24 -75t73 -23q77 0 124 63v292q0 22 15.5 37.5t36.5 15.5q22 0 37.5 -15.5
t15.5 -37.5zM265 620q-24 32 -43 32q-34 0 -41 -53q-5 -25 -28 -25q-13 0 -21.5 10t-6.5 22q6 52 32 80t69 28q24 0 39.5 -10.5t35.5 -35.5q26 -32 44 -32q33 0 40 53q2 25 28 25q13 0 21.5 -9.5t7.5 -22.5q-6 -52 -32 -80t-69 -28q-24 0 -40.5 11t-35.5 35z" />
    <glyph glyph-name="Umacron" unicode="&#x16a;" horiz-adv-x="719" 
d="M71 263v351q0 24 17 41.5t42 17.5t42 -17.5t17 -41.5v-347q0 -82 45 -128.5t126 -46.5t125.5 46.5t44.5 128.5v347q0 24 17 41.5t42 17.5t42 -17.5t17 -41.5v-350q0 -130 -74.5 -203t-213.5 -73q-140 0 -214.5 73t-74.5 202zM192 764q0 13 9 22t22 9h273q13 0 22 -9
t9 -22t-9 -22t-22 -9h-273q-13 0 -22 9t-9 22z" />
    <glyph glyph-name="umacron" unicode="&#x16b;" 
d="M499 436v-389q0 -22 -15.5 -37.5t-36.5 -15.5q-22 0 -37.5 15.5t-15.5 37.5v16q-70 -75 -171 -75q-155 0 -155 153v295q0 22 15.5 37.5t37.5 15.5q21 0 36.5 -15.5t15.5 -37.5v-257q0 -52 24 -75t73 -23q77 0 124 63v292q0 22 15.5 37.5t36.5 15.5q22 0 37.5 -15.5
t15.5 -37.5zM115 617q0 13 9 22t22 9h273q13 0 22 -9t9 -22t-9 -22t-22 -9h-273q-13 0 -22 9t-9 22z" />
    <glyph glyph-name="Ubreve" unicode="&#x16c;" horiz-adv-x="719" 
d="M71 263v351q0 24 17 41.5t42 17.5t42 -17.5t17 -41.5v-347q0 -82 45 -128.5t126 -46.5t125.5 46.5t44.5 128.5v347q0 24 17 41.5t42 17.5t42 -17.5t17 -41.5v-350q0 -130 -74.5 -203t-213.5 -73q-140 0 -214.5 73t-74.5 202zM202 788q-9 9 -9 22t9 22t22 9q16 0 23 -9
q46 -49 113 -49q66 0 112 48q7 10 23 10q13 0 22 -9t9 -22q0 -11 -9 -22q-64 -67 -157 -67q-91 0 -158 67z" />
    <glyph glyph-name="ubreve" unicode="&#x16d;" 
d="M499 436v-389q0 -22 -15.5 -37.5t-36.5 -15.5q-22 0 -37.5 15.5t-15.5 37.5v16q-70 -75 -171 -75q-155 0 -155 153v295q0 22 15.5 37.5t37.5 15.5q21 0 36.5 -15.5t15.5 -37.5v-257q0 -52 24 -75t73 -23q77 0 124 63v292q0 22 15.5 37.5t36.5 15.5q22 0 37.5 -15.5
t15.5 -37.5zM125 641q-9 9 -9 22t9 22t22 9q15 0 23 -9q46 -49 113 -49q65 0 112 48q7 10 23 10q13 0 22 -9t9 -22q0 -11 -9 -22q-64 -67 -157 -67q-91 0 -158 67z" />
    <glyph glyph-name="Uring" unicode="&#x16e;" horiz-adv-x="719" 
d="M71 263v351q0 24 17 41.5t42 17.5t42 -17.5t17 -41.5v-347q0 -82 45 -128.5t126 -46.5t125.5 46.5t44.5 128.5v347q0 24 17 41.5t42 17.5t42 -17.5t17 -41.5v-350q0 -130 -74.5 -203t-213.5 -73q-140 0 -214.5 73t-74.5 202zM361 908q42 0 71.5 -30.5t29.5 -72.5
t-29.5 -72t-71.5 -30t-72 30t-30 72t30 72.5t72 30.5zM361 857q-21 0 -36.5 -15t-15.5 -37q0 -21 15.5 -36.5t36.5 -15.5t36 15.5t15 36.5q0 22 -14.5 37t-36.5 15z" />
    <glyph glyph-name="uring" unicode="&#x16f;" 
d="M499 436v-389q0 -22 -15.5 -37.5t-36.5 -15.5q-22 0 -37.5 15.5t-15.5 37.5v16q-70 -75 -171 -75q-155 0 -155 153v295q0 22 15.5 37.5t37.5 15.5q21 0 36.5 -15.5t15.5 -37.5v-257q0 -52 24 -75t73 -23q77 0 124 63v292q0 22 15.5 37.5t36.5 15.5q22 0 37.5 -15.5
t15.5 -37.5zM284 761q42 0 71.5 -30.5t29.5 -72.5t-29.5 -72t-71.5 -30t-72 30t-30 72t30 72.5t72 30.5zM284 710q-21 0 -36.5 -15t-15.5 -37q0 -21 15.5 -36.5t36.5 -15.5t36 15.5t15 36.5q0 22 -14.5 37t-36.5 15z" />
    <glyph glyph-name="Uhungarumlaut" unicode="&#x170;" horiz-adv-x="719" 
d="M71 263v351q0 24 17 41.5t42 17.5t42 -17.5t17 -41.5v-347q0 -82 45 -128.5t126 -46.5t125.5 46.5t44.5 128.5v347q0 24 17 41.5t42 17.5t42 -17.5t17 -41.5v-350q0 -130 -74.5 -203t-213.5 -73q-140 0 -214.5 73t-74.5 202zM269 743q0 10 4 14l64 101q9 16 28 16
q13 0 23 -10.5t10 -24.5q0 -13 -7 -20l-74 -93q-7 -10 -20 -10q-11 0 -19.5 8t-8.5 19zM415 743q0 10 4 14l64 101q9 16 28 16q13 0 23 -10.5t10 -24.5q0 -13 -7 -20l-74 -93q-7 -10 -20 -10q-11 0 -19.5 8t-8.5 19z" />
    <glyph glyph-name="uhungarumlaut" unicode="&#x171;" 
d="M499 436v-389q0 -22 -15.5 -37.5t-36.5 -15.5q-22 0 -37.5 15.5t-15.5 37.5v16q-70 -75 -171 -75q-155 0 -155 153v295q0 22 15.5 37.5t37.5 15.5q21 0 36.5 -15.5t15.5 -37.5v-257q0 -52 24 -75t73 -23q77 0 124 63v292q0 22 15.5 37.5t36.5 15.5q22 0 37.5 -15.5
t15.5 -37.5zM192 596q0 10 4 14l64 101q9 16 28 16q13 0 23 -10.5t10 -24.5q0 -13 -7 -20l-74 -93q-7 -10 -20 -10q-11 0 -19.5 8t-8.5 19zM338 596q0 10 4 14l64 101q9 16 28 16q13 0 23 -10.5t10 -24.5q0 -13 -7 -20l-74 -93q-7 -10 -20 -10q-11 0 -19.5 8t-8.5 19z" />
    <glyph glyph-name="Uogonek" unicode="&#x172;" horiz-adv-x="719" 
d="M71 263v351q0 24 17 41.5t42 17.5t42 -17.5t17 -41.5v-347q0 -82 45 -128.5t126 -46.5t125.5 46.5t44.5 128.5v347q0 24 17 41.5t42 17.5t42 -17.5t17 -41.5v-350q0 -100 -43.5 -166.5t-126.5 -92.5q-50 -16 -77.5 -39t-27.5 -50q0 -14 10 -22.5t25 -8.5q8 0 10 1
q15 2 27.5 -8t12.5 -26q0 -26 -26 -33q-30 -5 -50 -5q-46 0 -76 20.5t-30 56.5q0 59 87 97h-3q-140 0 -214.5 73t-74.5 202z" />
    <glyph glyph-name="uogonek" unicode="&#x173;" 
d="M410 -84q0 -14 10 -22.5t25 -8.5q4 0 11 1t10 1q13 0 23 -9.5t10 -24.5q0 -24 -23 -32q-22 -7 -57 -7q-46 0 -76 20.5t-30 56.5q0 34 31.5 62.5t79.5 45.5q-30 16 -30 48v16q-70 -75 -171 -75q-155 0 -155 153v295q0 22 15.5 37.5t37.5 15.5q21 0 36.5 -15.5t15.5 -37.5
v-257q0 -52 24 -75t73 -23q77 0 124 63v292q0 22 15.5 37.5t36.5 15.5q22 0 37.5 -15.5t15.5 -37.5v-389q0 -35 -31 -48q-58 -49 -58 -83z" />
    <glyph glyph-name="Wcircumflex" unicode="&#x174;" horiz-adv-x="903" 
d="M567 54l-116 438l-115 -438q-7 -26 -28 -43t-49 -17q-27 0 -48.5 16.5t-28.5 41.5l-155 541q-2 14 -2 18q0 26 18.5 44t43.5 18q21 0 38 -13t22 -34l120 -473l128 477q5 19 20.5 31t36.5 12q20 0 35.5 -12t20.5 -31l128 -477l119 473q5 21 22 34t38 13q26 0 44 -18
t18 -44q0 -4 -2 -18l-154 -541q-7 -25 -28.5 -41.5t-48.5 -16.5q-28 0 -49 17t-28 43zM524 727l-72 92l-72 -92q-7 -10 -21 -10q-12 0 -20.5 8t-8.5 21q0 10 4 14l57 88q15 25 47 25h28q32 0 47 -25l57 -88q4 -4 4 -14q0 -13 -8.5 -21t-20.5 -8q-14 0 -21 10z" />
    <glyph glyph-name="wcircumflex" unicode="&#x175;" horiz-adv-x="754" 
d="M475 45l-98 309l-98 -309q-7 -23 -26 -37t-43 -14t-43 14t-26 37l-117 377q-2 10 -2 15q0 22 15 37t36 15q18 0 31.5 -10.5t18.5 -26.5l93 -320l103 315q6 19 22 30.5t36 11.5t36 -11.5t22 -30.5l103 -315l93 320q5 16 18.5 26.5t31.5 10.5q21 0 36 -15t15 -37
q0 -5 -2 -15l-117 -377q-7 -23 -26 -37t-43 -14t-43 14t-26 37zM450 560l-72 92l-72 -92q-7 -10 -21 -10q-12 0 -20.5 8t-8.5 21q0 10 4 14l57 88q15 25 47 25h28q32 0 47 -25l57 -88q4 -4 4 -14q0 -13 -8.5 -21t-20.5 -8q-14 0 -21 10z" />
    <glyph glyph-name="Ycircumflex" unicode="&#x176;" horiz-adv-x="636" 
d="M582 587l-205 -310v-224q0 -24 -17 -41.5t-41 -17.5q-25 0 -42 17.5t-17 41.5v224l-206 309q-9 12 -9 31q0 23 16.5 39.5t39.5 16.5q29 0 47 -26l171 -266l169 266q18 26 47 26q23 0 39.5 -16.5t16.5 -39.5q0 -18 -9 -30zM392 727l-72 92l-72 -92q-7 -10 -21 -10
q-12 0 -20.5 8t-8.5 21q0 10 4 14l57 88q15 25 47 25h28q32 0 47 -25l57 -88q4 -4 4 -14q0 -13 -8.5 -21t-20.5 -8q-14 0 -21 10z" />
    <glyph glyph-name="ycircumflex" unicode="&#x177;" horiz-adv-x="503" 
d="M98 -103h5q51 0 69 42l24 55l-172 424q-3 9 -3 19q0 22 15 37t36 15q16 0 30 -9.5t19 -23.5l130 -335l130 335q5 14 19 23.5t30 9.5q22 0 37 -15t15 -37q0 -9 -4 -20l-206 -504q-23 -58 -63.5 -83t-102.5 -26q-11 0 -15 1q-18 2 -30.5 15t-12.5 31q0 19 15 32.5t35 13.5z
M324 580l-72 92l-72 -92q-7 -10 -21 -10q-12 0 -20.5 8t-8.5 21q0 10 4 14l57 88q15 25 47 25h28q32 0 47 -25l57 -88q4 -4 4 -14q0 -13 -8.5 -21t-20.5 -8q-14 0 -21 10z" />
    <glyph glyph-name="Ydieresis" unicode="&#x178;" horiz-adv-x="636" 
d="M582 587l-205 -310v-224q0 -24 -17 -41.5t-41 -17.5q-25 0 -42 17.5t-17 41.5v224l-206 309q-9 12 -9 31q0 23 16.5 39.5t39.5 16.5q29 0 47 -26l171 -266l169 266q18 26 47 26q23 0 39.5 -16.5t16.5 -39.5q0 -18 -9 -30zM156 790q0 24 17 41t42 17q24 0 41 -17t17 -41
q0 -25 -17 -42t-41 -17q-25 0 -42 17t-17 42zM365 790q0 24 17.5 41t41.5 17t41.5 -17t17.5 -41q0 -25 -17.5 -42t-41.5 -17t-41.5 17t-17.5 42z" />
    <glyph glyph-name="Zacute" unicode="&#x179;" horiz-adv-x="589" 
d="M38 66q0 22 13 38l334 460h-295q-21 0 -36.5 15t-15.5 36q0 22 15.5 37t36.5 15h387q27 0 46.5 -19t19.5 -47q0 -22 -13 -38l-334 -460h302q21 0 36.5 -15t15.5 -36q0 -22 -15.5 -37t-36.5 -15h-394q-27 0 -46.5 19t-19.5 47zM302 717q-11 0 -19 8t-8 19q0 8 8 19l97 100
q10 10 24 10q13 0 22.5 -9.5t9.5 -23.5q0 -15 -11 -24l-105 -92q-7 -7 -18 -7z" />
    <glyph glyph-name="zacute" unicode="&#x17a;" horiz-adv-x="476" 
d="M40 53q0 19 11 33l234 305h-199q-19 0 -32.5 13.5t-13.5 32.5t13.5 32.5t32.5 13.5h293q21 0 36.5 -15t15.5 -37q0 -15 -11 -31l-236 -309h205q19 0 32.5 -13t13.5 -32t-13.5 -32.5t-32.5 -13.5h-296q-22 0 -37.5 15.5t-15.5 37.5zM245 570q-11 0 -19 8t-8 19q0 8 8 19
l97 100q10 10 24 10q13 0 22.5 -9.5t9.5 -23.5q0 -15 -11 -24l-105 -92q-7 -7 -18 -7z" />
    <glyph glyph-name="Zdotaccent" unicode="&#x17b;" horiz-adv-x="589" 
d="M38 66q0 22 13 38l334 460h-295q-21 0 -36.5 15t-15.5 36q0 22 15.5 37t36.5 15h387q27 0 46.5 -19t19.5 -47q0 -22 -13 -38l-334 -460h302q21 0 36.5 -15t15.5 -36q0 -22 -15.5 -37t-36.5 -15h-394q-27 0 -46.5 19t-19.5 47zM295 848q24 0 41 -17.5t17 -41.5
q0 -25 -17 -42t-41 -17t-41.5 17t-17.5 42q0 24 17.5 41.5t41.5 17.5z" />
    <glyph glyph-name="zdotaccent" unicode="&#x17c;" horiz-adv-x="476" 
d="M40 53q0 19 11 33l234 305h-199q-19 0 -32.5 13.5t-13.5 32.5t13.5 32.5t32.5 13.5h293q21 0 36.5 -15t15.5 -37q0 -15 -11 -31l-236 -309h205q19 0 32.5 -13t13.5 -32t-13.5 -32.5t-32.5 -13.5h-296q-22 0 -37.5 15.5t-15.5 37.5zM238 701q24 0 41 -17.5t17 -41.5
q0 -25 -17 -42t-41 -17t-41.5 17t-17.5 42q0 24 17.5 41.5t41.5 17.5z" />
    <glyph glyph-name="Zcaron" unicode="&#x17d;" horiz-adv-x="589" 
d="M38 66q0 22 13 38l334 460h-295q-21 0 -36.5 15t-15.5 36q0 22 15.5 37t36.5 15h387q27 0 46.5 -19t19.5 -47q0 -22 -13 -38l-334 -460h302q21 0 36.5 -15t15.5 -36q0 -22 -15.5 -37t-36.5 -15h-394q-27 0 -46.5 19t-19.5 47zM415 844q0 -10 -4 -14l-57 -88
q-15 -25 -47 -25h-28q-32 0 -47 25l-57 88q-4 4 -4 14q0 13 8.5 21t20.5 8q14 0 21 -10l72 -92l72 92q7 10 21 10q12 0 20.5 -8t8.5 -21z" />
    <glyph glyph-name="zcaron" unicode="&#x17e;" horiz-adv-x="476" 
d="M40 53q0 19 11 33l234 305h-199q-19 0 -32.5 13.5t-13.5 32.5t13.5 32.5t32.5 13.5h293q21 0 36.5 -15t15.5 -37q0 -15 -11 -31l-236 -309h205q19 0 32.5 -13t13.5 -32t-13.5 -32.5t-32.5 -13.5h-296q-22 0 -37.5 15.5t-15.5 37.5zM358 697q0 -10 -4 -14l-57 -88
q-15 -25 -47 -25h-28q-32 0 -47 25l-57 88q-4 4 -4 14q0 13 8.5 21t20.5 8q14 0 21 -10l72 -92l72 92q7 10 21 10q12 0 20.5 -8t8.5 -21z" />
    <glyph glyph-name="longs" unicode="&#x17f;" horiz-adv-x="308" 
d="M327 631q0 -42 -41 -42q-4 0 -11.5 1t-9.5 1q-31 0 -49 -21t-18 -60v-463q0 -22 -15.5 -37.5t-36.5 -15.5q-22 0 -37.5 15.5t-15.5 37.5v344h-40q-19 0 -32.5 13.5t-13.5 32.5t13.5 32.5t32.5 13.5h40v27q0 78 41.5 122.5t111.5 44.5q26 0 49 -6q32 -8 32 -40z" />
    <glyph glyph-name="uni018F" unicode="&#x18f;" horiz-adv-x="745" 
d="M704 333q2 -150 -97 -249t-238 -97q-142 -2 -238 91t-94 236q0 54 58 54h487q-11 91 -74.5 148.5t-153.5 57.5q-87 0 -150 -63q-16 -16 -39 -16q-22 0 -38 16t-16 38q0 23 16 39q90 90 227 90q146 2 249 -96.5t101 -248.5zM576 265h-417q13 -78 66.5 -126t133.5 -48
q81 0 139.5 47.5t77.5 126.5z" />
    <glyph glyph-name="uni0192" unicode="&#x192;" horiz-adv-x="444" 
d="M453 619q0 -21 -15 -36t-36 -15q-3 0 -15 3q-11 3 -21 3q-31 0 -54.5 -21t-31.5 -57l-35 -158h83q19 0 33 -14t14 -33t-14 -32.5t-33 -13.5h-104l-81 -366q-5 -21 -20.5 -33.5t-36.5 -12.5q-24 0 -41 17t-17 40l2 17l74 338h-18q-19 0 -33 14t-14 33t14 32.5t33 13.5h39
l40 182q16 71 67.5 114t120.5 43q43 0 69 -13q31 -13 31 -45z" />
    <glyph glyph-name="uni019D" unicode="&#x19d;" horiz-adv-x="720" 
d="M590 673q25 0 42 -17.5t17 -41.5v-548q0 -29 -21 -50.5t-51 -21.5q-37 0 -58 30l-331 462v-459q0 -108 -60.5 -165.5t-164.5 -57.5h-1q-22 0 -37.5 14.5t-15.5 36.5q0 21 13.5 37t31.5 16h2q52 1 83.5 34t31.5 87v567q0 32 22.5 54.5t54.5 22.5q38 0 62 -32l322 -447v420
q0 24 17 41.5t41 17.5z" />
    <glyph glyph-name="Ohorn" unicode="&#x1a0;" horiz-adv-x="765" 
d="M664 535q59 -88 59 -202q2 -147 -96 -247.5t-245 -97.5q-147 -3 -245 97.5t-96 247.5q-2 147 96 247t245 98q158 0 255 -108q38 28 45 68q-6 -2 -13 -2q-19 0 -31.5 13.5t-12.5 33.5q0 21 14.5 36t35.5 15q25 0 41 -18.5t16 -50.5q0 -79 -68 -130zM603 333
q0 105 -61.5 173t-159.5 68t-159.5 -68t-61.5 -173q0 -104 61.5 -172.5t159.5 -68.5t159.5 68.5t61.5 172.5z" />
    <glyph glyph-name="ohorn" unicode="&#x1a1;" horiz-adv-x="573" 
d="M480 407q55 -67 55 -165q0 -108 -69 -181t-180 -73q-110 0 -179 73t-69 181q0 107 69 180t179 73q96 0 163 -56q36 33 42 66q-6 -2 -13 -2q-19 0 -31.5 13t-12.5 34q0 20 14.5 35t35.5 15q25 0 41 -18.5t16 -50.5q0 -73 -61 -124zM426 242q0 66 -38 113t-102 47t-102 -47
q-37 -46 -37 -113q0 -69 37 -115t102 -46t102 46q38 47 38 115z" />
    <glyph glyph-name="Uhorn" unicode="&#x1af;" horiz-adv-x="719" 
d="M648 572v-308q0 -130 -74.5 -203t-213.5 -73q-140 0 -214.5 73t-74.5 202v351q0 24 17 41.5t42 17.5t42 -17.5t17 -41.5v-347q0 -82 45 -128.5t126 -46.5t125.5 46.5t44.5 128.5v347q0 24 17 41.5t42 17.5q23 0 40 -15.5t19 -38.5q25 15 42 37t20 45q-6 -2 -13 -2
q-19 0 -31.5 13t-12.5 34q0 20 14.5 35t35.5 15q25 0 41 -18.5t16 -50.5q0 -48 -30 -90t-82 -65z" />
    <glyph glyph-name="uhorn" unicode="&#x1b0;" 
d="M499 400v-353q0 -22 -15.5 -37.5t-36.5 -15.5q-22 0 -37.5 15.5t-15.5 37.5v16q-70 -75 -171 -75q-155 0 -155 153v295q0 22 15.5 37.5t37.5 15.5q21 0 36.5 -15.5t15.5 -37.5v-257q0 -52 24 -75t73 -23q77 0 124 63v292q0 22 15.5 37.5t36.5 15.5q39 0 51 -39
q37 33 38 65q-2 -2 -12 -2q-20 0 -32.5 13t-12.5 34q0 20 14.5 35t35.5 15q25 0 41.5 -19t16.5 -50q0 -40 -23 -78.5t-64 -62.5z" />
    <glyph glyph-name="Gcaron" unicode="&#x1e6;" horiz-adv-x="717" 
d="M666 296v-143q0 -48 -32 -76q-104 -90 -243 -90q-146 -2 -249 97t-101 249q-2 150 101 248.5t249 96.5q137 0 227 -90q16 -16 16 -39q0 -22 -15.5 -38t-38.5 -16t-39 16q-63 63 -150 63q-99 0 -164.5 -68.5t-65.5 -172.5q0 -103 66 -172.5t164 -69.5q92 0 158 60v104
h-153q-21 0 -36.5 15t-15.5 37q0 21 15.5 36t36.5 15h208q62 0 62 -62zM511 844q0 -10 -4 -14l-57 -88q-15 -25 -47 -25h-28q-32 0 -47 25l-57 88q-4 4 -4 14q0 13 8.5 21t20.5 8q14 0 21 -10l72 -92l72 92q7 10 21 10q12 0 20.5 -8t8.5 -21z" />
    <glyph glyph-name="gcaron" unicode="&#x1e7;" horiz-adv-x="580" 
d="M512 436v-411q0 -119 -72 -170q-70 -51 -176 -51q-105 0 -174 49q-19 13 -19 36q0 18 13 31t31 13q14 0 25 -8q50 -35 124 -35q64 0 103.5 33t39.5 98v58q-64 -80 -155 -80q-95 0 -154.5 66.5t-59.5 181.5q0 114 59.5 181t154.5 67t155 -79v20q0 22 15.5 37.5t37.5 15.5
q21 0 36.5 -15.5t15.5 -37.5zM407 157v180q-18 27 -53.5 46t-70.5 19q-62 0 -99 -42.5t-37 -112.5t37 -112.5t99 -42.5q35 0 70.5 19t53.5 46zM413 697q0 -10 -4 -14l-57 -88q-15 -25 -47 -25h-28q-32 0 -47 25l-57 88q-4 4 -4 14q0 13 8.5 21t20.5 8q14 0 21 -10l72 -92
l72 92q7 10 21 10q12 0 20.5 -8t8.5 -21z" />
    <glyph glyph-name="uni01EA" unicode="&#x1ea;" horiz-adv-x="765" 
d="M384 -84q0 -14 10 -22.5t25 -8.5q4 0 11 1t10 1q13 0 23 -9.5t10 -24.5q0 -24 -23 -32q-22 -7 -57 -7q-46 0 -76 20.5t-30 56.5q0 58 84 97q-142 1 -237 101t-93 244q-2 147 96 247t245 98q147 2 245 -98t96 -247q0 -135 -80.5 -230.5t-208.5 -111.5q-50 -42 -50 -75z
M382 92q98 0 159.5 68.5t61.5 172.5q0 105 -61.5 173t-159.5 68t-159.5 -68t-61.5 -173q0 -104 61.5 -172.5t159.5 -68.5z" />
    <glyph glyph-name="uni01EB" unicode="&#x1eb;" horiz-adv-x="573" 
d="M276 -84q0 -14 10 -22.5t25 -8.5q4 0 11 1t10 1q13 0 23 -9.5t10 -24.5q0 -24 -23 -32q-22 -7 -57 -7q-46 0 -76 20.5t-30 56.5q0 59 86 98q-102 7 -164.5 79t-62.5 174q0 107 69 180t179 73q111 0 180 -73t69 -180q0 -98 -57.5 -168.5t-152.5 -83.5q-49 -42 -49 -74z
M286 81q65 0 102 46q38 47 38 115q0 66 -38 113t-102 47t-102 -47q-37 -46 -37 -113q0 -69 37 -115t102 -46z" />
    <glyph glyph-name="Aringacute" unicode="&#x1fa;" horiz-adv-x="673" 
d="M646 54q0 -25 -17.5 -42.5t-42.5 -17.5q-19 0 -34 10.5t-21 27.5l-35 96h-320l-35 -96q-6 -17 -21 -27.5t-34 -10.5q-25 0 -42.5 17.5t-17.5 42.5q0 4 5 21l209 532q12 30 38 48t58 18t58 -18t38 -48l209 -532q5 -17 5 -21zM213 231h246l-123 337zM337 908
q42 0 71.5 -30.5t29.5 -72.5t-29.5 -72t-71.5 -30t-72 30t-30 72t30 72.5t72 30.5zM337 857q-21 0 -36.5 -15t-15.5 -37q0 -21 15.5 -36.5t36.5 -15.5t36 15.5t15 36.5q0 22 -14.5 37t-36.5 15zM343 929q-11 0 -19 8t-8 19q0 8 8 19l97 100q10 10 24 10q13 0 22.5 -9.5
t9.5 -23.5q0 -15 -11 -24l-105 -92q-7 -7 -18 -7z" />
    <glyph glyph-name="aringacute" unicode="&#x1fb;" horiz-adv-x="536" 
d="M468 320v-273q0 -22 -15.5 -37.5t-37.5 -15.5q-21 0 -36.5 15.5t-15.5 37.5v5q-56 -64 -156 -64q-67 0 -117.5 43.5t-50.5 116.5q0 75 49.5 116t118.5 41q102 0 156 -62v72q0 42 -31 66t-82 24q-60 0 -113 -36q-10 -7 -24 -7q-17 0 -29.5 12.5t-12.5 29.5q0 23 18 34
q77 57 178 57q93 0 147 -43.5t54 -131.5zM363 110v73q-37 50 -115 50q-45 0 -74 -24t-29 -63t29 -62.5t74 -23.5q78 0 115 50zM269 761q42 0 71.5 -30.5t29.5 -72.5t-29.5 -72t-71.5 -30t-72 30t-30 72t30 72.5t72 30.5zM269 710q-21 0 -36.5 -15t-15.5 -37
q0 -21 15.5 -36.5t36.5 -15.5t36 15.5t15 36.5q0 22 -14.5 37t-36.5 15zM275 782q-11 0 -19 8t-8 19q0 8 8 19l97 100q10 10 24 10q13 0 22.5 -9.5t9.5 -23.5q0 -15 -11 -24l-105 -92q-7 -7 -18 -7z" />
    <glyph glyph-name="AEacute" unicode="&#x1fc;" horiz-adv-x="959" 
d="M918 52q0 -22 -15.5 -37t-36.5 -15h-349q-62 0 -62 62v66h-255l-62 -108q-16 -26 -46 -26q-23 0 -39 16t-16 39q0 14 8 28l337 548q28 42 75 42h409q21 0 36.5 -15t15.5 -37q0 -21 -15.5 -36t-36.5 -15h-294v-173h287q21 0 36.5 -15t15.5 -36q0 -22 -15.5 -37t-36.5 -15
h-287v-185h294q21 0 36.5 -15t15.5 -36zM260 231h195v338zM519 717q-11 0 -19 8t-8 19q0 8 8 19l97 100q10 10 24 10q13 0 22.5 -9.5t9.5 -23.5q0 -15 -11 -24l-105 -92q-7 -7 -18 -7z" />
    <glyph glyph-name="aeacute" unicode="&#x1fd;" horiz-adv-x="878" 
d="M633 76q53 0 100 30q10 7 23 7q17 0 29.5 -12.5t12.5 -30.5q0 -22 -19 -35q-68 -47 -151 -47q-131 0 -190 98q-30 -45 -84 -71.5t-119 -26.5q-83 0 -139.5 42.5t-56.5 116.5q0 76 51 116q51 42 126 42q110 0 170 -60v71q0 41 -34 65t-89 24q-70 0 -126 -37q-10 -7 -23 -7
q-17 0 -29.5 12.5t-12.5 30.5q0 24 18 35q80 56 182 56q137 0 174 -93q63 93 177 93q97 0 158 -69.5t61 -169.5q0 -49 -62 -49h-289q6 -58 44 -94.5t98 -36.5zM615 409q-57 0 -90 -39q-32 -40 -35 -89h250q-1 49 -34 89q-32 39 -91 39zM258 233q-51 0 -82 -20.5t-31 -58.5
t30.5 -58t82.5 -20q50 0 89 31.5t39 67.5v7q-45 51 -128 51zM448 570q-11 0 -19 8t-8 19q0 8 8 19l97 100q10 10 24 10q13 0 22.5 -9.5t9.5 -23.5q0 -15 -11 -24l-105 -92q-7 -7 -18 -7z" />
    <glyph glyph-name="Oslashacute" unicode="&#x1fe;" horiz-adv-x="765" 
d="M723 333q2 -147 -96 -247.5t-245 -97.5q-102 0 -184 49l-52 -71q-11 -14 -25 -14q-11 0 -19.5 8t-8.5 20q0 10 7 20l52 71q-111 98 -111 262q-2 147 96 247t245 98q98 0 176 -45l49 68q11 14 25 14q11 0 19.5 -8t8.5 -20q0 -10 -7 -20l-48 -66q118 -99 118 -268zM218 164
l276 381q-50 29 -112 29q-98 0 -159.5 -68t-61.5 -173q0 -99 57 -169zM603 333q0 109 -64 176l-277 -383q50 -34 120 -34q98 0 159.5 68.5t61.5 172.5zM388 717q-11 0 -19 8t-8 19q0 8 8 19l97 100q10 10 24 10q13 0 22.5 -9.5t9.5 -23.5q0 -15 -11 -24l-105 -92
q-7 -7 -18 -7z" />
    <glyph glyph-name="oslashacute" unicode="&#x1ff;" horiz-adv-x="573" 
d="M535 242q0 -108 -69 -181t-180 -73q-73 0 -126 31l-40 -55q-8 -12 -22 -12q-9 0 -16.5 7t-7.5 17q0 7 6 16l40 56q-82 74 -82 194q0 107 69 180t179 73q76 0 132 -34l41 57q9 13 23 13q9 0 16 -6.5t7 -15.5q0 -8 -6 -17l-43 -59q79 -73 79 -191zM181 132l179 249
q-32 21 -74 21q-64 0 -102 -47q-37 -46 -37 -113q0 -66 34 -110zM426 242q0 61 -31 105l-178 -248q31 -18 69 -18q65 0 102 46q38 47 38 115zM293 570q-11 0 -19 8t-8 19q0 8 8 19l97 100q10 10 24 10q13 0 22.5 -9.5t9.5 -23.5q0 -15 -11 -24l-105 -92q-7 -7 -18 -7z" />
    <glyph glyph-name="uni0218" unicode="&#x218;" horiz-adv-x="594" 
d="M42 105q0 23 16 39.5t39 16.5q20 0 34 -11q77 -58 173 -58q64 0 99 26t35 65q-4 41 -35 58.5t-117 40.5q-79 19 -122 37q-115 46 -115 163q0 84 70 139.5t183 55.5q106 0 206 -61q25 -15 25 -45q0 -22 -16 -38.5t-39 -16.5q-18 0 -31 10q-71 47 -155 47q-57 0 -90 -22.5
t-33 -60.5q0 -24 19 -40q29 -25 128 -49q75 -19 123 -39q118 -49 118 -168q0 -91 -66.5 -148.5t-191.5 -57.5q-140 0 -235 73q-22 16 -22 44zM247 -255q0 9 13 22q33 33 39 65q-6 -2 -14 -2q-20 0 -34 14.5t-14 36.5q0 23 16 39.5t39 16.5q27 0 45 -20.5t18 -54.5
q0 -76 -67 -135q-8 -6 -16 -6q-10 0 -17.5 7t-7.5 17z" />
    <glyph glyph-name="uni0219" unicode="&#x219;" horiz-adv-x="472" 
d="M35 76q0 19 13 32t32 13q14 0 25 -7q64 -43 133 -43q45 0 70 15.5t25 43.5t-25.5 42.5t-84.5 27.5q-59 12 -94 25q-88 35 -88 123q0 62 51.5 104.5t138.5 42.5q90 0 161 -47q19 -13 19 -35q0 -17 -12.5 -29.5t-29.5 -12.5q-13 0 -23 7q-51 33 -114 33q-42 0 -66 -14.5
t-24 -39.5q0 -24 24 -37t81 -26q58 -12 95 -27q92 -34 92 -129q0 -67 -53.5 -108.5t-147.5 -41.5q-103 0 -178 51q-20 13 -20 37zM186 -255q0 9 13 22q33 33 39 65q-6 -2 -14 -2q-20 0 -34 14.5t-14 36.5q0 23 16 39.5t39 16.5q27 0 45 -20.5t18 -54.5q0 -76 -67 -135
q-7 -6 -16 -6q-10 0 -17.5 7t-7.5 17z" />
    <glyph glyph-name="uni021A" unicode="&#x21a;" horiz-adv-x="577" 
d="M230 53v511h-156q-21 0 -36.5 15t-15.5 36q0 22 15.5 37t36.5 15h429q21 0 36.5 -15t15.5 -37q0 -21 -15.5 -36t-36.5 -15h-156v-511q0 -24 -17 -41.5t-41 -17.5q-25 0 -42 17.5t-17 41.5zM244 -255q0 9 13 22q33 33 39 65q-6 -2 -14 -2q-20 0 -34 14.5t-14 36.5
q0 23 16 39.5t39 16.5q27 0 45 -20.5t18 -54.5q0 -76 -67 -135q-7 -6 -16 -6q-10 0 -17.5 7t-7.5 17z" />
    <glyph glyph-name="uni021B" unicode="&#x21b;" horiz-adv-x="319" 
d="M310 40q0 -28 -28 -40t-69 -12q-61 0 -92.5 32t-31.5 92v279h-40q-19 0 -32.5 13.5t-13.5 32.5t13.5 32.5t32.5 13.5h40v85q0 22 15.5 37.5t37.5 15.5q21 0 36.5 -15.5t15.5 -37.5v-85h58q19 0 32.5 -13.5t13.5 -32.5t-13.5 -32.5t-32.5 -13.5h-58v-253q0 -26 12 -41.5
t34 -15.5q5 0 14 1.5t12 1.5q20 0 32 -12.5t12 -31.5zM116 -255q0 9 13 22q33 33 39 65q-6 -2 -14 -2q-20 0 -34 14.5t-14 36.5q0 23 16 39.5t39 16.5q27 0 45 -20.5t18 -54.5q0 -76 -67 -135q-7 -6 -16 -6q-10 0 -17.5 7t-7.5 17z" />
    <glyph glyph-name="uni0232" unicode="&#x232;" horiz-adv-x="636" 
d="M582 587l-205 -310v-224q0 -24 -17 -41.5t-41 -17.5q-25 0 -42 17.5t-17 41.5v224l-206 309q-9 12 -9 31q0 23 16.5 39.5t39.5 16.5q29 0 47 -26l171 -266l169 266q18 26 47 26q23 0 39.5 -16.5t16.5 -39.5q0 -18 -9 -30zM151 764q0 13 9 22t22 9h273q13 0 22 -9t9 -22
t-9 -22t-22 -9h-273q-13 0 -22 9t-9 22z" />
    <glyph glyph-name="uni0233" unicode="&#x233;" horiz-adv-x="503" 
d="M98 -103h5q51 0 69 42l24 55l-172 424q-3 9 -3 19q0 22 15 37t36 15q16 0 30 -9.5t19 -23.5l130 -335l130 335q5 14 19 23.5t30 9.5q22 0 37 -15t15 -37q0 -9 -4 -20l-206 -504q-23 -58 -63.5 -83t-102.5 -26q-11 0 -15 1q-18 2 -30.5 15t-12.5 31q0 19 15 32.5t35 13.5z
M83 617q0 13 9 22t22 9h273q13 0 22 -9t9 -22t-9 -22t-22 -9h-273q-13 0 -22 9t-9 22z" />
    <glyph glyph-name="uni0237" unicode="&#x237;" horiz-adv-x="241" 
d="M13 -196h-12q-17 0 -30 13t-13 31t11.5 31.5t27.5 13.5h3q68 0 68 79v464q0 22 15.5 37.5t37.5 15.5q21 0 36.5 -15.5t15.5 -37.5v-464q0 -80 -41.5 -124t-118.5 -44z" />
    <glyph glyph-name="uni0259" unicode="&#x259;" horiz-adv-x="557" 
d="M274 -12q-103 0 -167.5 68t-64.5 165q0 32 12 43.5t44 11.5h311q-6 58 -47.5 95.5t-106.5 37.5q-57 0 -110 -32q-9 -6 -23 -6q-17 0 -29.5 12.5t-12.5 29.5q0 22 19 35q71 47 167 47q109 0 181 -70.5t72 -183.5q0 -106 -70 -179.5t-175 -73.5zM410 202h-272
q2 -51 37.5 -89.5t98.5 -38.5q60 0 96 37t40 91z" />
    <glyph glyph-name="uni0272" unicode="&#x272;" 
d="M499 340v-293q0 -22 -15.5 -37.5t-37.5 -15.5q-21 0 -36.5 15.5t-15.5 37.5v255q0 53 -24 76.5t-73 23.5q-75 0 -124 -65v-365q0 -80 -41.5 -124t-118.5 -44h-12q-18 1 -30.5 13.5t-12.5 30.5t12.5 31.5t29.5 13.5h2q66 2 66 79v464q0 22 15.5 37.5t37.5 15.5
q21 0 36.5 -15.5t15.5 -37.5v-19q29 34 74 56t96 22q77 0 116.5 -40t39.5 -115z" />
    <glyph glyph-name="uni02B0" unicode="&#x2b0;" horiz-adv-x="405" 
d="M273 359v161q0 63 -63 63q-44 0 -79 -39v-185q0 -16 -11.5 -27.5t-27.5 -11.5t-27 11.5t-11 27.5v368q0 16 11.5 27.5t27.5 11.5t27 -11.5t11 -27.5v-129q43 50 114 50q106 0 106 -105v-184q0 -16 -11.5 -27.5t-27.5 -11.5t-27.5 11.5t-11.5 27.5z" />
    <glyph glyph-name="uni02BC" unicode="&#x2bc;" horiz-adv-x="244" 
d="M100 419q-12 0 -20.5 8.5t-8.5 21.5t9 22q41 40 49 77q-9 -3 -17 -3q-26 0 -43 17.5t-17 45.5t20 48.5t48 20.5q33 0 55.5 -25t22.5 -66q0 -91 -78 -159q-8 -8 -20 -8z" />
    <glyph glyph-name="circumflex" unicode="&#x2c6;" horiz-adv-x="285" 
d="M214 560l-72 92l-72 -92q-7 -10 -21 -10q-12 0 -20.5 8t-8.5 21q0 10 4 14l57 88q15 25 47 25h28q32 0 47 -25l57 -88q4 -4 4 -14q0 -13 -8.5 -21t-20.5 -8q-14 0 -21 10z" />
    <glyph glyph-name="caron" unicode="&#x2c7;" horiz-adv-x="285" 
d="M264 677q0 -10 -4 -14l-57 -88q-15 -25 -47 -25h-28q-32 0 -47 25l-57 88q-4 4 -4 14q0 13 8.5 21t20.5 8q14 0 21 -10l72 -92l72 92q7 10 21 10q12 0 20.5 -8t8.5 -21z" />
    <glyph glyph-name="uni02C9" unicode="&#x2c9;" horiz-adv-x="363" 
d="M14 622q0 13 9 22t22 9h273q13 0 22 -9t9 -22t-9 -22t-22 -9h-273q-13 0 -22 9t-9 22z" />
    <glyph glyph-name="uni02CB" unicode="&#x2cb;" horiz-adv-x="240" 
d="M164 557l-105 92q-11 9 -11 24q0 14 9.5 23.5t22.5 9.5q14 0 24 -10l97 -100q8 -11 8 -19q0 -11 -8 -19t-19 -8t-18 7z" />
    <glyph glyph-name="breve" unicode="&#x2d8;" horiz-adv-x="351" 
d="M18 621q-9 9 -9 22t9 22t22 9q16 0 23 -9q46 -49 113 -49q65 0 112 48q7 10 23 10q13 0 22 -9t9 -22q0 -11 -9 -22q-64 -67 -157 -67q-91 0 -158 67z" />
    <glyph glyph-name="dotaccent" unicode="&#x2d9;" horiz-adv-x="147" 
d="M74 681q24 0 41 -17.5t17 -41.5q0 -25 -17 -42t-41 -17t-41.5 17t-17.5 42q0 24 17.5 41.5t41.5 17.5z" />
    <glyph glyph-name="ring" unicode="&#x2da;" horiz-adv-x="243" 
d="M122 741q42 0 71.5 -30.5t29.5 -72.5t-29.5 -72t-71.5 -30t-72 30t-30 72t30 72.5t72 30.5zM122 690q-21 0 -36.5 -15t-15.5 -37q0 -21 15.5 -36.5t36.5 -15.5t36 15.5t15 36.5q0 22 -14.5 37t-36.5 15z" />
    <glyph glyph-name="ogonek" unicode="&#x2db;" horiz-adv-x="206" 
d="M10 -109q0 35 32 63.5t82 45.5q48 16 52 10q1 -2 -2 -4q-38 -31 -52.5 -50t-14.5 -40q0 -14 10 -22.5t25 -8.5q4 0 11 1t10 1q13 0 23 -9.5t10 -24.5q0 -24 -23 -32q-22 -7 -57 -7q-46 0 -76 20.5t-30 56.5z" />
    <glyph glyph-name="tilde" unicode="&#x2dc;" horiz-adv-x="321" 
d="M142 600q-24 32 -43 32q-34 0 -41 -53q-5 -25 -28 -25q-13 0 -21.5 10t-6.5 22q6 52 32 80t69 28q24 0 39.5 -10.5t35.5 -35.5q26 -32 44 -32q33 0 40 53q2 25 28 25q13 0 21.5 -9.5t7.5 -22.5q-6 -52 -32 -80t-69 -28q-24 0 -40.5 11t-35.5 35z" />
    <glyph glyph-name="hungarumlaut" unicode="&#x2dd;" horiz-adv-x="324" 
d="M17 576q0 10 4 14l64 101q9 16 28 16q13 0 23 -10.5t10 -24.5q0 -13 -7 -20l-74 -93q-7 -10 -20 -10q-11 0 -19.5 8t-8.5 19zM163 576q0 10 4 14l64 101q9 16 28 16q13 0 23 -10.5t10 -24.5q0 -13 -7 -20l-74 -93q-7 -10 -20 -10q-11 0 -19.5 8t-8.5 19z" />
    <glyph glyph-name="gravecomb" unicode="&#x300;" horiz-adv-x="0" 
d="M-76 557l-105 92q-11 9 -11 24q0 14 9.5 23.5t22.5 9.5q14 0 24 -10l97 -100q8 -11 8 -19q0 -11 -8 -19t-19 -8t-18 7z" />
    <glyph glyph-name="acutecomb" unicode="&#x301;" horiz-adv-x="0" 
d="M-182 550q-11 0 -19 8t-8 19q0 8 8 19l97 100q10 10 24 10q13 0 22.5 -9.5t9.5 -23.5q0 -15 -11 -24l-105 -92q-7 -7 -18 -7z" />
    <glyph glyph-name="uni0302" unicode="&#x302;" horiz-adv-x="0" 
d="M-71 560l-72 92l-72 -92q-7 -10 -21 -10q-12 0 -20.5 8t-8.5 21q0 10 4 14l57 88q15 25 47 25h28q32 0 47 -25l57 -88q4 -4 4 -14q0 -13 -8.5 -21t-20.5 -8q-14 0 -21 10z" />
    <glyph glyph-name="tildecomb" unicode="&#x303;" horiz-adv-x="0" 
d="M-179 600q-24 32 -43 32q-34 0 -41 -53q-5 -25 -28 -25q-13 0 -21.5 10t-6.5 22q6 52 32 80t69 28q24 0 39.5 -10.5t35.5 -35.5q26 -32 44 -32q33 0 40 53q2 25 28 25q13 0 21.5 -9.5t7.5 -22.5q-6 -52 -32 -80t-69 -28q-24 0 -40.5 11t-35.5 35z" />
    <glyph glyph-name="uni0304" unicode="&#x304;" horiz-adv-x="0" 
d="M-349 597q0 13 9 22t22 9h273q13 0 22 -9t9 -22t-9 -22t-22 -9h-273q-13 0 -22 9t-9 22z" />
    <glyph glyph-name="uni0306" unicode="&#x306;" horiz-adv-x="0" 
d="M-333 621q-9 9 -9 22t9 22t22 9q15 0 23 -9q46 -49 113 -49q65 0 112 48q7 10 23 10q13 0 22 -9t9 -22q0 -11 -9 -22q-64 -67 -157 -67q-91 0 -158 67z" />
    <glyph glyph-name="uni0307" unicode="&#x307;" horiz-adv-x="0" 
d="M-73 681q24 0 41 -17.5t17 -41.5q0 -25 -17 -42t-41 -17t-41.5 17t-17.5 42q0 24 17.5 41.5t41.5 17.5z" />
    <glyph glyph-name="uni0308" unicode="&#x308;" horiz-adv-x="0" 
d="M-373 623q0 24 17 41t42 17q24 0 41 -17t17 -41q0 -25 -17 -42t-41 -17q-25 0 -42 17t-17 42zM-164 623q0 24 17.5 41t41.5 17t41.5 -17t17.5 -41q0 -25 -17.5 -42t-41.5 -17t-41.5 17t-17.5 42z" />
    <glyph glyph-name="uni0309" unicode="&#x309;" horiz-adv-x="0" 
d="M-64 574q0 10 4 19q5 13 5 29q0 21 -11.5 33t-29.5 12q-28 0 -42 -26q-7 -13 -23 -13q-11 0 -19 8t-8 19q0 7 4 14q29 47 88 47q44 0 71 -24t27 -68q0 -29 -17 -58q-7 -15 -24 -15q-10 0 -17.5 7t-7.5 16z" />
    <glyph glyph-name="uni030A" unicode="&#x30a;" horiz-adv-x="0" 
d="M-121 741q42 0 71.5 -30.5t29.5 -72.5t-29.5 -72t-71.5 -30t-72 30t-30 72t30 72.5t72 30.5zM-121 690q-21 0 -36.5 -15t-15.5 -37q0 -21 15.5 -36.5t36.5 -15.5t36 15.5t15 36.5q0 22 -14.5 37t-36.5 15z" />
    <glyph glyph-name="uni030B" unicode="&#x30b;" horiz-adv-x="0" 
d="M-307 576q0 10 4 14l64 101q9 16 28 16q13 0 23 -10.5t10 -24.5q0 -13 -7 -20l-74 -93q-7 -10 -20 -10q-11 0 -19.5 8t-8.5 19zM-161 576q0 10 4 14l64 101q9 16 28 16q13 0 23 -10.5t10 -24.5q0 -13 -7 -20l-74 -93q-7 -10 -20 -10q-11 0 -19.5 8t-8.5 19z" />
    <glyph glyph-name="uni030C" unicode="&#x30c;" horiz-adv-x="0" 
d="M-21 677q0 -10 -4 -14l-57 -88q-15 -25 -47 -25h-28q-32 0 -47 25l-57 88q-4 4 -4 14q0 13 8.5 21t20.5 8q14 0 21 -10l72 -92l72 92q7 10 21 10q12 0 20.5 -8t8.5 -21z" />
    <glyph glyph-name="dotbelowcomb" unicode="&#x323;" horiz-adv-x="0" 
d="M-73 -59q24 0 41 -17.5t17 -41.5q0 -25 -17 -42t-41 -17t-41.5 17t-17.5 42q0 24 17.5 41.5t41.5 17.5z" />
    <glyph glyph-name="uni0326" unicode="&#x326;" horiz-adv-x="0" 
d="M-168 -255q0 9 13 22q33 33 39 65q-6 -2 -14 -2q-20 0 -34 14.5t-14 36.5q0 23 16 39.5t39 16.5q27 0 45 -20.5t18 -54.5q0 -76 -67 -135q-8 -6 -16 -6q-10 0 -17.5 7t-7.5 17z" />
    <glyph glyph-name="uni0327" unicode="&#x327;" horiz-adv-x="0" 
d="M-200 -172q-14 8 -14 22q0 11 7.5 18.5t17.5 7.5q6 0 13 -4q32 -18 65 -18q24 0 40 9.5t16 26.5q0 30 -33 30q-16 0 -27 -9q-8 -5 -16 -5q-12 0 -20 8t-8 20q0 2 2 10l25 67h55l-26 -64q17 11 36 11q29 0 48 -19.5t19 -49.5q0 -36 -31 -59.5t-77 -23.5q-52 0 -92 22z" />
    <glyph glyph-name="uni0328" unicode="&#x328;" horiz-adv-x="0" 
d="M-196 -109q0 35 32 63.5t82 45.5q48 16 52 10q1 -2 -2 -4q-38 -31 -52.5 -50t-14.5 -40q0 -14 10 -22.5t25 -8.5q4 0 11 1t10 1q13 0 23 -9.5t10 -24.5q0 -24 -23 -32q-22 -7 -57 -7q-46 0 -76 20.5t-30 56.5z" />
    <glyph glyph-name="uni037E" unicode="&#x37e;" horiz-adv-x="245" 
d="M52 420q0 29 21 49.5t49 20.5q29 0 49.5 -20.5t20.5 -49.5q0 -28 -21 -49t-49 -21t-49 21t-21 49zM100 -129q-12 0 -20.5 8.5t-8.5 21.5t9 22q41 40 49 77q-9 -3 -17 -3q-26 0 -43 17.5t-17 45.5t20 48.5t48 20.5q33 0 55.5 -25t22.5 -66q0 -91 -78 -159q-8 -8 -20 -8z
" />
    <glyph glyph-name="tonos" unicode="&#x384;" horiz-adv-x="133" 
d="M12 592l15 153q2 16 13.5 27t27.5 11q17 0 29.5 -12.5t12.5 -29.5q0 -2 -2 -12l-46 -147q-5 -18 -25 -18q-10 0 -18 8.5t-7 19.5z" />
    <glyph glyph-name="dieresistonos" unicode="&#x385;" horiz-adv-x="424" 
d="M174 593l15 152q1 16 13 27t28 11q17 0 29.5 -12.5t12.5 -29.5q0 -4 -2 -12l-45 -147q-5 -18 -25 -18q-11 0 -19 9t-7 20zM10 623q0 24 17 41t42 17q24 0 41 -17t17 -41q0 -25 -17 -42t-41 -17q-25 0 -42 17t-17 42zM297 623q0 24 17 41t41 17q25 0 42 -17t17 -41
q0 -25 -17 -42t-42 -17q-24 0 -41 17t-17 42z" />
    <glyph glyph-name="Alphatonos" unicode="&#x386;" horiz-adv-x="673" 
d="M646 54q0 -25 -17.5 -42.5t-42.5 -17.5q-19 0 -34 10.5t-21 27.5l-35 96h-320l-35 -96q-6 -17 -21 -27.5t-34 -10.5q-25 0 -42.5 17.5t-17.5 42.5q0 4 5 21l209 532q12 30 38 48t58 18t58 -18t38 -48l209 -532q5 -17 5 -21zM213 231h246l-123 337zM76 485l15 153
q2 16 13.5 27t27.5 11q17 0 29.5 -12.5t12.5 -29.5q0 -2 -2 -12l-46 -147q-5 -18 -25 -18q-10 0 -18 8.5t-7 19.5z" />
    <glyph glyph-name="Epsilontonos" unicode="&#x388;" horiz-adv-x="629" 
d="M123 62v543q0 62 62 62h349q21 0 36.5 -15t15.5 -37q0 -21 -15.5 -36t-36.5 -15h-294v-173h287q21 0 36.5 -15t15.5 -36q0 -22 -15.5 -37t-36.5 -15h-287v-185h294q21 0 36.5 -15t15.5 -36q0 -22 -15.5 -37t-36.5 -15h-349q-62 0 -62 62zM-14 485l15 153q2 16 13.5 27
t27.5 11q17 0 29.5 -12.5t12.5 -29.5q0 -2 -2 -12l-46 -147q-5 -18 -25 -18q-10 0 -18 8.5t-7 19.5z" />
    <glyph glyph-name="Etatonos" unicode="&#x389;" horiz-adv-x="775" 
d="M587 53v238h-347v-238q0 -24 -17 -41.5t-41 -17.5q-25 0 -42 17.5t-17 41.5v561q0 24 17 41.5t41 17.5q25 0 42 -17.5t17 -41.5v-220h347v220q0 24 17 41.5t42 17.5q24 0 41 -17.5t17 -41.5v-561q0 -24 -17 -41.5t-42 -17.5q-24 0 -41 17.5t-17 41.5zM-14 485l15 153
q2 16 13.5 27t27.5 11q17 0 29.5 -12.5t12.5 -29.5q0 -2 -2 -12l-46 -147q-5 -18 -25 -18q-10 0 -18 8.5t-7 19.5z" />
    <glyph glyph-name="Iotatonos" unicode="&#x38a;" horiz-adv-x="311" 
d="M123 53v561q0 24 17 41.5t42 17.5q24 0 41 -17.5t17 -41.5v-561q0 -24 -17 -41.5t-41 -17.5q-25 0 -42 17.5t-17 41.5zM-14 485l15 153q2 16 13.5 27t27.5 11q17 0 29.5 -12.5t12.5 -29.5q0 -2 -2 -12l-46 -147q-5 -18 -25 -18q-10 0 -18 8.5t-7 19.5z" />
    <glyph glyph-name="Omicrontonos" unicode="&#x38c;" horiz-adv-x="786" 
d="M403 678q147 2 245 -98t96 -247q2 -147 -96 -247.5t-245 -97.5q-147 -3 -245 97.5t-96 247.5q-2 147 96 247t245 98zM403 574q-98 0 -159.5 -68t-61.5 -173q0 -104 61.5 -172.5t159.5 -68.5t159.5 68.5t61.5 172.5q0 105 -61.5 173t-159.5 68zM-14 485l15 153
q2 16 13.5 27t27.5 11q17 0 29.5 -12.5t12.5 -29.5q0 -2 -2 -12l-46 -147q-5 -18 -25 -18q-10 0 -18 8.5t-7 19.5z" />
    <glyph glyph-name="Upsilontonos" unicode="&#x38e;" horiz-adv-x="703" 
d="M648 587l-205 -310v-224q0 -24 -17 -41.5t-41 -17.5q-25 0 -42 17.5t-17 41.5v224l-206 309q-9 12 -9 31q0 23 16.5 39.5t39.5 16.5q29 0 47 -26l171 -266l169 266q18 26 47 26q23 0 39.5 -16.5t16.5 -39.5q0 -18 -9 -30zM-14 485l15 153q2 16 13.5 27t27.5 11
q17 0 29.5 -12.5t12.5 -29.5q0 -2 -2 -12l-46 -147q-5 -18 -25 -18q-10 0 -18 8.5t-7 19.5z" />
    <glyph glyph-name="Omegatonos" unicode="&#x38f;" horiz-adv-x="797" 
d="M73 358q-2 140 95.5 231t245.5 89q148 2 245.5 -89t95.5 -231q0 -163 -142 -255h79q21 0 36.5 -15t15.5 -37q0 -21 -15.5 -36t-36.5 -15h-157q-25 0 -42.5 17.5t-17.5 42.5q0 39 35 55q58 27 91.5 85t33.5 134q0 101 -58.5 170t-162.5 69t-162.5 -69t-58.5 -170
q0 -76 34 -134t92 -85q35 -16 35 -55q0 -25 -17.5 -42.5t-42.5 -17.5h-157q-21 0 -36.5 15t-15.5 37q0 21 15.5 36t36.5 15h80q-67 43 -105.5 108t-38.5 147zM-14 485l15 153q2 16 13.5 27t27.5 11q17 0 29.5 -12.5t12.5 -29.5q0 -2 -2 -12l-46 -147q-5 -18 -25 -18
q-10 0 -18 8.5t-7 19.5z" />
    <glyph glyph-name="iotadieresistonos" unicode="&#x390;" horiz-adv-x="255" 
d="M68 112v324q0 22 15.5 37.5t37.5 15.5q21 0 36.5 -15.5t15.5 -37.5v-305q0 -20 8.5 -34t21.5 -16l6 -1q17 -3 26.5 -16t9.5 -30q0 -19 -13 -32t-31 -14h-9q-61 0 -92.5 32t-31.5 92zM99 613l15 152q1 16 13 27t28 11q17 0 29.5 -12.5t12.5 -29.5q0 -4 -2 -12l-45 -147
q-5 -18 -25 -18q-11 0 -19 9t-7 20zM-65 643q0 24 17 41t42 17q24 0 41 -17t17 -41q0 -25 -17 -42t-41 -17q-25 0 -42 17t-17 42zM222 643q0 24 17 41t41 17q25 0 42 -17t17 -41q0 -25 -17 -42t-42 -17q-24 0 -41 17t-17 42z" />
    <glyph glyph-name="Alpha" unicode="&#x391;" horiz-adv-x="673" 
d="M646 54q0 -25 -17.5 -42.5t-42.5 -17.5q-19 0 -34 10.5t-21 27.5l-35 96h-320l-35 -96q-6 -17 -21 -27.5t-34 -10.5q-25 0 -42.5 17.5t-17.5 42.5q0 4 5 21l209 532q12 30 38 48t58 18t58 -18t38 -48l209 -532q5 -17 5 -21zM213 231h246l-123 337z" />
    <glyph glyph-name="Beta" unicode="&#x392;" horiz-adv-x="648" 
d="M71 62v543q0 62 62 62h266q87 0 138.5 -48t51.5 -122q0 -59 -33 -101t-83 -52q53 -8 91 -56t38 -108q0 -81 -52 -130.5t-142 -49.5h-275q-62 0 -62 62zM188 391h187q44 0 69 23.5t25 62.5t-25 63t-69 24h-187v-173zM188 103h192q48 0 75 24.5t27 68.5q0 40 -27.5 66
t-74.5 26h-192v-185z" />
    <glyph glyph-name="Gamma" unicode="&#x393;" horiz-adv-x="552" 
d="M71 53v552q0 62 62 62h349q21 0 36.5 -15t15.5 -37q0 -21 -15.5 -36t-36.5 -15h-294v-511q0 -24 -17 -41.5t-41 -17.5q-25 0 -42 17.5t-17 41.5z" />
    <glyph glyph-name="uni0394" unicode="&#x394;" horiz-adv-x="673" 
d="M23 43q0 14 6 29l210 535q11 29 38 47.5t59 18.5t59 -18.5t38 -47.5l210 -535q6 -15 6 -29q0 -43 -55 -43h-516q-55 0 -55 43zM336 549l-169 -446h339z" />
    <glyph glyph-name="Epsilon" unicode="&#x395;" horiz-adv-x="577" 
d="M71 62v543q0 62 62 62h349q21 0 36.5 -15t15.5 -37q0 -21 -15.5 -36t-36.5 -15h-294v-173h287q21 0 36.5 -15t15.5 -36q0 -22 -15.5 -37t-36.5 -15h-287v-185h294q21 0 36.5 -15t15.5 -36q0 -22 -15.5 -37t-36.5 -15h-349q-62 0 -62 62z" />
    <glyph glyph-name="Zeta" unicode="&#x396;" horiz-adv-x="589" 
d="M38 66q0 22 13 38l334 460h-295q-21 0 -36.5 15t-15.5 36q0 22 15.5 37t36.5 15h387q27 0 46.5 -19t19.5 -47q0 -22 -13 -38l-334 -460h302q21 0 36.5 -15t15.5 -36q0 -22 -15.5 -37t-36.5 -15h-394q-27 0 -46.5 19t-19.5 47z" />
    <glyph glyph-name="Eta" unicode="&#x397;" horiz-adv-x="723" 
d="M535 53v238h-347v-238q0 -24 -17 -41.5t-41 -17.5q-25 0 -42 17.5t-17 41.5v561q0 24 17 41.5t41 17.5q25 0 42 -17.5t17 -41.5v-220h347v220q0 24 17 41.5t42 17.5q24 0 41 -17.5t17 -41.5v-561q0 -24 -17 -41.5t-42 -17.5q-24 0 -41 17.5t-17 41.5z" />
    <glyph glyph-name="Theta" unicode="&#x398;" horiz-adv-x="765" 
d="M382 678q147 2 245 -98t96 -247q2 -147 -96 -247.5t-245 -97.5q-147 -3 -245 97.5t-96 247.5q-2 147 96 247t245 98zM382 574q-98 0 -159.5 -68t-61.5 -173q0 -104 61.5 -172.5t159.5 -68.5t159.5 68.5t61.5 172.5q0 105 -61.5 173t-159.5 68zM209 340q0 21 15.5 36
t36.5 15h243q21 0 36.5 -15t15.5 -36q0 -22 -15.5 -37t-36.5 -15h-243q-21 0 -36.5 15t-15.5 37z" />
    <glyph glyph-name="Iota" unicode="&#x399;" horiz-adv-x="259" 
d="M71 53v561q0 24 17 41.5t42 17.5q24 0 41 -17.5t17 -41.5v-561q0 -24 -17 -41.5t-41 -17.5q-25 0 -42 17.5t-17 41.5z" />
    <glyph glyph-name="Kappa" unicode="&#x39a;" horiz-adv-x="621" 
d="M586 50q0 -23 -15.5 -39.5t-38.5 -16.5q-24 0 -41 17l-244 267l-59 -63v-162q0 -24 -17 -41.5t-42 -17.5q-24 0 -41 17.5t-17 41.5v561q0 24 17 41.5t41 17.5q25 0 42 -17.5t17 -41.5v-267l281 308q17 18 41 18q22 0 38.5 -16t16.5 -38t-15 -37l-224 -235l245 -260
q15 -16 15 -37z" />
    <glyph glyph-name="Lambda" unicode="&#x39b;" horiz-adv-x="673" 
d="M525 34l-189 515l-189 -515q-7 -18 -23 -29t-35 -11q-25 0 -43.5 18.5t-18.5 43.5q0 9 5 22l208 529q12 30 38 48t58 18t58 -18t38 -48l208 -529q5 -13 5 -22q0 -25 -18 -43.5t-44 -18.5q-19 0 -35 11t-23 29z" />
    <glyph glyph-name="Mu" unicode="&#x39c;" horiz-adv-x="835" 
d="M647 53v452l-199 -490q-8 -21 -31 -21t-31 21l-198 490v-452q0 -24 -17 -41.5t-41 -17.5q-25 0 -42 17.5t-17 41.5v523q0 40 28.5 68.5t68.5 28.5q30 0 54.5 -17t35.5 -44l159 -394l160 394q11 27 35.5 44t54.5 17q40 0 68.5 -28.5t28.5 -68.5v-523q0 -24 -17 -41.5
t-42 -17.5q-24 0 -41 17.5t-17 41.5z" />
    <glyph glyph-name="Nu" unicode="&#x39d;" horiz-adv-x="720" 
d="M519 24l-331 462v-433q0 -24 -17 -41.5t-41 -17.5q-25 0 -42 17.5t-17 41.5v543q0 32 22.5 54.5t54.5 22.5q38 0 62 -32l322 -447v420q0 24 17 41.5t41 17.5q25 0 42 -17.5t17 -41.5v-548q0 -29 -21 -50.5t-51 -21.5q-37 0 -58 30z" />
    <glyph glyph-name="Xi" unicode="&#x39e;" horiz-adv-x="620" 
d="M43 616q0 21 15.5 36t36.5 15h429q21 0 36.5 -15t15.5 -36q0 -22 -15.5 -37t-36.5 -15h-429q-21 0 -36.5 15t-15.5 37zM50 339q0 22 15.5 37t36.5 15h416q21 0 36.5 -15t15.5 -36q0 -22 -15.5 -37t-36.5 -15h-416q-21 0 -36.5 15t-15.5 36zM43 51q0 22 15.5 37t36.5 15
h429q21 0 36.5 -15t15.5 -37q0 -21 -15.5 -36t-36.5 -15h-429q-21 0 -36.5 15t-15.5 36z" />
    <glyph glyph-name="Omicron" unicode="&#x39f;" horiz-adv-x="765" 
d="M382 678q147 2 245 -98t96 -247q2 -147 -96 -247.5t-245 -97.5q-147 -3 -245 97.5t-96 247.5q-2 147 96 247t245 98zM382 574q-98 0 -159.5 -68t-61.5 -173q0 -104 61.5 -172.5t159.5 -68.5t159.5 68.5t61.5 172.5q0 105 -61.5 173t-159.5 68z" />
    <glyph glyph-name="Pi" unicode="&#x3a0;" horiz-adv-x="723" 
d="M535 53v511h-347v-511q0 -24 -17 -41.5t-41 -17.5q-25 0 -42 17.5t-17 41.5v552q0 62 62 62h457q62 0 62 -62v-552q0 -24 -17 -41.5t-42 -17.5q-24 0 -41 17.5t-17 41.5z" />
    <glyph glyph-name="Rho" unicode="&#x3a1;" horiz-adv-x="608" 
d="M71 53v552q0 62 62 62h231q99 0 158.5 -60t59.5 -149t-59.5 -149t-158.5 -60h-176v-196q0 -24 -17 -41.5t-41 -17.5q-25 0 -42 17.5t-17 41.5zM348 564h-160v-212h160q51 0 82.5 29t31.5 77t-31.5 77t-82.5 29z" />
    <glyph glyph-name="Sigma" unicode="&#x3a3;" horiz-adv-x="581" 
d="M190 103h296q21 0 36.5 -15t15.5 -36q0 -22 -15.5 -37t-36.5 -15h-373q-29 0 -49.5 20.5t-20.5 49.5q0 25 18 46l203 225l-201 209q-19 20 -19 48q0 29 20.5 49t48.5 20h373q21 0 36.5 -15t15.5 -37q0 -21 -15.5 -36t-36.5 -15h-291l171 -179q20 -22 20 -44
q0 -24 -19 -43z" />
    <glyph glyph-name="Tau" unicode="&#x3a4;" horiz-adv-x="577" 
d="M230 53v511h-156q-21 0 -36.5 15t-15.5 36q0 22 15.5 37t36.5 15h429q21 0 36.5 -15t15.5 -37q0 -21 -15.5 -36t-36.5 -15h-156v-511q0 -24 -17 -41.5t-41 -17.5q-25 0 -42 17.5t-17 41.5z" />
    <glyph glyph-name="Upsilon" unicode="&#x3a5;" horiz-adv-x="636" 
d="M582 587l-205 -310v-224q0 -24 -17 -41.5t-41 -17.5q-25 0 -42 17.5t-17 41.5v224l-206 309q-9 12 -9 31q0 23 16.5 39.5t39.5 16.5q29 0 47 -26l171 -266l169 266q18 26 47 26q23 0 39.5 -16.5t16.5 -39.5q0 -18 -9 -30z" />
    <glyph glyph-name="Phi" unicode="&#x3a6;" horiz-adv-x="834" 
d="M475 66v-13q0 -24 -17 -41.5t-41 -17.5q-25 0 -42 17.5t-17 41.5v13q-149 12 -233 82.5t-84 184.5q0 113 84 184t233 83v14q0 24 17 41.5t42 17.5q24 0 41 -17.5t17 -41.5v-14q149 -12 233 -82.5t84 -184.5t-84 -184.5t-233 -82.5zM358 171v324q-94 -10 -145.5 -52.5
t-51.5 -109.5t51.5 -109.5t145.5 -52.5zM672 333q0 67 -51.5 109.5t-145.5 52.5v-324q94 10 145.5 52.5t51.5 109.5z" />
    <glyph glyph-name="Chi" unicode="&#x3a7;" horiz-adv-x="661" 
d="M638 51q0 -24 -16 -40.5t-40 -16.5q-29 0 -44 18l-207 245l-208 -245q-15 -18 -44 -18q-24 0 -40 16.5t-16 40.5q0 19 14 36l221 255l-207 238q-13 16 -13 35q0 24 16 41t39 17q27 0 44 -20l194 -228l193 228q17 20 44 20q23 0 39 -17t16 -41q0 -19 -13 -35l-207 -238
l221 -255q14 -17 14 -36z" />
    <glyph glyph-name="Psi" unicode="&#x3a8;" horiz-adv-x="836" 
d="M705 673q25 0 42.5 -18t17.5 -42v-213q0 -118 -74 -189.5t-214 -83.5v-74q0 -24 -17 -41.5t-42 -17.5q-24 0 -41 17.5t-17 41.5v73q-140 13 -214.5 85t-74.5 188v215q0 24 17 41.5t42 17.5t42 -17.5t17 -41.5v-211q0 -72 43.5 -116t127.5 -55v382q0 24 17 41.5t42 17.5
q24 0 41 -17.5t17 -41.5v-382q83 11 126 55t43 116v210q0 24 17.5 42t41.5 18z" />
    <glyph glyph-name="uni03A9" unicode="&#x3a9;" horiz-adv-x="765" 
d="M41 358q-2 140 95.5 231t245.5 89q148 2 245.5 -89t95.5 -231q0 -163 -142 -255h79q21 0 36.5 -15t15.5 -37q0 -21 -15.5 -36t-36.5 -15h-157q-25 0 -42.5 17.5t-17.5 42.5q0 39 35 55q58 27 91.5 85t33.5 134q0 101 -58.5 170t-162.5 69t-162.5 -69t-58.5 -170
q0 -76 34 -134t92 -85q35 -16 35 -55q0 -25 -17.5 -42.5t-42.5 -17.5h-157q-21 0 -36.5 15t-15.5 37q0 21 15.5 36t36.5 15h80q-67 43 -105.5 108t-38.5 147z" />
    <glyph glyph-name="Iotadieresis" unicode="&#x3aa;" horiz-adv-x="259" 
d="M71 53v561q0 24 17 41.5t42 17.5q24 0 41 -17.5t17 -41.5v-561q0 -24 -17 -41.5t-41 -17.5q-25 0 -42 17.5t-17 41.5zM-33 790q0 24 17 41t42 17q24 0 41 -17t17 -41q0 -25 -17 -42t-41 -17q-25 0 -42 17t-17 42zM176 790q0 24 17.5 41t41.5 17t41.5 -17t17.5 -41
q0 -25 -17.5 -42t-41.5 -17t-41.5 17t-17.5 42z" />
    <glyph glyph-name="Upsilondieresis" unicode="&#x3ab;" horiz-adv-x="636" 
d="M582 587l-205 -310v-224q0 -24 -17 -41.5t-41 -17.5q-25 0 -42 17.5t-17 41.5v224l-206 309q-9 12 -9 31q0 23 16.5 39.5t39.5 16.5q29 0 47 -26l171 -266l169 266q18 26 47 26q23 0 39.5 -16.5t16.5 -39.5q0 -18 -9 -30zM156 790q0 24 17 41t42 17q24 0 41 -17t17 -41
q0 -25 -17 -42t-41 -17q-25 0 -42 17t-17 42zM365 790q0 24 17.5 41t41.5 17t41.5 -17t17.5 -41q0 -25 -17.5 -42t-41.5 -17t-41.5 17t-17.5 42z" />
    <glyph glyph-name="alphatonos" unicode="&#x3ac;" horiz-adv-x="595" 
d="M585 34q0 -19 -13 -32t-31 -14h-9q-99 0 -118 88q-25 -40 -68 -64t-93 -24q-95 0 -155 68.5t-60 184.5q0 115 60 184.5t155 69.5q97 0 154 -79v20q0 22 15.5 37.5t37.5 15.5t37.5 -15.5t15.5 -37.5v-305q0 -45 30 -50l6 -1q17 -3 26.5 -16t9.5 -30zM408 145v191
q-18 28 -53.5 46.5t-71.5 18.5q-62 0 -99 -44t-37 -116t37 -116t99 -44q37 0 72 18t53 46zM270 612l15 153q2 16 13.5 27t27.5 11q17 0 29.5 -12.5t12.5 -29.5q0 -2 -2 -12l-46 -147q-5 -18 -25 -18q-10 0 -18 8.5t-7 19.5z" />
    <glyph glyph-name="epsilontonos" unicode="&#x3ad;" horiz-adv-x="484" 
d="M37 131q0 50 42 81.5t92 34.5q-49 8 -86 39q-38 32 -38 77q0 61 56.5 96t157.5 35q99 0 168 -54q16 -12 16 -33q0 -17 -12.5 -29.5t-29.5 -12.5q-13 0 -24 8q-49 36 -119 36q-46 0 -75 -17t-29 -43q0 -63 106 -63h42q20 0 33.5 -12t13.5 -31t-13 -30t-33 -11h-43
q-115 0 -115 -63q0 -30 28 -48t78 -18q64 0 125 42q11 8 26 8q20 0 33.5 -13.5t13.5 -33.5q0 -23 -21 -38q-74 -50 -177 -50q-100 0 -158 39t-58 104zM239 612l15 153q2 16 13.5 27t27.5 11q17 0 29.5 -12.5t12.5 -29.5q0 -2 -2 -12l-46 -147q-5 -18 -25 -18q-10 0 -18 8.5
t-7 19.5z" />
    <glyph glyph-name="etatonos" unicode="&#x3ae;" 
d="M499 340v-477q0 -22 -15.5 -37.5t-36.5 -15.5q-22 0 -37.5 15.5t-15.5 37.5v439q0 53 -24 76.5t-73 23.5q-75 0 -124 -65v-290q0 -22 -15.5 -37.5t-36.5 -15.5q-22 0 -37.5 15.5t-15.5 37.5v389q0 22 15.5 37.5t36.5 15.5q22 0 37.5 -15.5t15.5 -37.5v-19q29 34 74 56
t96 22q77 0 116.5 -40t39.5 -115zM261 612l15 153q2 16 13.5 27t27.5 11q17 0 29.5 -12.5t12.5 -29.5q0 -2 -2 -12l-46 -147q-5 -18 -25 -18q-10 0 -18 8.5t-7 19.5z" />
    <glyph glyph-name="iotatonos" unicode="&#x3af;" horiz-adv-x="255" 
d="M68 112v324q0 22 15.5 37.5t37.5 15.5q21 0 36.5 -15.5t15.5 -37.5v-305q0 -20 8.5 -34t21.5 -16l6 -1q17 -3 26.5 -16t9.5 -30q0 -19 -13 -32t-31 -14h-9q-61 0 -92.5 32t-31.5 92zM97 612l15 153q2 16 13.5 27t27.5 11q17 0 29.5 -12.5t12.5 -29.5q0 -2 -2 -12
l-46 -147q-5 -18 -25 -18q-10 0 -18 8.5t-7 19.5z" />
    <glyph glyph-name="upsilondieresistonos" unicode="&#x3b0;" horiz-adv-x="570" 
d="M68 215v221q0 22 15.5 37.5t37.5 15.5q21 0 36.5 -15.5t15.5 -37.5v-219q0 -63 29.5 -99.5t80.5 -36.5q65 0 102.5 48t37.5 126q0 84 -37 158q-6 12 -6 24q0 22 15 37t37 15q30 0 45 -26q55 -91 55 -208t-68 -192t-181 -75q-103 0 -159 60.5t-56 166.5zM262 613l15 152
q1 16 13 27t28 11q17 0 29.5 -12.5t12.5 -29.5q0 -4 -2 -12l-45 -147q-5 -18 -25 -18q-11 0 -19 9t-7 20zM98 643q0 24 17 41t42 17q24 0 41 -17t17 -41q0 -25 -17 -42t-41 -17q-25 0 -42 17t-17 42zM385 643q0 24 17 41t41 17q25 0 42 -17t17 -41q0 -25 -17 -42t-42 -17
q-24 0 -41 17t-17 42z" />
    <glyph glyph-name="alpha" unicode="&#x3b1;" horiz-adv-x="595" 
d="M585 34q0 -19 -13 -32t-31 -14h-9q-99 0 -118 88q-25 -40 -68 -64t-93 -24q-95 0 -155 68.5t-60 184.5q0 115 60 184.5t155 69.5q97 0 154 -79v20q0 22 15.5 37.5t37.5 15.5t37.5 -15.5t15.5 -37.5v-305q0 -45 30 -50l6 -1q17 -3 26.5 -16t9.5 -30zM408 145v191
q-18 28 -53.5 46.5t-71.5 18.5q-62 0 -99 -44t-37 -116t37 -116t99 -44q37 0 72 18t53 46z" />
    <glyph glyph-name="beta" unicode="&#x3b2;" horiz-adv-x="581" 
d="M121 -190q-22 0 -37.5 15.5t-15.5 37.5v588q0 109 70 167.5t169 58.5q102 0 161 -48t59 -132q0 -63 -42 -103q-39 -39 -97 -50q58 -5 106 -51.5t48 -121.5q0 -78 -59 -130.5t-144 -52.5q-106 0 -166 78v-203q0 -22 -15.5 -37.5t-36.5 -15.5zM305 81q61 0 95 29t34 79
q0 47 -33.5 73t-89.5 30q-24 2 -39 15.5t-15 31.5q0 19 14 32t38 16q109 15 109 97q0 44 -31 71.5t-80 27.5q-60 0 -97 -35.5t-37 -96.5v-306q21 -29 56.5 -46.5t75.5 -17.5z" />
    <glyph glyph-name="gamma" unicode="&#x3b3;" horiz-adv-x="503" 
d="M199 -137v72q0 125 -40.5 250.5t-111.5 229.5q-9 13 -9 27q0 20 14 33.5t34 13.5q24 0 37 -18q55 -72 95 -168q41 -99 50 -179q40 60 68 144q29 85 37 173q2 20 17 34t35 14q23 0 38.5 -17t13.5 -40q-11 -111 -57 -225q-46 -112 -116 -202v-142q0 -22 -15.5 -37.5
t-37.5 -15.5q-21 0 -36.5 15.5t-15.5 37.5z" />
    <glyph glyph-name="delta" unicode="&#x3b4;" horiz-adv-x="573" 
d="M535 224q0 -97 -67.5 -166.5t-175.5 -69.5q-113 0 -183.5 71t-70.5 169q0 67 33.5 119t91.5 80q-67 37 -67 105q0 62 51.5 104.5t138.5 42.5q89 0 160 -47q19 -13 19 -35q0 -17 -12.5 -29.5t-29.5 -12.5q-13 0 -23 7q-51 33 -114 33q-41 0 -65 -16t-24 -43
q0 -21 21.5 -33t79.5 -29q69 -21 118 -45q119 -58 119 -205zM433 224q-3 71 -41 103t-124 60q-59 -21 -90 -62.5t-31 -96.5q0 -59 39.5 -103t102.5 -44t103.5 43.5t40.5 99.5z" />
    <glyph glyph-name="epsilon" unicode="&#x3b5;" horiz-adv-x="484" 
d="M37 131q0 50 42 81.5t92 34.5q-49 8 -86 39q-38 32 -38 77q0 61 56.5 96t157.5 35q99 0 168 -54q16 -12 16 -33q0 -17 -12.5 -29.5t-29.5 -12.5q-13 0 -24 8q-49 36 -119 36q-46 0 -75 -17t-29 -43q0 -63 106 -63h42q20 0 33.5 -12t13.5 -31t-13 -30t-33 -11h-43
q-115 0 -115 -63q0 -30 28 -48t78 -18q64 0 125 42q11 8 26 8q20 0 33.5 -13.5t13.5 -33.5q0 -23 -21 -38q-74 -50 -177 -50q-100 0 -158 39t-58 104z" />
    <glyph glyph-name="zeta" unicode="&#x3b6;" horiz-adv-x="487" 
d="M38 211q0 107 71 200.5t201 163.5h-216q-19 0 -32.5 13.5t-13.5 32.5t13.5 32.5t32.5 13.5h309q20 0 34.5 -14.5t14.5 -34.5q0 -28 -24 -42q-133 -76 -207 -168t-74 -189q0 -126 168 -126q139 0 139 -110q0 -42 -35 -118q-14 -28 -45 -28q-20 0 -34.5 14.5t-14.5 34.5
q0 8 5 20q15 33 15 54q0 18 -11.5 29t-31.5 11q-124 0 -194 55t-70 156z" />
    <glyph glyph-name="eta" unicode="&#x3b7;" 
d="M499 340v-477q0 -22 -15.5 -37.5t-36.5 -15.5q-22 0 -37.5 15.5t-15.5 37.5v439q0 53 -24 76.5t-73 23.5q-75 0 -124 -65v-290q0 -22 -15.5 -37.5t-36.5 -15.5q-22 0 -37.5 15.5t-15.5 37.5v389q0 22 15.5 37.5t36.5 15.5q22 0 37.5 -15.5t15.5 -37.5v-19q29 34 74 56
t96 22q77 0 116.5 -40t39.5 -115z" />
    <glyph glyph-name="theta" unicode="&#x3b8;" horiz-adv-x="573" 
d="M535 334q0 -151 -66 -248.5t-183 -97.5q-116 0 -182 98t-66 248q0 149 66 247t182 98q117 0 183 -97.5t66 -247.5zM148 381h277q-13 205 -139 205q-125 0 -138 -205zM425 289h-277q13 -208 138 -208q127 0 139 208z" />
    <glyph glyph-name="iota" unicode="&#x3b9;" horiz-adv-x="255" 
d="M68 112v324q0 22 15.5 37.5t37.5 15.5q21 0 36.5 -15.5t15.5 -37.5v-305q0 -20 8.5 -34t21.5 -16l6 -1q17 -3 26.5 -16t9.5 -30q0 -19 -13 -32t-31 -14h-9q-61 0 -92.5 32t-31.5 92z" />
    <glyph glyph-name="kappa" unicode="&#x3ba;" horiz-adv-x="526" 
d="M490 47q0 -23 -14.5 -38t-36.5 -15q-26 0 -40 17l-157 187l-69 -65v-86q0 -22 -15.5 -37.5t-37.5 -15.5q-21 0 -36.5 15.5t-15.5 37.5v389q0 22 15.5 37.5t37.5 15.5q21 0 36.5 -15.5t15.5 -37.5v-187l226 227q13 13 34 13q19 0 33 -14.5t14 -34.5q0 -19 -14 -33
l-147 -146l159 -180q12 -13 12 -34z" />
    <glyph glyph-name="lambda" unicode="&#x3bb;" horiz-adv-x="503" 
d="M381 27l-130 335l-130 -335q-5 -14 -19 -23.5t-30 -9.5q-21 0 -36 15t-15 37q0 10 3 19l172 423l-24 55q-17 43 -69 43h-6q-20 0 -34.5 13.5t-14.5 32.5q0 18 12.5 31t30.5 15q3 1 15 1q62 -2 102.5 -27.5t63.5 -81.5l206 -504q4 -11 4 -20q0 -22 -15 -37t-37 -15
q-16 0 -30 9.5t-19 23.5z" />
    <glyph glyph-name="uni03BC" unicode="&#x3bc;" horiz-adv-x="581" 
d="M571 34q0 -19 -13 -32t-31 -14h-9q-96 0 -119 86q-25 -39 -63 -62.5t-80 -23.5q-61 0 -83 36v-161q0 -22 -15.5 -37.5t-37.5 -15.5q-21 0 -36.5 15.5t-15.5 37.5v573q0 22 15.5 37.5t37.5 15.5q21 0 36.5 -15.5t15.5 -37.5v-257q0 -99 98 -99q36 0 69 18t54 46v292
q0 22 15.5 37.5t36.5 15.5q22 0 37.5 -15.5t15.5 -37.5v-305q0 -45 30 -50l6 -1q17 -3 26.5 -16t9.5 -30z" />
    <glyph glyph-name="nu" unicode="&#x3bd;" horiz-adv-x="503" 
d="M175 48l-150 370q-4 11 -4 19q0 22 15 37t36 15q16 0 29.5 -9.5t18.5 -23.5l136 -351q49 70 79.5 158.5t37.5 177.5q1 20 16.5 34t35.5 14q23 0 38.5 -17t13.5 -40q-20 -206 -150 -400q-25 -38 -71 -38q-27 0 -49 15t-32 39z" />
    <glyph glyph-name="xi" unicode="&#x3be;" horiz-adv-x="487" 
d="M166 324q-49 9 -83 41t-34 80q0 42 28.5 78t72.5 52h-52q-19 0 -32.5 13.5t-13.5 32.5t13.5 32.5t32.5 13.5h302q19 0 32.5 -13.5t13.5 -32.5t-13.5 -32.5t-32.5 -13.5h-149q-40 -10 -66.5 -38t-26.5 -62q0 -42 36.5 -66t95.5 -24h106q18 0 31.5 -13t13.5 -32t-13.5 -32
t-31.5 -13h-106q-143 0 -143 -103q0 -99 168 -99q139 0 139 -110q0 -43 -35 -117q-14 -29 -45 -29q-21 0 -36 15t-15 35q0 9 4 20q18 45 18 65q0 28 -43 28q-129 0 -196.5 43t-67.5 126q0 61 36.5 101.5t91.5 53.5z" />
    <glyph glyph-name="omicron" unicode="&#x3bf;" horiz-adv-x="573" 
d="M38 242q0 107 69 180t179 73q111 0 180 -73t69 -180q0 -108 -69 -181t-180 -73q-110 0 -179 73t-69 181zM426 242q0 66 -38 113t-102 47t-102 -47q-37 -46 -37 -113q0 -69 37 -115t102 -46t102 46q38 47 38 115z" />
    <glyph glyph-name="pi" unicode="&#x3c0;" horiz-adv-x="610" 
d="M607 437q0 -19 -13.5 -32.5t-32.5 -13.5h-40v-344q0 -22 -15.5 -37.5t-37.5 -15.5q-21 0 -36.5 15.5t-15.5 37.5v344h-222v-344q0 -22 -15.5 -37.5t-36.5 -15.5q-22 0 -37.5 15.5t-15.5 37.5v344h-40q-19 0 -32.5 13.5t-13.5 32.5t13.5 32.5t32.5 13.5h512
q19 0 32.5 -13.5t13.5 -32.5z" />
    <glyph glyph-name="rho" unicode="&#x3c1;" horiz-adv-x="578" 
d="M173 67v-204q0 -22 -15.5 -37.5t-36.5 -15.5q-22 0 -37.5 15.5t-15.5 37.5v379q0 108 65 180.5t171 72.5t172 -72.5t66 -180.5q0 -116 -59 -185t-155 -69t-155 79zM303 402q-60 0 -95 -47t-35 -113v-96q18 -27 53.5 -46t70.5 -19q62 0 99 44.5t37 116.5q0 66 -35 113
t-95 47z" />
    <glyph glyph-name="uni03C2" unicode="&#x3c2;" horiz-adv-x="488" 
d="M288 495q94 0 153 -52q17 -12 17 -36q0 -19 -13.5 -33t-33.5 -14q-17 0 -31 11q-37 31 -87 31q-66 0 -106 -44t-40 -116q0 -149 166 -149q145 0 145 -98q0 -48 -35 -129q-14 -29 -45 -29q-20 0 -34.5 14.5t-14.5 34.5q0 8 4 19q19 44 19 67q0 28 -44 28q-124 0 -197 64
t-73 178q0 110 70.5 181.5t179.5 71.5z" />
    <glyph glyph-name="sigma" unicode="&#x3c3;" horiz-adv-x="573" 
d="M510 390h-60q77 -62 77 -171q0 -99 -65.5 -165t-175.5 -66t-179 73t-69 181q0 104 70.5 172.5t187.5 68.5h214q19 0 33 -13.5t14 -32.5t-14 -33t-33 -14zM426 238q0 50 -22 90t-61 62h-47q-69 0 -109 -43.5t-40 -104.5q0 -69 37 -115t102 -46t102 46q38 47 38 111z" />
    <glyph glyph-name="tau" unicode="&#x3c4;" horiz-adv-x="466" 
d="M449 437q0 -19 -13.5 -32.5t-32.5 -13.5h-123v-253q0 -26 12 -41.5t34 -15.5q3 0 17 2q10 2 12 2q17 0 29 -13t12 -32q0 -28 -27 -40q-33 -12 -70 -12q-61 0 -92.5 32t-31.5 92v279h-112q-19 0 -32.5 13.5t-13.5 32.5t13.5 32.5t32.5 13.5h340q19 0 32.5 -13.5
t13.5 -32.5z" />
    <glyph glyph-name="upsilon" unicode="&#x3c5;" horiz-adv-x="570" 
d="M68 215v221q0 22 15.5 37.5t37.5 15.5q21 0 36.5 -15.5t15.5 -37.5v-219q0 -63 29.5 -99.5t80.5 -36.5q65 0 102.5 48t37.5 126q0 84 -37 158q-6 12 -6 24q0 22 15 37t37 15q30 0 45 -26q55 -91 55 -208t-68 -192t-181 -75q-103 0 -159 60.5t-56 166.5z" />
    <glyph glyph-name="phi" unicode="&#x3c6;" horiz-adv-x="685" 
d="M395 -10v-127q0 -22 -15.5 -37.5t-36.5 -15.5q-22 0 -37.5 15.5t-15.5 37.5v127q-119 6 -185.5 74t-66.5 186q0 144 130 223q10 7 24 7q20 0 34 -13.5t14 -33.5q0 -26 -20 -39q-73 -53 -73 -144q0 -80 39 -124.5t104 -44.5v336q0 30 22 51.5t52 20.5q137 -4 210 -70
t73 -183q0 -111 -67 -175.5t-185 -70.5zM538 236q0 73 -39 113.5t-104 40.5v-309q65 0 104 40.5t39 114.5z" />
    <glyph glyph-name="chi" unicode="&#x3c7;" horiz-adv-x="496" 
d="M482 -138q0 -20 -15.5 -36t-34.5 -16q-30 0 -45 25l-139 224l-139 -224q-15 -25 -45 -25q-19 0 -34.5 16t-15.5 36q0 12 8 26l165 269l-155 255q-8 14 -8 26q0 19 15 35t36 16q31 0 44 -24l129 -209l129 209q13 24 44 24q21 0 36 -16t15 -35q0 -12 -8 -26l-155 -255
l165 -269q8 -14 8 -26z" />
    <glyph glyph-name="psi" unicode="&#x3c8;" horiz-adv-x="713" 
d="M593 489q21 0 36.5 -15.5t15.5 -37.5v-204q0 -112 -55.5 -171.5t-180.5 -70.5v-127q0 -22 -15.5 -37.5t-36.5 -15.5q-22 0 -37.5 15.5t-15.5 37.5v127q-125 9 -180.5 69.5t-55.5 172.5v204q0 22 15.5 37.5t37.5 15.5q21 0 36.5 -15.5t15.5 -37.5v-204q0 -68 30 -103.5
t101 -44.5v536q0 22 15.5 37.5t37.5 15.5q21 0 36.5 -15.5t15.5 -37.5v-536q70 9 100.5 44.5t30.5 103.5v204q0 22 15.5 37.5t37.5 15.5z" />
    <glyph glyph-name="omega" unicode="&#x3c9;" horiz-adv-x="772" 
d="M386 129q-25 -71 -61 -106t-99 -35q-86 0 -137 70.5t-51 173.5q0 150 78 241q15 18 38 18q21 0 35.5 -15t14.5 -35q0 -14 -8 -28q-49 -72 -49 -181q0 -62 24 -107q24 -44 69 -44q94 0 94 161v75q0 22 15.5 37.5t36.5 15.5q22 0 37.5 -15.5t15.5 -37.5v-75q0 -161 93 -161
q45 0 69 44q24 45 24 107q0 111 -48 180q-9 13 -9 28q0 21 15 36t36 15q23 0 38 -18q77 -94 77 -241q0 -103 -51 -173.5t-137 -70.5q-62 0 -98.5 35t-61.5 106z" />
    <glyph glyph-name="iotadieresis" unicode="&#x3ca;" horiz-adv-x="255" 
d="M68 112v324q0 22 15.5 37.5t37.5 15.5q21 0 36.5 -15.5t15.5 -37.5v-305q0 -20 8.5 -34t21.5 -16l6 -1q17 -3 26.5 -16t9.5 -30q0 -19 -13 -32t-31 -14h-9q-61 0 -92.5 32t-31.5 92zM-43 643q0 24 17 41t42 17q24 0 41 -17t17 -41q0 -25 -17 -42t-41 -17q-25 0 -42 17
t-17 42zM166 643q0 24 17.5 41t41.5 17t41.5 -17t17.5 -41q0 -25 -17.5 -42t-41.5 -17t-41.5 17t-17.5 42z" />
    <glyph glyph-name="upsilondieresis" unicode="&#x3cb;" horiz-adv-x="570" 
d="M68 215v221q0 22 15.5 37.5t37.5 15.5q21 0 36.5 -15.5t15.5 -37.5v-219q0 -63 29.5 -99.5t80.5 -36.5q65 0 102.5 48t37.5 126q0 84 -37 158q-6 12 -6 24q0 22 15 37t37 15q30 0 45 -26q55 -91 55 -208t-68 -192t-181 -75q-103 0 -159 60.5t-56 166.5zM120 643
q0 24 17 41t42 17q24 0 41 -17t17 -41q0 -25 -17 -42t-41 -17q-25 0 -42 17t-17 42zM329 643q0 24 17.5 41t41.5 17t41.5 -17t17.5 -41q0 -25 -17.5 -42t-41.5 -17t-41.5 17t-17.5 42z" />
    <glyph glyph-name="omicrontonos" unicode="&#x3cc;" horiz-adv-x="573" 
d="M38 242q0 107 69 180t179 73q111 0 180 -73t69 -180q0 -108 -69 -181t-180 -73q-110 0 -179 73t-69 181zM426 242q0 66 -38 113t-102 47t-102 -47q-37 -46 -37 -113q0 -69 37 -115t102 -46t102 46q38 47 38 115zM263 612l15 153q2 16 13.5 27t27.5 11q17 0 29.5 -12.5
t12.5 -29.5q0 -2 -2 -12l-46 -147q-5 -18 -25 -18q-10 0 -18 8.5t-7 19.5z" />
    <glyph glyph-name="upsilontonos" unicode="&#x3cd;" horiz-adv-x="570" 
d="M68 215v221q0 22 15.5 37.5t37.5 15.5q21 0 36.5 -15.5t15.5 -37.5v-219q0 -63 29.5 -99.5t80.5 -36.5q65 0 102.5 48t37.5 126q0 84 -37 158q-6 12 -6 24q0 22 15 37t37 15q30 0 45 -26q55 -91 55 -208t-68 -192t-181 -75q-103 0 -159 60.5t-56 166.5zM260 612l15 153
q2 16 13.5 27t27.5 11q17 0 29.5 -12.5t12.5 -29.5q0 -2 -2 -12l-46 -147q-5 -18 -25 -18q-10 0 -18 8.5t-7 19.5z" />
    <glyph glyph-name="omegatonos" unicode="&#x3ce;" horiz-adv-x="772" 
d="M386 129q-25 -71 -61 -106t-99 -35q-86 0 -137 70.5t-51 173.5q0 150 78 241q15 18 38 18q21 0 35.5 -15t14.5 -35q0 -14 -8 -28q-49 -72 -49 -181q0 -62 24 -107q24 -44 69 -44q94 0 94 161v75q0 22 15.5 37.5t36.5 15.5q22 0 37.5 -15.5t15.5 -37.5v-75q0 -161 93 -161
q45 0 69 44q24 45 24 107q0 111 -48 180q-9 13 -9 28q0 21 15 36t36 15q23 0 38 -18q77 -94 77 -241q0 -103 -51 -173.5t-137 -70.5q-62 0 -98.5 35t-61.5 106zM363 612l15 153q2 16 13.5 27t27.5 11q17 0 29.5 -12.5t12.5 -29.5q0 -2 -2 -12l-46 -147q-5 -18 -25 -18
q-10 0 -18 8.5t-7 19.5z" />
    <glyph glyph-name="uni0401" unicode="&#x401;" horiz-adv-x="577" 
d="M71 62v543q0 62 62 62h349q21 0 36.5 -15t15.5 -37q0 -21 -15.5 -36t-36.5 -15h-294v-173h287q21 0 36.5 -15t15.5 -36q0 -22 -15.5 -37t-36.5 -15h-287v-185h294q21 0 36.5 -15t15.5 -36q0 -22 -15.5 -37t-36.5 -15h-349q-62 0 -62 62zM143 790q0 24 17 41t42 17
q24 0 41 -17t17 -41q0 -25 -17 -42t-41 -17q-25 0 -42 17t-17 42zM352 790q0 24 17.5 41t41.5 17t41.5 -17t17.5 -41q0 -25 -17.5 -42t-41.5 -17t-41.5 17t-17.5 42z" />
    <glyph glyph-name="uni0402" unicode="&#x402;" horiz-adv-x="764" 
d="M541 96q80 14 80 99v30q0 102 -135 102q-77 0 -139 -25v-249q0 -24 -17 -41.5t-42 -17.5q-24 0 -41 17.5t-17 41.5v511h-156q-21 0 -36.5 15t-15.5 36q0 22 15.5 37t36.5 15h429q21 0 36.5 -15t15.5 -37q0 -21 -15.5 -36t-36.5 -15h-156v-169q93 35 177 35
q214 0 214 -205v-30q0 -179 -180 -203q-23 -3 -41.5 12.5t-18.5 39.5q0 19 12.5 33.5t30.5 18.5z" />
    <glyph glyph-name="uni0403" unicode="&#x403;" horiz-adv-x="552" 
d="M71 53v552q0 62 62 62h349q21 0 36.5 -15t15.5 -37q0 -21 -15.5 -36t-36.5 -15h-294v-511q0 -24 -17 -41.5t-41 -17.5q-25 0 -42 17.5t-17 41.5zM328 717q-14 0 -24 10t-10 24t10 24l83 86q11 12 28 12q16 0 27.5 -11.5t11.5 -27.5q0 -20 -13 -30l-90 -78q-9 -9 -23 -9z
" />
    <glyph glyph-name="uni0404" unicode="&#x404;" horiz-adv-x="682" 
d="M538 160q16 19 41 19q23 0 39 -16t16 -39t-14 -37q-90 -99 -229 -99q-147 -3 -249.5 96.5t-100.5 248.5q-2 149 100 248t250 97q141 0 229 -99q14 -14 14 -37q0 -22 -16 -38.5t-39 -16.5q-26 0 -42 19q-59 68 -146 68q-85 0 -146 -51q-61 -49 -78 -132h308q21 0 36.5 -15
t15.5 -36q0 -22 -15.5 -37t-36.5 -15h-310q13 -85 76 -142q61 -54 150 -54q88 0 147 68z" />
    <glyph glyph-name="uni0405" unicode="&#x405;" horiz-adv-x="594" 
d="M42 105q0 23 16 39.5t39 16.5q20 0 34 -11q77 -58 173 -58q64 0 99 26t35 65q-4 41 -35 58.5t-117 40.5q-79 19 -122 37q-115 46 -115 163q0 84 70 139.5t183 55.5q106 0 206 -61q25 -15 25 -45q0 -22 -16 -38.5t-39 -16.5q-18 0 -31 10q-71 47 -155 47q-57 0 -90 -22.5
t-33 -60.5q0 -24 19 -40q29 -25 128 -49q75 -19 123 -39q118 -49 118 -168q0 -91 -66.5 -148.5t-191.5 -57.5q-140 0 -235 73q-22 16 -22 44z" />
    <glyph glyph-name="uni0406" unicode="&#x406;" horiz-adv-x="259" 
d="M71 53v561q0 24 17 41.5t42 17.5q24 0 41 -17.5t17 -41.5v-561q0 -24 -17 -41.5t-41 -17.5q-25 0 -42 17.5t-17 41.5z" />
    <glyph glyph-name="uni0407" unicode="&#x407;" horiz-adv-x="259" 
d="M71 53v561q0 24 17 41.5t42 17.5q24 0 41 -17.5t17 -41.5v-561q0 -24 -17 -41.5t-41 -17.5q-25 0 -42 17.5t-17 41.5zM-33 790q0 24 17 41t42 17q24 0 41 -17t17 -41q0 -25 -17 -42t-41 -17q-25 0 -42 17t-17 42zM176 790q0 24 17.5 41t41.5 17t41.5 -17t17.5 -41
q0 -25 -17.5 -42t-41.5 -17t-41.5 17t-17.5 42z" />
    <glyph glyph-name="uni0408" unicode="&#x408;" horiz-adv-x="481" 
d="M18 72q0 22 15 37t37 15q14 0 28 -8q34 -24 78 -24q54 0 85.5 33t31.5 88v401q0 24 17 41.5t41 17.5q25 0 42 -17.5t17 -41.5v-403q0 -108 -60.5 -165.5t-164.5 -57.5q-82 0 -144 41q-23 17 -23 43z" />
    <glyph glyph-name="uni0409" unicode="&#x409;" horiz-adv-x="1072" 
d="M828 0h-231q-62 0 -62 62v502h-236l-9 -111q-14 -162 -41 -261t-63.5 -141.5t-91.5 -55.5q-14 -2 -16 -2q-23 0 -40 17.5t-17 41.5q0 43 41 57q46 15 76 92q31 80 44 253l12 153q4 60 65 60h331q62 0 62 -62v-187h176q99 0 158.5 -60t59.5 -149t-59.5 -149t-158.5 -60z
M652 315v-212h160q51 0 82.5 29t31.5 77t-31.5 77t-82.5 29h-160z" />
    <glyph glyph-name="uni040A" unicode="&#x40a;" horiz-adv-x="1072" 
d="M130 673q24 0 41 -17.5t17 -41.5v-220h347v220q0 24 17 41.5t42 17.5q24 0 41 -17.5t17 -41.5v-220h189q93 0 149 -56.5t56 -140.5t-55.5 -140.5t-149.5 -56.5h-244q-62 0 -62 62v229h-347v-238q0 -24 -17 -41.5t-42 -17.5q-24 0 -41 17.5t-17 41.5v561q0 24 17 41.5
t42 17.5zM926 197q0 42 -28 68t-73 26h-173v-188h173q45 0 73 26t28 68z" />
    <glyph glyph-name="uni040B" unicode="&#x40b;" horiz-adv-x="790" 
d="M486 327q-77 0 -139 -25v-249q0 -24 -17 -41.5t-42 -17.5q-24 0 -41 17.5t-17 41.5v511h-156q-21 0 -36.5 15t-15.5 36q0 22 15.5 37t36.5 15h429q21 0 36.5 -15t15.5 -37q0 -21 -15.5 -36t-36.5 -15h-156v-169q93 35 177 35q112 0 163 -56.5t51 -184.5v-136
q0 -24 -17 -41.5t-42 -17.5q-24 0 -41 17.5t-17 41.5v136q0 77 -30 107.5t-105 30.5z" />
    <glyph glyph-name="uni040C" unicode="&#x40c;" horiz-adv-x="621" 
d="M586 50q0 -23 -15.5 -39.5t-38.5 -16.5q-24 0 -41 17l-244 267l-59 -63v-162q0 -24 -17 -41.5t-42 -17.5q-24 0 -41 17.5t-17 41.5v561q0 24 17 41.5t41 17.5q25 0 42 -17.5t17 -41.5v-267l281 308q17 18 41 18q22 0 38.5 -16t16.5 -38t-15 -37l-224 -235l245 -260
q15 -16 15 -37zM338 717q-14 0 -24 10t-10 24t10 24l83 86q11 12 28 12q16 0 27.5 -11.5t11.5 -27.5q0 -20 -13 -30l-90 -78q-9 -9 -23 -9z" />
    <glyph glyph-name="uni040E" unicode="&#x40e;" horiz-adv-x="644" 
d="M610 614q0 -13 -5 -26l-221 -463q-33 -71 -80.5 -104t-125.5 -33q-1 0 -31 2q-20 3 -32.5 17.5t-12.5 33.5q0 23 17.5 38.5t39.5 13.5l7 -1h7q36 0 59.5 17.5t47.5 60.5l-228 416q-7 13 -7 29q0 24 17 41t41 17q37 0 52 -32l187 -363l155 359q15 36 54 36q25 0 42 -17.5
t17 -41.5zM172 782q-11 11 -11 28q0 15 10.5 26t26.5 11t26 -10q44 -42 100 -42q55 0 99 41q11 11 26 11q16 0 27 -11t11 -27q0 -15 -12 -27q-64 -61 -151 -61q-85 0 -152 61z" />
    <glyph glyph-name="uni040F" unicode="&#x40f;" horiz-adv-x="703" 
d="M632 614v-552q0 -62 -62 -62h-167v-82q0 -21 -15 -36.5t-36 -15.5q-22 0 -37 15.5t-15 36.5v82h-167q-62 0 -62 62v552q0 24 17 41.5t42 17.5q24 0 41 -17.5t17 -41.5v-511h327v511q0 24 17 41.5t41 17.5q25 0 42 -17.5t17 -41.5z" />
    <glyph glyph-name="uni0410" unicode="&#x410;" horiz-adv-x="673" 
d="M646 54q0 -25 -17.5 -42.5t-42.5 -17.5q-19 0 -34 10.5t-21 27.5l-35 96h-320l-35 -96q-6 -17 -21 -27.5t-34 -10.5q-25 0 -42.5 17.5t-17.5 42.5q0 4 5 21l209 532q12 30 38 48t58 18t58 -18t38 -48l209 -532q5 -17 5 -21zM213 231h246l-123 337z" />
    <glyph glyph-name="uni0411" unicode="&#x411;" horiz-adv-x="608" 
d="M534 615q0 -21 -15.5 -36t-36.5 -15h-294v-146h176q99 0 158.5 -60t59.5 -149t-59.5 -149t-158.5 -60h-231q-62 0 -62 62v543q0 62 62 62h349q21 0 36.5 -15t15.5 -37zM188 315v-212h160q51 0 82.5 29t31.5 77t-31.5 77t-82.5 29h-160z" />
    <glyph glyph-name="uni0412" unicode="&#x412;" horiz-adv-x="648" 
d="M71 62v543q0 62 62 62h266q87 0 138.5 -48t51.5 -122q0 -59 -33 -101t-83 -52q53 -8 91 -56t38 -108q0 -81 -52 -130.5t-142 -49.5h-275q-62 0 -62 62zM188 391h187q44 0 69 23.5t25 62.5t-25 63t-69 24h-187v-173zM188 103h192q48 0 75 24.5t27 68.5q0 40 -27.5 66
t-74.5 26h-192v-185z" />
    <glyph glyph-name="uni0413" unicode="&#x413;" horiz-adv-x="552" 
d="M71 53v552q0 62 62 62h349q21 0 36.5 -15t15.5 -37q0 -21 -15.5 -36t-36.5 -15h-294v-511q0 -24 -17 -41.5t-41 -17.5q-25 0 -42 17.5t-17 41.5z" />
    <glyph glyph-name="uni0414" unicode="&#x414;" horiz-adv-x="722" 
d="M704 41v-118q0 -21 -15 -36.5t-36 -15.5q-22 0 -37 15.5t-15 36.5v77h-480v-77q0 -21 -15 -36.5t-37 -15.5q-21 0 -36 15.5t-15 36.5v118q0 62 51 62q81 87 105 382l10 123q5 59 65 59h311q62 0 62 -62v-502h20q62 0 62 -62zM505 103v461h-221l-6 -85q-21 -300 -90 -376
h317z" />
    <glyph glyph-name="uni0415" unicode="&#x415;" horiz-adv-x="577" 
d="M71 62v543q0 62 62 62h349q21 0 36.5 -15t15.5 -37q0 -21 -15.5 -36t-36.5 -15h-294v-173h287q21 0 36.5 -15t15.5 -36q0 -22 -15.5 -37t-36.5 -15h-287v-185h294q21 0 36.5 -15t15.5 -36q0 -22 -15.5 -37t-36.5 -15h-349q-62 0 -62 62z" />
    <glyph glyph-name="uni0416" unicode="&#x416;" horiz-adv-x="941" 
d="M906 49q0 -23 -16 -39t-39 -16q-25 0 -44 22l-238 280h-40v-243q0 -24 -17 -41.5t-41 -17.5q-25 0 -42 17.5t-17 41.5v243h-40l-238 -280q-19 -22 -44 -22q-23 0 -39 16t-16 39q0 21 12 35l232 262l-213 238q-12 14 -12 34q0 23 16.5 39t38.5 16q25 0 44 -22l219 -262h40
v225q0 24 17 41.5t42 17.5q24 0 41 -17.5t17 -41.5v-225h41l218 262q16 22 44 22q23 0 39 -16t16 -39q0 -20 -12 -34l-213 -238l232 -262q12 -14 12 -35z" />
    <glyph glyph-name="uni0417" unicode="&#x417;" horiz-adv-x="599" 
d="M37 103q0 21 15 36t36 15q18 0 30 -9q75 -53 166 -53q71 0 111.5 27.5t40.5 74.5q0 94 -161 94h-67q-23 0 -39 15t-16 37t16 36.5t39 14.5h67q68 0 109 23t41 65q0 44 -41.5 69t-106.5 25q-87 0 -154 -49q-13 -9 -28 -9q-20 0 -34.5 14.5t-14.5 34.5q0 23 18 38
q91 75 224 75q111 0 182.5 -49.5t71.5 -130.5q0 -62 -44 -103q-42 -39 -101 -50q58 -5 106.5 -49t48.5 -113q0 -84 -74.5 -139t-189.5 -55q-141 0 -232 75q-19 16 -19 40z" />
    <glyph glyph-name="uni0418" unicode="&#x418;" horiz-adv-x="720" 
d="M130 673q24 0 41 -17.5t17 -41.5v-438l322 464q25 33 63 33q32 0 54 -22t22 -54v-544q0 -24 -17 -41.5t-42 -17.5q-24 0 -41 17.5t-17 41.5v451l-331 -479q-21 -31 -59 -31q-29 0 -50 21.5t-21 50.5v548q0 24 17 41.5t42 17.5z" />
    <glyph glyph-name="uni0419" unicode="&#x419;" horiz-adv-x="720" 
d="M130 673q24 0 41 -17.5t17 -41.5v-438l322 464q25 33 63 33q32 0 54 -22t22 -54v-544q0 -24 -17 -41.5t-42 -17.5q-24 0 -41 17.5t-17 41.5v451l-331 -479q-21 -31 -59 -31q-29 0 -50 21.5t-21 50.5v548q0 24 17 41.5t42 17.5zM208 782q-11 11 -11 28q0 15 10.5 26
t26.5 11t26 -10q44 -42 100 -42q55 0 99 41q11 11 26 11q16 0 27 -11t11 -27q0 -15 -12 -27q-64 -61 -151 -61q-85 0 -152 61z" />
    <glyph glyph-name="uni041A" unicode="&#x41a;" horiz-adv-x="621" 
d="M586 50q0 -23 -15.5 -39.5t-38.5 -16.5q-24 0 -41 17l-244 267l-59 -63v-162q0 -24 -17 -41.5t-42 -17.5q-24 0 -41 17.5t-17 41.5v561q0 24 17 41.5t41 17.5q25 0 42 -17.5t17 -41.5v-267l281 308q17 18 41 18q22 0 38.5 -16t16.5 -38t-15 -37l-224 -235l245 -260
q15 -16 15 -37z" />
    <glyph glyph-name="uni041B" unicode="&#x41b;" horiz-adv-x="723" 
d="M535 53v511h-236l-9 -111q-14 -162 -41 -261t-63.5 -141.5t-91.5 -55.5q-14 -2 -16 -2q-23 0 -40 17.5t-17 41.5q0 43 41 57q46 15 76 92q31 80 44 253l12 153q4 60 65 60h331q62 0 62 -62v-552q0 -24 -17 -41.5t-42 -17.5q-24 0 -41 17.5t-17 41.5z" />
    <glyph glyph-name="uni041C" unicode="&#x41c;" horiz-adv-x="835" 
d="M647 53v452l-199 -490q-8 -21 -31 -21t-31 21l-198 490v-452q0 -24 -17 -41.5t-41 -17.5q-25 0 -42 17.5t-17 41.5v523q0 40 28.5 68.5t68.5 28.5q30 0 54.5 -17t35.5 -44l159 -394l160 394q11 27 35.5 44t54.5 17q40 0 68.5 -28.5t28.5 -68.5v-523q0 -24 -17 -41.5
t-42 -17.5q-24 0 -41 17.5t-17 41.5z" />
    <glyph glyph-name="uni041D" unicode="&#x41d;" horiz-adv-x="723" 
d="M535 53v238h-347v-238q0 -24 -17 -41.5t-41 -17.5q-25 0 -42 17.5t-17 41.5v561q0 24 17 41.5t41 17.5q25 0 42 -17.5t17 -41.5v-220h347v220q0 24 17 41.5t42 17.5q24 0 41 -17.5t17 -41.5v-561q0 -24 -17 -41.5t-42 -17.5q-24 0 -41 17.5t-17 41.5z" />
    <glyph glyph-name="uni041E" unicode="&#x41e;" horiz-adv-x="765" 
d="M382 678q147 2 245 -98t96 -247q2 -147 -96 -247.5t-245 -97.5q-147 -3 -245 97.5t-96 247.5q-2 147 96 247t245 98zM382 574q-98 0 -159.5 -68t-61.5 -173q0 -104 61.5 -172.5t159.5 -68.5t159.5 68.5t61.5 172.5q0 105 -61.5 173t-159.5 68z" />
    <glyph glyph-name="uni041F" unicode="&#x41f;" horiz-adv-x="723" 
d="M535 53v511h-347v-511q0 -24 -17 -41.5t-41 -17.5q-25 0 -42 17.5t-17 41.5v552q0 62 62 62h457q62 0 62 -62v-552q0 -24 -17 -41.5t-42 -17.5q-24 0 -41 17.5t-17 41.5z" />
    <glyph glyph-name="uni0420" unicode="&#x420;" horiz-adv-x="608" 
d="M71 53v552q0 62 62 62h231q99 0 158.5 -60t59.5 -149t-59.5 -149t-158.5 -60h-176v-196q0 -24 -17 -41.5t-41 -17.5q-25 0 -42 17.5t-17 41.5zM348 564h-160v-212h160q51 0 82.5 29t31.5 77t-31.5 77t-82.5 29z" />
    <glyph glyph-name="uni0421" unicode="&#x421;" horiz-adv-x="672" 
d="M41 333q-2 148 99.5 247.5t245.5 97.5q144 0 234 -99q14 -14 14 -37q0 -22 -16 -38.5t-39 -16.5q-26 0 -42 19q-59 68 -151 68q-96 0 -160.5 -68.5t-64.5 -172.5t64.5 -172.5t160.5 -68.5q93 0 152 68q16 19 41 19q23 0 39 -16t16 -39t-14 -37q-90 -99 -234 -99
q-144 -3 -245.5 97t-99.5 248z" />
    <glyph glyph-name="uni0422" unicode="&#x422;" horiz-adv-x="577" 
d="M230 53v511h-156q-21 0 -36.5 15t-15.5 36q0 22 15.5 37t36.5 15h429q21 0 36.5 -15t15.5 -37q0 -21 -15.5 -36t-36.5 -15h-156v-511q0 -24 -17 -41.5t-41 -17.5q-25 0 -42 17.5t-17 41.5z" />
    <glyph glyph-name="uni0423" unicode="&#x423;" horiz-adv-x="644" 
d="M610 614q0 -13 -5 -26l-221 -463q-33 -71 -80.5 -104t-125.5 -33q-1 0 -31 2q-20 3 -32.5 17.5t-12.5 33.5q0 23 17.5 38.5t39.5 13.5l7 -1h7q36 0 59.5 17.5t47.5 60.5l-228 416q-7 13 -7 29q0 24 17 41t41 17q37 0 52 -32l187 -363l155 359q15 36 54 36q25 0 42 -17.5
t17 -41.5z" />
    <glyph glyph-name="uni0424" unicode="&#x424;" horiz-adv-x="834" 
d="M475 66v-13q0 -24 -17 -41.5t-41 -17.5q-25 0 -42 17.5t-17 41.5v13q-149 12 -233 82.5t-84 184.5q0 113 84 184t233 83v14q0 24 17 41.5t42 17.5q24 0 41 -17.5t17 -41.5v-14q149 -12 233 -82.5t84 -184.5t-84 -184.5t-233 -82.5zM358 171v324q-94 -10 -145.5 -52.5
t-51.5 -109.5t51.5 -109.5t145.5 -52.5zM672 333q0 67 -51.5 109.5t-145.5 52.5v-324q94 10 145.5 52.5t51.5 109.5z" />
    <glyph glyph-name="uni0425" unicode="&#x425;" horiz-adv-x="661" 
d="M638 51q0 -24 -16 -40.5t-40 -16.5q-29 0 -44 18l-207 245l-208 -245q-15 -18 -44 -18q-24 0 -40 16.5t-16 40.5q0 19 14 36l221 255l-207 238q-13 16 -13 35q0 24 16 41t39 17q27 0 44 -20l194 -228l193 228q17 20 44 20q23 0 39 -17t16 -41q0 -19 -13 -35l-207 -238
l221 -255q14 -17 14 -36z" />
    <glyph glyph-name="uni0426" unicode="&#x426;" horiz-adv-x="732" 
d="M714 41v-118q0 -21 -15 -36.5t-36 -15.5q-22 0 -37 15.5t-15 36.5v77h-478q-62 0 -62 62v552q0 24 17 41.5t42 17.5q24 0 41 -17.5t17 -41.5v-511h327v511q0 24 17 41.5t41 17.5q25 0 42 -17.5t17 -41.5v-511h20q62 0 62 -62z" />
    <glyph glyph-name="uni0427" unicode="&#x427;" horiz-adv-x="631" 
d="M304 340q77 0 139 25v249q0 24 17 41.5t41 17.5q25 0 42 -17.5t17 -41.5v-561q0 -24 -17 -41.5t-41 -17.5q-25 0 -42 17.5t-17 41.5v219q-93 -35 -177 -35q-112 0 -163 56.5t-51 184.5v136q0 24 17 41.5t42 17.5q24 0 41 -17.5t17 -41.5v-136q0 -77 30 -107.5t105 -30.5z
" />
    <glyph glyph-name="uni0428" unicode="&#x428;" horiz-adv-x="953" 
d="M882 614v-552q0 -62 -62 -62h-687q-62 0 -62 62v552q0 24 17 41.5t42 17.5q24 0 41 -17.5t17 -41.5v-511h230v511q0 24 17 41.5t42 17.5q24 0 41 -17.5t17 -41.5v-511h230v511q0 24 17 41.5t41 17.5q25 0 42 -17.5t17 -41.5z" />
    <glyph glyph-name="uni0429" unicode="&#x429;" horiz-adv-x="982" 
d="M964 41v-118q0 -21 -15 -36.5t-36 -15.5q-22 0 -37 15.5t-15 36.5v77h-728q-62 0 -62 62v552q0 24 17 41.5t42 17.5q24 0 41 -17.5t17 -41.5v-511h230v511q0 24 17 41.5t42 17.5q24 0 41 -17.5t17 -41.5v-511h230v511q0 24 17 41.5t41 17.5q25 0 42 -17.5t17 -41.5v-511
h20q62 0 62 -62z" />
    <glyph glyph-name="uni042A" unicode="&#x42a;" horiz-adv-x="767" 
d="M230 62v502h-156q-21 0 -36.5 15t-15.5 36q0 22 15.5 37t36.5 15h211q62 0 62 -62v-187h176q99 0 158.5 -60t59.5 -149t-59.5 -149t-158.5 -60h-231q-62 0 -62 62zM347 315v-212h160q51 0 82.5 29t31.5 77t-31.5 77t-82.5 29h-160z" />
    <glyph glyph-name="uni042B" unicode="&#x42b;" horiz-adv-x="832" 
d="M188 614v-196h176q99 0 158.5 -60t59.5 -149t-59.5 -149t-158.5 -60h-231q-62 0 -62 62v552q0 24 17 41.5t42 17.5q24 0 41 -17.5t17 -41.5zM644 53v561q0 24 17 41.5t42 17.5q24 0 41 -17.5t17 -41.5v-561q0 -24 -17 -41.5t-41 -17.5q-25 0 -42 17.5t-17 41.5zM188 315
v-212h160q51 0 82.5 29t31.5 77t-31.5 77t-82.5 29h-160z" />
    <glyph glyph-name="uni042C" unicode="&#x42c;" horiz-adv-x="608" 
d="M188 614v-196h176q99 0 158.5 -60t59.5 -149t-59.5 -149t-158.5 -60h-231q-62 0 -62 62v552q0 24 17 41.5t42 17.5q24 0 41 -17.5t17 -41.5zM188 315v-212h160q51 0 82.5 29t31.5 77t-31.5 77t-82.5 29h-160z" />
    </font>
</defs>
</svg>
