<?xml version="1.0" standalone="no"?>
<!DOCTYPE svg PUBLIC "-//W3C//DTD SVG 1.1//EN" "http://www.w3.org/Graphics/SVG/1.1/DTD/svg11.dtd" >
<svg xmlns="http://www.w3.org/2000/svg" xmlns:xlink="http://www.w3.org/1999/xlink" version="1.1">
<metadata>
Created by FontForge 20170731 at Tue Dec 25 03:00:00 2018
 By Aleksey,,,
Copyright (c) 2018 by Mark Simonson. All rights reserved.
</metadata>
<defs>
<font id="ProximaSoft-SemiBoldIt" horiz-adv-x="567" >
  <font-face 
    font-family="Proxima Soft SemiBold"
    font-weight="600"
    font-style="italic"
    font-stretch="normal"
    units-per-em="1000"
    panose-1="2 0 5 6 3 0 0 2 0 4"
    ascent="790"
    descent="-210"
    x-height="483"
    cap-height="667"
    bbox="-298 -335 1176.03 1083"
    underline-thickness="74"
    underline-position="-369"
    slope="-12.5"
    unicode-range="U+000D-FB04"
  />
<missing-glyph horiz-adv-x="493" 
d="M91 -28v718q0 62 62 62h227q62 0 62 -62v-718q0 -62 -62 -62h-227q-62 0 -62 62zM410 722h-288v-782h288v782z" />
    <glyph glyph-name="f_f_j" unicode="ffj" horiz-adv-x="857" 
d="M413 629q0 -17 -13 -29.5t-30 -12.5q-8 0 -10 1q-12 3 -25 3q-61 0 -78 -81l-6 -27h47q19 0 32.5 -13.5t13.5 -32.5t-13.5 -32.5t-32.5 -13.5h-68l-78 -357q-4 -17 -18 -28.5t-32 -11.5q-22 0 -36.5 15t-14.5 36q0 8 1 11l73 335h-28q-19 0 -32.5 13.5t-13.5 32.5
t13.5 32.5t32.5 13.5h49l6 27q37 167 171 167q31 0 60 -8q30 -9 30 -40zM721 629q0 -17 -13 -29.5t-30 -12.5q-8 0 -10 1q-12 3 -25 3q-61 0 -78 -81l-6 -27h47q19 0 32.5 -13.5t13.5 -32.5t-13.5 -32.5t-32.5 -13.5h-68l-78 -357q-4 -17 -18 -28.5t-32 -11.5
q-22 0 -36.5 15t-14.5 36q0 8 1 11l73 335h-28q-19 0 -32.5 13.5t-13.5 32.5t13.5 32.5t32.5 13.5h49l6 27q37 167 171 167q31 0 60 -8q30 -9 30 -40zM758 633q0 32 22.5 53t50.5 21q25 0 42 -16.5t17 -39.5q0 -32 -22.5 -53t-50.5 -21q-25 0 -42 16.5t-17 39.5zM490 -151
q0 18 14 31t33 13h8q60 0 78 79l106 477q4 17 18 28.5t32 11.5q22 0 36.5 -15t14.5 -36q0 -8 -1 -11l-101 -455q-37 -168 -172 -168q-15 0 -27 2q-17 2 -28 14t-11 29z" />
    <glyph glyph-name="f_j" unicode="fj" horiz-adv-x="549" 
d="M413 629q0 -17 -13 -29.5t-30 -12.5q-8 0 -10 1q-12 3 -25 3q-61 0 -78 -81l-6 -27h47q19 0 32.5 -13.5t13.5 -32.5t-13.5 -32.5t-32.5 -13.5h-68l-78 -357q-4 -17 -18 -28.5t-32 -11.5q-22 0 -36.5 15t-14.5 36q0 8 1 11l73 335h-28q-19 0 -32.5 13.5t-13.5 32.5
t13.5 32.5t32.5 13.5h49l6 27q37 167 171 167q31 0 60 -8q30 -9 30 -40zM450 633q0 32 22.5 53t50.5 21q25 0 42 -16.5t17 -39.5q0 -32 -22.5 -53t-50.5 -21q-25 0 -42 16.5t-17 39.5zM182 -151q0 18 14 31t33 13h8q60 0 78 79l106 477q4 17 18 28.5t32 11.5q22 0 36.5 -15
t14.5 -36q0 -8 -1 -11l-101 -455q-37 -168 -172 -168q-15 0 -27 2q-17 2 -28 14t-11 29z" />
    <glyph glyph-name="f_f" unicode="ff" horiz-adv-x="616" 
d="M413 629q0 -17 -13 -29.5t-30 -12.5q-8 0 -10 1q-12 3 -25 3q-61 0 -78 -81l-6 -27h47q19 0 32.5 -13.5t13.5 -32.5t-13.5 -32.5t-32.5 -13.5h-68l-78 -357q-4 -17 -18 -28.5t-32 -11.5q-22 0 -36.5 15t-14.5 36q0 8 1 11l73 335h-28q-19 0 -32.5 13.5t-13.5 32.5
t13.5 32.5t32.5 13.5h49l6 27q37 167 171 167q31 0 60 -8q30 -9 30 -40zM721 629q0 -17 -13 -29.5t-30 -12.5q-8 0 -10 1q-12 3 -25 3q-61 0 -78 -81l-6 -27h47q19 0 32.5 -13.5t13.5 -32.5t-13.5 -32.5t-32.5 -13.5h-68l-78 -357q-4 -17 -18 -28.5t-32 -11.5
q-22 0 -36.5 15t-14.5 36q0 8 1 11l73 335h-28q-19 0 -32.5 13.5t-13.5 32.5t13.5 32.5t32.5 13.5h49l6 27q37 167 171 167q31 0 60 -8q30 -9 30 -40z" />
    <glyph glyph-name="fi" unicode="fi" horiz-adv-x="549" 
d="M413 629q0 -17 -13 -29.5t-30 -12.5q-8 0 -10 1q-12 3 -25 3q-61 0 -78 -81l-6 -27h47q19 0 32.5 -13.5t13.5 -32.5t-13.5 -32.5t-32.5 -13.5h-68l-78 -357q-4 -17 -18 -28.5t-32 -11.5q-22 0 -36.5 15t-14.5 36q0 8 1 11l73 335h-28q-19 0 -32.5 13.5t-13.5 32.5
t13.5 32.5t32.5 13.5h49l6 27q37 167 171 167q31 0 60 -8q30 -9 30 -40zM523 707q25 0 42 -16.5t17 -39.5q0 -32 -22.5 -53t-50.5 -21q-25 0 -42 16.5t-17 39.5q0 32 22.5 53t50.5 21zM334 45q0 8 1 11l86 393q4 17 18 28.5t33 11.5q21 0 36 -15.5t15 -35.5q0 -8 -1 -11
l-87 -393q-4 -17 -18 -28.5t-32 -11.5q-22 0 -36.5 15t-14.5 36z" />
    <glyph glyph-name="fl" unicode="fl" horiz-adv-x="549" 
d="M413 629q0 -17 -13 -29.5t-30 -12.5q-8 0 -10 1q-12 3 -25 3q-61 0 -78 -81l-6 -27h47q19 0 32.5 -13.5t13.5 -32.5t-13.5 -32.5t-32.5 -13.5h-68l-78 -357q-4 -17 -18 -28.5t-32 -11.5q-22 0 -36.5 15t-14.5 36q0 8 1 11l73 335h-28q-19 0 -32.5 13.5t-13.5 32.5
t13.5 32.5t32.5 13.5h49l6 27q37 167 171 167q31 0 60 -8q30 -9 30 -40zM333 45q0 8 1 11l127 577q4 17 18 28.5t33 11.5q21 0 36 -15.5t15 -35.5q0 -8 -1 -11l-127 -577q-4 -17 -18 -28.5t-33 -11.5q-21 0 -36 15.5t-15 35.5z" />
    <glyph glyph-name="f_f_i" unicode="ffi" horiz-adv-x="857" 
d="M413 629q0 -17 -13 -29.5t-30 -12.5q-8 0 -10 1q-12 3 -25 3q-61 0 -78 -81l-6 -27h47q19 0 32.5 -13.5t13.5 -32.5t-13.5 -32.5t-32.5 -13.5h-68l-78 -357q-4 -17 -18 -28.5t-32 -11.5q-22 0 -36.5 15t-14.5 36q0 8 1 11l73 335h-28q-19 0 -32.5 13.5t-13.5 32.5
t13.5 32.5t32.5 13.5h49l6 27q37 167 171 167q31 0 60 -8q30 -9 30 -40zM721 629q0 -17 -13 -29.5t-30 -12.5q-8 0 -10 1q-12 3 -25 3q-61 0 -78 -81l-6 -27h47q19 0 32.5 -13.5t13.5 -32.5t-13.5 -32.5t-32.5 -13.5h-68l-78 -357q-4 -17 -18 -28.5t-32 -11.5
q-22 0 -36.5 15t-14.5 36q0 8 1 11l73 335h-28q-19 0 -32.5 13.5t-13.5 32.5t13.5 32.5t32.5 13.5h49l6 27q37 167 171 167q31 0 60 -8q30 -9 30 -40zM831 707q25 0 42 -16.5t17 -39.5q0 -32 -22.5 -53t-50.5 -21q-25 0 -42 16.5t-17 39.5q0 32 22.5 53t50.5 21zM642 45
q0 8 1 11l86 393q4 17 18 28.5t33 11.5q21 0 36 -15.5t15 -35.5q0 -8 -1 -11l-87 -393q-4 -17 -18 -28.5t-32 -11.5q-22 0 -36.5 15t-14.5 36z" />
    <glyph glyph-name="f_f_l" unicode="ffl" horiz-adv-x="857" 
d="M413 629q0 -17 -13 -29.5t-30 -12.5q-8 0 -10 1q-12 3 -25 3q-61 0 -78 -81l-6 -27h47q19 0 32.5 -13.5t13.5 -32.5t-13.5 -32.5t-32.5 -13.5h-68l-78 -357q-4 -17 -18 -28.5t-32 -11.5q-22 0 -36.5 15t-14.5 36q0 8 1 11l73 335h-28q-19 0 -32.5 13.5t-13.5 32.5
t13.5 32.5t32.5 13.5h49l6 27q37 167 171 167q31 0 60 -8q30 -9 30 -40zM721 629q0 -17 -13 -29.5t-30 -12.5q-8 0 -10 1q-12 3 -25 3q-61 0 -78 -81l-6 -27h47q19 0 32.5 -13.5t13.5 -32.5t-13.5 -32.5t-32.5 -13.5h-68l-78 -357q-4 -17 -18 -28.5t-32 -11.5
q-22 0 -36.5 15t-14.5 36q0 8 1 11l73 335h-28q-19 0 -32.5 13.5t-13.5 32.5t13.5 32.5t32.5 13.5h49l6 27q37 167 171 167q31 0 60 -8q30 -9 30 -40zM641 45q0 8 1 11l127 577q4 17 18 28.5t33 11.5q21 0 36 -15.5t15 -35.5q0 -8 -1 -11l-127 -577q-4 -17 -18 -28.5
t-33 -11.5q-21 0 -36 15.5t-15 35.5z" />
    <glyph glyph-name="f_b" unicode="fb" horiz-adv-x="889" 
d="M413 629q0 -17 -13 -29.5t-30 -12.5q-8 0 -10 1q-12 3 -25 3q-61 0 -78 -81l-6 -27h47q19 0 32.5 -13.5t13.5 -32.5t-13.5 -32.5t-32.5 -13.5h-68l-78 -357q-4 -17 -18 -28.5t-32 -11.5q-22 0 -36.5 15t-14.5 36q0 8 1 11l73 335h-28q-19 0 -32.5 13.5t-13.5 32.5
t13.5 32.5t32.5 13.5h49l6 27q37 167 171 167q31 0 60 -8q30 -9 30 -40zM856 295q1 -76 -29.5 -146.5t-90.5 -116t-134 -44.5q-109 0 -160 81l-8 -35q-4 -17 -17.5 -28.5t-32.5 -11.5q-21 0 -36 15.5t-15 35.5q0 8 1 11l127 577q4 17 18 28.5t32 11.5q22 0 36.5 -15
t14.5 -36q0 -8 -1 -11l-42 -192q64 76 152 76q84 0 134.5 -53.5t50.5 -146.5zM746 274q0 57 -33.5 92.5t-85.5 35.5q-74 0 -127 -69l-41 -187q18 -30 51.5 -47.5t75.5 -17.5q68 0 114 57.5t46 135.5z" />
    <glyph glyph-name="f_h" unicode="fh" horiz-adv-x="876" 
d="M413 629q0 -17 -13 -29.5t-30 -12.5q-8 0 -10 1q-12 3 -25 3q-61 0 -78 -81l-6 -27h47q19 0 32.5 -13.5t13.5 -32.5t-13.5 -32.5t-32.5 -13.5h-68l-78 -357q-4 -17 -18 -28.5t-32 -11.5q-22 0 -36.5 15t-14.5 36q0 8 1 11l73 335h-28q-19 0 -32.5 13.5t-13.5 32.5
t13.5 32.5t32.5 13.5h49l6 27q37 167 171 167q31 0 60 -8q30 -9 30 -40zM660 45q0 8 1 11l54 247q5 22 5 30q0 69 -90 69q-65 0 -129 -66l-66 -302q-4 -17 -18 -28.5t-33 -11.5q-21 0 -36 15.5t-15 35.5q0 8 1 11l127 577q4 17 18 28.5t32 11.5q22 0 37 -15t15 -36
q0 -8 -1 -11l-43 -194q83 78 165 78q68 0 108 -32.5t40 -89.5q0 -12 -5 -40l-65 -299q-4 -17 -18 -28.5t-33 -11.5q-21 0 -36 15.5t-15 35.5z" />
    <glyph glyph-name="f_k" unicode="fk" horiz-adv-x="834" 
d="M413 629q0 -17 -13 -29.5t-30 -12.5q-8 0 -10 1q-12 3 -25 3q-61 0 -78 -81l-6 -27h47q19 0 32.5 -13.5t13.5 -32.5t-13.5 -32.5t-32.5 -13.5h-68l-78 -357q-4 -17 -18 -28.5t-32 -11.5q-22 0 -36.5 15t-14.5 36q0 8 1 11l73 335h-28q-19 0 -32.5 13.5t-13.5 32.5
t13.5 32.5t32.5 13.5h49l6 27q37 167 171 167q31 0 60 -8q30 -9 30 -40zM830 444q0 -21 -15 -33l-187 -147l124 -188q9 -14 9 -28q0 -22 -17.5 -38t-40.5 -16q-29 0 -48 30l-113 179l-87 -73l-21 -95q-4 -18 -18 -29.5t-32 -11.5q-21 0 -36 15t-15 36q0 8 1 11l127 577
q4 17 18 28.5t32 11.5q22 0 37 -15t15 -36q0 -8 -1 -11l-79 -356l273 223q14 11 29 11q19 0 32 -13t13 -32z" />
    <glyph glyph-name=".notdef" horiz-adv-x="493" 
d="M91 -28v718q0 62 62 62h227q62 0 62 -62v-718q0 -62 -62 -62h-227q-62 0 -62 62zM410 722h-288v-782h288v782z" />
    <glyph glyph-name=".null" horiz-adv-x="0" 
 />
    <glyph glyph-name="nonmarkingreturn" horiz-adv-x="333" 
 />
    <glyph glyph-name="CR" unicode="&#xd;" horiz-adv-x="0" 
 />
    <glyph glyph-name="space" unicode=" " horiz-adv-x="257" 
 />
    <glyph glyph-name="exclam" unicode="!" horiz-adv-x="245" 
d="M75 244l1 8l67 371q4 22 20.5 36t38.5 14q26 0 43.5 -18t17.5 -42q0 -2 -2 -16l-96 -365q-4 -14 -16 -24t-28 -10q-19 0 -32.5 13.5t-13.5 32.5zM88 129q26 0 44.5 -19t18.5 -46q0 -31 -22.5 -53t-53.5 -22q-27 0 -45.5 19t-18.5 45q0 31 22.5 53.5t54.5 22.5z" />
    <glyph glyph-name="quotedbl" unicode="&#x22;" horiz-adv-x="379" 
d="M116 414l12 193q1 30 20.5 50t47.5 20q21 0 36.5 -15.5t15.5 -38.5q0 -12 -6 -27l-74 -193q-7 -18 -25 -18q-12 0 -20 8.5t-7 20.5zM283 414l12 193q1 30 20.5 50t47.5 20q21 0 36.5 -15.5t15.5 -38.5q0 -12 -6 -27l-74 -193q-7 -18 -25 -18q-12 0 -20 8.5t-7 20.5z" />
    <glyph glyph-name="numbersign" unicode="#" horiz-adv-x="606" 
d="M627 457q0 -14 -10 -24t-24 -10h-91l-99 -180h54q14 0 24.5 -10t10.5 -25q0 -14 -10.5 -24t-24.5 -10h-92l-90 -162q-11 -18 -31 -18q-15 0 -24.5 10t-9.5 25q0 10 4 17l71 128h-101l-90 -162q-11 -18 -31 -18q-15 0 -24.5 10t-9.5 25q0 10 4 17l71 128h-50
q-14 0 -24.5 10t-10.5 25q0 14 10.5 24t24.5 10h88l100 180h-52q-14 0 -24 10t-10 24t10 24t24 10h89l91 164q11 18 31 18q15 0 25 -10.5t10 -25.5q0 -9 -4 -16l-72 -130h100l91 164q11 18 31 18q15 0 24.5 -10t9.5 -25q0 -10 -4 -17l-72 -130h53q14 0 24 -10t10 -24z
M323 243l100 180h-101l-100 -180h101z" />
    <glyph glyph-name="dollar" unicode="$" horiz-adv-x="605" 
d="M418 562l-38 -174q89 -35 132 -75t43 -104q0 -92 -70 -156.5t-185 -64.5h-9l-14 -63q-7 -31 -39 -31q-18 0 -30 15t-8 33l12 55q-98 20 -164 75q-21 18 -21 44q0 23 17 40t40 17q20 0 37 -14q49 -41 115 -58l42 192q-89 36 -130.5 72t-44.5 105q0 84 70.5 145.5
t179.5 61.5h11l15 66q3 13 13.5 22t24.5 9q18 0 30 -15t8 -33l-13 -59q72 -16 127 -59q22 -19 22 -45q0 -23 -16.5 -39.5t-39.5 -16.5q-20 0 -35 12q-38 30 -82 43zM306 417l35 157h-4q-45 0 -77.5 -25.5t-32.5 -59.5q0 -22 19 -39t60 -33zM352 264l-38 -172q54 1 85 29
t31 67q0 44 -78 76z" />
    <glyph glyph-name="percent" unicode="%" horiz-adv-x="746" 
d="M266 677q64 0 110 -38q45 -37 45 -99q0 -84 -53.5 -139t-128.5 -55q-64 0 -110 38q-45 38 -45 99q0 84 53.5 139t128.5 55zM99 19q0 9 6 16l540 629q7 9 20 9q25 0 25 -25q0 -10 -6 -17l-541 -628q-7 -9 -19 -9q-10 0 -17.5 7.5t-7.5 17.5zM263 610q-42 0 -72 -34.5
t-30 -85.5q0 -34 23 -56t58 -22q42 0 72 35t30 86q0 33 -23 55t-58 22zM545 319q64 0 110 -38q46 -37 46 -99q0 -84 -53.5 -139t-128.5 -55q-64 0 -111 38q-45 38 -45 99q0 84 53.5 139t128.5 55zM543 252q-42 0 -72 -34.5t-30 -85.5q0 -34 22.5 -56t57.5 -22q42 0 72 35
t30 86q0 33 -22.5 55t-57.5 22z" />
    <glyph glyph-name="ampersand" unicode="&#x26;" horiz-adv-x="644" 
d="M585 260q0 -11 -8 -25q-45 -62 -94 -114l37 -39q16 -16 16 -36q0 -21 -15.5 -36.5t-36.5 -15.5q-23 0 -37 14l-43 45q-92 -65 -185 -65q-95 0 -152 44.5t-57 127.5q0 88 51 138q55 52 142 85q-20 60 -20 109q0 77 57.5 131t137.5 54q71 0 117 -35t46 -94q0 -54 -29 -91
q-26 -34 -65.5 -55.5t-115.5 -48.5q21 -43 43 -80q22 -41 56 -87q39 44 75 98q13 20 37 20q18 0 30.5 -13t12.5 -31zM304 419q73 26 107 52.5t34 66.5q0 29 -17 45t-46 16q-38 0 -65 -29.5t-27 -76.5q0 -32 14 -74zM351 116q-50 64 -68 95q-40 75 -52 102q-53 -26 -79.5 -59
t-26.5 -81q0 -47 30.5 -74t79.5 -27q55 0 116 44z" />
    <glyph glyph-name="quotesingle" unicode="'" horiz-adv-x="214" 
d="M116 414l12 193q1 30 20.5 50t47.5 20q21 0 36.5 -15.5t15.5 -38.5q0 -12 -6 -27l-74 -193q-7 -18 -25 -18q-12 0 -20 8.5t-7 20.5z" />
    <glyph glyph-name="parenleft" unicode="(" horiz-adv-x="276" 
d="M75 -158q-51 114 -51 258q0 146 63 292t177 267q10 13 30 13q18 0 30 -11.5t12 -28.5q0 -12 -9 -26q-193 -254 -193 -538q0 -89 30 -194q1 -3 1 -13q0 -21 -13.5 -34t-33.5 -13q-31 0 -43 28z" />
    <glyph glyph-name="parenright" unicode=")" horiz-adv-x="276" 
d="M199 644q52 -114 52 -258q0 -149 -64 -293q-63 -145 -178 -266q-10 -13 -29 -13q-18 0 -29.5 12t-11.5 30q0 13 8 24q194 255 194 537q0 90 -30 195q0 3 -0.5 6t-1 5t-0.5 3q0 20 14 33t33 13q31 0 43 -28z" />
    <glyph glyph-name="asterisk" unicode="*" horiz-adv-x="346" 
d="M180 404l24 87l-87 -40q-8 -2 -10 -2q-10 0 -18 7t-8 18q0 18 17 24l92 33l-67 47q-11 8 -11 23q0 11 8 19t19 8t19 -6l63 -55l16 94q2 9 9.5 15.5t17.5 6.5q13 0 21 -10.5t4 -23.5l-24 -87l87 40q8 2 10 2q10 0 18 -7t8 -18q0 -19 -16 -24l-92 -34l66 -45q12 -9 12 -23
q0 -12 -8.5 -20.5t-19.5 -8.5q-12 0 -19 7l-63 55l-15 -93q-6 -23 -27 -23q-13 0 -21 10.5t-5 23.5z" />
    <glyph glyph-name="plus" unicode="+" horiz-adv-x="502" 
d="M301 303l-41 -185q-2 -12 -12 -20t-23 -8q-17 0 -28.5 14t-7.5 30l38 169h-149q-14 0 -24 10t-10 24t10 24t24 10h164l39 178q2 12 12 20t23 8q17 0 28.5 -13.5t7.5 -30.5l-36 -162h149q14 0 24 -10t10 -24t-10 -24t-24 -10h-164z" />
    <glyph glyph-name="comma" unicode="," horiz-adv-x="245" 
d="M22 -124q-12 0 -20 8t-8 20q0 14 12 23q53 35 68 71h-10q-22 0 -37.5 15t-15.5 41q0 30 23 52.5t53 22.5q29 0 48 -19.5t19 -52.5q0 -47 -32.5 -95.5t-84.5 -81.5q-4 -4 -15 -4z" />
    <glyph glyph-name="hyphen" unicode="-" horiz-adv-x="300" 
d="M24 242q0 19 13.5 32t31.5 13h160q18 0 31.5 -13t13.5 -32t-13.5 -32t-31.5 -13h-160q-18 0 -31.5 13t-13.5 32z" />
    <glyph glyph-name="period" unicode="." horiz-adv-x="245" 
d="M88 129q26 0 44.5 -19t18.5 -46q0 -31 -22.5 -53t-53.5 -22q-27 0 -45.5 19t-18.5 45q0 31 22.5 53.5t54.5 22.5z" />
    <glyph glyph-name="slash" unicode="/" horiz-adv-x="315" 
d="M-38 11q0 9 4 16l360 647q12 19 31 19q15 0 25.5 -10.5t10.5 -25.5q0 -10 -4 -17l-361 -648q-11 -18 -31 -18q-15 0 -25 11t-10 26z" />
    <glyph glyph-name="zero" unicode="0" horiz-adv-x="616" 
d="M374 677q108 0 169 -70t61 -194q2 -105 -39 -203.5t-117.5 -161.5t-166.5 -60q-108 0 -169.5 70t-61.5 195q-2 105 39.5 203t118 161t166.5 60zM363 573q-55 2 -101.5 -50.5t-70.5 -127.5t-23 -148q0 -73 31 -114t93 -41q55 -2 101.5 50t70 127.5t22.5 149.5
q0 73 -30.5 113.5t-92.5 40.5z" />
    <glyph glyph-name="one" unicode="1" horiz-adv-x="380" 
d="M151 52q0 9 1 12l99 451l-102 -87q-11 -10 -28 -10q-19 0 -31.5 13t-12.5 31q0 21 16 34l198 163q17 14 38 14q24 0 41.5 -18t17.5 -42q0 -10 -1 -13l-123 -561q-5 -19 -20.5 -32t-35.5 -13q-24 0 -40.5 17t-16.5 41z" />
    <glyph glyph-name="two" unicode="2" horiz-adv-x="595" 
d="M6 68q0 38 34 58q153 88 238 145q184 121 184 213q0 41 -36 65.5t-94 24.5q-72 0 -134 -36q-11 -8 -25 -8q-20 0 -34.5 14.5t-14.5 35.5q0 25 23 41q87 56 193 56q104 0 174.5 -50t70.5 -136q0 -94 -94.5 -187t-284.5 -201h237q21 0 36.5 -15t15.5 -36q0 -22 -15.5 -37
t-36.5 -15h-369q-28 0 -48 20t-20 48z" />
    <glyph glyph-name="three" unicode="3" horiz-adv-x="574" 
d="M19 86q-14 16 -14 36q0 22 15.5 38.5t38.5 16.5t39 -16q67 -69 168 -69q63 0 99.5 30.5t36.5 81.5q0 39 -34 61.5t-99 22.5h-15q-21 0 -36.5 15t-15.5 37q0 21 16 36t37 15h56q65 0 104 24t39 71q0 39 -38 63t-102 24q-70 0 -131 -35q-11 -6 -23 -6q-19 0 -33 14t-14 33
q0 25 20 39q88 59 191 59q114 0 181 -46q69 -45 69 -126q0 -65 -55 -112t-125 -55q56 -13 89.5 -50.5t33.5 -94.5q0 -86 -72 -145.5t-178 -59.5q-75 0 -140.5 25.5t-107.5 72.5z" />
    <glyph glyph-name="four" unicode="4" horiz-adv-x="580" 
d="M547 202q0 -21 -15.5 -36t-36.5 -15h-53l-24 -112q-5 -19 -20.5 -32t-35.5 -13q-24 0 -40.5 17t-16.5 40q0 9 1 12l19 88h-244q-26 0 -45 19t-19 45q0 24 15 42l332 383q28 33 73 33q41 0 68 -28.5t27 -71.5q0 -13 -1 -17l-66 -302h30q21 0 36.5 -15t15.5 -37zM347 254
l69 308l-272 -308h203z" />
    <glyph glyph-name="five" unicode="5" horiz-adv-x="600" 
d="M41 114q0 23 16.5 39.5t39.5 16.5q25 0 40 -17q57 -61 154 -61q62 0 103 37.5t41 92.5q0 49 -37.5 77.5t-99.5 28.5q-63 0 -107 -31q-14 -10 -32 -10q-24 0 -41 17t-17 41q0 10 1 13l56 254q12 55 68 55h323q21 0 36 -15t15 -37q0 -21 -15 -36t-36 -15h-285l-40 -184
q56 44 136 44q84 0 140.5 -51t56.5 -138q0 -103 -76 -175t-193 -72q-149 0 -232 89q-15 17 -15 37z" />
    <glyph glyph-name="six" unicode="6" horiz-adv-x="601" 
d="M391 677q107 0 178 -58q21 -17 21 -42q0 -22 -16 -38.5t-39 -16.5q-21 0 -34 12q-48 39 -117 39q-76 0 -129 -59q-52 -58 -75 -142q-6 -14 -7 -24q31 33 80.5 55t100.5 22q90 0 148.5 -49.5t58.5 -130.5q2 -103 -79 -181t-189 -76q-117 0 -182 66.5t-65 186.5
q-1 79 22.5 157t67 141t110.5 101.5t145 36.5zM302 330q-79 0 -141 -64q-2 -22 -2 -40q0 -61 37 -97.5t98 -36.5t103 40.5t42 97.5q0 45 -38 72.5t-99 27.5z" />
    <glyph glyph-name="seven" unicode="7" horiz-adv-x="532" 
d="M107 49q0 19 10 32l320 483h-282q-21 0 -36 15t-15 36q0 22 15 37t36 15h392q21 0 34.5 -14.5t13.5 -35.5q0 -11 -8 -25l-377 -573q-17 -25 -47 -25q-24 0 -40 16.5t-16 38.5z" />
    <glyph glyph-name="eight" unicode="8" horiz-adv-x="595" 
d="M213 356q-47 20 -77 56.5t-30 80.5q0 88 74.5 136t176.5 48t174.5 -45.5t72.5 -122.5q0 -67 -49 -114t-131 -62q53 -26 85 -66t32 -88q0 -84 -77 -137.5t-185 -53.5q-111 0 -184 45q-74 45 -74 130q0 69 51.5 120.5t140.5 72.5zM350 572q-54 0 -90.5 -25.5t-36.5 -66.5
q0 -30 33 -56q34 -25 74 -34q68 5 108 31t40 67q0 36 -37 60t-91 24zM308 292q-71 -4 -117 -34t-46 -74t38 -68t101 -24q55 0 97 27q42 29 42 72q0 34 -33.5 61.5t-81.5 39.5z" />
    <glyph glyph-name="nine" unicode="9" horiz-adv-x="601" 
d="M247 -11q-107 0 -177 58q-21 17 -21 43q0 22 15.5 37.5t39.5 15.5q20 0 34 -12q47 -38 117 -38q77 0 128 58q52 58 76 142l7 24q-32 -32 -81.5 -54.5t-99.5 -22.5q-91 0 -149.5 49.5t-58.5 131.5q-2 103 79.5 181t189.5 76q117 0 182 -66.5t65 -186.5q1 -80 -23 -157.5
t-67 -141t-110 -101.5t-146 -36zM336 335q78 0 142 64q1 5 1 40q0 61 -36.5 98t-97.5 37t-103.5 -41t-42.5 -97q0 -45 38.5 -73t98.5 -28z" />
    <glyph glyph-name="colon" unicode=":" horiz-adv-x="245" 
d="M167 490q27 0 45.5 -19t18.5 -45q0 -31 -22.5 -53.5t-54.5 -22.5q-26 0 -44.5 19t-18.5 46q0 31 22.5 53t53.5 22zM88 129q26 0 44.5 -19t18.5 -46q0 -31 -22.5 -53t-53.5 -22q-27 0 -45.5 19t-18.5 45q0 31 22.5 53.5t54.5 22.5z" />
    <glyph glyph-name="semicolon" unicode=";" horiz-adv-x="245" 
d="M167 490q27 0 45.5 -19t18.5 -45q0 -31 -22.5 -53.5t-54.5 -22.5q-26 0 -44.5 19t-18.5 46q0 31 22.5 53t53.5 22zM22 -124q-12 0 -20 8t-8 20q0 14 12 23q53 35 68 71h-10q-22 0 -37.5 15t-15.5 41q0 30 23 52.5t53 22.5q29 0 48 -19.5t19 -52.5q0 -47 -32.5 -95.5
t-84.5 -81.5q-4 -4 -15 -4z" />
    <glyph glyph-name="less" unicode="&#x3c;" horiz-adv-x="502" 
d="M43 329q0 36 33 51l415 176q6 3 14 3q14 0 24.5 -10.5t10.5 -24.5q0 -23 -22 -32l-391 -162l307 -153q21 -12 21 -33q0 -16 -11 -27t-27 -11q-10 0 -17 4l-327 170q-30 16 -30 49z" />
    <glyph glyph-name="equal" unicode="=" horiz-adv-x="502" 
d="M64 429q0 14 10 24t24 10h387q14 0 24 -10t10 -24t-10 -24t-24 -10h-387q-14 0 -24 10t-10 24zM22 238q0 14 10 24t24 10h387q14 0 24 -10t10 -24q0 -13 -10 -23t-24 -10h-387q-14 0 -24 10t-10 23z" />
    <glyph glyph-name="greater" unicode="&#x3e;" horiz-adv-x="502" 
d="M36 111q-14 0 -24.5 10.5t-10.5 24.5q0 23 22 32l391 159l-307 155q-21 12 -21 34q0 16 11 27t27 11q10 0 17 -4l328 -171q29 -15 29 -49q0 -36 -34 -51l-414 -175q-6 -3 -14 -3z" />
    <glyph glyph-name="question" unicode="?" horiz-adv-x="458" 
d="M160 241q-2 22 -2 25q3 54 30 82t91 63q51 27 71.5 47t20.5 48q0 31 -26 49.5t-73 18.5q-54 0 -103 -30q-10 -7 -25 -7q-20 0 -33.5 14t-13.5 34q0 25 21 39q77 53 170 53q89 0 148 -40.5t59 -106.5q0 -46 -20 -80q-19 -30 -44.5 -49t-76.5 -46q-53 -29 -74 -48.5
t-21 -48.5v-4v-6q0 -19 -15 -33t-35 -14q-18 0 -32 11.5t-17 28.5zM190 129q27 0 45.5 -19t18.5 -46q0 -31 -22.5 -53t-54.5 -22q-26 0 -44.5 19t-18.5 45q0 31 22.5 53.5t53.5 22.5z" />
    <glyph glyph-name="at" unicode="@" horiz-adv-x="783" 
d="M767 327q0 -110 -57 -176t-130 -66q-41 0 -66 21.5t-29 55.5l-1 6q-28 -38 -68 -60.5t-82 -22.5q-70 0 -112 46t-42 120q-2 97 70.5 173t159.5 74q91 0 126 -71l5 26q3 16 15.5 26t29.5 10q19 0 32.5 -13.5t13.5 -32.5q0 -8 -1 -10l-43 -205q-2 -16 -2 -23
q0 -23 11.5 -35.5t29.5 -12.5q37 0 68.5 44.5t31.5 125.5q0 121 -77 197.5t-202 76.5q-90 2 -174 -48.5t-134 -134t-48 -172.5q0 -119 81.5 -199.5t202.5 -80.5q95 0 174 49q6 2 8 2q6 0 11.5 -5t5.5 -12q0 -10 -8 -15q-92 -55 -195 -55q-132 -2 -225.5 91t-91.5 223
q-2 76 31.5 149.5t88.5 127.5t128.5 86t148.5 31q136 2 226.5 -90t88.5 -221zM495 236l27 126q-11 26 -34.5 43.5t-56.5 17.5q-63 0 -108.5 -50.5t-45.5 -114.5q0 -44 24.5 -71t66.5 -27q73 0 127 76z" />
    <glyph glyph-name="A" unicode="A" horiz-adv-x="673" 
d="M607 54q0 -25 -17.5 -42.5t-42.5 -17.5q-22 0 -38.5 14t-20.5 36l-12 84h-320l-62 -106q-19 -28 -49 -28q-23 0 -40 17t-17 40q0 13 9 30l333 544q31 48 86 48q37 0 65 -24t34 -60l91 -525q1 -2 1 -10zM217 231h244l-49 333z" />
    <glyph glyph-name="B" unicode="B" horiz-adv-x="648" 
d="M30 50q0 2 2 18l120 544q12 55 68 55h248q79 0 127.5 -45t48.5 -112t-45.5 -118.5t-107.5 -57.5q43 -12 70 -50.5t27 -85.5q0 -81 -60.5 -139.5t-170.5 -58.5h-270q-27 0 -42 13.5t-15 36.5zM437 564h-179l-38 -173h191q54 0 81 27.5t27 71.5q0 31 -24 52.5t-58 21.5z
M382 288h-185l-41 -185h195q54 0 86.5 30t32.5 75q0 36 -23.5 58t-64.5 22z" />
    <glyph glyph-name="C" unicode="C" horiz-adv-x="662" 
d="M433 678q162 0 250 -114q11 -17 11 -35q0 -25 -17 -42t-41 -17q-30 0 -48 25q-54 79 -161 79q-103 0 -178.5 -81.5t-75.5 -201.5q0 -88 56 -143.5t148 -55.5q76 0 141 53q14 13 34 13q23 0 38.5 -15.5t15.5 -38.5q0 -24 -21 -42q-91 -74 -215 -74q-136 -2 -228.5 82
t-90.5 214q-2 111 51.5 203.5t142 142.5t188.5 48z" />
    <glyph glyph-name="D" unicode="D" horiz-adv-x="710" 
d="M30 50q0 2 2 18l120 544q12 55 68 55h187q113 2 200 -82t84 -204q1 -72 -26 -139t-78 -122.5t-135 -88t-188 -31.5h-177q-27 0 -42 13.5t-15 36.5zM569 374q0 81 -52 135.5t-132 54.5h-127l-102 -461h129q126 0 205 78.5t79 192.5z" />
    <glyph glyph-name="E" unicode="E" horiz-adv-x="577" 
d="M30 50q0 2 2 18l120 544q12 55 68 55h343q21 0 36 -15t15 -37q0 -21 -15 -36t-36 -15h-305l-38 -173h275q21 0 36 -15t15 -37q0 -21 -15 -36t-36 -15h-298l-41 -185h282q21 0 36.5 -15t15.5 -36q0 -22 -15.5 -37t-36.5 -15h-351q-27 0 -42 13.5t-15 36.5z" />
    <glyph glyph-name="F" unicode="F" horiz-adv-x="562" 
d="M30 51q0 9 1 12l121 549q12 55 68 55h343q21 0 36 -15t15 -37q0 -21 -15 -36t-36 -15h-305l-38 -173h275q21 0 36 -15t15 -37q0 -21 -15 -36t-36 -15h-298l-54 -249q-5 -19 -20.5 -32t-35.5 -13q-24 0 -40.5 17t-16.5 40z" />
    <glyph glyph-name="G" unicode="G" horiz-adv-x="717" 
d="M678 308l-2 -18l-32 -145q-10 -43 -38 -69q-100 -88 -236 -88q-139 0 -229 82.5t-90 213.5q-3 167 112.5 282t279.5 112q147 0 231 -100q14 -17 14 -37q0 -24 -16.5 -41t-40.5 -17q-27 0 -45 21q-57 70 -159 70q-101 2 -178.5 -82.5t-75.5 -200.5q0 -87 56 -143t148 -56
q83 0 151 59l23 104h-141q-21 0 -36 15t-15 36q0 22 15 37t36 15h211q57 0 57 -50z" />
    <glyph glyph-name="H" unicode="H" horiz-adv-x="723" 
d="M494 52q0 9 1 12l50 227h-347l-55 -252q-5 -19 -20.5 -32t-35.5 -13q-24 0 -40.5 17t-16.5 41q0 9 1 12l124 564q5 19 20.5 32t35.5 13q24 0 40.5 -17t16.5 -41q0 -9 -1 -12l-46 -209h347l51 234q5 19 20.5 32t35.5 13q24 0 40.5 -17t16.5 -41q0 -9 -1 -12l-124 -564
q-5 -19 -20.5 -32t-35.5 -13q-24 0 -40.5 17t-16.5 41z" />
    <glyph glyph-name="I" unicode="I" horiz-adv-x="259" 
d="M30 52q0 9 1 12l124 564q5 19 20.5 32t35.5 13q24 0 40.5 -17t16.5 -41q0 -9 -1 -12l-124 -564q-5 -19 -20.5 -32t-35.5 -13q-24 0 -40.5 17t-16.5 41z" />
    <glyph glyph-name="J" unicode="J" horiz-adv-x="481" 
d="M-14 76q0 22 15.5 37.5t37.5 15.5q18 0 31 -10q38 -27 84 -27q53 0 86.5 31.5t45.5 89.5l91 415q5 19 20.5 32t35.5 13q24 0 40.5 -17t16.5 -41q0 -9 -1 -12l-86 -392q-48 -223 -241 -223q-90 0 -154 46q-22 16 -22 42z" />
    <glyph glyph-name="K" unicode="K" horiz-adv-x="621" 
d="M633 621q0 -24 -16 -37l-269 -232l182 -269q8 -13 8 -31q0 -24 -17 -41t-41 -17q-32 0 -50 29l-171 263l-78 -72l-38 -175q-5 -19 -20.5 -32t-35.5 -13q-24 0 -40.5 17t-16.5 41q0 9 1 12l124 564q5 19 20.5 32t35.5 13q24 0 40.5 -17t16.5 -41q0 -9 -1 -12l-54 -244
l333 300q14 14 36 14q21 0 36 -15t15 -37z" />
    <glyph glyph-name="L" unicode="L" horiz-adv-x="517" 
d="M30 50q0 2 2 18l123 560q5 19 20.5 32t35.5 13q24 0 40.5 -17t16.5 -41q0 -9 -1 -12l-111 -500h236q21 0 36.5 -15t15.5 -36q0 -22 -15.5 -37t-36.5 -15h-305q-27 0 -42 13.5t-15 36.5z" />
    <glyph glyph-name="M" unicode="M" horiz-adv-x="835" 
d="M606 52q0 9 1 12l101 461l-314 -515q-9 -16 -28 -16q-27 0 -32 27l-85 504l-106 -486q-5 -19 -20.5 -32t-35.5 -13q-24 0 -40.5 17t-16.5 40q0 9 1 12l118 535q7 32 33 53.5t60 21.5q35 0 62 -23t32 -57l66 -395l261 430q26 45 80 45q40 0 66 -27.5t26 -68.5
q0 -13 -1 -17l-115 -521q-5 -19 -20.5 -32t-35.5 -13q-24 0 -40.5 17t-16.5 41z" />
    <glyph glyph-name="N" unicode="N" horiz-adv-x="720" 
d="M465 38l-218 476l-104 -475q-5 -19 -20.5 -32t-35.5 -13q-24 0 -40.5 17t-16.5 41q0 9 1 12l120 546q6 27 28 45t51 18q23 0 43 -13t30 -34l211 -460l102 462q5 19 20.5 32t35.5 13q24 0 40.5 -17t16.5 -41q0 -9 -1 -12l-121 -550q-5 -26 -26 -42.5t-48 -16.5
q-48 0 -68 44z" />
    <glyph glyph-name="O" unicode="O" horiz-adv-x="765" 
d="M433 678q136 2 228 -81t91 -214q3 -162 -110.5 -280t-271.5 -115q-138 0 -228.5 81.5t-90.5 214.5q-2 106 49 197.5t140.5 145t192.5 51.5zM426 574q-103 2 -179 -82t-74 -201q0 -91 57.5 -145t146.5 -54q102 -2 178.5 82t74.5 201q0 90 -58 144.5t-146 54.5z" />
    <glyph glyph-name="P" unicode="P" horiz-adv-x="608" 
d="M30 52q0 9 1 12l121 548q12 55 68 55h212q92 0 145 -51t53 -129q0 -94 -68 -166t-199 -72h-174l-46 -210q-5 -19 -20.5 -32t-35.5 -13q-24 0 -40.5 17t-16.5 41zM508 476q0 37 -27 62.5t-68 25.5h-155l-47 -212h160q62 0 99.5 35t37.5 89z" />
    <glyph glyph-name="Q" unicode="Q" horiz-adv-x="765" 
d="M601 66l6 -9q11 -16 11 -33q0 -25 -22 -40q-14 -11 -30 -11q-28 0 -47 31l-7 11q-70 -27 -142 -27q-138 0 -228.5 81.5t-90.5 214.5q-2 106 49 197.5t140.5 145t192.5 51.5q136 2 228 -81t91 -214q0 -95 -40 -178.5t-111 -138.5zM630 375q0 90 -58 144.5t-146 54.5
q-103 2 -179 -82t-74 -201q0 -91 57.5 -145t146.5 -54q42 0 75 13l-38 57q-9 14 -9 30q0 27 24 42q13 9 30 9q27 0 41 -23l41 -62q89 83 89 217z" />
    <glyph glyph-name="R" unicode="R" horiz-adv-x="628" 
d="M440 257l92 -181q6 -12 6 -24q0 -23 -18.5 -40.5t-42.5 -17.5q-35 0 -55 39l-100 216h-134l-46 -210q-4 -19 -19.5 -32t-35.5 -13q-24 0 -40.5 17t-16.5 40q0 9 1 12l121 549q12 55 68 55h212q81 0 140 -51t59 -131q0 -88 -54 -151q-53 -62 -137 -77zM508 474
q0 38 -28.5 64t-68.5 26h-153l-47 -212h161q62 0 99 34t37 88z" />
    <glyph glyph-name="S" unicode="S" horiz-adv-x="594" 
d="M21 116q0 23 17 40t40 17q20 0 37 -14q79 -67 189 -67q57 0 88.5 27.5t31.5 68.5q0 30 -28 49.5t-100 46.5q-59 22 -103 44q-96 52 -96 142q0 84 70.5 145.5t179.5 61.5q127 0 216 -69q22 -19 22 -45q0 -23 -16.5 -39.5t-39.5 -16.5q-20 0 -35 12q-72 55 -163 55
q-45 0 -77.5 -25.5t-32.5 -59.5q0 -28 27.5 -46t98.5 -45q64 -24 103 -45q99 -50 99 -144q0 -92 -70 -156.5t-185 -64.5q-150 0 -252 84q-21 18 -21 44z" />
    <glyph glyph-name="T" unicode="T" horiz-adv-x="577" 
d="M189 52q0 9 1 12l110 500h-144q-21 0 -36 15t-15 37q0 21 15 36t36 15h428q21 0 36 -15t15 -36q0 -22 -15 -37t-36 -15h-167l-115 -525q-5 -19 -20.5 -32t-35.5 -13q-24 0 -40.5 17t-16.5 41z" />
    <glyph glyph-name="U" unicode="U" horiz-adv-x="719" 
d="M75 263l80 365q5 19 21 32t36 13q24 0 40.5 -17t16.5 -41q0 -9 -1 -12l-74 -337q-4 -12 -4 -37q0 -61 42 -99.5t115 -38.5q78 0 123 44t64 131l80 362q5 19 21 32t36 13q24 0 40.5 -17t16.5 -41q0 -9 -1 -12l-75 -339q-30 -138 -102.5 -207t-202.5 -69q-132 0 -204.5 61
t-72.5 167q0 19 5 47z" />
    <glyph glyph-name="V" unicode="V" horiz-adv-x="673" 
d="M196 78l-90 522q-1 2 -1 10q0 25 18 44t44 19q23 0 40.5 -15.5t20.5 -37.5l76 -493l307 517q19 29 51 29q25 0 42 -17t17 -41q0 -15 -9 -32l-331 -541q-31 -48 -86 -48q-37 0 -65 24t-34 60z" />
    <glyph glyph-name="W" unicode="W" horiz-adv-x="903" 
d="M524 68l-18 424l-220 -454q-20 -44 -70 -44q-30 0 -52.5 21.5t-24.5 51.5l-36 539q-1 28 17.5 47.5t45.5 19.5q25 0 43.5 -18t19.5 -43l14 -459l239 488q15 32 51 32q23 0 39.5 -15.5t17.5 -38.5l22 -466l230 486q15 34 53 34q25 0 42.5 -17t17.5 -41q0 -15 -7 -28
l-278 -550q-21 -43 -69 -43q-31 0 -53.5 21.5t-23.5 52.5z" />
    <glyph glyph-name="X" unicode="X" horiz-adv-x="661" 
d="M672 582l-247 -247l152 -255q8 -14 8 -29q0 -23 -18 -40t-42 -17q-31 0 -51 31l-141 235l-250 -249q-17 -17 -39 -17t-38 16t-16 38t15 37l265 264l-141 238q-8 14 -8 29q0 23 18 40t42 17q32 0 52 -32l129 -218l230 232q18 18 40 18q23 0 38.5 -15.5t15.5 -38.5t-14 -37
z" />
    <glyph glyph-name="Y" unicode="Y" horiz-adv-x="637" 
d="M656 585l-272 -309l-52 -237q-5 -19 -20.5 -32t-35.5 -13q-24 0 -40.5 17t-16.5 41q0 9 1 12l47 214l-140 314q-5 15 -5 24q0 24 17 40.5t41 16.5q37 0 53 -35l109 -256l234 272q14 19 40 19q22 0 37.5 -15.5t15.5 -37.5q0 -19 -13 -35z" />
    <glyph glyph-name="Z" unicode="Z" horiz-adv-x="589" 
d="M-2 58q0 23 16 40l434 466h-275q-21 0 -36.5 15t-15.5 36q0 22 15.5 37t36.5 15h391q24 0 41 -17t17 -42q0 -24 -15 -40l-436 -465h284q21 0 36 -15t15 -37q0 -21 -15 -36t-36 -15h-398q-24 0 -41.5 17t-17.5 41z" />
    <glyph glyph-name="bracketleft" unicode="[" horiz-adv-x="264" 
d="M-43 -148q0 6 1 8l175 786q3 14 15 23t25 9h135q14 0 24.5 -10.5t10.5 -25.5t-10.5 -25.5t-24.5 -10.5h-107l-160 -724h90q14 0 24.5 -10.5t10.5 -25.5t-10.5 -25.5t-24.5 -10.5h-133q-18 0 -29.5 12t-11.5 30z" />
    <glyph glyph-name="backslash" unicode="\" horiz-adv-x="315" 
d="M141 693q15 0 26 -9.5t12 -24.5l73 -642q2 -17 -10 -30t-29 -13q-15 0 -26 9.5t-12 24.5l-73 642q-2 17 10 30t29 13z" />
    <glyph glyph-name="bracketright" unicode="]" horiz-adv-x="264" 
d="M-79 -154q0 15 10.5 25.5t24.5 10.5h107l160 724h-90q-14 0 -24.5 10.5t-10.5 25.5t10.5 25.5t24.5 10.5h133q18 0 29.5 -12t11.5 -30q0 -6 -1 -8l-175 -786q-3 -14 -15 -23t-25 -9h-135q-14 0 -24.5 10.5t-10.5 25.5z" />
    <glyph glyph-name="asciicircum" unicode="^" horiz-adv-x="437" 
d="M356 355l-57 239l-171 -252q-10 -15 -28 -15q-14 0 -24 10t-10 24q0 13 6 20l188 268q18 24 46 24q19 0 34 -12t20 -30l67 -258q1 -2 1 -9q0 -15 -10.5 -26t-26.5 -11q-28 0 -35 28z" />
    <glyph glyph-name="underscore" unicode="_" horiz-adv-x="564" 
d="M-79 -76q0 15 11 25.5t25 10.5h508q14 0 25 -10.5t11 -25.5t-11 -25.5t-25 -10.5h-508q-14 0 -25 10.5t-11 25.5z" />
    <glyph glyph-name="grave" unicode="`" horiz-adv-x="240" 
d="M227 563l-73 80q-12 12 -12 27t10.5 25.5t25.5 10.5q18 0 29 -14l66 -88q9 -10 9 -21q0 -13 -9 -22t-22 -9t-24 11z" />
    <glyph glyph-name="a" unicode="a" horiz-adv-x="581" 
d="M555 438q0 -8 -1 -11l-87 -393q-4 -17 -18 -28.5t-32 -11.5q-21 0 -36.5 15.5t-15.5 35.5q0 8 1 11l2 8q-61 -76 -151 -76q-85 0 -135 53t-50 146q-1 77 29.5 147.5t90.5 116.5t134 44q51 0 93.5 -21.5t66.5 -59.5l8 35q4 17 17.5 28.5t32.5 11.5q21 0 36 -15.5t15 -35.5
zM387 149l42 187q-18 30 -51.5 48t-75.5 18q-68 0 -114 -58t-46 -136q0 -58 33 -92.5t86 -34.5q36 0 70 18.5t56 49.5z" />
    <glyph glyph-name="b" unicode="b" horiz-adv-x="581" 
d="M548 295q1 -76 -29.5 -146.5t-90.5 -116t-134 -44.5q-109 0 -160 81l-8 -35q-4 -17 -17.5 -28.5t-32.5 -11.5q-21 0 -36 15.5t-15 35.5q0 8 1 11l127 577q4 17 18 28.5t32 11.5q22 0 36.5 -15t14.5 -36q0 -8 -1 -11l-42 -192q64 76 152 76q84 0 134.5 -53.5t50.5 -146.5z
M438 274q0 57 -33.5 92.5t-85.5 35.5q-74 0 -127 -69l-41 -187q18 -30 51.5 -47.5t75.5 -17.5q68 0 114 57.5t46 135.5z" />
    <glyph glyph-name="c" unicode="c" horiz-adv-x="497" 
d="M310 495q98 0 156 -52q17 -15 17 -38q0 -20 -15 -34.5t-35 -14.5t-34 13q-36 33 -88 33q-74 0 -122.5 -56.5t-48.5 -135.5q0 -60 37 -94.5t97 -34.5q46 0 83 28q11 8 27 8q19 0 32 -13t13 -32q0 -23 -19 -37q-65 -47 -146 -47q-104 0 -167.5 59.5t-63.5 158.5
q-2 117 80.5 204t196.5 85z" />
    <glyph glyph-name="d" unicode="d" horiz-adv-x="581" 
d="M595 622q0 -8 -1 -11l-127 -577q-4 -17 -18 -28.5t-33 -11.5q-21 0 -36 15.5t-15 35.5q0 8 1 11l2 8q-61 -76 -151 -76q-85 0 -135 53t-50 146q-1 77 29.5 147.5t90.5 116.5t134 44q51 0 93.5 -21.5t66.5 -59.5l48 219q4 17 18 28.5t32 11.5q22 0 36.5 -15t14.5 -36z
M387 149l42 187q-18 30 -51.5 48t-75.5 18q-68 0 -114 -58t-46 -136q0 -58 33 -92.5t86 -34.5q36 0 70 18.5t56 49.5z" />
    <glyph glyph-name="e" unicode="e" horiz-adv-x="557" 
d="M309 495q94 0 153.5 -59t59.5 -155q0 -13 -1 -17q-2 -57 -65 -57h-317l-1 -17q0 -46 40 -81t107 -35q54 0 99 22q7 4 17 4q17 0 28.5 -12t11.5 -29q0 -24 -21 -35q-69 -36 -143 -36q-113 0 -178.5 58t-65.5 158q-2 117 80 205t196 86zM428 295q0 50 -34 82t-93 32
q-55 0 -99 -38q-41 -37 -52 -90h277q1 2 1 14z" />
    <glyph glyph-name="f" unicode="f" horiz-adv-x="308" 
d="M413 629q0 -17 -13 -29.5t-30 -12.5q-8 0 -10 1q-12 3 -25 3q-61 0 -78 -81l-6 -27h47q19 0 32.5 -13.5t13.5 -32.5t-13.5 -32.5t-32.5 -13.5h-68l-78 -357q-4 -17 -18 -28.5t-32 -11.5q-22 0 -36.5 15t-14.5 36q0 8 1 11l73 335h-28q-19 0 -32.5 13.5t-13.5 32.5
t13.5 32.5t32.5 13.5h49l6 27q37 167 171 167q31 0 60 -8q30 -9 30 -40z" />
    <glyph glyph-name="g" unicode="g" horiz-adv-x="580" 
d="M553 437q0 -8 -1 -11l-89 -401q-25 -120 -94 -170q-67 -51 -157 -51q-120 0 -193 53q-19 13 -19 37q0 19 13.5 32.5t32.5 13.5q16 0 28 -9q55 -41 136 -41q118 0 148 135l12 52q-63 -77 -155 -77q-83 0 -133 51t-50 147q-2 117 70 208.5t181 88.5q46 0 90.5 -22.5
t70.5 -58.5l8 35q4 17 18 28.5t32 11.5q21 0 36 -15.5t15 -36.5zM388 158l39 175q-19 32 -54 50.5t-78 18.5q-67 0 -110.5 -54.5t-43.5 -130.5q0 -57 33 -90.5t88 -33.5q70 0 126 65z" />
    <glyph glyph-name="h" unicode="h" horiz-adv-x="568" 
d="M352 45q0 8 1 11l54 247q5 22 5 30q0 69 -90 69q-65 0 -129 -66l-66 -302q-4 -17 -18 -28.5t-33 -11.5q-21 0 -36 15.5t-15 35.5q0 8 1 11l127 577q4 17 18 28.5t32 11.5q22 0 37 -15t15 -36q0 -8 -1 -11l-43 -194q83 78 165 78q68 0 108 -32.5t40 -89.5q0 -12 -5 -40
l-65 -299q-4 -17 -18 -28.5t-33 -11.5q-21 0 -36 15.5t-15 35.5z" />
    <glyph glyph-name="i" unicode="i" horiz-adv-x="241" 
d="M215 707q25 0 42 -16.5t17 -39.5q0 -32 -22.5 -53t-50.5 -21q-25 0 -42 16.5t-17 39.5q0 32 22.5 53t50.5 21zM26 45q0 8 1 11l86 393q4 17 18 28.5t33 11.5q21 0 36 -15.5t15 -35.5q0 -8 -1 -11l-87 -393q-4 -17 -18 -28.5t-32 -11.5q-22 0 -36.5 15t-14.5 36z" />
    <glyph glyph-name="j" unicode="j" horiz-adv-x="241" 
d="M142 633q0 32 22.5 53t50.5 21q25 0 42 -16.5t17 -39.5q0 -32 -22.5 -53t-50.5 -21q-25 0 -42 16.5t-17 39.5zM-126 -151q0 18 14 31t33 13h8q60 0 78 79l106 477q4 17 18 28.5t32 11.5q22 0 36.5 -15t14.5 -36q0 -8 -1 -11l-101 -455q-37 -168 -172 -168q-15 0 -27 2
q-17 2 -28 14t-11 29z" />
    <glyph glyph-name="k" unicode="k" horiz-adv-x="526" 
d="M522 444q0 -21 -15 -33l-187 -147l124 -188q9 -13 9 -28q0 -22 -17.5 -38t-40.5 -16q-29 0 -48 30l-113 179l-87 -73l-21 -95q-4 -18 -18 -29.5t-32 -11.5q-21 0 -36 15t-15 36q0 8 1 11l127 577q4 17 18 28.5t32 11.5q22 0 37 -15t15 -36q0 -8 -1 -11l-79 -356l273 223
q14 11 29 11q19 0 32 -13t13 -32z" />
    <glyph glyph-name="l" unicode="l" horiz-adv-x="241" 
d="M25 45q0 8 1 11l127 577q4 17 18 28.5t33 11.5q21 0 36 -15.5t15 -35.5q0 -8 -1 -11l-127 -577q-4 -17 -18 -28.5t-33 -11.5q-21 0 -36 15.5t-15 35.5z" />
    <glyph glyph-name="m" unicode="m" horiz-adv-x="833" 
d="M789 372q0 -22 -4 -39l-66 -299q-4 -17 -18 -28.5t-32 -11.5q-21 0 -36.5 15.5t-15.5 35.5q0 8 1 11l57 258q2 10 2 21q0 31 -20.5 49t-53.5 18q-58 0 -114 -65l-66 -303q-4 -17 -18 -28.5t-33 -11.5q-21 0 -36 15.5t-15 35.5q0 8 1 11l57 258q3 12 3 23q0 31 -20 48
t-56 17q-55 0 -113 -65l-66 -303q-4 -17 -18 -28.5t-32 -11.5q-21 0 -36.5 15.5t-15.5 35.5q0 8 1 11l87 393q4 17 18 28.5t32 11.5q21 0 36 -15.5t15 -36.5q0 -8 -1 -11l-2 -10q69 79 149 79q55 0 91.5 -30.5t36.5 -54.5v-2q69 87 169 87q61 0 96.5 -33.5t35.5 -89.5z" />
    <glyph glyph-name="n" unicode="n" 
d="M524 374q0 -13 -5 -41l-66 -299q-4 -17 -18 -28.5t-32 -11.5q-21 0 -36.5 15.5t-15.5 35.5q0 8 1 11l55 247q4 13 4 31q0 68 -80 68q-73 0 -138 -65l-66 -303q-4 -17 -18 -28.5t-32 -11.5q-21 0 -36.5 15.5t-15.5 35.5q0 8 1 11l87 393q4 17 18 28.5t32 11.5
q21 0 36 -15.5t15 -36.5q0 -8 -1 -11l-2 -9q81 78 165 78q69 0 108.5 -32t39.5 -89z" />
    <glyph glyph-name="o" unicode="o" horiz-adv-x="573" 
d="M307 495q107 0 169.5 -60t62.5 -158q2 -114 -79.5 -203t-195.5 -86q-107 0 -169.5 60t-62.5 157q-2 114 79.5 203.5t195.5 86.5zM304 402q-68 0 -115.5 -58t-47.5 -134q0 -60 33.5 -94.5t92.5 -34.5q68 0 115.5 57.5t47.5 134.5q0 60 -33.5 94.5t-92.5 34.5z" />
    <glyph glyph-name="p" unicode="p" horiz-adv-x="578" 
d="M548 295q1 -76 -29.5 -146.5t-90.5 -116t-134 -44.5q-109 0 -160 81l-48 -219q-4 -17 -18 -28.5t-32 -11.5q-22 0 -36.5 15t-14.5 36q0 8 1 11l127 577q4 17 18 28.5t32 11.5q21 0 36 -15.5t15 -36.5q0 -8 -1 -11l-2 -6q65 75 152 75q84 0 134.5 -53.5t50.5 -146.5z
M438 274q0 57 -33.5 92.5t-85.5 35.5q-74 0 -127 -69l-41 -187q18 -30 51.5 -47.5t75.5 -17.5q68 0 114 57.5t46 135.5z" />
    <glyph glyph-name="q" unicode="q" horiz-adv-x="578" 
d="M554 438q0 -8 -1 -11l-127 -577q-4 -17 -18 -28.5t-32 -11.5q-22 0 -36.5 15t-14.5 36q0 8 1 11l42 192q-61 -76 -151 -76q-85 0 -135 53t-50 146q-1 77 29.5 147.5t90.5 116.5t134 44q51 0 93.5 -21.5t66.5 -59.5l8 35q4 17 17.5 28.5t32.5 11.5q21 0 35.5 -15t14.5 -36
zM387 149l42 187q-18 30 -51.5 48t-75.5 18q-68 0 -114 -58t-46 -136q0 -58 33 -92.5t86 -34.5q36 0 70 18.5t56 49.5z" />
    <glyph glyph-name="r" unicode="r" horiz-adv-x="347" 
d="M380 444q0 -21 -15 -36t-36 -14h-10q-35 0 -69.5 -18.5t-58.5 -48.5l-64 -293q-4 -17 -18 -28.5t-32 -11.5q-21 0 -36.5 15.5t-15.5 35.5q0 8 1 11l87 393q4 17 18 28.5t32 11.5q21 0 36 -15.5t15 -36.5q0 -8 -1 -11l-3 -11q67 74 122 74q48 0 48 -45z" />
    <glyph glyph-name="s" unicode="s" horiz-adv-x="472" 
d="M10 82q0 20 14 33.5t33 13.5q17 0 29 -9q63 -49 137 -49q38 0 62.5 18.5t24.5 46.5q0 20 -21.5 34t-74.5 33q-45 15 -79 32q-74 37 -74 103t52 111.5t140 45.5q95 0 166 -52q19 -13 19 -35q0 -19 -13 -32t-32 -13q-14 0 -26 9q-56 39 -117 39q-39 0 -62 -16t-23 -41
q0 -18 20 -30t73 -32q42 -15 64 -24.5t46 -26t34.5 -37.5t12.5 -51q0 -70 -55 -117.5t-146 -47.5q-108 0 -185 56q-19 14 -19 38z" />
    <glyph glyph-name="t" unicode="t" horiz-adv-x="319" 
d="M340 438q0 -19 -13 -32.5t-32 -13.5h-67l-56 -250q-3 -11 -3 -20q0 -41 49 -41h4q18 2 32 -11.5t14 -32.5q0 -29 -29 -41q-26 -8 -51 -8q-62 0 -96.5 24t-34.5 70q0 19 4 34l61 276h-29q-19 0 -32 13.5t-13 32.5t13 32t32 13h49l22 98q4 17 18 28.5t32 11.5q22 0 37 -15
t15 -36q0 -8 -1 -11l-17 -76h47q19 0 32 -13t13 -32z" />
    <glyph glyph-name="u" unicode="u" 
d="M541 438q0 -8 -1 -11l-87 -393q-4 -17 -18 -28.5t-32 -11.5q-21 0 -36 15.5t-15 36.5q0 8 1 11l2 9q-81 -78 -165 -78q-69 0 -108.5 32t-39.5 89q0 13 5 41l66 299q4 17 18 28.5t32 11.5q22 0 37 -15t15 -36q0 -8 -1 -11l-55 -247q-4 -13 -4 -31q0 -68 80 -68
q73 0 138 65l66 303q4 17 18 28.5t32 11.5q22 0 37 -15t15 -36z" />
    <glyph glyph-name="v" unicode="v" horiz-adv-x="503" 
d="M522 440q0 -12 -8 -26l-241 -383q-24 -37 -66 -37q-28 0 -50 18t-27 46l-68 368q-1 2 -1 10q0 21 15.5 37t37.5 16q20 0 34.5 -13t17.5 -32l54 -322l211 344q12 23 42 23q21 0 35 -15t14 -34z" />
    <glyph glyph-name="w" unicode="w" horiz-adv-x="754" 
d="M429 58l-28 296l-173 -323q-19 -37 -62 -37q-27 0 -47.5 18.5t-22.5 45.5l-33 374q-2 22 13.5 39.5t37.5 17.5q21 0 35.5 -13.5t16.5 -34.5l21 -309l179 326q18 31 53 31q22 0 39.5 -15.5t19.5 -38.5l31 -303l169 330q14 27 44 27q21 0 35.5 -14.5t14.5 -35.5
q0 -13 -6 -23l-204 -385q-19 -37 -62 -37q-28 0 -48.5 19t-22.5 45z" />
    <glyph glyph-name="x" unicode="x" horiz-adv-x="496" 
d="M500 444q0 -20 -12 -30l-174 -169l109 -177q8 -14 8 -25q0 -20 -16 -34.5t-37 -14.5q-29 0 -46 29l-96 157l-176 -172q-14 -14 -33 -14q-18 0 -31 13t-13 31q0 20 12 31l186 181l-100 165q-6 10 -6 23q0 20 15.5 35.5t36.5 15.5q29 0 46 -29l88 -144l162 159q17 14 33 14
q19 0 31.5 -13t12.5 -32z" />
    <glyph glyph-name="y" unicode="y" horiz-adv-x="503" 
d="M17 -100q5 -1 19 -1q37 0 65 40l38 58l-78 429q-1 2 -1 9q0 22 16 38t38 16q20 0 34.5 -13t17.5 -32l54 -323l211 345q12 23 42 23q21 0 35 -15t14 -34q0 -12 -8 -26l-316 -501q-37 -58 -77 -83.5t-95 -25.5q-14 0 -18 1q-18 2 -31 15.5t-13 31.5q0 22 16 36t37 12z" />
    <glyph glyph-name="z" unicode="z" horiz-adv-x="476" 
d="M-3 48q0 16 14 33l302 310h-183q-19 0 -32.5 13.5t-13.5 32.5t13.5 32.5t32.5 13.5h297q19 0 32.5 -13.5t13.5 -32.5q0 -18 -13 -32l-306 -314h190q19 0 32.5 -13.5t13.5 -32.5t-13.5 -32t-32.5 -13h-299q-20 0 -34 14t-14 34z" />
    <glyph glyph-name="braceleft" unicode="{" horiz-adv-x="276" 
d="M-11 -71q0 15 3 29l42 187q2 16 2 17q0 32 -21 45q-17 11 -17 34q0 13 8.5 24t20.5 14q38 9 51 64l41 186q35 149 175 149h26q14 0 24.5 -10.5t10.5 -25.5t-10.5 -25.5t-24.5 -10.5h-42q-64 0 -81 -77l-46 -204q-16 -73 -65 -89q29 -15 29 -55q0 -19 -4 -34l-41 -188
q-2 -16 -2 -20q0 -25 16 -41t40 -16h19q14 0 24.5 -10.5t10.5 -25.5t-10.5 -25.5t-24.5 -10.5h-27q-53 0 -90 34t-37 85z" />
    <glyph glyph-name="bar" unicode="|" horiz-adv-x="214" 
d="M91 10v647q0 14 10.5 25t25.5 11t25.5 -11t10.5 -25v-647q0 -14 -10.5 -25t-25.5 -11t-25.5 11t-10.5 25z" />
    <glyph glyph-name="braceright" unicode="}" horiz-adv-x="276" 
d="M286 559q0 -15 -3 -29l-42 -187q-2 -16 -2 -17q0 -32 21 -45q17 -11 17 -34q0 -13 -8.5 -24t-20.5 -14q-38 -9 -51 -64l-41 -186q-35 -149 -175 -149h-26q-14 0 -24.5 10.5t-10.5 25.5t10.5 25.5t24.5 10.5h42q64 0 81 77l46 204q16 73 65 89q-29 15 -29 55q0 19 4 34
l41 188q2 16 2 20q0 25 -16 41t-40 16h-19q-14 0 -24.5 10.5t-10.5 25.5t10.5 25.5t24.5 10.5h27q53 0 90 -34t37 -85z" />
    <glyph glyph-name="asciitilde" unicode="~" horiz-adv-x="507" 
d="M564 633q0 -7 -1 -9q-55 -207 -176 -207q-53 2 -72 29t-28 85q-7 39 -14.5 53.5t-26.5 14.5q-29 0 -56 -43t-45 -115q-3 -11 -13 -19t-22 -8q-15 0 -25.5 10.5t-10.5 25.5q0 7 1 9q54 207 175 207q55 -3 73 -28.5t28 -85.5q6 -39 13.5 -54t27.5 -15q29 0 56 43t46 116
q3 11 12.5 19t21.5 8q15 0 25.5 -10.5t10.5 -25.5z" />
    <glyph glyph-name="uni00A0" unicode="&#xa0;" horiz-adv-x="257" 
 />
    <glyph glyph-name="exclamdown" unicode="&#xa1;" horiz-adv-x="245" 
d="M154 354q-26 0 -44.5 19t-18.5 45q0 31 22.5 53.5t53.5 22.5q27 0 45.5 -19t18.5 -46q0 -31 -22.5 -53t-54.5 -22zM167 238l-1 -8l-67 -370q-4 -22 -20.5 -36t-38.5 -14q-26 0 -43.5 17t-17.5 42q0 9 2 17l96 364q4 14 16 24t28 10q19 0 32.5 -13.5t13.5 -32.5z" />
    <glyph glyph-name="cent" unicode="&#xa2;" horiz-adv-x="497" 
d="M483 405q0 -20 -15 -34.5t-35 -14.5t-34 13q-15 15 -44 26l-69 -313q40 3 71 27q11 8 27 8q19 0 32 -13t13 -32q0 -23 -19 -37q-65 -47 -144 -47l-15 -64q-3 -13 -13.5 -21.5t-23.5 -8.5q-18 0 -29.5 15t-7.5 32l13 56q-73 19 -115 74t-42 135q-2 115 77 201t190 88
l11 46q3 12 13.5 21t23.5 9q15 0 26 -12t11 -27q0 -6 -1 -8l-8 -36q51 -10 90 -45q17 -15 17 -38zM212 93l66 306q-63 -12 -100 -66q-38 -53 -38 -123q0 -85 72 -117z" />
    <glyph glyph-name="sterling" unicode="&#xa3;" horiz-adv-x="536" 
d="M549 570q0 -24 -15.5 -40t-39.5 -16q-27 0 -45 23q-33 44 -97 44q-55 0 -93.5 -37.5t-38.5 -94.5q0 -29 25 -83q8 -13 14 -28h106q14 0 24.5 -10.5t10.5 -24.5t-10.5 -24.5t-24.5 -10.5h-93q-5 -47 -38 -90q-34 -46 -69 -65q30 11 55 11q39 0 75 -16q2 -1 17.5 -5.5
t30 -8t24.5 -3.5q17 0 41 8q11 4 22 4q20 0 34 -14t14 -33q0 -25 -22 -40q-44 -29 -98 -29q-45 0 -120 25q-46 13 -85 13q-28 0 -88 -26q-7 -3 -16 -3q-17 0 -29 12t-12 29q0 24 22 36q56 30 93 81q38 52 38 98q0 13 -1 16h-96q-14 0 -24.5 10.5t-10.5 24.5t10.5 24.5
t24.5 10.5h72q-7 14 -16 29q-27 51 -27 94q-2 86 75 151.5t179 64.5q120 0 187 -69q15 -16 15 -38z" />
    <glyph glyph-name="currency" unicode="&#xa4;" horiz-adv-x="612" 
d="M642 553q0 -19 -15 -34l-71 -58q24 -44 24 -100q0 -108 -74 -185l35 -44q10 -11 10 -28q0 -19 -13 -32.5t-32 -13.5q-22 0 -36 17l-37 46q-59 -30 -125 -30q-87 0 -151 44l-74 -60q-11 -9 -26 -9q-19 0 -32.5 13t-13.5 32q0 21 14 32l73 59q-24 43 -24 100q0 112 73 187
l-37 48q-9 12 -9 28q0 19 13.5 32t32.5 13q23 0 36 -18l37 -48q60 30 127 30q89 0 150 -45l71 58q14 10 30 10q18 0 31 -12.5t13 -31.5zM313 185q66 0 113 50.5t47 117.5q0 56 -35.5 91t-98.5 35q-67 0 -112.5 -51t-45.5 -119q0 -55 35 -89.5t97 -34.5z" />
    <glyph glyph-name="yen" unicode="&#xa5;" horiz-adv-x="637" 
d="M671 620q0 -19 -13 -35l-213 -241h156q14 0 24 -10t10 -23q0 -14 -10 -24t-24 -10h-215l-20 -92h199q14 0 24 -10t10 -24q0 -13 -10 -23t-24 -10h-214l-17 -79q-5 -19 -20.5 -32t-35.5 -13q-24 0 -40.5 17t-16.5 41q0 9 1 12l12 54h-204q-14 0 -24 10t-10 24q0 13 10 23
t24 10h219l20 92h-203q-14 0 -24 10t-10 24q0 13 10 23t24 10h173l-110 248q-5 15 -5 24q0 24 17 40.5t41 16.5q37 0 53 -35l109 -257l234 273q14 19 40 19q22 0 37.5 -15.5t15.5 -37.5z" />
    <glyph glyph-name="brokenbar" unicode="&#xa6;" horiz-adv-x="214" 
d="M91 401v256q0 14 10.5 25t25.5 11t25.5 -11t10.5 -25v-256q0 -14 -10.5 -25t-25.5 -11t-25.5 11t-10.5 25zM91 10v256q0 14 10.5 25t25.5 11t25.5 -11t10.5 -25v-256q0 -14 -10.5 -25t-25.5 -11t-25.5 11t-10.5 25z" />
    <glyph glyph-name="section" unicode="&#xa7;" horiz-adv-x="477" 
d="M398 81q0 -67 -55.5 -114.5t-141.5 -47.5q-115 0 -195 54q-18 11 -18 35q0 18 12.5 30.5t30.5 12.5q15 0 26 -10q60 -48 143 -48q41 0 67 21t26 52q0 25 -22 40.5t-77 34.5q-45 17 -77 32q-69 37 -69 105q0 51 35 87.5t100 51.5q-81 33 -81 108q0 64 54 108t137 44
q107 0 174 -48q17 -12 17 -32q0 -17 -11.5 -29t-28.5 -12q-13 0 -24 8q-50 38 -123 38q-41 0 -66 -18.5t-25 -46.5q0 -25 21.5 -39t77.5 -33q47 -16 77 -32q71 -35 71 -105q0 -49 -31.5 -88.5t-87.5 -57.5q64 -34 64 -101zM153 297q0 -28 23.5 -45.5t78.5 -35.5q44 12 67 36
t23 53q0 50 -80 76q-55 -7 -83.5 -29.5t-28.5 -54.5z" />
    <glyph glyph-name="dieresis" unicode="&#xa8;" horiz-adv-x="419" 
d="M130 616q0 26 20 45.5t46 19.5q22 0 37 -14.5t15 -37.5q0 -26 -20 -45.5t-46 -19.5q-22 0 -37 15t-15 37zM339 616q0 26 20 45.5t46 19.5q23 0 37.5 -14.5t14.5 -37.5q0 -26 -20 -45.5t-46 -19.5q-22 0 -37 15t-15 37z" />
    <glyph glyph-name="copyright" unicode="&#xa9;" horiz-adv-x="778" 
d="M64 334q-3 139 101.5 243t242.5 102q140 2 244.5 -102t101.5 -243q3 -139 -101.5 -243.5t-244.5 -101.5q-138 -3 -242.5 101.5t-101.5 243.5zM720 334q3 125 -92 219.5t-220 91.5q-124 3 -218 -91.5t-92 -219.5q-2 -125 92 -219.5t218 -91.5q125 -3 220 91.5t92 219.5z
M200 307q-2 97 70.5 169t163.5 70q101 0 148 -66q5 -8 5 -13q0 -9 -6 -15t-14 -6q-13 0 -19 9q-35 54 -116 54q-72 0 -131 -59.5t-59 -141.5q0 -62 41.5 -105.5t108.5 -43.5q51 0 103 38q5 4 11 4q8 0 13.5 -5.5t5.5 -12.5q0 -9 -8 -17q-59 -44 -126 -44q-85 0 -138 53
t-53 132z" />
    <glyph glyph-name="ordfeminine" unicode="&#xaa;" horiz-adv-x="412" 
d="M436 600l-56 -250q-7 -30 -37 -30q-16 0 -27 11t-11 26q0 7 1 9l1 3q-45 -51 -101 -51q-55 0 -90 35.5t-35 97.5q0 81 49.5 139t119.5 58q73 0 108 -50l4 18q7 30 37 30q18 0 29.5 -14.5t7.5 -31.5zM319 420l29 131q-25 35 -80 35q-43 0 -75 -38q-31 -37 -31 -88
q0 -38 20.5 -59t55.5 -21q45 0 81 40z" />
    <glyph glyph-name="guillemotleft" unicode="&#xab;" horiz-adv-x="489" 
d="M141 75l-80 120q-13 19 -13 39q0 26 25 47l153 136q9 9 23 9t24 -10t10 -24t-12 -26l-143 -128l79 -119q7 -10 7 -23q0 -16 -12 -27.5t-28 -11.5q-20 0 -33 18zM311 75l-80 120q-13 19 -13 39q0 26 25 47l153 136q9 9 23 9t24 -10t10 -24t-12 -26l-143 -128l79 -119
q7 -10 7 -23q0 -16 -12 -27.5t-28 -11.5q-20 0 -33 18z" />
    <glyph glyph-name="logicalnot" unicode="&#xac;" horiz-adv-x="510" 
d="M435 199q-16 0 -26.5 13t-6.5 29l34 154h-338q-14 0 -24 10t-10 24t10 24t24 10h353q27 0 42 -13.5t15 -36.5q0 -2 -2 -18l-37 -169q-5 -27 -34 -27z" />
    <glyph glyph-name="uni00AD" unicode="&#xad;" horiz-adv-x="300" 
d="M24 242q0 19 13.5 32t31.5 13h160q18 0 31.5 -13t13.5 -32t-13.5 -32t-31.5 -13h-160q-18 0 -31.5 13t-13.5 32z" />
    <glyph glyph-name="registered" unicode="&#xae;" horiz-adv-x="494" 
d="M84 465q0 88 62 150t150 62t150 -62t62 -150t-62.5 -150t-150.5 -62q-87 0 -149 62t-62 150zM477 465q0 75 -53.5 128t-128.5 53q-76 0 -128.5 -52.5t-52.5 -128.5q0 -75 53 -128.5t128 -53.5q74 0 128 54t54 128zM326 350l-39 89h-45l-19 -87q-3 -13 -15 -13q-8 0 -13 6
t-3 15l45 209q6 17 21 17h75q30 0 50.5 -18t20.5 -46q0 -34 -24.5 -58t-55.5 -24l35 -77q1 -1 1 -6q0 -18 -17 -18q-12 0 -17 11zM327 557h-59l-20 -88h66q24 0 39.5 14.5t15.5 35.5q0 17 -11.5 27.5t-30.5 10.5z" />
    <glyph glyph-name="overscore" unicode="&#xaf;" horiz-adv-x="363" 
d="M94 597q0 13 9 22t22 9h272q13 0 22 -9t9 -22t-9 -22t-22 -9h-272q-13 0 -22 9t-9 22z" />
    <glyph glyph-name="degree" unicode="&#xb0;" horiz-adv-x="302" 
d="M88 547q0 53 38 91.5t91 38.5t91.5 -38.5t38.5 -91.5q0 -54 -38 -91.5t-92 -37.5q-53 0 -91 37.5t-38 91.5zM149 547q0 -29 19.5 -49t47.5 -20q29 0 50 20.5t21 48.5q0 29 -20.5 49.5t-49.5 20.5q-28 0 -48 -20.5t-20 -49.5z" />
    <glyph glyph-name="plusminus" unicode="&#xb1;" horiz-adv-x="502" 
d="M305 325l-41 -186q-2 -12 -12 -20t-23 -8q-17 0 -28.5 14t-7.5 30l38 170h-149q-14 0 -24 10t-10 23q0 14 10 24t24 10h164l40 179q7 28 35 28q17 0 28 -13.5t7 -30.5l-36 -163h149q14 0 24 -10t10 -23q0 -14 -10 -24t-24 -10h-164zM-23 34q0 14 9.5 23.5t23.5 9.5h388
q14 0 23.5 -9.5t9.5 -23.5t-9.5 -24t-23.5 -10h-388q-14 0 -23.5 10t-9.5 24z" />
    <glyph glyph-name="uni00B2" unicode="&#xb2;" horiz-adv-x="353" 
d="M61 460q0 22 19 34q154 87 205 128t55 85q0 26 -21 40.5t-54 14.5q-49 0 -92 -28q-7 -5 -17 -5q-13 0 -22.5 9.5t-9.5 22.5q0 15 14 26q58 40 130 40q65 0 110 -30q45 -29 45 -83t-55 -106t-178 -122h151q13 0 22.5 -9.5t9.5 -22.5q0 -14 -9.5 -23.5t-22.5 -9.5h-242
q-16 0 -27 11.5t-11 27.5z" />
    <glyph glyph-name="uni00B3" unicode="&#xb3;" horiz-adv-x="373" 
d="M96 462q-12 12 -12 27t10.5 25t25.5 10t24 -9q40 -36 98 -36q35 0 55.5 18t20.5 46q0 23 -23 36.5t-63 13.5h-7q-12 0 -21 9.5t-9 22.5q0 12 9 21.5t22 9.5l44 -1q38 0 59 15t21 41q0 23 -24 37t-61 14q-45 0 -85 -24q-8 -5 -16 -5q-12 0 -20.5 9t-8.5 21q0 17 13 24
q61 40 124 40q73 0 116.5 -28t43.5 -77q0 -42 -30.5 -70t-80.5 -32q35 -7 56.5 -30t21.5 -56q0 -48 -43 -84t-110 -36q-94 0 -150 48z" />
    <glyph glyph-name="acute" unicode="&#xb4;" horiz-adv-x="240" 
d="M128 550q-10 0 -18 8t-8 18q0 15 10 22l116 98q11 8 23 8q13 0 21.5 -9.5t8.5 -22.5q0 -17 -13 -27l-123 -90q-8 -5 -17 -5z" />
    <glyph glyph-name="uni00B5" unicode="&#xb5;" horiz-adv-x="579" 
d="M33 -190q-21 0 -36 15.5t-15 36.5q0 8 1 11l130 576q4 17 18 28.5t32 11.5q21 0 36 -15.5t15 -36.5q0 -8 -1 -11l-55 -246q-4 -13 -4 -30q0 -34 21.5 -52t57.5 -18t73 18t64 46l67 305q4 17 18 28.5t32 11.5q22 0 36.5 -15t14.5 -36q0 -8 -1 -11l-65 -296q-3 -10 -3 -20
q0 -20 18 -26q8 -2 17 -9q18 -15 18 -39q0 -18 -12.5 -32.5t-29.5 -15.5q-5 -1 -21 -1q-97 0 -99 86q-34 -39 -77.5 -62.5t-85.5 -23.5q-58 0 -75 36l-39 -174q-4 -17 -18 -28.5t-32 -11.5z" />
    <glyph glyph-name="paragraph" unicode="&#xb6;" horiz-adv-x="449" 
d="M266 -73l152 685h-83l-155 -697q-5 -21 -26 -21q-13 0 -21 10.5t-5 22.5l88 396q-57 0 -97 44.5t-40 111.5q0 73 57 130.5t137 57.5h142q57 0 57 -50l-2 -18l-152 -684q-5 -21 -26 -21q-13 0 -21 10.5t-5 22.5z" />
    <glyph glyph-name="middot" unicode="&#xb7;" horiz-adv-x="245" 
d="M129 315q26 0 44.5 -19t18.5 -46q0 -31 -22.5 -53t-53.5 -22q-27 0 -45.5 19t-18.5 45q0 31 22.5 53.5t54.5 22.5z" />
    <glyph glyph-name="cedilla" unicode="&#xb8;" horiz-adv-x="214" 
d="M-84 -145q0 10 7.5 18t18.5 8q7 0 15 -5q31 -22 69 -22q26 0 40.5 11t14.5 29q0 26 -33 26q-12 0 -24 -9q-8 -5 -17 -5q-10 0 -16 6t-6 14q0 13 4 18l40 67h55l-39 -64q16 11 32 11q26 0 42.5 -16.5t16.5 -44.5q0 -41 -31 -66t-80 -25q-54 0 -97 26q-12 9 -12 23z" />
    <glyph glyph-name="uni00B9" unicode="&#xb9;" horiz-adv-x="264" 
d="M170 455q0 6 1 8l55 250l-59 -49q-7 -7 -20 -7t-22 9t-9 22q0 16 11 24l130 106q13 9 25 9q17 0 29 -12t12 -29q0 -6 -1 -8l-73 -332q-3 -13 -14 -22t-25 -9q-16 0 -28 12t-12 28z" />
    <glyph glyph-name="ordmasculine" unicode="&#xba;" horiz-adv-x="405" 
d="M266 648q71 0 114 -40.5t43 -104.5q0 -77 -55.5 -131t-131.5 -54q-71 0 -114 40t-43 104q0 77 55.5 131.5t131.5 54.5zM264 583q-49 0 -77 -37t-28 -86q0 -36 21.5 -57.5t57.5 -21.5q48 0 76 37q29 38 29 86q0 36 -21.5 57.5t-57.5 21.5z" />
    <glyph glyph-name="guillemotright" unicode="&#xbb;" horiz-adv-x="489" 
d="M180 408l80 -120q13 -19 13 -39q0 -26 -25 -47l-153 -136q-9 -9 -23 -9t-24 10t-10 24t12 26l143 128l-79 119q-7 10 -7 23q0 16 12 27.5t28 11.5q19 0 33 -18zM350 408l80 -120q13 -19 13 -39q0 -26 -25 -47l-153 -136q-9 -9 -23 -9t-24 10t-10 24t12 26l143 128
l-79 119q-7 10 -7 23q0 16 12 27.5t28 11.5q19 0 33 -18z" />
    <glyph glyph-name="onequarter" unicode="&#xbc;" horiz-adv-x="752" 
d="M136 301q0 6 1 8l55 250l-59 -49q-7 -7 -20 -7t-22 9t-9 22q0 16 11 24l130 106q13 9 25 9q17 0 29 -12t12 -29q0 -6 -1 -8l-73 -332q-3 -13 -14 -22t-25 -9q-16 0 -28 12t-12 28zM113 -6q-11 0 -18 7.5t-7 18.5q0 8 6 16l539 628q7 9 20 9q11 0 18.5 -7.5t7.5 -18.5
q0 -10 -7 -17l-539 -627q-7 -9 -20 -9zM721 124q0 -13 -9.5 -22.5t-22.5 -9.5h-35l-15 -67q-3 -13 -13.5 -22t-24.5 -9q-16 0 -27.5 11.5t-11.5 27.5q0 6 1 8l11 51h-162q-13 0 -22.5 9.5t-9.5 22.5q0 14 7 21l209 239q19 22 48 22q27 0 45.5 -18.5t18.5 -44.5l-2 -14
l-38 -173h21q13 0 22.5 -9.5t9.5 -22.5zM588 156l38 171l-153 -171h115z" />
    <glyph glyph-name="onehalf" unicode="&#xbd;" horiz-adv-x="792" 
d="M136 301q0 6 1 8l55 250l-59 -49q-7 -7 -20 -7t-22 9t-9 22q0 16 11 24l130 106q13 9 25 9q17 0 29 -12t12 -29q0 -6 -1 -8l-73 -332q-3 -13 -14 -22t-25 -9q-16 0 -28 12t-12 28zM113 -6q-11 0 -18 7.5t-7 18.5q0 8 6 16l539 628q7 9 20 9q11 0 18.5 -7.5t7.5 -18.5
q0 -10 -7 -17l-539 -627q-7 -9 -20 -9zM407 39q0 22 19 34q154 87 205 128t55 85q0 26 -21 40.5t-54 14.5q-49 0 -92 -28q-7 -5 -17 -5q-13 0 -22.5 9.5t-9.5 22.5q0 15 14 26q58 40 130 40q65 0 110 -30q45 -28 45 -83q0 -54 -55 -106t-178 -122h151q13 0 22.5 -9.5
t9.5 -22.5q0 -14 -9.5 -23.5t-22.5 -9.5h-242q-16 0 -27 11.5t-11 27.5z" />
    <glyph glyph-name="threequarters" unicode="&#xbe;" horiz-adv-x="836" 
d="M62 308q-12 12 -12 27t10.5 25t25.5 10t24 -9q40 -36 98 -36q35 0 55.5 18t20.5 46q0 23 -23 36.5t-63 13.5h-7q-12 0 -21 9.5t-9 22.5q0 12 9 21.5t22 9.5l44 -1q38 0 59 15t21 41q0 23 -24 37t-61 14q-45 0 -85 -24q-8 -5 -16 -5q-12 0 -20.5 9t-8.5 21q0 17 13 24
q61 40 124 40q73 0 116.5 -28t43.5 -77q0 -42 -30.5 -70t-80.5 -32q35 -7 56.5 -30t21.5 -56q0 -48 -43 -84t-110 -36q-94 0 -150 48zM197 -6q-11 0 -18 7.5t-7 18.5q0 8 6 16l539 628q7 9 20 9q11 0 18.5 -7.5t7.5 -18.5q0 -10 -7 -17l-539 -627q-7 -9 -20 -9zM805 124
q0 -13 -9.5 -22.5t-22.5 -9.5h-35l-15 -67q-3 -13 -13.5 -22t-24.5 -9q-16 0 -27.5 11.5t-11.5 27.5q0 6 1 8l11 51h-162q-13 0 -22.5 9.5t-9.5 22.5q0 14 7 21l209 239q19 22 48 22q27 0 45.5 -18.5t18.5 -44.5l-2 -14l-38 -173h21q13 0 22.5 -9.5t9.5 -22.5zM672 156
l38 171l-153 -171h115z" />
    <glyph glyph-name="questiondown" unicode="&#xbf;" horiz-adv-x="396" 
d="M266 353q-26 0 -44.5 19t-18.5 46q0 31 22.5 53t53.5 22q27 0 45.5 -19t18.5 -45q0 -31 -22.5 -53.5t-54.5 -22.5zM296 241q2 -22 2 -25q-3 -54 -30 -82t-91 -63q-51 -27 -71.5 -47t-20.5 -48q0 -31 26 -49.5t73 -18.5q54 0 103 30q10 7 25 7q20 0 33.5 -14t13.5 -34
q0 -25 -21 -39q-77 -53 -170 -53q-89 0 -148 40.5t-59 106.5q0 47 20 79q19 30 44.5 49.5t76.5 46.5q53 29 74 48.5t21 48.5v4v6q0 19 15 33t35 14q18 0 32 -11.5t17 -28.5z" />
    <glyph glyph-name="Agrave" unicode="&#xc0;" horiz-adv-x="673" 
d="M607 54q0 -25 -17.5 -42.5t-42.5 -17.5q-22 0 -38.5 14t-20.5 36l-12 84h-320l-62 -106q-19 -28 -49 -28q-23 0 -40 17t-17 40q0 13 9 30l333 544q31 48 86 48q37 0 65 -24t34 -60l91 -525q1 -2 1 -10zM217 231h244l-49 333zM417 730l-73 80q-12 12 -12 27t10.5 25.5
t25.5 10.5q18 0 29 -14l66 -88q9 -11 9 -21q0 -13 -9 -22t-22 -9t-24 11z" />
    <glyph glyph-name="Aacute" unicode="&#xc1;" horiz-adv-x="673" 
d="M607 54q0 -25 -17.5 -42.5t-42.5 -17.5q-22 0 -38.5 14t-20.5 36l-12 84h-320l-62 -106q-19 -28 -49 -28q-23 0 -40 17t-17 40q0 13 9 30l333 544q31 48 86 48q37 0 65 -24t34 -60l91 -525q1 -2 1 -10zM217 231h244l-49 333zM442 717q-10 0 -18 8t-8 18q0 15 10 22
l116 98q11 8 23 8q13 0 21.5 -9.5t8.5 -22.5q0 -17 -13 -27l-123 -90q-8 -5 -17 -5z" />
    <glyph glyph-name="Acircumflex" unicode="&#xc2;" horiz-adv-x="673" 
d="M607 54q0 -25 -17.5 -42.5t-42.5 -17.5q-22 0 -38.5 14t-20.5 36l-12 84h-320l-62 -106q-19 -28 -49 -28q-23 0 -40 17t-17 40q0 13 9 30l333 544q31 48 86 48q37 0 65 -24t34 -60l91 -525q1 -2 1 -10zM217 231h244l-49 333zM516 732l-51 87l-94 -94q-8 -8 -19 -8t-18 8
t-7 18q0 9 6 17l69 79q25 28 55 28h35q34 0 42 -25l36 -82q3 -6 3 -13q0 -12 -9.5 -21t-21.5 -9q-18 0 -26 15z" />
    <glyph glyph-name="Atilde" unicode="&#xc3;" horiz-adv-x="673" 
d="M607 54q0 -25 -17.5 -42.5t-42.5 -17.5q-22 0 -38.5 14t-20.5 36l-12 84h-320l-62 -106q-19 -28 -49 -28q-23 0 -40 17t-17 40q0 13 9 30l333 544q31 48 86 48q37 0 65 -24t34 -60l91 -525q1 -2 1 -10zM217 231h244l-49 333zM392 799q-32 0 -47 -57q-5 -21 -27 -21
q-14 0 -23 11.5t-5 24.5q30 104 110 104q24 0 38 -9.5t34 -34.5q24 -34 48 -34q30 0 47 57q5 21 27 21q15 0 23.5 -11.5t4.5 -25.5q-32 -103 -110 -103q-24 0 -38 9.5t-34 34.5q-24 34 -48 34z" />
    <glyph glyph-name="Adieresis" unicode="&#xc4;" horiz-adv-x="673" 
d="M607 54q0 -25 -17.5 -42.5t-42.5 -17.5q-22 0 -38.5 14t-20.5 36l-12 84h-320l-62 -106q-19 -28 -49 -28q-23 0 -40 17t-17 40q0 13 9 30l333 544q31 48 86 48q37 0 65 -24t34 -60l91 -525q1 -2 1 -10zM217 231h244l-49 333zM296 783q0 26 20 45.5t46 19.5q22 0 37 -14.5
t15 -37.5q0 -26 -20 -45.5t-46 -19.5q-22 0 -37 15t-15 37zM505 783q0 26 20 45.5t46 19.5q23 0 37.5 -14.5t14.5 -37.5q0 -26 -20 -45.5t-46 -19.5q-22 0 -37 15t-15 37z" />
    <glyph glyph-name="Aring" unicode="&#xc5;" horiz-adv-x="673" 
d="M607 54q0 -25 -17.5 -42.5t-42.5 -17.5q-22 0 -38.5 14t-20.5 36l-12 84h-320l-62 -106q-19 -28 -49 -28q-23 0 -40 17t-17 40q0 13 9 30l333 544q31 48 86 48q37 0 65 -24t34 -60l91 -525q1 -2 1 -10zM217 231h244l-49 333zM471 908q41 0 67 -26t26 -67q0 -46 -33 -79
t-79 -33q-41 0 -67 26t-26 67q0 45 33 78q34 34 79 34zM467 857q-23 0 -40 -17t-17 -39q0 -21 13 -34t33 -13q23 0 40 16.5t17 39.5q0 21 -12.5 34t-33.5 13z" />
    <glyph glyph-name="AE" unicode="&#xc6;" horiz-adv-x="959" 
d="M998 615q0 -21 -15 -36t-36 -15h-305l-38 -173h275q21 0 36 -15t15 -37q0 -21 -15 -36t-36 -15h-298l-41 -185h282q21 0 36.5 -15t15.5 -36q0 -22 -15.5 -37t-36.5 -15h-351q-27 0 -42 13.5t-15 36.5q0 2 2 18l13 60h-251l-92 -115q-16 -19 -39 -19q-21 0 -35.5 15
t-14.5 36q0 18 11 32l463 554q30 36 76 36h400q21 0 36 -15t15 -37zM452 231l72 332l-264 -332h192z" />
    <glyph glyph-name="Ccedilla" unicode="&#xc7;" horiz-adv-x="662" 
d="M694 529q0 -25 -17 -42t-41 -17q-30 0 -48 25q-54 79 -161 79q-103 0 -178.5 -81.5t-75.5 -201.5q0 -88 56 -143.5t148 -55.5q76 0 141 53q14 13 34 13q23 0 38.5 -15.5t15.5 -38.5q0 -24 -21 -42q-91 -74 -215 -74q-21 0 -27 1l-26 -42q16 11 32 11q26 0 42.5 -16.5
t16.5 -44.5q0 -41 -31 -66t-80 -25q-54 0 -97 26q-12 9 -12 23q0 10 8 18t18 8q7 0 15 -5q31 -22 69 -22q26 0 40.5 11t14.5 29q0 26 -33 26q-12 0 -24 -9q-8 -5 -17 -5q-10 0 -16 6t-6 14q0 13 4 18l31 52q-107 21 -175 98q-66 77 -66 190q-2 111 51.5 203.5t142 142.5
t188.5 48q162 0 250 -114q11 -17 11 -35z" />
    <glyph glyph-name="Egrave" unicode="&#xc8;" horiz-adv-x="577" 
d="M30 50q0 2 2 18l120 544q12 55 68 55h343q21 0 36 -15t15 -37q0 -21 -15 -36t-36 -15h-305l-38 -173h275q21 0 36 -15t15 -37q0 -21 -15 -36t-36 -15h-298l-41 -185h282q21 0 36.5 -15t15.5 -36q0 -22 -15.5 -37t-36.5 -15h-351q-27 0 -42 13.5t-15 36.5zM387 730l-73 80
q-12 12 -12 27t10.5 25.5t25.5 10.5q18 0 29 -14l66 -88q9 -11 9 -21q0 -13 -9 -22t-22 -9t-24 11z" />
    <glyph glyph-name="Eacute" unicode="&#xc9;" horiz-adv-x="577" 
d="M30 50q0 2 2 18l120 544q12 55 68 55h343q21 0 36 -15t15 -37q0 -21 -15 -36t-36 -15h-305l-38 -173h275q21 0 36 -15t15 -37q0 -21 -15 -36t-36 -15h-298l-41 -185h282q21 0 36.5 -15t15.5 -36q0 -22 -15.5 -37t-36.5 -15h-351q-27 0 -42 13.5t-15 36.5zM412 717
q-10 0 -18 8t-8 18q0 15 10 22l116 98q11 8 23 8q13 0 21.5 -9.5t8.5 -22.5q0 -17 -13 -27l-123 -90q-8 -5 -17 -5z" />
    <glyph glyph-name="Ecircumflex" unicode="&#xca;" horiz-adv-x="577" 
d="M30 50q0 2 2 18l120 544q12 55 68 55h343q21 0 36 -15t15 -37q0 -21 -15 -36t-36 -15h-305l-38 -173h275q21 0 36 -15t15 -37q0 -21 -15 -36t-36 -15h-298l-41 -185h282q21 0 36.5 -15t15.5 -36q0 -22 -15.5 -37t-36.5 -15h-351q-27 0 -42 13.5t-15 36.5zM486 732l-51 87
l-94 -94q-8 -8 -19 -8t-18 8t-7 18q0 9 6 17l69 79q25 28 55 28h35q34 0 42 -25l36 -82q3 -6 3 -13q0 -12 -9.5 -21t-21.5 -9q-18 0 -26 15z" />
    <glyph glyph-name="Edieresis" unicode="&#xcb;" horiz-adv-x="577" 
d="M30 50q0 2 2 18l120 544q12 55 68 55h343q21 0 36 -15t15 -37q0 -21 -15 -36t-36 -15h-305l-38 -173h275q21 0 36 -15t15 -37q0 -21 -15 -36t-36 -15h-298l-41 -185h282q21 0 36.5 -15t15.5 -36q0 -22 -15.5 -37t-36.5 -15h-351q-27 0 -42 13.5t-15 36.5zM266 783
q0 26 20 45.5t46 19.5q22 0 37 -14.5t15 -37.5q0 -26 -20 -45.5t-46 -19.5q-22 0 -37 15t-15 37zM475 783q0 26 20 45.5t46 19.5q23 0 37.5 -14.5t14.5 -37.5q0 -26 -20 -45.5t-46 -19.5q-22 0 -37 15t-15 37z" />
    <glyph glyph-name="Igrave" unicode="&#xcc;" horiz-adv-x="259" 
d="M30 52q0 9 1 12l124 564q5 19 20.5 32t35.5 13q24 0 40.5 -17t16.5 -41q0 -9 -1 -12l-124 -564q-5 -19 -20.5 -32t-35.5 -13q-24 0 -40.5 17t-16.5 41zM211 730l-73 80q-12 12 -12 27t10.5 25.5t25.5 10.5q18 0 29 -14l66 -88q9 -11 9 -21q0 -13 -9 -22t-22 -9t-24 11z
" />
    <glyph glyph-name="Iacute" unicode="&#xcd;" horiz-adv-x="259" 
d="M30 52q0 9 1 12l124 564q5 19 20.5 32t35.5 13q24 0 40.5 -17t16.5 -41q0 -9 -1 -12l-124 -564q-5 -19 -20.5 -32t-35.5 -13q-24 0 -40.5 17t-16.5 41zM236 717q-10 0 -18 8t-8 18q0 15 10 22l116 98q11 8 23 8q13 0 21.5 -9.5t8.5 -22.5q0 -17 -13 -27l-123 -90
q-8 -5 -17 -5z" />
    <glyph glyph-name="Icircumflex" unicode="&#xce;" horiz-adv-x="259" 
d="M30 52q0 9 1 12l124 564q5 19 20.5 32t35.5 13q24 0 40.5 -17t16.5 -41q0 -9 -1 -12l-124 -564q-5 -19 -20.5 -32t-35.5 -13q-24 0 -40.5 17t-16.5 41zM310 732l-51 87l-94 -94q-8 -8 -19 -8t-18 8t-7 18q0 9 6 17l69 79q25 28 55 28h35q34 0 42 -25l36 -82q3 -6 3 -13
q0 -12 -9.5 -21t-21.5 -9q-18 0 -26 15z" />
    <glyph glyph-name="Idieresis" unicode="&#xcf;" horiz-adv-x="259" 
d="M30 52q0 9 1 12l124 564q5 19 20.5 32t35.5 13q24 0 40.5 -17t16.5 -41q0 -9 -1 -12l-124 -564q-5 -19 -20.5 -32t-35.5 -13q-24 0 -40.5 17t-16.5 41zM90 783q0 26 20 45.5t46 19.5q22 0 37 -14.5t15 -37.5q0 -26 -20 -45.5t-46 -19.5q-22 0 -37 15t-15 37zM299 783
q0 26 20 45.5t46 19.5q23 0 37.5 -14.5t14.5 -37.5q0 -26 -20 -45.5t-46 -19.5q-22 0 -37 15t-15 37z" />
    <glyph glyph-name="Eth" unicode="&#xd0;" horiz-adv-x="736" 
d="M717 381q1 -72 -26 -139t-78 -122.5t-135 -88t-188 -31.5h-177q-27 0 -42 13.5t-15 36.5q0 2 2 18l48 218h-35q-20 0 -33.5 14t-13.5 34t14 33.5t33 13.5h56l51 231q12 55 68 55h187q113 2 200 -82t84 -204zM595 374q0 81 -52 135.5t-132 54.5h-127l-40 -183h104
q20 0 33.5 -14t13.5 -34q0 -19 -13.5 -33t-33.5 -14h-126l-40 -183h129q126 0 205 78.5t79 192.5z" />
    <glyph glyph-name="Ntilde" unicode="&#xd1;" horiz-adv-x="720" 
d="M465 38l-218 476l-104 -475q-5 -19 -20.5 -32t-35.5 -13q-24 0 -40.5 17t-16.5 41q0 9 1 12l120 546q6 27 28 45t51 18q23 0 43 -13t30 -34l211 -460l102 462q5 19 20.5 32t35.5 13q24 0 40.5 -17t16.5 -41q0 -9 -1 -12l-121 -550q-5 -26 -26 -42.5t-48 -16.5
q-48 0 -68 44zM416 799q-32 0 -47 -57q-5 -21 -27 -21q-14 0 -23 11.5t-5 24.5q30 104 110 104q24 0 38 -9.5t34 -34.5q24 -34 48 -34q30 0 47 57q5 21 27 21q15 0 23.5 -11.5t4.5 -25.5q-32 -103 -110 -103q-24 0 -38 9.5t-34 34.5q-24 34 -48 34z" />
    <glyph glyph-name="Ograve" unicode="&#xd2;" horiz-adv-x="765" 
d="M433 678q136 2 228 -81t91 -214q3 -162 -110.5 -280t-271.5 -115q-138 0 -228.5 81.5t-90.5 214.5q-2 106 49 197.5t140.5 145t192.5 51.5zM426 574q-103 2 -179 -82t-74 -201q0 -91 57.5 -145t146.5 -54q102 -2 178.5 82t74.5 201q0 90 -58 144.5t-146 54.5zM461 730
l-73 80q-12 12 -12 27t10.5 25.5t25.5 10.5q18 0 29 -14l66 -88q9 -11 9 -21q0 -13 -9 -22t-22 -9t-24 11z" />
    <glyph glyph-name="Oacute" unicode="&#xd3;" horiz-adv-x="765" 
d="M433 678q136 2 228 -81t91 -214q3 -162 -110.5 -280t-271.5 -115q-138 0 -228.5 81.5t-90.5 214.5q-2 106 49 197.5t140.5 145t192.5 51.5zM426 574q-103 2 -179 -82t-74 -201q0 -91 57.5 -145t146.5 -54q102 -2 178.5 82t74.5 201q0 90 -58 144.5t-146 54.5zM486 717
q-10 0 -18 8t-8 18q0 15 10 22l116 98q11 8 23 8q13 0 21.5 -9.5t8.5 -22.5q0 -17 -13 -27l-123 -90q-8 -5 -17 -5z" />
    <glyph glyph-name="Ocircumflex" unicode="&#xd4;" horiz-adv-x="765" 
d="M433 678q136 2 228 -81t91 -214q3 -162 -110.5 -280t-271.5 -115q-138 0 -228.5 81.5t-90.5 214.5q-2 106 49 197.5t140.5 145t192.5 51.5zM426 574q-103 2 -179 -82t-74 -201q0 -91 57.5 -145t146.5 -54q102 -2 178.5 82t74.5 201q0 90 -58 144.5t-146 54.5zM560 732
l-51 87l-94 -94q-8 -8 -19 -8t-18 8t-7 18q0 9 6 17l69 79q25 28 55 28h35q34 0 42 -25l36 -82q3 -6 3 -13q0 -12 -9.5 -21t-21.5 -9q-18 0 -26 15z" />
    <glyph glyph-name="Otilde" unicode="&#xd5;" horiz-adv-x="765" 
d="M433 678q136 2 228 -81t91 -214q3 -162 -110.5 -280t-271.5 -115q-138 0 -228.5 81.5t-90.5 214.5q-2 106 49 197.5t140.5 145t192.5 51.5zM426 574q-103 2 -179 -82t-74 -201q0 -91 57.5 -145t146.5 -54q102 -2 178.5 82t74.5 201q0 90 -58 144.5t-146 54.5zM436 799
q-32 0 -47 -57q-5 -21 -27 -21q-14 0 -23 11.5t-5 24.5q30 104 110 104q24 0 38 -9.5t34 -34.5q24 -34 48 -34q30 0 47 57q5 21 27 21q15 0 23.5 -11.5t4.5 -25.5q-32 -103 -110 -103q-24 0 -38 9.5t-34 34.5q-24 34 -48 34z" />
    <glyph glyph-name="Odieresis" unicode="&#xd6;" horiz-adv-x="765" 
d="M433 678q136 2 228 -81t91 -214q3 -162 -110.5 -280t-271.5 -115q-138 0 -228.5 81.5t-90.5 214.5q-2 106 49 197.5t140.5 145t192.5 51.5zM426 574q-103 2 -179 -82t-74 -201q0 -91 57.5 -145t146.5 -54q102 -2 178.5 82t74.5 201q0 90 -58 144.5t-146 54.5zM340 783
q0 26 20 45.5t46 19.5q22 0 37 -14.5t15 -37.5q0 -26 -20 -45.5t-46 -19.5q-22 0 -37 15t-15 37zM549 783q0 26 20 45.5t46 19.5q23 0 37.5 -14.5t14.5 -37.5q0 -26 -20 -45.5t-46 -19.5q-22 0 -37 15t-15 37z" />
    <glyph glyph-name="multiply" unicode="&#xd7;" horiz-adv-x="502" 
d="M264 286l-157 -129q-8 -7 -21 -7q-14 0 -23.5 9.5t-9.5 23.5q0 15 12 25l159 130l-94 120q-7 10 -7 21q0 14 10 24.5t25 10.5q16 0 27 -14l91 -118l158 128q11 8 21 8q14 0 23.5 -9.5t9.5 -23.5q0 -15 -12 -26l-158 -130l93 -120q7 -10 7 -21q0 -14 -10 -24t-24 -10
q-17 0 -27 13z" />
    <glyph glyph-name="Oslash" unicode="&#xd8;" horiz-adv-x="765" 
d="M766 690q0 -10 -9 -20l-82 -86q77 -80 77 -201q3 -162 -110.5 -280t-271.5 -115q-116 0 -202 60l-81 -86q-10 -10 -22 -10q-10 0 -17 7t-7 17q0 12 9 21l79 84q-78 78 -78 203q-2 106 49 197.5t140.5 145t192.5 51.5q120 0 204 -61l83 88q10 10 21 10q25 0 25 -25z
M211 167l346 366q-53 41 -131 41q-103 2 -179 -82t-74 -201q0 -72 38 -124zM593 497l-346 -366q56 -39 130 -39q102 -2 178.5 82t74.5 201q0 72 -37 122z" />
    <glyph glyph-name="Ugrave" unicode="&#xd9;" horiz-adv-x="719" 
d="M75 263l80 365q5 19 21 32t36 13q24 0 40.5 -17t16.5 -41q0 -9 -1 -12l-74 -337q-4 -12 -4 -37q0 -61 42 -99.5t115 -38.5q78 0 123 44t64 131l80 362q5 19 21 32t36 13q24 0 40.5 -17t16.5 -41q0 -9 -1 -12l-75 -339q-30 -138 -102.5 -207t-202.5 -69q-132 0 -204.5 61
t-72.5 167q0 19 5 47zM440 730l-73 80q-12 12 -12 27t10.5 25.5t25.5 10.5q18 0 29 -14l66 -88q9 -11 9 -21q0 -13 -9 -22t-22 -9t-24 11z" />
    <glyph glyph-name="Uacute" unicode="&#xda;" horiz-adv-x="719" 
d="M75 263l80 365q5 19 21 32t36 13q24 0 40.5 -17t16.5 -41q0 -9 -1 -12l-74 -337q-4 -12 -4 -37q0 -61 42 -99.5t115 -38.5q78 0 123 44t64 131l80 362q5 19 21 32t36 13q24 0 40.5 -17t16.5 -41q0 -9 -1 -12l-75 -339q-30 -138 -102.5 -207t-202.5 -69q-132 0 -204.5 61
t-72.5 167q0 19 5 47zM465 717q-10 0 -18 8t-8 18q0 15 10 22l116 98q11 8 23 8q13 0 21.5 -9.5t8.5 -22.5q0 -17 -13 -27l-123 -90q-8 -5 -17 -5z" />
    <glyph glyph-name="Ucircumflex" unicode="&#xdb;" horiz-adv-x="719" 
d="M75 263l80 365q5 19 21 32t36 13q24 0 40.5 -17t16.5 -41q0 -9 -1 -12l-74 -337q-4 -12 -4 -37q0 -61 42 -99.5t115 -38.5q78 0 123 44t64 131l80 362q5 19 21 32t36 13q24 0 40.5 -17t16.5 -41q0 -9 -1 -12l-75 -339q-30 -138 -102.5 -207t-202.5 -69q-132 0 -204.5 61
t-72.5 167q0 19 5 47zM539 732l-51 87l-94 -94q-8 -8 -19 -8t-18 8t-7 18q0 9 6 17l69 79q25 28 55 28h35q34 0 42 -25l36 -82q3 -6 3 -13q0 -12 -9.5 -21t-21.5 -9q-18 0 -26 15z" />
    <glyph glyph-name="Udieresis" unicode="&#xdc;" horiz-adv-x="719" 
d="M75 263l80 365q5 19 21 32t36 13q24 0 40.5 -17t16.5 -41q0 -9 -1 -12l-74 -337q-4 -12 -4 -37q0 -61 42 -99.5t115 -38.5q78 0 123 44t64 131l80 362q5 19 21 32t36 13q24 0 40.5 -17t16.5 -41q0 -9 -1 -12l-75 -339q-30 -138 -102.5 -207t-202.5 -69q-132 0 -204.5 61
t-72.5 167q0 19 5 47zM319 783q0 26 20 45.5t46 19.5q22 0 37 -14.5t15 -37.5q0 -26 -20 -45.5t-46 -19.5q-22 0 -37 15t-15 37zM528 783q0 26 20 45.5t46 19.5q23 0 37.5 -14.5t14.5 -37.5q0 -26 -20 -45.5t-46 -19.5q-22 0 -37 15t-15 37z" />
    <glyph glyph-name="Yacute" unicode="&#xdd;" horiz-adv-x="637" 
d="M656 585l-272 -309l-52 -237q-5 -19 -20.5 -32t-35.5 -13q-24 0 -40.5 17t-16.5 41q0 9 1 12l47 214l-140 314q-5 15 -5 24q0 24 17 40.5t41 16.5q37 0 53 -35l109 -256l234 272q14 19 40 19q22 0 37.5 -15.5t15.5 -37.5q0 -19 -13 -35zM425 717q-10 0 -18 8t-8 18
q0 15 10 22l116 98q11 8 23 8q13 0 21.5 -9.5t8.5 -22.5q0 -17 -13 -27l-123 -90q-8 -5 -17 -5z" />
    <glyph glyph-name="Thorn" unicode="&#xde;" horiz-adv-x="608" 
d="M605 375q0 -96 -69 -167t-197 -71h-175l-21 -98q-5 -19 -20.5 -32t-35.5 -13q-24 0 -40.5 17t-16.5 40q0 9 1 12l124 565q5 19 20.5 32t35.5 13q24 0 40.5 -17t16.5 -41q0 -9 -1 -12l-11 -49h168q76 0 128.5 -53t52.5 -126zM483 363q0 38 -27.5 63t-67.5 25h-155
l-46 -211h159q62 0 99.5 35t37.5 88z" />
    <glyph glyph-name="germandbls" unicode="&#xdf;" horiz-adv-x="581" 
d="M413 353q53 -19 84 -62.5t31 -98.5q0 -17 -5 -42q-16 -75 -77 -119q-59 -43 -139 -43q-55 0 -96 18q-28 12 -28 41q0 19 13.5 32.5t32.5 13.5q9 0 26 -6q25 -9 52 -9q40 0 71.5 26t41.5 68q4 20 4 32q0 46 -31 74t-91 35q-16 2 -27 14.5t-11 28.5q0 17 11 29t28 14
q116 9 134 92q2 16 2 18q0 33 -24 54t-61 21q-104 0 -138 -147l-89 -402q-4 -17 -18 -28.5t-32 -11.5q-22 0 -36.5 15t-14.5 36q0 8 1 11l84 380q27 118 92.5 179t160.5 61q78 0 131 -43t53 -112q0 -22 -4 -39q-10 -45 -45 -80t-86 -50z" />
    <glyph glyph-name="agrave" unicode="&#xe0;" horiz-adv-x="581" 
d="M555 438q0 -8 -1 -11l-87 -393q-4 -17 -18 -28.5t-32 -11.5q-21 0 -36.5 15.5t-15.5 35.5q0 8 1 11l2 8q-61 -76 -151 -76q-85 0 -135 53t-50 146q-1 77 29.5 147.5t90.5 116.5t134 44q51 0 93.5 -21.5t66.5 -59.5l8 35q4 17 17.5 28.5t32.5 11.5q21 0 36 -15.5t15 -35.5
zM387 149l42 187q-18 30 -51.5 48t-75.5 18q-68 0 -114 -58t-46 -136q0 -58 33 -92.5t86 -34.5q36 0 70 18.5t56 49.5zM342 583l-73 80q-12 12 -12 27t10.5 25.5t25.5 10.5q18 0 29 -14l66 -88q9 -10 9 -21q0 -13 -9 -22t-22 -9t-24 11z" />
    <glyph glyph-name="aacute" unicode="&#xe1;" horiz-adv-x="581" 
d="M555 438q0 -8 -1 -11l-87 -393q-4 -17 -18 -28.5t-32 -11.5q-21 0 -36.5 15.5t-15.5 35.5q0 8 1 11l2 8q-61 -76 -151 -76q-85 0 -135 53t-50 146q-1 77 29.5 147.5t90.5 116.5t134 44q51 0 93.5 -21.5t66.5 -59.5l8 35q4 17 17.5 28.5t32.5 11.5q21 0 36 -15.5t15 -35.5
zM387 149l42 187q-18 30 -51.5 48t-75.5 18q-68 0 -114 -58t-46 -136q0 -58 33 -92.5t86 -34.5q36 0 70 18.5t56 49.5zM367 570q-10 0 -18 8t-8 18q0 15 10 22l116 98q11 8 23 8q13 0 21.5 -9.5t8.5 -22.5q0 -17 -13 -27l-123 -90q-8 -5 -17 -5z" />
    <glyph glyph-name="acircumflex" unicode="&#xe2;" horiz-adv-x="581" 
d="M555 438q0 -8 -1 -11l-87 -393q-4 -17 -18 -28.5t-32 -11.5q-21 0 -36.5 15.5t-15.5 35.5q0 8 1 11l2 8q-61 -76 -151 -76q-85 0 -135 53t-50 146q-1 77 29.5 147.5t90.5 116.5t134 44q51 0 93.5 -21.5t66.5 -59.5l8 35q4 17 17.5 28.5t32.5 11.5q21 0 36 -15.5t15 -35.5
zM387 149l42 187q-18 30 -51.5 48t-75.5 18q-68 0 -114 -58t-46 -136q0 -58 33 -92.5t86 -34.5q36 0 70 18.5t56 49.5zM441 585l-51 87l-94 -94q-8 -8 -19 -8t-18 8t-7 18t6 17l69 79q25 28 55 28h35q34 0 42 -25l36 -82q3 -6 3 -13q0 -12 -9.5 -21t-21.5 -9q-18 0 -26 15z
" />
    <glyph glyph-name="atilde" unicode="&#xe3;" horiz-adv-x="581" 
d="M555 438q0 -8 -1 -11l-87 -393q-4 -17 -18 -28.5t-32 -11.5q-21 0 -36.5 15.5t-15.5 35.5q0 8 1 11l2 8q-61 -76 -151 -76q-85 0 -135 53t-50 146q-1 77 29.5 147.5t90.5 116.5t134 44q51 0 93.5 -21.5t66.5 -59.5l8 35q4 17 17.5 28.5t32.5 11.5q21 0 36 -15.5t15 -35.5
zM387 149l42 187q-18 30 -51.5 48t-75.5 18q-68 0 -114 -58t-46 -136q0 -58 33 -92.5t86 -34.5q36 0 70 18.5t56 49.5zM317 652q-32 0 -47 -57q-5 -21 -27 -21q-14 0 -23 11.5t-5 24.5q30 104 110 104q24 0 38 -9.5t34 -34.5q24 -34 48 -34q30 0 47 57q5 21 27 21
q15 0 23.5 -11.5t4.5 -25.5q-32 -103 -110 -103q-24 0 -38 9.5t-34 34.5q-24 34 -48 34z" />
    <glyph glyph-name="adieresis" unicode="&#xe4;" horiz-adv-x="581" 
d="M555 438q0 -8 -1 -11l-87 -393q-4 -17 -18 -28.5t-32 -11.5q-21 0 -36.5 15.5t-15.5 35.5q0 8 1 11l2 8q-61 -76 -151 -76q-85 0 -135 53t-50 146q-1 77 29.5 147.5t90.5 116.5t134 44q51 0 93.5 -21.5t66.5 -59.5l8 35q4 17 17.5 28.5t32.5 11.5q21 0 36 -15.5t15 -35.5
zM387 149l42 187q-18 30 -51.5 48t-75.5 18q-68 0 -114 -58t-46 -136q0 -58 33 -92.5t86 -34.5q36 0 70 18.5t56 49.5zM221 636q0 26 20 45.5t46 19.5q22 0 37 -14.5t15 -37.5q0 -26 -20 -45.5t-46 -19.5q-22 0 -37 15t-15 37zM430 636q0 26 20 45.5t46 19.5
q23 0 37.5 -14.5t14.5 -37.5q0 -26 -20 -45.5t-46 -19.5q-22 0 -37 15t-15 37z" />
    <glyph glyph-name="aring" unicode="&#xe5;" horiz-adv-x="581" 
d="M555 438q0 -8 -1 -11l-87 -393q-4 -17 -18 -28.5t-32 -11.5q-21 0 -36.5 15.5t-15.5 35.5q0 8 1 11l2 8q-61 -76 -151 -76q-85 0 -135 53t-50 146q-1 77 29.5 147.5t90.5 116.5t134 44q51 0 93.5 -21.5t66.5 -59.5l8 35q4 17 17.5 28.5t32.5 11.5q21 0 36 -15.5t15 -35.5
zM387 149l42 187q-18 30 -51.5 48t-75.5 18q-68 0 -114 -58t-46 -136q0 -58 33 -92.5t86 -34.5q36 0 70 18.5t56 49.5zM396 761q41 0 67 -26t26 -67q0 -46 -33 -79t-79 -33q-41 0 -67 26t-26 67q0 45 33 78q34 34 79 34zM392 710q-23 0 -40 -17t-17 -39q0 -21 13 -34t33 -13
q23 0 40 16.5t17 39.5q0 21 -12.5 34t-33.5 13z" />
    <glyph glyph-name="ae" unicode="&#xe6;" horiz-adv-x="924" 
d="M892 288q0 -19 -1 -25q-5 -56 -66 -56h-315q-1 -2 -1 -17q0 -46 39 -80t107 -34q50 0 95 21q7 4 18 4q17 0 29 -12t12 -29q0 -24 -22 -36q-67 -36 -128 -36q-135 0 -179 107l-13 -61q-4 -17 -18 -28.5t-33 -11.5q-21 0 -36 15.5t-15 35.5q0 8 1 11l2 8q-61 -76 -151 -76
q-85 0 -135 53t-50 146q-1 77 29.5 147.5t90.5 116.5t134 44q51 0 93.5 -21.5t66.5 -59.5l7 34q4 18 18 29.5t33 11.5q21 0 36 -15t15 -36q0 -8 -1 -11l-3 -14q29 37 71.5 59.5t88.5 22.5q87 0 134 -54t47 -153zM795 295q0 52 -32 83t-91 31q-55 0 -99 -38q-42 -36 -53 -90
h274q1 2 1 14zM387 149l42 187q-18 30 -51.5 48t-75.5 18q-68 0 -114 -58t-46 -136q0 -58 33 -92.5t86 -34.5q36 0 70 18.5t56 49.5z" />
    <glyph glyph-name="ccedilla" unicode="&#xe7;" horiz-adv-x="497" 
d="M483 405q0 -20 -15 -34.5t-35 -14.5t-34 13q-36 33 -88 33q-74 0 -122.5 -56.5t-48.5 -135.5q0 -60 37 -94.5t97 -34.5q46 0 83 28q11 8 27 8q19 0 32 -13t13 -32q0 -23 -19 -37q-65 -47 -146 -47h-8l-25 -41q16 11 32 11q26 0 42.5 -16.5t16.5 -44.5q0 -41 -31 -66
t-80 -25q-54 0 -97 26q-12 9 -12 23q0 10 8 18t18 8q7 0 15 -5q31 -22 69 -22q26 0 40.5 11t14.5 29q0 26 -33 26q-12 0 -24 -9q-8 -5 -17 -5q-10 0 -16 6t-6 14q0 13 4 18l30 50q-80 16 -126 72t-46 140q-2 117 80.5 204t196.5 85q98 0 156 -52q17 -15 17 -38z" />
    <glyph glyph-name="egrave" unicode="&#xe8;" horiz-adv-x="557" 
d="M309 495q94 0 153.5 -59t59.5 -155q0 -13 -1 -17q-2 -57 -65 -57h-317l-1 -17q0 -46 40 -81t107 -35q54 0 99 22q7 4 17 4q17 0 28.5 -12t11.5 -29q0 -24 -21 -35q-69 -36 -143 -36q-113 0 -178.5 58t-65.5 158q-2 117 80 205t196 86zM428 295q0 50 -34 82t-93 32
q-55 0 -99 -38q-41 -37 -52 -90h277q1 2 1 14zM333 583l-73 80q-12 12 -12 27t10.5 25.5t25.5 10.5q18 0 29 -14l66 -88q9 -10 9 -21q0 -13 -9 -22t-22 -9t-24 11z" />
    <glyph glyph-name="eacute" unicode="&#xe9;" horiz-adv-x="557" 
d="M309 495q94 0 153.5 -59t59.5 -155q0 -13 -1 -17q-2 -57 -65 -57h-317l-1 -17q0 -46 40 -81t107 -35q54 0 99 22q7 4 17 4q17 0 28.5 -12t11.5 -29q0 -24 -21 -35q-69 -36 -143 -36q-113 0 -178.5 58t-65.5 158q-2 117 80 205t196 86zM428 295q0 50 -34 82t-93 32
q-55 0 -99 -38q-41 -37 -52 -90h277q1 2 1 14zM358 570q-10 0 -18 8t-8 18q0 15 10 22l116 98q11 8 23 8q13 0 21.5 -9.5t8.5 -22.5q0 -17 -13 -27l-123 -90q-8 -5 -17 -5z" />
    <glyph glyph-name="ecircumflex" unicode="&#xea;" horiz-adv-x="557" 
d="M309 495q94 0 153.5 -59t59.5 -155q0 -13 -1 -17q-2 -57 -65 -57h-317l-1 -17q0 -46 40 -81t107 -35q54 0 99 22q7 4 17 4q17 0 28.5 -12t11.5 -29q0 -24 -21 -35q-69 -36 -143 -36q-113 0 -178.5 58t-65.5 158q-2 117 80 205t196 86zM428 295q0 50 -34 82t-93 32
q-55 0 -99 -38q-41 -37 -52 -90h277q1 2 1 14zM432 585l-51 87l-94 -94q-8 -8 -19 -8t-18 8t-7 18t6 17l69 79q25 28 55 28h35q34 0 42 -25l36 -82q3 -6 3 -13q0 -12 -9.5 -21t-21.5 -9q-18 0 -26 15z" />
    <glyph glyph-name="edieresis" unicode="&#xeb;" horiz-adv-x="557" 
d="M309 495q94 0 153.5 -59t59.5 -155q0 -13 -1 -17q-2 -57 -65 -57h-317l-1 -17q0 -46 40 -81t107 -35q54 0 99 22q7 4 17 4q17 0 28.5 -12t11.5 -29q0 -24 -21 -35q-69 -36 -143 -36q-113 0 -178.5 58t-65.5 158q-2 117 80 205t196 86zM428 295q0 50 -34 82t-93 32
q-55 0 -99 -38q-41 -37 -52 -90h277q1 2 1 14zM212 636q0 26 20 45.5t46 19.5q22 0 37 -14.5t15 -37.5q0 -26 -20 -45.5t-46 -19.5q-22 0 -37 15t-15 37zM421 636q0 26 20 45.5t46 19.5q23 0 37.5 -14.5t14.5 -37.5q0 -26 -20 -45.5t-46 -19.5q-22 0 -37 15t-15 37z" />
    <glyph glyph-name="igrave" unicode="&#xec;" horiz-adv-x="241" 
d="M26 45q0 8 1 11l86 393q4 17 18 28.5t33 11.5q21 0 36 -15.5t15 -35.5q0 -8 -1 -11l-87 -393q-4 -17 -18 -28.5t-32 -11.5q-22 0 -36.5 15t-14.5 36zM169 583l-73 80q-12 12 -12 27t10.5 25.5t25.5 10.5q18 0 29 -14l66 -88q9 -10 9 -21q0 -13 -9 -22t-22 -9t-24 11z" />
    <glyph glyph-name="iacute" unicode="&#xed;" horiz-adv-x="241" 
d="M26 45q0 8 1 11l86 393q4 17 18 28.5t33 11.5q21 0 36 -15.5t15 -35.5q0 -8 -1 -11l-87 -393q-4 -17 -18 -28.5t-32 -11.5q-22 0 -36.5 15t-14.5 36zM194 570q-10 0 -18 8t-8 18q0 15 10 22l116 98q11 8 23 8q13 0 21.5 -9.5t8.5 -22.5q0 -17 -13 -27l-123 -90
q-8 -5 -17 -5z" />
    <glyph glyph-name="icircumflex" unicode="&#xee;" horiz-adv-x="241" 
d="M26 45q0 8 1 11l86 393q4 17 18 28.5t33 11.5q21 0 36 -15.5t15 -35.5q0 -8 -1 -11l-87 -393q-4 -17 -18 -28.5t-32 -11.5q-22 0 -36.5 15t-14.5 36zM268 585l-51 87l-94 -94q-8 -8 -19 -8t-18 8t-7 18t6 17l69 79q25 28 55 28h35q34 0 42 -25l36 -82q3 -6 3 -13
q0 -12 -9.5 -21t-21.5 -9q-18 0 -26 15z" />
    <glyph glyph-name="idieresis" unicode="&#xef;" horiz-adv-x="241" 
d="M26 45q0 8 1 11l86 393q4 17 18 28.5t33 11.5q21 0 36 -15.5t15 -35.5q0 -8 -1 -11l-87 -393q-4 -17 -18 -28.5t-32 -11.5q-22 0 -36.5 15t-14.5 36zM48 636q0 26 20 45.5t46 19.5q22 0 37 -14.5t15 -37.5q0 -26 -20 -45.5t-46 -19.5q-22 0 -37 15t-15 37zM257 636
q0 26 20 45.5t46 19.5q23 0 37.5 -14.5t14.5 -37.5q0 -26 -20 -45.5t-46 -19.5q-22 0 -37 15t-15 37z" />
    <glyph glyph-name="eth" unicode="&#xf0;" horiz-adv-x="573" 
d="M543 304q2 -131 -77 -224.5t-199 -91.5q-105 0 -170.5 58t-65.5 150q-2 111 72 192.5t174 79.5q56 0 99 -27.5t66 -80.5q-23 87 -119 183l-140 -41q-12 -4 -22.5 4t-10.5 21q0 20 18 25l111 33l-19 16q-19 16 -19 40q0 22 15 37.5t38 15.5q21 0 35 -12q37 -33 67 -63
l91 27q12 4 22.5 -4t10.5 -21q0 -20 -18 -25l-67 -20q108 -131 108 -272zM425 256q0 51 -35 85t-96 34q-64 0 -109 -50.5t-45 -121.5q0 -57 34 -89.5t94 -32.5q66 0 111.5 51t45.5 124z" />
    <glyph glyph-name="ntilde" unicode="&#xf1;" 
d="M524 374q0 -13 -5 -41l-66 -299q-4 -17 -18 -28.5t-32 -11.5q-21 0 -36.5 15.5t-15.5 35.5q0 8 1 11l55 247q4 13 4 31q0 68 -80 68q-73 0 -138 -65l-66 -303q-4 -17 -18 -28.5t-32 -11.5q-21 0 -36.5 15.5t-15.5 35.5q0 8 1 11l87 393q4 17 18 28.5t32 11.5
q21 0 36 -15.5t15 -36.5q0 -8 -1 -11l-2 -9q81 78 165 78q69 0 108.5 -32t39.5 -89zM309 652q-32 0 -47 -57q-5 -21 -27 -21q-14 0 -23 11.5t-5 24.5q30 104 110 104q24 0 38 -9.5t34 -34.5q24 -34 48 -34q30 0 47 57q5 21 27 21q15 0 23.5 -11.5t4.5 -25.5
q-32 -103 -110 -103q-24 0 -38 9.5t-34 34.5q-24 34 -48 34z" />
    <glyph glyph-name="ograve" unicode="&#xf2;" horiz-adv-x="573" 
d="M307 495q107 0 169.5 -60t62.5 -158q2 -114 -79.5 -203t-195.5 -86q-107 0 -169.5 60t-62.5 157q-2 114 79.5 203.5t195.5 86.5zM304 402q-68 0 -115.5 -58t-47.5 -134q0 -60 33.5 -94.5t92.5 -34.5q68 0 115.5 57.5t47.5 134.5q0 60 -33.5 94.5t-92.5 34.5zM335 583
l-73 80q-12 12 -12 27t10.5 25.5t25.5 10.5q18 0 29 -14l66 -88q9 -10 9 -21q0 -13 -9 -22t-22 -9t-24 11z" />
    <glyph glyph-name="oacute" unicode="&#xf3;" horiz-adv-x="573" 
d="M307 495q107 0 169.5 -60t62.5 -158q2 -114 -79.5 -203t-195.5 -86q-107 0 -169.5 60t-62.5 157q-2 114 79.5 203.5t195.5 86.5zM304 402q-68 0 -115.5 -58t-47.5 -134q0 -60 33.5 -94.5t92.5 -34.5q68 0 115.5 57.5t47.5 134.5q0 60 -33.5 94.5t-92.5 34.5zM360 570
q-10 0 -18 8t-8 18q0 15 10 22l116 98q11 8 23 8q13 0 21.5 -9.5t8.5 -22.5q0 -17 -13 -27l-123 -90q-8 -5 -17 -5z" />
    <glyph glyph-name="ocircumflex" unicode="&#xf4;" horiz-adv-x="573" 
d="M307 495q107 0 169.5 -60t62.5 -158q2 -114 -79.5 -203t-195.5 -86q-107 0 -169.5 60t-62.5 157q-2 114 79.5 203.5t195.5 86.5zM304 402q-68 0 -115.5 -58t-47.5 -134q0 -60 33.5 -94.5t92.5 -34.5q68 0 115.5 57.5t47.5 134.5q0 60 -33.5 94.5t-92.5 34.5zM434 585
l-51 87l-94 -94q-8 -8 -19 -8t-18 8t-7 18t6 17l69 79q25 28 55 28h35q34 0 42 -25l36 -82q3 -6 3 -13q0 -12 -9.5 -21t-21.5 -9q-18 0 -26 15z" />
    <glyph glyph-name="otilde" unicode="&#xf5;" horiz-adv-x="573" 
d="M307 495q107 0 169.5 -60t62.5 -158q2 -114 -79.5 -203t-195.5 -86q-107 0 -169.5 60t-62.5 157q-2 114 79.5 203.5t195.5 86.5zM304 402q-68 0 -115.5 -58t-47.5 -134q0 -60 33.5 -94.5t92.5 -34.5q68 0 115.5 57.5t47.5 134.5q0 60 -33.5 94.5t-92.5 34.5zM310 652
q-32 0 -47 -57q-5 -21 -27 -21q-14 0 -23 11.5t-5 24.5q30 104 110 104q24 0 38 -9.5t34 -34.5q24 -34 48 -34q30 0 47 57q5 21 27 21q15 0 23.5 -11.5t4.5 -25.5q-32 -103 -110 -103q-24 0 -38 9.5t-34 34.5q-24 34 -48 34z" />
    <glyph glyph-name="odieresis" unicode="&#xf6;" horiz-adv-x="573" 
d="M307 495q107 0 169.5 -60t62.5 -158q2 -114 -79.5 -203t-195.5 -86q-107 0 -169.5 60t-62.5 157q-2 114 79.5 203.5t195.5 86.5zM304 402q-68 0 -115.5 -58t-47.5 -134q0 -60 33.5 -94.5t92.5 -34.5q68 0 115.5 57.5t47.5 134.5q0 60 -33.5 94.5t-92.5 34.5zM214 636
q0 26 20 45.5t46 19.5q22 0 37 -14.5t15 -37.5q0 -26 -20 -45.5t-46 -19.5q-22 0 -37 15t-15 37zM423 636q0 26 20 45.5t46 19.5q23 0 37.5 -14.5t14.5 -37.5q0 -26 -20 -45.5t-46 -19.5q-22 0 -37 15t-15 37z" />
    <glyph glyph-name="divide" unicode="&#xf7;" horiz-adv-x="511" 
d="M261 515q0 24 17.5 41.5t42.5 17.5q20 0 34.5 -15t14.5 -35q0 -25 -17.5 -42t-41.5 -17q-21 0 -35.5 15t-14.5 35zM44 337q0 14 10 24t24 10h396q14 0 24 -10t10 -24t-10 -24t-24 -10h-396q-14 0 -24 10t-10 24zM180 147q0 24 17.5 41.5t41.5 17.5q21 0 35.5 -15
t14.5 -35q0 -24 -18 -41.5t-42 -17.5q-20 0 -34.5 15t-14.5 35z" />
    <glyph glyph-name="oslash" unicode="&#xf8;" horiz-adv-x="573" 
d="M539 277q2 -114 -79.5 -203t-195.5 -86q-77 0 -130 31l-47 -58q-7 -9 -18 -9q-8 0 -15 6.5t-7 15.5q0 8 6 15l45 55q-66 60 -66 161q-2 114 79.5 203.5t195.5 86.5q77 0 134 -33l49 60q8 9 18 9q8 0 14.5 -6t6.5 -15q0 -8 -6 -15l-48 -59q64 -58 64 -159zM166 126
l210 257q-29 19 -72 19q-68 0 -115.5 -58t-47.5 -134q0 -50 25 -84zM430 273q0 49 -22 81l-210 -257q29 -16 69 -16q68 0 115.5 57.5t47.5 134.5z" />
    <glyph glyph-name="ugrave" unicode="&#xf9;" 
d="M541 438q0 -8 -1 -11l-87 -393q-4 -17 -18 -28.5t-32 -11.5q-21 0 -36 15.5t-15 36.5q0 8 1 11l2 9q-81 -78 -165 -78q-69 0 -108.5 32t-39.5 89q0 13 5 41l66 299q4 17 18 28.5t32 11.5q22 0 37 -15t15 -36q0 -8 -1 -11l-55 -247q-4 -13 -4 -31q0 -68 80 -68
q73 0 138 65l66 303q4 17 18 28.5t32 11.5q22 0 37 -15t15 -36zM333 583l-73 80q-12 12 -12 27t10.5 25.5t25.5 10.5q18 0 29 -14l66 -88q9 -10 9 -21q0 -13 -9 -22t-22 -9t-24 11z" />
    <glyph glyph-name="uacute" unicode="&#xfa;" 
d="M541 438q0 -8 -1 -11l-87 -393q-4 -17 -18 -28.5t-32 -11.5q-21 0 -36 15.5t-15 36.5q0 8 1 11l2 9q-81 -78 -165 -78q-69 0 -108.5 32t-39.5 89q0 13 5 41l66 299q4 17 18 28.5t32 11.5q22 0 37 -15t15 -36q0 -8 -1 -11l-55 -247q-4 -13 -4 -31q0 -68 80 -68
q73 0 138 65l66 303q4 17 18 28.5t32 11.5q22 0 37 -15t15 -36zM358 570q-10 0 -18 8t-8 18q0 15 10 22l116 98q11 8 23 8q13 0 21.5 -9.5t8.5 -22.5q0 -17 -13 -27l-123 -90q-8 -5 -17 -5z" />
    <glyph glyph-name="ucircumflex" unicode="&#xfb;" 
d="M541 438q0 -8 -1 -11l-87 -393q-4 -17 -18 -28.5t-32 -11.5q-21 0 -36 15.5t-15 36.5q0 8 1 11l2 9q-81 -78 -165 -78q-69 0 -108.5 32t-39.5 89q0 13 5 41l66 299q4 17 18 28.5t32 11.5q22 0 37 -15t15 -36q0 -8 -1 -11l-55 -247q-4 -13 -4 -31q0 -68 80 -68
q73 0 138 65l66 303q4 17 18 28.5t32 11.5q22 0 37 -15t15 -36zM432 585l-51 87l-94 -94q-8 -8 -19 -8t-18 8t-7 18t6 17l69 79q25 28 55 28h35q34 0 42 -25l36 -82q3 -6 3 -13q0 -12 -9.5 -21t-21.5 -9q-18 0 -26 15z" />
    <glyph glyph-name="udieresis" unicode="&#xfc;" 
d="M541 438q0 -8 -1 -11l-87 -393q-4 -17 -18 -28.5t-32 -11.5q-21 0 -36 15.5t-15 36.5q0 8 1 11l2 9q-81 -78 -165 -78q-69 0 -108.5 32t-39.5 89q0 13 5 41l66 299q4 17 18 28.5t32 11.5q22 0 37 -15t15 -36q0 -8 -1 -11l-55 -247q-4 -13 -4 -31q0 -68 80 -68
q73 0 138 65l66 303q4 17 18 28.5t32 11.5q22 0 37 -15t15 -36zM212 636q0 26 20 45.5t46 19.5q22 0 37 -14.5t15 -37.5q0 -26 -20 -45.5t-46 -19.5q-22 0 -37 15t-15 37zM421 636q0 26 20 45.5t46 19.5q23 0 37.5 -14.5t14.5 -37.5q0 -26 -20 -45.5t-46 -19.5q-22 0 -37 15
t-15 37z" />
    <glyph glyph-name="yacute" unicode="&#xfd;" horiz-adv-x="503" 
d="M17 -100q5 -1 19 -1q37 0 65 40l38 58l-78 429q-1 2 -1 9q0 22 16 38t38 16q20 0 34.5 -13t17.5 -32l54 -323l211 345q12 23 42 23q21 0 35 -15t14 -34q0 -12 -8 -26l-316 -501q-37 -58 -77 -83.5t-95 -25.5q-14 0 -18 1q-18 2 -31 15.5t-13 31.5q0 22 16 36t37 12z
M326 570q-10 0 -18 8t-8 18q0 15 10 22l116 98q11 8 23 8q13 0 21.5 -9.5t8.5 -22.5q0 -17 -13 -27l-123 -90q-8 -5 -17 -5z" />
    <glyph glyph-name="thorn" unicode="&#xfe;" horiz-adv-x="578" 
d="M134 69l-48 -219q-4 -17 -18 -28.5t-32 -11.5q-21 0 -36.5 15t-15.5 36q0 8 1 11l168 761q4 17 18 28.5t32 11.5q22 0 36.5 -15t14.5 -36q0 -8 -1 -11l-42 -192q64 76 152 76q84 0 134.5 -53.5t50.5 -146.5q1 -76 -29.5 -146.5t-90.5 -116t-134 -44.5q-109 0 -160 81z
M319 402q-74 0 -127 -69l-41 -187q18 -30 51.5 -47.5t75.5 -17.5q68 0 114 57.5t46 135.5q0 57 -33.5 92.5t-85.5 35.5z" />
    <glyph glyph-name="ydieresis" unicode="&#xff;" horiz-adv-x="503" 
d="M17 -100q5 -1 19 -1q37 0 65 40l38 58l-78 429q-1 2 -1 9q0 22 16 38t38 16q20 0 34.5 -13t17.5 -32l54 -323l211 345q12 23 42 23q21 0 35 -15t14 -34q0 -12 -8 -26l-316 -501q-37 -58 -77 -83.5t-95 -25.5q-14 0 -18 1q-18 2 -31 15.5t-13 31.5q0 22 16 36t37 12z
M180 636q0 26 20 45.5t46 19.5q22 0 37 -14.5t15 -37.5q0 -26 -20 -45.5t-46 -19.5q-22 0 -37 15t-15 37zM389 636q0 26 20 45.5t46 19.5q23 0 37.5 -14.5t14.5 -37.5q0 -26 -20 -45.5t-46 -19.5q-22 0 -37 15t-15 37z" />
    <glyph glyph-name="Amacron" unicode="&#x100;" horiz-adv-x="673" 
d="M607 54q0 -25 -17.5 -42.5t-42.5 -17.5q-22 0 -38.5 14t-20.5 36l-12 84h-320l-62 -106q-19 -28 -49 -28q-23 0 -40 17t-17 40q0 13 9 30l333 544q31 48 86 48q37 0 65 -24t34 -60l91 -525q1 -2 1 -10zM217 231h244l-49 333zM286 764q0 13 9 22t22 9h272q13 0 22 -9
t9 -22t-9 -22t-22 -9h-272q-13 0 -22 9t-9 22z" />
    <glyph glyph-name="amacron" unicode="&#x101;" horiz-adv-x="581" 
d="M555 438q0 -8 -1 -11l-87 -393q-4 -17 -18 -28.5t-32 -11.5q-21 0 -36.5 15.5t-15.5 35.5q0 8 1 11l2 8q-61 -76 -151 -76q-85 0 -135 53t-50 146q-1 77 29.5 147.5t90.5 116.5t134 44q51 0 93.5 -21.5t66.5 -59.5l8 35q4 17 17.5 28.5t32.5 11.5q21 0 36 -15.5t15 -35.5
zM387 149l42 187q-18 30 -51.5 48t-75.5 18q-68 0 -114 -58t-46 -136q0 -58 33 -92.5t86 -34.5q36 0 70 18.5t56 49.5zM211 617q0 13 9 22t22 9h272q13 0 22 -9t9 -22t-9 -22t-22 -9h-272q-13 0 -22 9t-9 22z" />
    <glyph glyph-name="Abreve" unicode="&#x102;" horiz-adv-x="673" 
d="M607 54q0 -25 -17.5 -42.5t-42.5 -17.5q-22 0 -38.5 14t-20.5 36l-12 84h-320l-62 -106q-19 -28 -49 -28q-23 0 -40 17t-17 40q0 13 9 30l333 544q31 48 86 48q37 0 65 -24t34 -60l91 -525q1 -2 1 -10zM217 231h244l-49 333zM304 784q-8 11 -8 22q0 14 10 24t24 10
q16 0 26 -13q36 -44 99 -44q69 0 127 52q7 7 19 7t20.5 -8.5t8.5 -20.5q0 -11 -10 -21q-84 -71 -176 -71q-88 0 -140 63z" />
    <glyph glyph-name="abreve" unicode="&#x103;" horiz-adv-x="581" 
d="M555 438q0 -8 -1 -11l-87 -393q-4 -17 -18 -28.5t-32 -11.5q-21 0 -36.5 15.5t-15.5 35.5q0 8 1 11l2 8q-61 -76 -151 -76q-85 0 -135 53t-50 146q-1 77 29.5 147.5t90.5 116.5t134 44q51 0 93.5 -21.5t66.5 -59.5l8 35q4 17 17.5 28.5t32.5 11.5q21 0 36 -15.5t15 -35.5
zM387 149l42 187q-18 30 -51.5 48t-75.5 18q-68 0 -114 -58t-46 -136q0 -58 33 -92.5t86 -34.5q36 0 70 18.5t56 49.5zM229 637q-8 11 -8 22q0 14 10 24t24 10q16 0 26 -13q36 -44 99 -44q69 0 127 52q7 7 19 7t20.5 -8.5t8.5 -20.5q0 -11 -10 -21q-84 -71 -176 -71
q-88 0 -140 63z" />
    <glyph glyph-name="Aogonek" unicode="&#x104;" horiz-adv-x="673" 
d="M494 -90q0 -11 8 -18t21 -7h8q14 2 25 -8t11 -24q0 -24 -24 -31q-29 -8 -62 -8q-41 0 -66 16.5t-25 44.5q0 40 37.5 72t97.5 51q-31 13 -37 46l-12 84h-320l-62 -106q-19 -28 -49 -28q-23 0 -40 17t-17 40q0 13 9 30l333 544q31 48 86 48q37 0 65 -24t34 -60l91 -525
q1 -3 1 -11q0 -40 -37 -54q-76 -54 -76 -89zM217 231h244l-49 333z" />
    <glyph glyph-name="aogonek" unicode="&#x105;" horiz-adv-x="581" 
d="M555 438q0 -8 -1 -11l-87 -393q-6 -25 -31 -37q-75 -50 -75 -87q0 -11 8 -18t21 -7h8q14 2 25 -8t11 -24q0 -24 -24 -31q-29 -8 -62 -8q-41 0 -66 16.5t-25 44.5q0 40 38 72.5t99 51.5q-29 15 -29 47q0 8 1 10l2 8q-61 -76 -151 -76q-85 0 -135 53t-50 146
q-1 77 29.5 147.5t90.5 116.5t134 44q51 0 93.5 -21.5t66.5 -59.5l8 35q4 17 17.5 28.5t32.5 11.5q21 0 36 -15.5t15 -35.5zM387 149l42 187q-18 30 -51.5 48t-75.5 18q-68 0 -114 -58t-46 -136q0 -58 33 -92.5t86 -34.5q36 0 70 18.5t56 49.5z" />
    <glyph glyph-name="Cacute" unicode="&#x106;" horiz-adv-x="662" 
d="M433 678q162 0 250 -114q11 -17 11 -35q0 -25 -17 -42t-41 -17q-30 0 -48 25q-54 79 -161 79q-103 0 -178.5 -81.5t-75.5 -201.5q0 -88 56 -143.5t148 -55.5q76 0 141 53q14 13 34 13q23 0 38.5 -15.5t15.5 -38.5q0 -24 -21 -42q-91 -74 -215 -74q-136 -2 -228.5 82
t-90.5 214q-2 111 51.5 203.5t142 142.5t188.5 48zM484 717q-10 0 -18 8t-8 18q0 15 10 22l116 98q11 8 23 8q13 0 21.5 -9.5t8.5 -22.5q0 -17 -13 -27l-123 -90q-8 -5 -17 -5z" />
    <glyph glyph-name="cacute" unicode="&#x107;" horiz-adv-x="497" 
d="M310 495q98 0 156 -52q17 -15 17 -38q0 -20 -15 -34.5t-35 -14.5t-34 13q-36 33 -88 33q-74 0 -122.5 -56.5t-48.5 -135.5q0 -60 37 -94.5t97 -34.5q46 0 83 28q11 8 27 8q19 0 32 -13t13 -32q0 -23 -19 -37q-65 -47 -146 -47q-104 0 -167.5 59.5t-63.5 158.5
q-2 117 80.5 204t196.5 85zM361 570q-10 0 -18 8t-8 18q0 15 10 22l116 98q11 8 23 8q13 0 21.5 -9.5t8.5 -22.5q0 -17 -13 -27l-123 -90q-8 -5 -17 -5z" />
    <glyph glyph-name="Ccircumflex" unicode="&#x108;" horiz-adv-x="662" 
d="M433 678q162 0 250 -114q11 -17 11 -35q0 -25 -17 -42t-41 -17q-30 0 -48 25q-54 79 -161 79q-103 0 -178.5 -81.5t-75.5 -201.5q0 -88 56 -143.5t148 -55.5q76 0 141 53q14 13 34 13q23 0 38.5 -15.5t15.5 -38.5q0 -24 -21 -42q-91 -74 -215 -74q-136 -2 -228.5 82
t-90.5 214q-2 111 51.5 203.5t142 142.5t188.5 48zM558 732l-51 87l-94 -94q-8 -8 -19 -8t-18 8t-7 18q0 9 6 17l69 79q25 28 55 28h35q34 0 42 -25l36 -82q3 -6 3 -13q0 -12 -9.5 -21t-21.5 -9q-18 0 -26 15z" />
    <glyph glyph-name="ccircumflex" unicode="&#x109;" horiz-adv-x="497" 
d="M310 495q98 0 156 -52q17 -15 17 -38q0 -20 -15 -34.5t-35 -14.5t-34 13q-36 33 -88 33q-74 0 -122.5 -56.5t-48.5 -135.5q0 -60 37 -94.5t97 -34.5q46 0 83 28q11 8 27 8q19 0 32 -13t13 -32q0 -23 -19 -37q-65 -47 -146 -47q-104 0 -167.5 59.5t-63.5 158.5
q-2 117 80.5 204t196.5 85zM435 585l-51 87l-94 -94q-8 -8 -19 -8t-18 8t-7 18t6 17l69 79q25 28 55 28h35q34 0 42 -25l36 -82q3 -6 3 -13q0 -12 -9.5 -21t-21.5 -9q-18 0 -26 15z" />
    <glyph glyph-name="Cdotaccent" unicode="&#x10a;" horiz-adv-x="662" 
d="M433 678q162 0 250 -114q11 -17 11 -35q0 -25 -17 -42t-41 -17q-30 0 -48 25q-54 79 -161 79q-103 0 -178.5 -81.5t-75.5 -201.5q0 -88 56 -143.5t148 -55.5q76 0 141 53q14 13 34 13q23 0 38.5 -15.5t15.5 -38.5q0 -24 -21 -42q-91 -74 -215 -74q-136 -2 -228.5 82
t-90.5 214q-2 111 51.5 203.5t142 142.5t188.5 48zM439 782q0 26 20 46t46 20q23 0 38 -15t15 -38q0 -26 -20.5 -45.5t-46.5 -19.5q-23 0 -37.5 15t-14.5 37z" />
    <glyph glyph-name="cdotaccent" unicode="&#x10b;" horiz-adv-x="497" 
d="M310 495q98 0 156 -52q17 -15 17 -38q0 -20 -15 -34.5t-35 -14.5t-34 13q-36 33 -88 33q-74 0 -122.5 -56.5t-48.5 -135.5q0 -60 37 -94.5t97 -34.5q46 0 83 28q11 8 27 8q19 0 32 -13t13 -32q0 -23 -19 -37q-65 -47 -146 -47q-104 0 -167.5 59.5t-63.5 158.5
q-2 117 80.5 204t196.5 85zM316 635q0 26 20 46t46 20q23 0 38 -15t15 -38q0 -26 -20.5 -45.5t-46.5 -19.5q-23 0 -37.5 15t-14.5 37z" />
    <glyph glyph-name="Ccaron" unicode="&#x10c;" horiz-adv-x="662" 
d="M433 678q162 0 250 -114q11 -17 11 -35q0 -25 -17 -42t-41 -17q-30 0 -48 25q-54 79 -161 79q-103 0 -178.5 -81.5t-75.5 -201.5q0 -88 56 -143.5t148 -55.5q76 0 141 53q14 13 34 13q23 0 38.5 -15.5t15.5 -38.5q0 -24 -21 -42q-91 -74 -215 -74q-136 -2 -228.5 82
t-90.5 214q-2 111 51.5 203.5t142 142.5t188.5 48zM442 858l51 -87l94 94q8 8 19 8t18 -8t7 -18q0 -9 -6 -17l-69 -79q-25 -28 -55 -28h-35q-34 0 -42 25l-36 82q-3 6 -3 13q0 12 9.5 21t21.5 9q18 0 26 -15z" />
    <glyph glyph-name="ccaron" unicode="&#x10d;" horiz-adv-x="497" 
d="M310 495q98 0 156 -52q17 -15 17 -38q0 -20 -15 -34.5t-35 -14.5t-34 13q-36 33 -88 33q-74 0 -122.5 -56.5t-48.5 -135.5q0 -60 37 -94.5t97 -34.5q46 0 83 28q11 8 27 8q19 0 32 -13t13 -32q0 -23 -19 -37q-65 -47 -146 -47q-104 0 -167.5 59.5t-63.5 158.5
q-2 117 80.5 204t196.5 85zM319 711l51 -87l94 94q8 8 19 8t18 -8t7 -18t-6 -17l-69 -79q-25 -28 -55 -28h-35q-34 0 -42 25l-36 82q-3 6 -3 13q0 12 9.5 21t21.5 9q18 0 26 -15z" />
    <glyph glyph-name="Dcaron" unicode="&#x10e;" horiz-adv-x="710" 
d="M30 50q0 2 2 18l120 544q12 55 68 55h187q113 2 200 -82t84 -204q1 -72 -26 -139t-78 -122.5t-135 -88t-188 -31.5h-177q-27 0 -42 13.5t-15 36.5zM569 374q0 81 -52 135.5t-132 54.5h-127l-102 -461h129q126 0 205 78.5t79 192.5zM420 858l51 -87l94 94q8 8 19 8t18 -8
t7 -18q0 -9 -6 -17l-69 -79q-25 -28 -55 -28h-35q-34 0 -42 25l-36 82q-3 6 -3 13q0 12 9.5 21t21.5 9q18 0 26 -15z" />
    <glyph glyph-name="dcaron" unicode="&#x10f;" horiz-adv-x="670" 
d="M595 622q0 -8 -1 -11l-127 -577q-4 -17 -18 -28.5t-33 -11.5q-21 0 -36 15.5t-15 35.5q0 8 1 11l2 8q-61 -76 -151 -76q-85 0 -135 53t-50 146q-1 77 29.5 147.5t90.5 116.5t134 44q51 0 93.5 -21.5t66.5 -59.5l48 219q4 17 18 28.5t32 11.5q22 0 36.5 -15t14.5 -36z
M387 149l42 187q-18 30 -51.5 48t-75.5 18q-68 0 -114 -58t-46 -136q0 -58 33 -92.5t86 -34.5q36 0 70 18.5t56 49.5zM643 471q-9 0 -16 7t-7 14q0 13 10 19q44 25 59 62h-8q-18 0 -30.5 12.5t-12.5 33.5q0 24 19 42t43 18t39 -15.5t15 -42.5q0 -39 -27 -78.5t-68 -66.5
q-8 -5 -16 -5z" />
    <glyph glyph-name="Dcroat" unicode="&#x110;" horiz-adv-x="736" 
d="M717 381q1 -72 -26 -139t-78 -122.5t-135 -88t-188 -31.5h-177q-27 0 -42 13.5t-15 36.5q0 2 2 18l48 218h-35q-20 0 -33.5 14t-13.5 34t14 33.5t33 13.5h56l51 231q12 55 68 55h187q113 2 200 -82t84 -204zM595 374q0 81 -52 135.5t-132 54.5h-127l-40 -183h104
q20 0 33.5 -14t13.5 -34q0 -19 -13.5 -33t-33.5 -14h-126l-40 -183h129q126 0 205 78.5t79 192.5z" />
    <glyph glyph-name="dslash" unicode="&#x111;" horiz-adv-x="585" 
d="M641 562q0 -13 -9 -22t-22 -9h-34l-109 -497q-4 -17 -18 -28.5t-33 -11.5q-21 0 -36 15.5t-15 35.5q0 8 1 11l2 8q-61 -76 -151 -76q-85 0 -135 53t-50 146q-1 77 29.5 147.5t90.5 116.5t134 44q51 0 93.5 -21.5t66.5 -59.5l26 117h-127q-13 0 -22 9t-9 22t9 22t22 9h140
l9 40q4 17 18 28.5t32 11.5q22 0 36.5 -15t14.5 -36q0 -8 -1 -11l-4 -18h20q13 0 22 -9t9 -22zM387 149l42 187q-18 30 -51.5 48t-75.5 18q-68 0 -114 -58t-46 -136q0 -58 33 -92.5t86 -34.5q36 0 70 18.5t56 49.5z" />
    <glyph glyph-name="Emacron" unicode="&#x112;" horiz-adv-x="577" 
d="M30 50q0 2 2 18l120 544q12 55 68 55h343q21 0 36 -15t15 -37q0 -21 -15 -36t-36 -15h-305l-38 -173h275q21 0 36 -15t15 -37q0 -21 -15 -36t-36 -15h-298l-41 -185h282q21 0 36.5 -15t15.5 -36q0 -22 -15.5 -37t-36.5 -15h-351q-27 0 -42 13.5t-15 36.5zM256 764
q0 13 9 22t22 9h272q13 0 22 -9t9 -22t-9 -22t-22 -9h-272q-13 0 -22 9t-9 22z" />
    <glyph glyph-name="emacron" unicode="&#x113;" horiz-adv-x="557" 
d="M309 495q94 0 153.5 -59t59.5 -155q0 -13 -1 -17q-2 -57 -65 -57h-317l-1 -17q0 -46 40 -81t107 -35q54 0 99 22q7 4 17 4q17 0 28.5 -12t11.5 -29q0 -24 -21 -35q-69 -36 -143 -36q-113 0 -178.5 58t-65.5 158q-2 117 80 205t196 86zM428 295q0 50 -34 82t-93 32
q-55 0 -99 -38q-41 -37 -52 -90h277q1 2 1 14zM202 617q0 13 9 22t22 9h272q13 0 22 -9t9 -22t-9 -22t-22 -9h-272q-13 0 -22 9t-9 22z" />
    <glyph glyph-name="Ebreve" unicode="&#x114;" horiz-adv-x="577" 
d="M30 50q0 2 2 18l120 544q12 55 68 55h343q21 0 36 -15t15 -37q0 -21 -15 -36t-36 -15h-305l-38 -173h275q21 0 36 -15t15 -37q0 -21 -15 -36t-36 -15h-298l-41 -185h282q21 0 36.5 -15t15.5 -36q0 -22 -15.5 -37t-36.5 -15h-351q-27 0 -42 13.5t-15 36.5zM274 784
q-8 11 -8 22q0 14 10 24t24 10q16 0 26 -13q36 -44 99 -44q69 0 127 52q7 7 19 7t20.5 -8.5t8.5 -20.5q0 -11 -10 -21q-84 -71 -176 -71q-88 0 -140 63z" />
    <glyph glyph-name="ebreve" unicode="&#x115;" horiz-adv-x="557" 
d="M309 495q94 0 153.5 -59t59.5 -155q0 -13 -1 -17q-2 -57 -65 -57h-317l-1 -17q0 -46 40 -81t107 -35q54 0 99 22q7 4 17 4q17 0 28.5 -12t11.5 -29q0 -24 -21 -35q-69 -36 -143 -36q-113 0 -178.5 58t-65.5 158q-2 117 80 205t196 86zM428 295q0 50 -34 82t-93 32
q-55 0 -99 -38q-41 -37 -52 -90h277q1 2 1 14zM220 637q-8 11 -8 22q0 14 10 24t24 10q16 0 26 -13q36 -44 99 -44q69 0 127 52q7 7 19 7t20.5 -8.5t8.5 -20.5q0 -11 -10 -21q-84 -71 -176 -71q-88 0 -140 63z" />
    <glyph glyph-name="Edotaccent" unicode="&#x116;" horiz-adv-x="577" 
d="M30 50q0 2 2 18l120 544q12 55 68 55h343q21 0 36 -15t15 -37q0 -21 -15 -36t-36 -15h-305l-38 -173h275q21 0 36 -15t15 -37q0 -21 -15 -36t-36 -15h-298l-41 -185h282q21 0 36.5 -15t15.5 -36q0 -22 -15.5 -37t-36.5 -15h-351q-27 0 -42 13.5t-15 36.5zM367 782
q0 26 20 46t46 20q23 0 38 -15t15 -38q0 -26 -20.5 -45.5t-46.5 -19.5q-23 0 -37.5 15t-14.5 37z" />
    <glyph glyph-name="edotaccent" unicode="&#x117;" horiz-adv-x="557" 
d="M309 495q94 0 153.5 -59t59.5 -155q0 -13 -1 -17q-2 -57 -65 -57h-317l-1 -17q0 -46 40 -81t107 -35q54 0 99 22q7 4 17 4q17 0 28.5 -12t11.5 -29q0 -24 -21 -35q-69 -36 -143 -36q-113 0 -178.5 58t-65.5 158q-2 117 80 205t196 86zM428 295q0 50 -34 82t-93 32
q-55 0 -99 -38q-41 -37 -52 -90h277q1 2 1 14zM313 635q0 26 20 46t46 20q23 0 38 -15t15 -38q0 -26 -20.5 -45.5t-46.5 -19.5q-23 0 -37.5 15t-14.5 37z" />
    <glyph glyph-name="Eogonek" unicode="&#x118;" horiz-adv-x="577" 
d="M614 615q0 -21 -15 -36t-36 -15h-305l-38 -173h275q21 0 36 -15t15 -37q0 -21 -15 -36t-36 -15h-298l-41 -185h282q21 0 36.5 -15t15.5 -36q0 -20 -13.5 -35t-32.5 -17q-79 -54 -79 -90q0 -11 8 -18t21 -7h8q14 2 25 -8t11 -24q0 -24 -24 -31q-29 -8 -62 -8
q-41 0 -66 16.5t-25 44.5q0 40 38.5 72.5t101.5 52.5h-314q-27 0 -42 13.5t-15 36.5q0 2 2 18l120 544q12 55 68 55h343q21 0 36 -15t15 -37z" />
    <glyph glyph-name="eogonek" unicode="&#x119;" horiz-adv-x="557" 
d="M315 -9q-19 -3 -38 -3q-113 0 -178.5 58t-65.5 158q-2 117 80 205t196 86q94 0 153.5 -59t59.5 -155q0 -13 -1 -17q-2 -57 -65 -57h-317l-1 -17q0 -46 40 -81t107 -35q54 0 98 22q6 3 18 3q17 0 29 -12t12 -29q0 -20 -18 -34q-57 -40 -81 -64t-28 -44q-3 -14 5 -22.5
t23 -8.5h8q15 0 25.5 -9t10.5 -23q0 -24 -24 -31q-29 -8 -62 -8q-40 0 -65.5 16.5t-25.5 45.5q0 1 2 15q13 60 103 100zM428 295q0 50 -34 82t-93 32q-55 0 -99 -38q-41 -37 -52 -90h277q1 2 1 14z" />
    <glyph glyph-name="Ecaron" unicode="&#x11a;" horiz-adv-x="577" 
d="M30 50q0 2 2 18l120 544q12 55 68 55h343q21 0 36 -15t15 -37q0 -21 -15 -36t-36 -15h-305l-38 -173h275q21 0 36 -15t15 -37q0 -21 -15 -36t-36 -15h-298l-41 -185h282q21 0 36.5 -15t15.5 -36q0 -22 -15.5 -37t-36.5 -15h-351q-27 0 -42 13.5t-15 36.5zM370 858l51 -87
l94 94q8 8 19 8t18 -8t7 -18q0 -9 -6 -17l-69 -79q-25 -28 -55 -28h-35q-34 0 -42 25l-36 82q-3 6 -3 13q0 12 9.5 21t21.5 9q18 0 26 -15z" />
    <glyph glyph-name="ecaron" unicode="&#x11b;" horiz-adv-x="557" 
d="M309 495q94 0 153.5 -59t59.5 -155q0 -13 -1 -17q-2 -57 -65 -57h-317l-1 -17q0 -46 40 -81t107 -35q54 0 99 22q7 4 17 4q17 0 28.5 -12t11.5 -29q0 -24 -21 -35q-69 -36 -143 -36q-113 0 -178.5 58t-65.5 158q-2 117 80 205t196 86zM428 295q0 50 -34 82t-93 32
q-55 0 -99 -38q-41 -37 -52 -90h277q1 2 1 14zM316 711l51 -87l94 94q8 8 19 8t18 -8t7 -18t-6 -17l-69 -79q-25 -28 -55 -28h-35q-34 0 -42 25l-36 82q-3 6 -3 13q0 12 9.5 21t21.5 9q18 0 26 -15z" />
    <glyph glyph-name="Gcircumflex" unicode="&#x11c;" horiz-adv-x="717" 
d="M678 308l-2 -18l-32 -145q-10 -43 -38 -69q-100 -88 -236 -88q-139 0 -229 82.5t-90 213.5q-3 167 112.5 282t279.5 112q147 0 231 -100q14 -17 14 -37q0 -24 -16.5 -41t-40.5 -17q-27 0 -45 21q-57 70 -159 70q-101 2 -178.5 -82.5t-75.5 -200.5q0 -87 56 -143t148 -56
q83 0 151 59l23 104h-141q-21 0 -36 15t-15 36q0 22 15 37t36 15h211q57 0 57 -50zM566 732l-51 87l-94 -94q-8 -8 -19 -8t-18 8t-7 18q0 9 6 17l69 79q25 28 55 28h35q34 0 42 -25l36 -82q3 -6 3 -13q0 -12 -9.5 -21t-21.5 -9q-18 0 -26 15z" />
    <glyph glyph-name="gcircumflex" unicode="&#x11d;" horiz-adv-x="580" 
d="M553 437q0 -8 -1 -11l-89 -401q-25 -120 -94 -170q-67 -51 -157 -51q-120 0 -193 53q-19 13 -19 37q0 19 13.5 32.5t32.5 13.5q16 0 28 -9q55 -41 136 -41q118 0 148 135l12 52q-63 -77 -155 -77q-83 0 -133 51t-50 147q-2 117 70 208.5t181 88.5q46 0 90.5 -22.5
t70.5 -58.5l8 35q4 17 18 28.5t32 11.5q21 0 36 -15.5t15 -36.5zM388 158l39 175q-19 32 -54 50.5t-78 18.5q-67 0 -110.5 -54.5t-43.5 -130.5q0 -57 33 -90.5t88 -33.5q70 0 126 65zM441 585l-51 87l-94 -94q-8 -8 -19 -8t-18 8t-7 18t6 17l69 79q25 28 55 28h35
q34 0 42 -25l36 -82q3 -6 3 -13q0 -12 -9.5 -21t-21.5 -9q-18 0 -26 15z" />
    <glyph glyph-name="Gbreve" unicode="&#x11e;" horiz-adv-x="717" 
d="M678 308l-2 -18l-32 -145q-10 -43 -38 -69q-100 -88 -236 -88q-139 0 -229 82.5t-90 213.5q-3 167 112.5 282t279.5 112q147 0 231 -100q14 -17 14 -37q0 -24 -16.5 -41t-40.5 -17q-27 0 -45 21q-57 70 -159 70q-101 2 -178.5 -82.5t-75.5 -200.5q0 -87 56 -143t148 -56
q83 0 151 59l23 104h-141q-21 0 -36 15t-15 36q0 22 15 37t36 15h211q57 0 57 -50zM354 784q-8 11 -8 22q0 14 10 24t24 10q16 0 26 -13q36 -44 99 -44q69 0 127 52q7 7 19 7t20.5 -8.5t8.5 -20.5q0 -11 -10 -21q-84 -71 -176 -71q-88 0 -140 63z" />
    <glyph glyph-name="gbreve" unicode="&#x11f;" horiz-adv-x="580" 
d="M553 437q0 -8 -1 -11l-89 -401q-25 -120 -94 -170q-67 -51 -157 -51q-120 0 -193 53q-19 13 -19 37q0 19 13.5 32.5t32.5 13.5q16 0 28 -9q55 -41 136 -41q118 0 148 135l12 52q-63 -77 -155 -77q-83 0 -133 51t-50 147q-2 117 70 208.5t181 88.5q46 0 90.5 -22.5
t70.5 -58.5l8 35q4 17 18 28.5t32 11.5q21 0 36 -15.5t15 -36.5zM388 158l39 175q-19 32 -54 50.5t-78 18.5q-67 0 -110.5 -54.5t-43.5 -130.5q0 -57 33 -90.5t88 -33.5q70 0 126 65zM229 637q-8 11 -8 22q0 14 10 24t24 10q16 0 26 -13q36 -44 99 -44q69 0 127 52q7 7 19 7
t20.5 -8.5t8.5 -20.5q0 -11 -10 -21q-84 -71 -176 -71q-88 0 -140 63z" />
    <glyph glyph-name="Gdotaccent" unicode="&#x120;" horiz-adv-x="717" 
d="M678 308l-2 -18l-32 -145q-10 -43 -38 -69q-100 -88 -236 -88q-139 0 -229 82.5t-90 213.5q-3 167 112.5 282t279.5 112q147 0 231 -100q14 -17 14 -37q0 -24 -16.5 -41t-40.5 -17q-27 0 -45 21q-57 70 -159 70q-101 2 -178.5 -82.5t-75.5 -200.5q0 -87 56 -143t148 -56
q83 0 151 59l23 104h-141q-21 0 -36 15t-15 36q0 22 15 37t36 15h211q57 0 57 -50zM447 782q0 26 20 46t46 20q23 0 38 -15t15 -38q0 -26 -20.5 -45.5t-46.5 -19.5q-23 0 -37.5 15t-14.5 37z" />
    <glyph glyph-name="gdotaccent" unicode="&#x121;" horiz-adv-x="580" 
d="M553 437q0 -8 -1 -11l-89 -401q-25 -120 -94 -170q-67 -51 -157 -51q-120 0 -193 53q-19 13 -19 37q0 19 13.5 32.5t32.5 13.5q16 0 28 -9q55 -41 136 -41q118 0 148 135l12 52q-63 -77 -155 -77q-83 0 -133 51t-50 147q-2 117 70 208.5t181 88.5q46 0 90.5 -22.5
t70.5 -58.5l8 35q4 17 18 28.5t32 11.5q21 0 36 -15.5t15 -36.5zM388 158l39 175q-19 32 -54 50.5t-78 18.5q-67 0 -110.5 -54.5t-43.5 -130.5q0 -57 33 -90.5t88 -33.5q70 0 126 65zM322 635q0 26 20 46t46 20q23 0 38 -15t15 -38q0 -26 -20.5 -45.5t-46.5 -19.5
q-23 0 -37.5 15t-14.5 37z" />
    <glyph glyph-name="uni0122" unicode="&#x122;" horiz-adv-x="717" 
d="M678 308l-2 -18l-32 -145q-10 -43 -38 -69q-100 -88 -236 -88q-139 0 -229 82.5t-90 213.5q-3 167 112.5 282t279.5 112q147 0 231 -100q14 -17 14 -37q0 -24 -16.5 -41t-40.5 -17q-27 0 -45 21q-57 70 -159 70q-101 2 -178.5 -82.5t-75.5 -200.5q0 -87 56 -143t148 -56
q83 0 151 59l23 104h-141q-21 0 -36 15t-15 36q0 22 15 37t36 15h211q57 0 57 -50zM253 -271q-9 0 -16 7t-7 14q0 13 10 19q44 25 59 62h-8q-18 0 -30.5 12.5t-12.5 33.5q0 24 19 42t43 18t39 -15.5t15 -42.5q0 -39 -27 -78.5t-68 -66.5q-8 -5 -16 -5z" />
    <glyph glyph-name="uni0123" unicode="&#x123;" horiz-adv-x="580" 
d="M310 621q0 39 27 78.5t68 66.5q8 5 16 5q9 0 16 -7t7 -14q0 -13 -10 -19q-44 -25 -59 -62h8q18 0 30.5 -12.5t12.5 -33.5q0 -24 -19 -42t-43 -18t-39 15.5t-15 42.5zM553 437q0 -8 -1 -11l-89 -401q-25 -120 -94 -170q-67 -51 -157 -51q-120 0 -193 53q-19 13 -19 37
q0 19 13.5 32.5t32.5 13.5q16 0 28 -9q55 -41 136 -41q118 0 148 135l12 52q-63 -77 -155 -77q-83 0 -133 51t-50 147q-2 117 70 208.5t181 88.5q46 0 90.5 -22.5t70.5 -58.5l8 35q4 17 18 28.5t32 11.5q21 0 36 -15.5t15 -36.5zM388 158l39 175q-19 32 -54 50.5t-78 18.5
q-67 0 -110.5 -54.5t-43.5 -130.5q0 -57 33 -90.5t88 -33.5q70 0 126 65z" />
    <glyph glyph-name="Hcircumflex" unicode="&#x124;" horiz-adv-x="723" 
d="M494 52q0 9 1 12l50 227h-347l-55 -252q-5 -19 -20.5 -32t-35.5 -13q-24 0 -40.5 17t-16.5 41q0 9 1 12l124 564q5 19 20.5 32t35.5 13q24 0 40.5 -17t16.5 -41q0 -9 -1 -12l-46 -209h347l51 234q5 19 20.5 32t35.5 13q24 0 40.5 -17t16.5 -41q0 -9 -1 -12l-124 -564
q-5 -19 -20.5 -32t-35.5 -13q-24 0 -40.5 17t-16.5 41zM542 732l-51 87l-94 -94q-8 -8 -19 -8t-18 8t-7 18q0 9 6 17l69 79q25 28 55 28h35q34 0 42 -25l36 -82q3 -6 3 -13q0 -12 -9.5 -21t-21.5 -9q-18 0 -26 15z" />
    <glyph glyph-name="hcircumflex" unicode="&#x125;" horiz-adv-x="568" 
d="M352 45q0 8 1 11l54 247q5 22 5 30q0 69 -90 69q-65 0 -129 -66l-66 -302q-4 -17 -18 -28.5t-33 -11.5q-21 0 -36 15.5t-15 35.5q0 8 1 11l127 577q4 17 18 28.5t32 11.5q22 0 37 -15t15 -36q0 -8 -1 -11l-43 -194q83 78 165 78q68 0 108 -32.5t40 -89.5q0 -12 -5 -40
l-65 -299q-4 -17 -18 -28.5t-33 -11.5q-21 0 -36 15.5t-15 35.5zM463 732l-51 87l-94 -94q-8 -8 -19 -8t-18 8t-7 18q0 9 6 17l69 79q25 28 55 28h35q34 0 42 -25l36 -82q3 -6 3 -13q0 -12 -9.5 -21t-21.5 -9q-18 0 -26 15z" />
    <glyph glyph-name="Hbar" unicode="&#x126;" horiz-adv-x="741" 
d="M798 532q0 -13 -9 -22t-22 -9h-49l-102 -462q-5 -19 -20.5 -32t-35.5 -13q-24 0 -40.5 17t-16.5 41q0 9 1 12l50 227h-347l-55 -252q-5 -19 -20.5 -32t-35.5 -13q-24 0 -40.5 17t-16.5 41q0 9 1 12l96 437h-37q-13 0 -22 9t-9 22t9 22t22 9h51l14 65q5 19 20.5 32
t35.5 13q24 0 40.5 -17t16.5 -41q0 -9 -1 -12l-9 -40h347l14 65q5 19 20.5 32t35.5 13q24 0 40.5 -17t16.5 -41q0 -9 -1 -12l-9 -40h36q13 0 22 -9t9 -22zM577 394l23 107h-346l-24 -107h347z" />
    <glyph glyph-name="hbar" unicode="&#x127;" horiz-adv-x="568" 
d="M524 373q0 -12 -5 -40l-65 -299q-4 -17 -18 -28.5t-33 -11.5q-21 0 -36 15.5t-15 35.5q0 8 1 11l54 247q5 22 5 30q0 69 -90 69q-65 0 -129 -66l-66 -302q-4 -17 -18 -28.5t-33 -11.5q-21 0 -36 15.5t-15 35.5q0 8 1 11l105 475h-28q-13 0 -22 9t-9 22t9 22t22 9h41l9 40
q4 17 18 28.5t32 11.5q22 0 37 -15t15 -36q0 -8 -1 -11l-4 -18h118q13 0 22 -9t9 -22t-9 -22t-22 -9h-132l-25 -114q83 78 165 78q68 0 108 -32.5t40 -89.5z" />
    <glyph glyph-name="Itilde" unicode="&#x128;" horiz-adv-x="259" 
d="M30 52q0 9 1 12l124 564q5 19 20.5 32t35.5 13q24 0 40.5 -17t16.5 -41q0 -9 -1 -12l-124 -564q-5 -19 -20.5 -32t-35.5 -13q-24 0 -40.5 17t-16.5 41zM186 799q-32 0 -47 -57q-5 -21 -27 -21q-14 0 -23 11.5t-5 24.5q30 104 110 104q24 0 38 -9.5t34 -34.5
q24 -34 48 -34q30 0 47 57q5 21 27 21q15 0 23.5 -11.5t4.5 -25.5q-32 -103 -110 -103q-24 0 -38 9.5t-34 34.5q-24 34 -48 34z" />
    <glyph glyph-name="itilde" unicode="&#x129;" horiz-adv-x="241" 
d="M26 45q0 8 1 11l86 393q4 17 18 28.5t33 11.5q21 0 36 -15.5t15 -35.5q0 -8 -1 -11l-87 -393q-4 -17 -18 -28.5t-32 -11.5q-22 0 -36.5 15t-14.5 36zM144 652q-32 0 -47 -57q-5 -21 -27 -21q-14 0 -23 11.5t-5 24.5q30 104 110 104q24 0 38 -9.5t34 -34.5q24 -34 48 -34
q30 0 47 57q5 21 27 21q15 0 23.5 -11.5t4.5 -25.5q-32 -103 -110 -103q-24 0 -38 9.5t-34 34.5q-24 34 -48 34z" />
    <glyph glyph-name="Imacron" unicode="&#x12a;" horiz-adv-x="259" 
d="M30 52q0 9 1 12l124 564q5 19 20.5 32t35.5 13q24 0 40.5 -17t16.5 -41q0 -9 -1 -12l-124 -564q-5 -19 -20.5 -32t-35.5 -13q-24 0 -40.5 17t-16.5 41zM80 764q0 13 9 22t22 9h272q13 0 22 -9t9 -22t-9 -22t-22 -9h-272q-13 0 -22 9t-9 22z" />
    <glyph glyph-name="imacron" unicode="&#x12b;" horiz-adv-x="241" 
d="M26 45q0 8 1 11l86 393q4 17 18 28.5t33 11.5q21 0 36 -15.5t15 -35.5q0 -8 -1 -11l-87 -393q-4 -17 -18 -28.5t-32 -11.5q-22 0 -36.5 15t-14.5 36zM38 617q0 13 9 22t22 9h272q13 0 22 -9t9 -22t-9 -22t-22 -9h-272q-13 0 -22 9t-9 22z" />
    <glyph glyph-name="Ibreve" unicode="&#x12c;" horiz-adv-x="259" 
d="M30 52q0 9 1 12l124 564q5 19 20.5 32t35.5 13q24 0 40.5 -17t16.5 -41q0 -9 -1 -12l-124 -564q-5 -19 -20.5 -32t-35.5 -13q-24 0 -40.5 17t-16.5 41zM98 784q-8 11 -8 22q0 14 10 24t24 10q16 0 26 -13q36 -44 99 -44q69 0 127 52q7 7 19 7t20.5 -8.5t8.5 -20.5
q0 -11 -10 -21q-84 -71 -176 -71q-88 0 -140 63z" />
    <glyph glyph-name="ibreve" unicode="&#x12d;" horiz-adv-x="241" 
d="M26 45q0 8 1 11l86 393q4 17 18 28.5t33 11.5q21 0 36 -15.5t15 -35.5q0 -8 -1 -11l-87 -393q-4 -17 -18 -28.5t-32 -11.5q-22 0 -36.5 15t-14.5 36zM56 637q-8 11 -8 22q0 14 10 24t24 10q16 0 26 -13q36 -44 99 -44q69 0 127 52q7 7 19 7t20.5 -8.5t8.5 -20.5
q0 -11 -10 -21q-84 -71 -176 -71q-88 0 -140 63z" />
    <glyph glyph-name="Iogonek" unicode="&#x12e;" horiz-adv-x="259" 
d="M268 615q0 -9 -1 -12l-124 -564q-9 -34 -38 -42q-74 -52 -74 -87q0 -11 8 -18t21 -7h8q14 2 25 -8t11 -24q0 -24 -24 -31q-29 -8 -62 -8q-41 0 -66 16.5t-25 44.5q0 40 38 72.5t99 51.5q-34 15 -34 53q0 9 1 12l124 564q5 19 20.5 32t35.5 13q24 0 40.5 -17t16.5 -41z
" />
    <glyph glyph-name="iogonek" unicode="&#x12f;" horiz-adv-x="241" 
d="M274 651q0 -32 -22.5 -53t-50.5 -21q-25 0 -42 16.5t-17 39.5q0 32 22.5 53t50.5 21q25 0 42 -16.5t17 -39.5zM215 438q0 -8 -1 -11l-87 -393q-6 -30 -39 -39q-71 -52 -71 -85q0 -11 8 -18t21 -7h8q14 2 25 -8t11 -24q0 -24 -24 -31q-29 -8 -62 -8q-41 0 -66 16.5
t-25 44.5q0 40 38.5 72.5t101.5 52.5q-27 13 -27 45q0 8 1 11l86 393q4 17 18 28.5t33 11.5q21 0 36 -15.5t15 -35.5z" />
    <glyph glyph-name="Idot" unicode="&#x130;" horiz-adv-x="259" 
d="M30 52q0 9 1 12l124 564q5 19 20.5 32t35.5 13q24 0 40.5 -17t16.5 -41q0 -9 -1 -12l-124 -564q-5 -19 -20.5 -32t-35.5 -13q-24 0 -40.5 17t-16.5 41zM191 782q0 26 20 46t46 20q23 0 38 -15t15 -38q0 -26 -20.5 -45.5t-46.5 -19.5q-23 0 -37.5 15t-14.5 37z" />
    <glyph glyph-name="dotlessi" unicode="&#x131;" horiz-adv-x="241" 
d="M26 45q0 8 1 11l86 393q4 17 18 28.5t33 11.5q21 0 36 -15.5t15 -35.5q0 -8 -1 -11l-87 -393q-4 -17 -18 -28.5t-32 -11.5q-22 0 -36.5 15t-14.5 36z" />
    <glyph glyph-name="IJ" unicode="&#x132;" horiz-adv-x="740" 
d="M30 52q0 9 1 12l124 564q5 19 20.5 32t35.5 13q24 0 40.5 -17t16.5 -41q0 -9 -1 -12l-124 -564q-5 -19 -20.5 -32t-35.5 -13q-24 0 -40.5 17t-16.5 41zM245 76q0 22 15.5 37.5t37.5 15.5q18 0 31 -10q37 -27 84 -27q53 0 86.5 31.5t45.5 89.5l91 415q5 19 20.5 32
t35.5 13q24 0 40.5 -17t16.5 -41q0 -9 -1 -12l-86 -392q-48 -223 -241 -223q-90 0 -154 46q-22 16 -22 42z" />
    <glyph glyph-name="ij" unicode="&#x133;" horiz-adv-x="482" 
d="M215 707q25 0 42 -16.5t17 -39.5q0 -32 -22.5 -53t-50.5 -21q-25 0 -42 16.5t-17 39.5q0 32 22.5 53t50.5 21zM26 45q0 8 1 11l86 393q4 17 18 28.5t33 11.5q21 0 36 -15.5t15 -35.5q0 -8 -1 -11l-87 -393q-4 -17 -18 -28.5t-32 -11.5q-22 0 -36.5 15t-14.5 36zM383 633
q0 32 22.5 53t50.5 21q25 0 42 -16.5t17 -39.5q0 -32 -22.5 -53t-50.5 -21q-25 0 -42 16.5t-17 39.5zM115 -151q0 18 14 31t33 13h8q60 0 78 79l106 477q4 17 18 28.5t32 11.5q22 0 36.5 -15t14.5 -36q0 -8 -1 -11l-101 -455q-37 -168 -172 -168q-15 0 -27 2q-17 2 -28 14
t-11 29z" />
    <glyph glyph-name="Jcircumflex" unicode="&#x134;" horiz-adv-x="481" 
d="M-14 76q0 22 15.5 37.5t37.5 15.5q18 0 31 -10q38 -27 84 -27q53 0 86.5 31.5t45.5 89.5l91 415q5 19 20.5 32t35.5 13q24 0 40.5 -17t16.5 -41q0 -9 -1 -12l-86 -392q-48 -223 -241 -223q-90 0 -154 46q-22 16 -22 42zM536 749l-51 87l-94 -94q-8 -8 -19 -8t-18 8t-7 18
t6 17l69 79q25 28 55 28h35q34 0 42 -25l36 -82q3 -6 3 -13q0 -12 -9.5 -21t-21.5 -9q-18 0 -26 15z" />
    <glyph glyph-name="jcircumflex" unicode="&#x135;" horiz-adv-x="241" 
d="M-126 -151q0 19 14 32.5t33 11.5h8q60 0 78 79l106 477q4 17 18 28.5t32 11.5q22 0 36.5 -15t14.5 -36q0 -8 -1 -11l-101 -455q-37 -168 -172 -168q-15 0 -27 2q-17 2 -28 14t-11 29zM268 585l-51 87l-94 -94q-8 -8 -19 -8t-18 8t-7 18t6 17l69 79q25 28 55 28h35
q34 0 42 -25l36 -82q3 -6 3 -13q0 -12 -9.5 -21t-21.5 -9q-18 0 -26 15z" />
    <glyph glyph-name="uni0136" unicode="&#x136;" horiz-adv-x="621" 
d="M633 621q0 -24 -16 -37l-269 -232l182 -269q8 -13 8 -31q0 -24 -17 -41t-41 -17q-32 0 -50 29l-171 263l-78 -72l-38 -175q-5 -19 -20.5 -32t-35.5 -13q-24 0 -40.5 17t-16.5 41q0 9 1 12l124 564q5 19 20.5 32t35.5 13q24 0 40.5 -17t16.5 -41q0 -9 -1 -12l-54 -244
l333 300q14 14 36 14q21 0 36 -15t15 -37zM181 -271q-9 0 -16 7t-7 14q0 13 10 19q44 25 59 62h-8q-18 0 -30.5 12.5t-12.5 33.5q0 24 19 42t43 18t39 -15.5t15 -42.5q0 -39 -27 -78.5t-68 -66.5q-8 -5 -16 -5z" />
    <glyph glyph-name="uni0137" unicode="&#x137;" horiz-adv-x="526" 
d="M522 444q0 -21 -15 -33l-187 -147l124 -188q9 -13 9 -28q0 -22 -17.5 -38t-40.5 -16q-29 0 -48 30l-113 179l-87 -73l-21 -95q-4 -18 -18 -29.5t-32 -11.5q-21 0 -36 15t-15 36q0 8 1 11l127 577q4 17 18 28.5t32 11.5q22 0 37 -15t15 -36q0 -8 -1 -11l-79 -356l273 223
q14 11 29 11q19 0 32 -13t13 -32zM131 -271q-9 0 -16 7t-7 14q0 13 10 19q44 25 59 62h-8q-18 0 -30.5 12.5t-12.5 33.5q0 24 19 42t43 18t39 -15.5t15 -42.5q0 -39 -27 -78.5t-68 -66.5q-8 -5 -16 -5z" />
    <glyph glyph-name="kgreenlandic" unicode="&#x138;" horiz-adv-x="526" 
d="M522 444q0 -21 -15 -33l-187 -147l124 -188q9 -13 9 -28q0 -22 -17.5 -38t-40.5 -16q-29 0 -48 30l-113 179l-87 -73l-21 -96q-4 -17 -17.5 -28.5t-32.5 -11.5q-21 0 -36 15t-15 36q0 8 1 11l87 393q4 17 18 28.5t32 11.5q21 0 36 -15.5t15 -36.5q0 -8 -1 -11l-38 -171
l273 223q14 11 29 11q19 0 32 -13t13 -32z" />
    <glyph glyph-name="Lacute" unicode="&#x139;" horiz-adv-x="517" 
d="M30 50q0 2 2 18l123 560q5 19 20.5 32t35.5 13q24 0 40.5 -17t16.5 -41q0 -9 -1 -12l-111 -500h236q21 0 36.5 -15t15.5 -36q0 -22 -15.5 -37t-36.5 -15h-305q-27 0 -42 13.5t-15 36.5zM235 717q-10 0 -18 8t-8 18q0 15 10 22l116 98q11 8 23 8q13 0 21.5 -9.5t8.5 -22.5
q0 -17 -13 -27l-123 -90q-8 -5 -17 -5z" />
    <glyph glyph-name="lacute" unicode="&#x13a;" horiz-adv-x="241" 
d="M25 45q0 8 1 11l127 577q4 17 18 28.5t33 11.5q21 0 36 -15.5t15 -35.5q0 -8 -1 -11l-127 -577q-4 -17 -18 -28.5t-33 -11.5q-21 0 -36 15.5t-15 35.5zM227 717q-10 0 -18 8t-8 18q0 15 10 22l116 98q11 8 23 8q13 0 21.5 -9.5t8.5 -22.5q0 -17 -13 -27l-123 -90
q-8 -5 -17 -5z" />
    <glyph glyph-name="uni013B" unicode="&#x13b;" horiz-adv-x="517" 
d="M30 50q0 2 2 18l123 560q5 19 20.5 32t35.5 13q24 0 40.5 -17t16.5 -41q0 -9 -1 -12l-111 -500h236q21 0 36.5 -15t15.5 -36q0 -22 -15.5 -37t-36.5 -15h-305q-27 0 -42 13.5t-15 36.5zM144 -271q-9 0 -16 7t-7 14q0 13 10 19q44 25 59 62h-8q-18 0 -30.5 12.5
t-12.5 33.5q0 24 19 42t43 18t39 -15.5t15 -42.5q0 -39 -27 -78.5t-68 -66.5q-8 -5 -16 -5z" />
    <glyph glyph-name="uni013C" unicode="&#x13c;" horiz-adv-x="241" 
d="M25 45q0 8 1 11l127 577q4 17 18 28.5t33 11.5q21 0 36 -15.5t15 -35.5q0 -8 -1 -11l-127 -577q-4 -17 -18 -28.5t-33 -11.5q-21 0 -36 15.5t-15 35.5zM-13 -271q-9 0 -16 7t-7 14q0 13 10 19q44 25 59 62h-8q-18 0 -30.5 12.5t-12.5 33.5q0 24 19 42t43 18t39 -15.5
t15 -42.5q0 -39 -27 -78.5t-68 -66.5q-8 -5 -16 -5z" />
    <glyph glyph-name="Lcaron" unicode="&#x13d;" horiz-adv-x="517" 
d="M30 50q0 2 2 18l123 560q5 19 20.5 32t35.5 13q24 0 40.5 -17t16.5 -41q0 -9 -1 -12l-111 -500h236q21 0 36.5 -15t15.5 -36q0 -22 -15.5 -37t-36.5 -15h-305q-27 0 -42 13.5t-15 36.5zM361 472q-9 0 -16 7t-7 14q0 13 10 19q44 25 59 62h-8q-18 0 -30.5 12.5t-12.5 33.5
q0 24 19 42t43 18t39 -15.5t15 -42.5q0 -39 -27 -78.5t-68 -66.5q-8 -5 -16 -5z" />
    <glyph glyph-name="lcaron" unicode="&#x13e;" horiz-adv-x="327" 
d="M25 45q0 8 1 11l127 577q4 17 18 28.5t33 11.5q21 0 36 -15.5t15 -35.5q0 -8 -1 -11l-127 -577q-4 -17 -18 -28.5t-33 -11.5q-21 0 -36 15.5t-15 35.5zM315 472q-9 0 -16 7t-7 14q0 13 10 19q44 25 59 62h-8q-18 0 -30.5 12.5t-12.5 33.5q0 24 19 42t43 18t39 -15.5
t15 -42.5q0 -39 -27 -78.5t-68 -66.5q-8 -5 -16 -5z" />
    <glyph glyph-name="Ldot" unicode="&#x13f;" horiz-adv-x="517" 
d="M30 50q0 2 2 18l123 560q5 19 20.5 32t35.5 13q24 0 40.5 -17t16.5 -41q0 -9 -1 -12l-111 -500h236q21 0 36.5 -15t15.5 -36q0 -22 -15.5 -37t-36.5 -15h-305q-27 0 -42 13.5t-15 36.5zM414 412q26 0 44.5 -19t18.5 -46q0 -31 -22.5 -53t-53.5 -22q-27 0 -45.5 19
t-18.5 45q0 31 22.5 53.5t54.5 22.5z" />
    <glyph glyph-name="ldot" unicode="&#x140;" horiz-adv-x="351" 
d="M25 45q0 8 1 11l127 577q4 17 18 28.5t33 11.5q21 0 36 -15.5t15 -35.5q0 -8 -1 -11l-127 -577q-4 -17 -18 -28.5t-33 -11.5q-21 0 -36 15.5t-15 35.5zM302 315q26 0 44.5 -19t18.5 -46q0 -31 -22.5 -53t-53.5 -22q-27 0 -45.5 19t-18.5 45q0 31 22.5 53.5t54.5 22.5z
" />
    <glyph glyph-name="Lslash" unicode="&#x141;" horiz-adv-x="541" 
d="M468 52q0 -22 -15.5 -37t-36.5 -15h-305q-27 0 -42 13.5t-15 36.5q0 2 2 18l40 181l-22 -11q-7 -4 -17 -4q-16 0 -27.5 10.5t-11.5 27.5q0 23 21 34l78 40l62 282q5 19 20.5 32t35.5 13q24 0 40.5 -17t16.5 -41q0 -9 -1 -12l-42 -190l31 16q12 5 17 5q15 0 27 -11.5
t12 -27.5q0 -23 -21 -34l-88 -45l-47 -213h236q21 0 36.5 -15t15.5 -36z" />
    <glyph glyph-name="lslash" unicode="&#x142;" horiz-adv-x="299" 
d="M299 431q12 0 21 -9.5t9 -21.5q0 -19 -17 -28l-92 -47l-64 -291q-4 -17 -18 -28.5t-33 -11.5q-21 0 -36 15.5t-15 35.5q0 8 1 11l46 209l-47 -24q-7 -4 -15 -4q-12 0 -21 9.5t-9 21.5q0 20 17 28l92 47l64 290q4 17 18 28.5t33 11.5q21 0 36 -15.5t15 -35.5q0 -8 -1 -11
l-46 -208l47 24q7 4 15 4z" />
    <glyph glyph-name="Nacute" unicode="&#x143;" horiz-adv-x="720" 
d="M465 38l-218 476l-104 -475q-5 -19 -20.5 -32t-35.5 -13q-24 0 -40.5 17t-16.5 41q0 9 1 12l120 546q6 27 28 45t51 18q23 0 43 -13t30 -34l211 -460l102 462q5 19 20.5 32t35.5 13q24 0 40.5 -17t16.5 -41q0 -9 -1 -12l-121 -550q-5 -26 -26 -42.5t-48 -16.5
q-48 0 -68 44zM466 717q-10 0 -18 8t-8 18q0 15 10 22l116 98q11 8 23 8q13 0 21.5 -9.5t8.5 -22.5q0 -17 -13 -27l-123 -90q-8 -5 -17 -5z" />
    <glyph glyph-name="nacute" unicode="&#x144;" 
d="M524 374q0 -13 -5 -41l-66 -299q-4 -17 -18 -28.5t-32 -11.5q-21 0 -36.5 15.5t-15.5 35.5q0 8 1 11l55 247q4 13 4 31q0 68 -80 68q-73 0 -138 -65l-66 -303q-4 -17 -18 -28.5t-32 -11.5q-21 0 -36.5 15.5t-15.5 35.5q0 8 1 11l87 393q4 17 18 28.5t32 11.5
q21 0 36 -15.5t15 -36.5q0 -8 -1 -11l-2 -9q81 78 165 78q69 0 108.5 -32t39.5 -89zM359 570q-10 0 -18 8t-8 18q0 15 10 22l116 98q11 8 23 8q13 0 21.5 -9.5t8.5 -22.5q0 -17 -13 -27l-123 -90q-8 -5 -17 -5z" />
    <glyph glyph-name="uni0145" unicode="&#x145;" horiz-adv-x="720" 
d="M465 38l-218 476l-104 -475q-5 -19 -20.5 -32t-35.5 -13q-24 0 -40.5 17t-16.5 41q0 9 1 12l120 546q6 27 28 45t51 18q23 0 43 -13t30 -34l211 -460l102 462q5 19 20.5 32t35.5 13q24 0 40.5 -17t16.5 -41q0 -9 -1 -12l-121 -550q-5 -26 -26 -42.5t-48 -16.5
q-48 0 -68 44zM227 -271q-9 0 -16 7t-7 14q0 13 10 19q44 25 59 62h-8q-18 0 -30.5 12.5t-12.5 33.5q0 24 19 42t43 18t39 -15.5t15 -42.5q0 -39 -27 -78.5t-68 -66.5q-8 -5 -16 -5z" />
    <glyph glyph-name="uni0146" unicode="&#x146;" 
d="M524 374q0 -13 -5 -41l-66 -299q-4 -17 -18 -28.5t-32 -11.5q-21 0 -36.5 15.5t-15.5 35.5q0 8 1 11l55 247q4 13 4 31q0 68 -80 68q-73 0 -138 -65l-66 -303q-4 -17 -18 -28.5t-32 -11.5q-21 0 -36.5 15.5t-15.5 35.5q0 8 1 11l87 393q4 17 18 28.5t32 11.5
q21 0 36 -15.5t15 -36.5q0 -8 -1 -11l-2 -9q81 78 165 78q69 0 108.5 -32t39.5 -89zM151 -271q-9 0 -16 7t-7 14q0 13 10 19q44 25 59 62h-8q-18 0 -30.5 12.5t-12.5 33.5q0 24 19 42t43 18t39 -15.5t15 -42.5q0 -39 -27 -78.5t-68 -66.5q-8 -5 -16 -5z" />
    <glyph glyph-name="Ncaron" unicode="&#x147;" horiz-adv-x="720" 
d="M465 38l-218 476l-104 -475q-5 -19 -20.5 -32t-35.5 -13q-24 0 -40.5 17t-16.5 41q0 9 1 12l120 546q6 27 28 45t51 18q23 0 43 -13t30 -34l211 -460l102 462q5 19 20.5 32t35.5 13q24 0 40.5 -17t16.5 -41q0 -9 -1 -12l-121 -550q-5 -26 -26 -42.5t-48 -16.5
q-48 0 -68 44zM424 858l51 -87l94 94q8 8 19 8t18 -8t7 -18q0 -9 -6 -17l-69 -79q-25 -28 -55 -28h-35q-34 0 -42 25l-36 82q-3 6 -3 13q0 12 9.5 21t21.5 9q18 0 26 -15z" />
    <glyph glyph-name="ncaron" unicode="&#x148;" 
d="M524 374q0 -13 -5 -41l-66 -299q-4 -17 -18 -28.5t-32 -11.5q-21 0 -36.5 15.5t-15.5 35.5q0 8 1 11l55 247q4 13 4 31q0 68 -80 68q-73 0 -138 -65l-66 -303q-4 -17 -18 -28.5t-32 -11.5q-21 0 -36.5 15.5t-15.5 35.5q0 8 1 11l87 393q4 17 18 28.5t32 11.5
q21 0 36 -15.5t15 -36.5q0 -8 -1 -11l-2 -9q81 78 165 78q69 0 108.5 -32t39.5 -89zM317 711l51 -87l94 94q8 8 19 8t18 -8t7 -18t-6 -17l-69 -79q-25 -28 -55 -28h-35q-34 0 -42 25l-36 82q-3 6 -3 13q0 12 9.5 21t21.5 9q18 0 26 -15z" />
    <glyph glyph-name="napostrophe" unicode="&#x149;" 
d="M524 374q0 -13 -5 -41l-66 -299q-4 -17 -18 -28.5t-32 -11.5q-21 0 -36.5 15.5t-15.5 35.5q0 8 1 11l55 247q4 13 4 31q0 68 -80 68q-73 0 -138 -65l-66 -303q-4 -17 -18 -28.5t-32 -11.5q-21 0 -36.5 15.5t-15.5 35.5q0 8 1 11l87 393q4 17 18 28.5t32 11.5
q21 0 36 -15.5t15 -36.5q0 -8 -1 -11l-2 -9q81 78 165 78q69 0 108.5 -32t39.5 -89zM154 547q-9 0 -16 7t-7 14q0 13 10 19q44 25 59 62h-8q-18 0 -30.5 12.5t-12.5 33.5q0 24 19 42t43 18t39 -15.5t15 -42.5q0 -39 -27 -78.5t-68 -66.5q-8 -5 -16 -5z" />
    <glyph glyph-name="Eng" unicode="&#x14a;" horiz-adv-x="720" 
d="M729 615q0 -9 -1 -12l-128 -578q-27 -113 -86 -167t-155 -54q-93 0 -156 48q-20 17 -20 38q0 20 14.5 34.5t34.5 14.5q16 0 30 -11q38 -30 88 -30q97 0 129 109l-232 507l-104 -475q-5 -19 -20.5 -32t-35.5 -13q-24 0 -40.5 17t-16.5 41q0 9 1 12l120 546q6 27 28 45
t51 18q23 0 43 -13t30 -34l211 -460l102 462q5 19 20.5 32t35.5 13q24 0 40.5 -17t16.5 -41z" />
    <glyph glyph-name="eng" unicode="&#x14b;" 
d="M524 374q0 -13 -5 -41l-80 -361q-37 -168 -172 -168q-15 0 -27 2q-17 2 -28 14t-11 29q0 18 14 31t33 13h8q60 0 78 79l73 331q3 17 3 30q0 69 -79 69q-73 0 -138 -65l-66 -303q-4 -17 -18 -28.5t-32 -11.5q-21 0 -36.5 15.5t-15.5 35.5q0 8 1 11l87 393q4 17 18 28.5
t32 11.5q21 0 36 -15.5t15 -36.5q0 -8 -1 -11l-2 -9q81 78 165 78q69 0 108.5 -32t39.5 -89z" />
    <glyph glyph-name="Omacron" unicode="&#x14c;" horiz-adv-x="765" 
d="M433 678q136 2 228 -81t91 -214q3 -162 -110.5 -280t-271.5 -115q-138 0 -228.5 81.5t-90.5 214.5q-2 106 49 197.5t140.5 145t192.5 51.5zM426 574q-103 2 -179 -82t-74 -201q0 -91 57.5 -145t146.5 -54q102 -2 178.5 82t74.5 201q0 90 -58 144.5t-146 54.5zM330 764
q0 13 9 22t22 9h272q13 0 22 -9t9 -22t-9 -22t-22 -9h-272q-13 0 -22 9t-9 22z" />
    <glyph glyph-name="omacron" unicode="&#x14d;" horiz-adv-x="573" 
d="M307 495q107 0 169.5 -60t62.5 -158q2 -114 -79.5 -203t-195.5 -86q-107 0 -169.5 60t-62.5 157q-2 114 79.5 203.5t195.5 86.5zM304 402q-68 0 -115.5 -58t-47.5 -134q0 -60 33.5 -94.5t92.5 -34.5q68 0 115.5 57.5t47.5 134.5q0 60 -33.5 94.5t-92.5 34.5zM204 617
q0 13 9 22t22 9h272q13 0 22 -9t9 -22t-9 -22t-22 -9h-272q-13 0 -22 9t-9 22z" />
    <glyph glyph-name="Obreve" unicode="&#x14e;" horiz-adv-x="765" 
d="M433 678q136 2 228 -81t91 -214q3 -162 -110.5 -280t-271.5 -115q-138 0 -228.5 81.5t-90.5 214.5q-2 106 49 197.5t140.5 145t192.5 51.5zM426 574q-103 2 -179 -82t-74 -201q0 -91 57.5 -145t146.5 -54q102 -2 178.5 82t74.5 201q0 90 -58 144.5t-146 54.5zM348 784
q-8 11 -8 22q0 14 10 24t24 10q16 0 26 -13q36 -44 99 -44q69 0 127 52q7 7 19 7t20.5 -8.5t8.5 -20.5q0 -11 -10 -21q-84 -71 -176 -71q-88 0 -140 63z" />
    <glyph glyph-name="obreve" unicode="&#x14f;" horiz-adv-x="573" 
d="M307 495q107 0 169.5 -60t62.5 -158q2 -114 -79.5 -203t-195.5 -86q-107 0 -169.5 60t-62.5 157q-2 114 79.5 203.5t195.5 86.5zM304 402q-68 0 -115.5 -58t-47.5 -134q0 -60 33.5 -94.5t92.5 -34.5q68 0 115.5 57.5t47.5 134.5q0 60 -33.5 94.5t-92.5 34.5zM222 637
q-8 11 -8 22q0 14 10 24t24 10q16 0 26 -13q36 -44 99 -44q69 0 127 52q7 7 19 7t20.5 -8.5t8.5 -20.5q0 -11 -10 -21q-84 -71 -176 -71q-88 0 -140 63z" />
    <glyph glyph-name="Ohungarumlaut" unicode="&#x150;" horiz-adv-x="765" 
d="M433 678q136 2 228 -81t91 -214q3 -162 -110.5 -280t-271.5 -115q-138 0 -228.5 81.5t-90.5 214.5q-2 106 49 197.5t140.5 145t192.5 51.5zM426 574q-103 2 -179 -82t-74 -201q0 -91 57.5 -145t146.5 -54q102 -2 178.5 82t74.5 201q0 90 -58 144.5t-146 54.5zM401 742
q0 9 6 15l89 105q10 12 25 12q13 0 22 -9t9 -22t-10 -23l-98 -96q-7 -7 -18 -7t-18 7.5t-7 17.5zM547 742q0 9 6 15l89 105q10 12 25 12q13 0 22 -9t9 -22t-10 -23l-98 -96q-7 -7 -18 -7t-18 7.5t-7 17.5z" />
    <glyph glyph-name="ohungarumlaut" unicode="&#x151;" horiz-adv-x="573" 
d="M307 495q107 0 169.5 -60t62.5 -158q2 -114 -79.5 -203t-195.5 -86q-107 0 -169.5 60t-62.5 157q-2 114 79.5 203.5t195.5 86.5zM304 402q-68 0 -115.5 -58t-47.5 -134q0 -60 33.5 -94.5t92.5 -34.5q68 0 115.5 57.5t47.5 134.5q0 60 -33.5 94.5t-92.5 34.5zM275 595
q0 9 6 15l89 105q10 12 25 12q13 0 22 -9t9 -22t-10 -23l-98 -96q-7 -7 -18 -7t-18 7.5t-7 17.5zM421 595q0 9 6 15l89 105q10 12 25 12q13 0 22 -9t9 -22t-10 -23l-98 -96q-7 -7 -18 -7t-18 7.5t-7 17.5z" />
    <glyph glyph-name="OE" unicode="&#x152;" horiz-adv-x="1093" 
d="M1132 615q0 -21 -15.5 -36t-36.5 -15h-304l-38 -173h275q21 0 36 -15t15 -36q0 -22 -15 -37t-36 -15h-298l-41 -185h282q21 0 36 -15t15 -36q0 -22 -15 -37t-36 -15h-352q-27 0 -42 13.5t-15 36.5q0 2 2 18l4 19q-82 -99 -222 -99q-120 0 -200 84t-80 212
q-3 167 110.5 281t266.5 112q168 0 227 -132l14 67q12 55 68 55h343q21 0 36.5 -15t15.5 -37zM581 211l46 210q-16 72 -67 112t-127 40q-107 2 -184.5 -82.5t-75.5 -199.5q0 -90 55 -144.5t142 -54.5q63 0 119.5 32t91.5 87z" />
    <glyph glyph-name="oe" unicode="&#x153;" horiz-adv-x="944" 
d="M532 207l-1 -17q0 -47 39.5 -81.5t105.5 -34.5q49 0 97 22q6 3 17 3q17 0 29 -12t12 -28q0 -23 -22 -36q-65 -35 -141 -35q-75 0 -130 37t-72 83q-33 -40 -53 -60q-60 -60 -151 -60q-105 0 -167 58q-63 58 -63 159q-2 113 78.5 203t194.5 87q72 0 122 -37t67 -84
q47 59 94.5 90t111.5 31q91 0 151 -57.5t60 -156.5q0 -13 -1 -17q-1 -27 -18.5 -42t-47.5 -15h-312zM817 295q0 50 -33 82t-91 32q-56 0 -99 -40t-51 -88h273q1 3 1 14zM141 210q0 -60 33 -94.5t91 -34.5q67 0 114 57t47 135q0 62 -34.5 95.5t-89.5 33.5q-67 0 -114 -56.5
t-47 -135.5z" />
    <glyph glyph-name="Racute" unicode="&#x154;" horiz-adv-x="628" 
d="M440 257l92 -181q6 -12 6 -24q0 -23 -18.5 -40.5t-42.5 -17.5q-35 0 -55 39l-100 216h-134l-46 -210q-4 -19 -19.5 -32t-35.5 -13q-24 0 -40.5 17t-16.5 40q0 9 1 12l121 549q12 55 68 55h212q81 0 140 -51t59 -131q0 -88 -54 -151q-53 -62 -137 -77zM508 474
q0 38 -28.5 64t-68.5 26h-153l-47 -212h161q62 0 99 34t37 88zM420 717q-10 0 -18 8t-8 18q0 15 10 22l116 98q11 8 23 8q13 0 21.5 -9.5t8.5 -22.5q0 -17 -13 -27l-123 -90q-8 -5 -17 -5z" />
    <glyph glyph-name="racute" unicode="&#x155;" horiz-adv-x="347" 
d="M380 444q0 -21 -15 -36t-36 -14h-10q-35 0 -69.5 -18.5t-58.5 -48.5l-64 -293q-4 -17 -18 -28.5t-32 -11.5q-21 0 -36.5 15.5t-15.5 35.5q0 8 1 11l87 393q4 17 18 28.5t32 11.5q21 0 36 -15.5t15 -36.5q0 -8 -1 -11l-3 -11q67 74 122 74q48 0 48 -45zM270 570
q-10 0 -18 8t-8 18q0 15 10 22l116 98q11 8 23 8q13 0 21.5 -9.5t8.5 -22.5q0 -17 -13 -27l-123 -90q-8 -5 -17 -5z" />
    <glyph glyph-name="uni0156" unicode="&#x156;" horiz-adv-x="628" 
d="M440 257l92 -181q6 -12 6 -24q0 -23 -18.5 -40.5t-42.5 -17.5q-35 0 -55 39l-100 216h-134l-46 -210q-4 -19 -19.5 -32t-35.5 -13q-24 0 -40.5 17t-16.5 40q0 9 1 12l121 549q12 55 68 55h212q81 0 140 -51t59 -131q0 -88 -54 -151q-53 -62 -137 -77zM508 474
q0 38 -28.5 64t-68.5 26h-153l-47 -212h161q62 0 99 34t37 88zM181 -271q-9 0 -16 7t-7 14q0 13 10 19q44 25 59 62h-8q-18 0 -30.5 12.5t-12.5 33.5q0 24 19 42t43 18t39 -15.5t15 -42.5q0 -39 -27 -78.5t-68 -66.5q-8 -5 -16 -5z" />
    <glyph glyph-name="uni0157" unicode="&#x157;" horiz-adv-x="347" 
d="M380 444q0 -21 -15 -36t-36 -14h-10q-35 0 -69.5 -18.5t-58.5 -48.5l-64 -293q-4 -17 -18 -28.5t-32 -11.5q-21 0 -36.5 15.5t-15.5 35.5q0 8 1 11l87 393q4 17 18 28.5t32 11.5q21 0 36 -15.5t15 -36.5q0 -8 -1 -11l-3 -11q67 74 122 74q48 0 48 -45zM-10 -271
q-9 0 -16 7t-7 14q0 13 10 19q44 25 59 62h-8q-18 0 -30.5 12.5t-12.5 33.5q0 24 19 42t43 18t39 -15.5t15 -42.5q0 -39 -27 -78.5t-68 -66.5q-8 -5 -16 -5z" />
    <glyph glyph-name="Rcaron" unicode="&#x158;" horiz-adv-x="628" 
d="M440 257l92 -181q6 -12 6 -24q0 -23 -18.5 -40.5t-42.5 -17.5q-35 0 -55 39l-100 216h-134l-46 -210q-4 -19 -19.5 -32t-35.5 -13q-24 0 -40.5 17t-16.5 40q0 9 1 12l121 549q12 55 68 55h212q81 0 140 -51t59 -131q0 -88 -54 -151q-53 -62 -137 -77zM508 474
q0 38 -28.5 64t-68.5 26h-153l-47 -212h161q62 0 99 34t37 88zM378 858l51 -87l94 94q8 8 19 8t18 -8t7 -18q0 -9 -6 -17l-69 -79q-25 -28 -55 -28h-35q-34 0 -42 25l-36 82q-3 6 -3 13q0 12 9.5 21t21.5 9q18 0 26 -15z" />
    <glyph glyph-name="rcaron" unicode="&#x159;" horiz-adv-x="347" 
d="M380 444q0 -21 -15 -36t-36 -14h-10q-35 0 -69.5 -18.5t-58.5 -48.5l-64 -293q-4 -17 -18 -28.5t-32 -11.5q-21 0 -36.5 15.5t-15.5 35.5q0 8 1 11l87 393q4 17 18 28.5t32 11.5q21 0 36 -15.5t15 -36.5q0 -8 -1 -11l-3 -11q67 74 122 74q48 0 48 -45zM228 711l51 -87
l94 94q8 8 19 8t18 -8t7 -18t-6 -17l-69 -79q-25 -28 -55 -28h-35q-34 0 -42 25l-36 82q-3 6 -3 13q0 12 9.5 21t21.5 9q18 0 26 -15z" />
    <glyph glyph-name="Sacute" unicode="&#x15a;" horiz-adv-x="594" 
d="M21 116q0 23 17 40t40 17q20 0 37 -14q79 -67 189 -67q57 0 88.5 27.5t31.5 68.5q0 30 -28 49.5t-100 46.5q-59 22 -103 44q-96 52 -96 142q0 84 70.5 145.5t179.5 61.5q127 0 216 -69q22 -19 22 -45q0 -23 -16.5 -39.5t-39.5 -16.5q-20 0 -35 12q-72 55 -163 55
q-45 0 -77.5 -25.5t-32.5 -59.5q0 -28 27.5 -46t98.5 -45q64 -24 103 -45q99 -50 99 -144q0 -92 -70 -156.5t-185 -64.5q-150 0 -252 84q-21 18 -21 44zM396 717q-10 0 -18 8t-8 18q0 15 10 22l116 98q11 8 23 8q13 0 21.5 -9.5t8.5 -22.5q0 -17 -13 -27l-123 -90
q-8 -5 -17 -5z" />
    <glyph glyph-name="sacute" unicode="&#x15b;" horiz-adv-x="472" 
d="M10 82q0 20 14 33.5t33 13.5q17 0 29 -9q63 -49 137 -49q38 0 62.5 18.5t24.5 46.5q0 20 -21.5 34t-74.5 33q-45 15 -79 32q-74 37 -74 103t52 111.5t140 45.5q95 0 166 -52q19 -13 19 -35q0 -19 -13 -32t-32 -13q-14 0 -26 9q-56 39 -117 39q-39 0 -62 -16t-23 -41
q0 -18 20 -30t73 -32q42 -15 64 -24.5t46 -26t34.5 -37.5t12.5 -51q0 -70 -55 -117.5t-146 -47.5q-108 0 -185 56q-19 14 -19 38zM306 570q-10 0 -18 8t-8 18q0 15 10 22l116 98q11 8 23 8q13 0 21.5 -9.5t8.5 -22.5q0 -17 -13 -27l-123 -90q-8 -5 -17 -5z" />
    <glyph glyph-name="Scircumflex" unicode="&#x15c;" horiz-adv-x="594" 
d="M21 116q0 23 17 40t40 17q20 0 37 -14q79 -67 189 -67q57 0 88.5 27.5t31.5 68.5q0 30 -28 49.5t-100 46.5q-59 22 -103 44q-96 52 -96 142q0 84 70.5 145.5t179.5 61.5q127 0 216 -69q22 -19 22 -45q0 -23 -16.5 -39.5t-39.5 -16.5q-20 0 -35 12q-72 55 -163 55
q-45 0 -77.5 -25.5t-32.5 -59.5q0 -28 27.5 -46t98.5 -45q64 -24 103 -45q99 -50 99 -144q0 -92 -70 -156.5t-185 -64.5q-150 0 -252 84q-21 18 -21 44zM470 732l-51 87l-94 -94q-8 -8 -19 -8t-18 8t-7 18q0 9 6 17l69 79q25 28 55 28h35q34 0 42 -25l36 -82q3 -6 3 -13
q0 -12 -9.5 -21t-21.5 -9q-18 0 -26 15z" />
    <glyph glyph-name="scircumflex" unicode="&#x15d;" horiz-adv-x="472" 
d="M10 82q0 20 14 33.5t33 13.5q17 0 29 -9q63 -49 137 -49q38 0 62.5 18.5t24.5 46.5q0 20 -21.5 34t-74.5 33q-45 15 -79 32q-74 37 -74 103t52 111.5t140 45.5q95 0 166 -52q19 -13 19 -35q0 -19 -13 -32t-32 -13q-14 0 -26 9q-56 39 -117 39q-39 0 -62 -16t-23 -41
q0 -18 20 -30t73 -32q42 -15 64 -24.5t46 -26t34.5 -37.5t12.5 -51q0 -70 -55 -117.5t-146 -47.5q-108 0 -185 56q-19 14 -19 38zM380 585l-51 87l-94 -94q-8 -8 -19 -8t-18 8t-7 18t6 17l69 79q25 28 55 28h35q34 0 42 -25l36 -82q3 -6 3 -13q0 -12 -9.5 -21t-21.5 -9
q-18 0 -26 15z" />
    <glyph glyph-name="uni015E" unicode="&#x15e;" horiz-adv-x="594" 
d="M221 489q0 -28 27.5 -46t98.5 -45q64 -24 103 -45q99 -50 99 -144q0 -92 -70 -156.5t-185 -64.5q-27 0 -34 1l-26 -42q16 11 32 11q26 0 42.5 -16.5t16.5 -44.5q0 -41 -31 -66t-80 -25q-54 0 -97 26q-12 9 -12 23q0 10 8 18t18 8q7 0 15 -5q31 -22 69 -22q26 0 40.5 11
t14.5 29q0 26 -33 26q-12 0 -24 -9q-8 -5 -17 -5q-10 0 -16 6t-6 14q0 13 4 18l31 52q-98 19 -167 76q-21 18 -21 44q0 23 17 40t40 17q20 0 37 -14q79 -67 189 -67q57 0 88.5 27.5t31.5 68.5q0 30 -28 49.5t-100 46.5q-59 22 -103 44q-96 52 -96 142q0 84 70.5 145.5
t179.5 61.5q127 0 216 -69q22 -19 22 -45q0 -23 -16.5 -39.5t-39.5 -16.5q-20 0 -35 12q-72 55 -163 55q-45 0 -77.5 -25.5t-32.5 -59.5z" />
    <glyph glyph-name="uni015F" unicode="&#x15f;" horiz-adv-x="472" 
d="M165 354q0 -18 20 -30t73 -32q42 -15 64 -24.5t46 -26t34.5 -37.5t12.5 -51q0 -70 -55 -117.5t-146 -47.5h-14l-25 -41q16 11 32 11q26 0 42.5 -16.5t16.5 -44.5q0 -41 -31 -66t-80 -25q-54 0 -97 26q-12 9 -12 23q0 10 8 18t18 8q7 0 15 -5q31 -22 69 -22q26 0 40.5 11
t14.5 29q0 26 -33 26q-12 0 -24 -9q-8 -5 -17 -5q-10 0 -16 6t-6 14q0 13 4 18l30 50q-67 12 -120 50q-19 14 -19 38q0 20 14 33.5t33 13.5q17 0 29 -9q63 -49 137 -49q38 0 62.5 18.5t24.5 46.5q0 20 -21.5 34t-74.5 33q-45 15 -79 32q-74 37 -74 103t52 111.5t140 45.5
q95 0 166 -52q19 -13 19 -35q0 -19 -13 -32t-32 -13q-14 0 -26 9q-56 39 -117 39q-39 0 -62 -16t-23 -41z" />
    <glyph glyph-name="Scaron" unicode="&#x160;" horiz-adv-x="594" 
d="M21 116q0 23 17 40t40 17q20 0 37 -14q79 -67 189 -67q57 0 88.5 27.5t31.5 68.5q0 30 -28 49.5t-100 46.5q-59 22 -103 44q-96 52 -96 142q0 84 70.5 145.5t179.5 61.5q127 0 216 -69q22 -19 22 -45q0 -23 -16.5 -39.5t-39.5 -16.5q-20 0 -35 12q-72 55 -163 55
q-45 0 -77.5 -25.5t-32.5 -59.5q0 -28 27.5 -46t98.5 -45q64 -24 103 -45q99 -50 99 -144q0 -92 -70 -156.5t-185 -64.5q-150 0 -252 84q-21 18 -21 44zM354 858l51 -87l94 94q8 8 19 8t18 -8t7 -18q0 -9 -6 -17l-69 -79q-25 -28 -55 -28h-35q-34 0 -42 25l-36 82
q-3 6 -3 13q0 12 9.5 21t21.5 9q18 0 26 -15z" />
    <glyph glyph-name="scaron" unicode="&#x161;" horiz-adv-x="472" 
d="M10 82q0 20 14 33.5t33 13.5q17 0 29 -9q63 -49 137 -49q38 0 62.5 18.5t24.5 46.5q0 20 -21.5 34t-74.5 33q-45 15 -79 32q-74 37 -74 103t52 111.5t140 45.5q95 0 166 -52q19 -13 19 -35q0 -19 -13 -32t-32 -13q-14 0 -26 9q-56 39 -117 39q-39 0 -62 -16t-23 -41
q0 -18 20 -30t73 -32q42 -15 64 -24.5t46 -26t34.5 -37.5t12.5 -51q0 -70 -55 -117.5t-146 -47.5q-108 0 -185 56q-19 14 -19 38zM264 711l51 -87l94 94q8 8 19 8t18 -8t7 -18t-6 -17l-69 -79q-25 -28 -55 -28h-35q-34 0 -42 25l-36 82q-3 6 -3 13q0 12 9.5 21t21.5 9
q18 0 26 -15z" />
    <glyph glyph-name="uni0162" unicode="&#x162;" horiz-adv-x="577" 
d="M189 52q0 9 1 12l110 500h-144q-21 0 -36 15t-15 37q0 21 15 36t36 15h428q21 0 36 -15t15 -36q0 -22 -15 -37t-36 -15h-167l-115 -525q-5 -19 -20.5 -32t-35.5 -13q-24 0 -40.5 17t-16.5 41zM156 -271q-9 0 -16 7t-7 14q0 13 10 19q44 25 59 62h-8q-18 0 -30.5 12.5
t-12.5 33.5q0 24 19 42t43 18t39 -15.5t15 -42.5q0 -39 -27 -78.5t-68 -66.5q-8 -5 -16 -5z" />
    <glyph glyph-name="uni0163" unicode="&#x163;" horiz-adv-x="319" 
d="M340 438q0 -19 -13 -32.5t-32 -13.5h-67l-56 -250q-3 -11 -3 -20q0 -41 49 -41h4q18 2 32 -11.5t14 -32.5q0 -29 -29 -41q-26 -8 -51 -8q-62 0 -96.5 24t-34.5 70q0 19 4 34l61 276h-29q-19 0 -32 13.5t-13 32.5t13 32t32 13h49l22 98q4 17 18 28.5t32 11.5q22 0 37 -15
t15 -36q0 -8 -1 -11l-17 -76h47q19 0 32 -13t13 -32zM27 -271q-9 0 -16 7t-7 14q0 13 10 19q44 25 59 62h-8q-18 0 -30.5 12.5t-12.5 33.5q0 24 19 42t43 18t39 -15.5t15 -42.5q0 -39 -27 -78.5t-68 -66.5q-8 -5 -16 -5z" />
    <glyph glyph-name="Tcaron" unicode="&#x164;" horiz-adv-x="577" 
d="M189 52q0 9 1 12l110 500h-144q-21 0 -36 15t-15 37q0 21 15 36t36 15h428q21 0 36 -15t15 -36q0 -22 -15 -37t-36 -15h-167l-115 -525q-5 -19 -20.5 -32t-35.5 -13q-24 0 -40.5 17t-16.5 41zM353 858l51 -87l94 94q8 8 19 8t18 -8t7 -18q0 -9 -6 -17l-69 -79
q-25 -28 -55 -28h-35q-34 0 -42 25l-36 82q-3 6 -3 13q0 12 9.5 21t21.5 9q18 0 26 -15z" />
    <glyph glyph-name="tcaron" unicode="&#x165;" horiz-adv-x="351" 
d="M340 438q0 -19 -13 -32.5t-32 -13.5h-67l-56 -250q-3 -11 -3 -20q0 -41 49 -41h4q18 2 32 -11.5t14 -32.5q0 -29 -29 -41q-26 -8 -51 -8q-62 0 -96.5 24t-34.5 70q0 19 4 34l61 276h-29q-19 0 -32 13.5t-13 32.5t13 32t32 13h49l22 98q4 17 18 28.5t32 11.5q22 0 37 -15
t15 -36q0 -8 -1 -11l-17 -76h47q19 0 32 -13t13 -32zM354 547q-9 0 -16 7t-7 14q0 13 10 19q44 25 59 62h-8q-18 0 -30.5 12.5t-12.5 33.5q0 24 19 42t43 18t39 -15.5t15 -42.5q0 -39 -27 -78.5t-68 -66.5q-8 -5 -16 -5z" />
    <glyph glyph-name="Tbar" unicode="&#x166;" horiz-adv-x="577" 
d="M635 616q0 -22 -15 -37t-36 -15h-167l-50 -226h108q13 0 22 -9t9 -22t-9 -22t-22 -9h-121l-52 -237q-5 -19 -20.5 -32t-35.5 -13q-24 0 -40.5 17t-16.5 41q0 9 1 12l47 212h-108q-13 0 -22 9t-9 22t9 22t22 9h121l50 226h-144q-21 0 -36 15t-15 37q0 21 15 36t36 15h428
q21 0 36 -15t15 -36z" />
    <glyph glyph-name="tbar" unicode="&#x167;" horiz-adv-x="319" 
d="M340 438q0 -19 -13 -32.5t-32 -13.5h-67l-25 -113h35q13 0 22 -9t9 -22t-9 -22t-22 -9h-49l-17 -75q-3 -11 -3 -20q0 -41 49 -41h4q18 2 32 -11.5t14 -32.5q0 -29 -29 -41q-26 -8 -51 -8q-62 0 -96.5 24t-34.5 70q0 19 4 34l22 101h-47q-13 0 -22 9t-9 22t9 22t22 9h61
l25 113h-29q-19 0 -32 13.5t-13 32.5t13 32t32 13h49l22 98q4 17 18 28.5t32 11.5q22 0 37 -15t15 -36q0 -8 -1 -11l-17 -76h47q19 0 32 -13t13 -32z" />
    <glyph glyph-name="Utilde" unicode="&#x168;" horiz-adv-x="719" 
d="M75 263l80 365q5 19 21 32t36 13q24 0 40.5 -17t16.5 -41q0 -9 -1 -12l-74 -337q-4 -12 -4 -37q0 -61 42 -99.5t115 -38.5q78 0 123 44t64 131l80 362q5 19 21 32t36 13q24 0 40.5 -17t16.5 -41q0 -9 -1 -12l-75 -339q-30 -138 -102.5 -207t-202.5 -69q-132 0 -204.5 61
t-72.5 167q0 19 5 47zM415 799q-32 0 -47 -57q-5 -21 -27 -21q-14 0 -23 11.5t-5 24.5q30 104 110 104q24 0 38 -9.5t34 -34.5q24 -34 48 -34q30 0 47 57q5 21 27 21q15 0 23.5 -11.5t4.5 -25.5q-32 -103 -110 -103q-24 0 -38 9.5t-34 34.5q-24 34 -48 34z" />
    <glyph glyph-name="utilde" unicode="&#x169;" 
d="M541 438q0 -8 -1 -11l-87 -393q-4 -17 -18 -28.5t-32 -11.5q-21 0 -36 15.5t-15 36.5q0 8 1 11l2 9q-81 -78 -165 -78q-69 0 -108.5 32t-39.5 89q0 13 5 41l66 299q4 17 18 28.5t32 11.5q22 0 37 -15t15 -36q0 -8 -1 -11l-55 -247q-4 -13 -4 -31q0 -68 80 -68
q73 0 138 65l66 303q4 17 18 28.5t32 11.5q22 0 37 -15t15 -36zM308 652q-32 0 -47 -57q-5 -21 -27 -21q-14 0 -23 11.5t-5 24.5q30 104 110 104q24 0 38 -9.5t34 -34.5q24 -34 48 -34q30 0 47 57q5 21 27 21q15 0 23.5 -11.5t4.5 -25.5q-32 -103 -110 -103q-24 0 -38 9.5
t-34 34.5q-24 34 -48 34z" />
    <glyph glyph-name="Umacron" unicode="&#x16a;" horiz-adv-x="719" 
d="M75 263l80 365q5 19 21 32t36 13q24 0 40.5 -17t16.5 -41q0 -9 -1 -12l-74 -337q-4 -12 -4 -37q0 -61 42 -99.5t115 -38.5q78 0 123 44t64 131l80 362q5 19 21 32t36 13q24 0 40.5 -17t16.5 -41q0 -9 -1 -12l-75 -339q-30 -138 -102.5 -207t-202.5 -69q-132 0 -204.5 61
t-72.5 167q0 19 5 47zM309 764q0 13 9 22t22 9h272q13 0 22 -9t9 -22t-9 -22t-22 -9h-272q-13 0 -22 9t-9 22z" />
    <glyph glyph-name="umacron" unicode="&#x16b;" 
d="M541 438q0 -8 -1 -11l-87 -393q-4 -17 -18 -28.5t-32 -11.5q-21 0 -36 15.5t-15 36.5q0 8 1 11l2 9q-81 -78 -165 -78q-69 0 -108.5 32t-39.5 89q0 13 5 41l66 299q4 17 18 28.5t32 11.5q22 0 37 -15t15 -36q0 -8 -1 -11l-55 -247q-4 -13 -4 -31q0 -68 80 -68
q73 0 138 65l66 303q4 17 18 28.5t32 11.5q22 0 37 -15t15 -36zM202 617q0 13 9 22t22 9h272q13 0 22 -9t9 -22t-9 -22t-22 -9h-272q-13 0 -22 9t-9 22z" />
    <glyph glyph-name="Ubreve" unicode="&#x16c;" horiz-adv-x="719" 
d="M75 263l80 365q5 19 21 32t36 13q24 0 40.5 -17t16.5 -41q0 -9 -1 -12l-74 -337q-4 -12 -4 -37q0 -61 42 -99.5t115 -38.5q78 0 123 44t64 131l80 362q5 19 21 32t36 13q24 0 40.5 -17t16.5 -41q0 -9 -1 -12l-75 -339q-30 -138 -102.5 -207t-202.5 -69q-132 0 -204.5 61
t-72.5 167q0 19 5 47zM327 784q-8 11 -8 22q0 14 10 24t24 10q16 0 26 -13q36 -44 99 -44q69 0 127 52q7 7 19 7t20.5 -8.5t8.5 -20.5q0 -11 -10 -21q-84 -71 -176 -71q-88 0 -140 63z" />
    <glyph glyph-name="ubreve" unicode="&#x16d;" 
d="M541 438q0 -8 -1 -11l-87 -393q-4 -17 -18 -28.5t-32 -11.5q-21 0 -36 15.5t-15 36.5q0 8 1 11l2 9q-81 -78 -165 -78q-69 0 -108.5 32t-39.5 89q0 13 5 41l66 299q4 17 18 28.5t32 11.5q22 0 37 -15t15 -36q0 -8 -1 -11l-55 -247q-4 -13 -4 -31q0 -68 80 -68
q73 0 138 65l66 303q4 17 18 28.5t32 11.5q22 0 37 -15t15 -36zM220 637q-8 11 -8 22q0 14 10 24t24 10q16 0 26 -13q36 -44 99 -44q69 0 127 52q7 7 19 7t20.5 -8.5t8.5 -20.5q0 -11 -10 -21q-84 -71 -176 -71q-88 0 -140 63z" />
    <glyph glyph-name="Uring" unicode="&#x16e;" horiz-adv-x="719" 
d="M75 263l80 365q5 19 21 32t36 13q24 0 40.5 -17t16.5 -41q0 -9 -1 -12l-74 -337q-4 -12 -4 -37q0 -61 42 -99.5t115 -38.5q78 0 123 44t64 131l80 362q5 19 21 32t36 13q24 0 40.5 -17t16.5 -41q0 -9 -1 -12l-75 -339q-30 -138 -102.5 -207t-202.5 -69q-132 0 -204.5 61
t-72.5 167q0 19 5 47zM494 908q41 0 67 -26t26 -67q0 -46 -33 -79t-79 -33q-41 0 -67 26t-26 67q0 45 33 78q34 34 79 34zM490 857q-23 0 -40 -17t-17 -39q0 -21 13 -34t33 -13q23 0 40 16.5t17 39.5q0 21 -12.5 34t-33.5 13z" />
    <glyph glyph-name="uring" unicode="&#x16f;" 
d="M541 438q0 -8 -1 -11l-87 -393q-4 -17 -18 -28.5t-32 -11.5q-21 0 -36 15.5t-15 36.5q0 8 1 11l2 9q-81 -78 -165 -78q-69 0 -108.5 32t-39.5 89q0 13 5 41l66 299q4 17 18 28.5t32 11.5q22 0 37 -15t15 -36q0 -8 -1 -11l-55 -247q-4 -13 -4 -31q0 -68 80 -68
q73 0 138 65l66 303q4 17 18 28.5t32 11.5q22 0 37 -15t15 -36zM387 761q41 0 67 -26t26 -67q0 -46 -33 -79t-79 -33q-41 0 -67 26t-26 67q0 45 33 78q34 34 79 34zM383 710q-23 0 -40 -17t-17 -39q0 -21 13 -34t33 -13q23 0 40 16.5t17 39.5q0 21 -12.5 34t-33.5 13z" />
    <glyph glyph-name="Uhungarumlaut" unicode="&#x170;" horiz-adv-x="719" 
d="M75 263l80 365q5 19 21 32t36 13q24 0 40.5 -17t16.5 -41q0 -9 -1 -12l-74 -337q-4 -12 -4 -37q0 -61 42 -99.5t115 -38.5q78 0 123 44t64 131l80 362q5 19 21 32t36 13q24 0 40.5 -17t16.5 -41q0 -9 -1 -12l-75 -339q-30 -138 -102.5 -207t-202.5 -69q-132 0 -204.5 61
t-72.5 167q0 19 5 47zM380 742q0 9 6 15l89 105q10 12 25 12q13 0 22 -9t9 -22t-10 -23l-98 -96q-7 -7 -18 -7t-18 7.5t-7 17.5zM526 742q0 9 6 15l89 105q11 12 25 12q13 0 22 -9t9 -22t-10 -23l-98 -96q-7 -7 -18 -7t-18 7.5t-7 17.5z" />
    <glyph glyph-name="uhungarumlaut" unicode="&#x171;" 
d="M541 438q0 -8 -1 -11l-87 -393q-4 -17 -18 -28.5t-32 -11.5q-21 0 -36 15.5t-15 36.5q0 8 1 11l2 9q-81 -78 -165 -78q-69 0 -108.5 32t-39.5 89q0 13 5 41l66 299q4 17 18 28.5t32 11.5q22 0 37 -15t15 -36q0 -8 -1 -11l-55 -247q-4 -13 -4 -31q0 -68 80 -68
q73 0 138 65l66 303q4 17 18 28.5t32 11.5q22 0 37 -15t15 -36zM273 595q0 9 6 15l89 105q10 12 25 12q13 0 22 -9t9 -22t-10 -23l-98 -96q-7 -7 -18 -7t-18 7.5t-7 17.5zM419 595q0 9 6 15l89 105q10 12 25 12q13 0 22 -9t9 -22t-10 -23l-98 -96q-7 -7 -18 -7t-18 7.5
t-7 17.5z" />
    <glyph glyph-name="Uogonek" unicode="&#x172;" horiz-adv-x="719" 
d="M363 -115h8q14 2 25 -8t11 -24q0 -24 -24 -31q-29 -8 -62 -8q-40 0 -65.5 16.5t-25.5 45.5q0 33 30 62.5t78 49.5h-11q-122 5 -189.5 65.5t-67.5 162.5q0 19 5 47l80 365q5 19 21 32t36 13q24 0 40.5 -17t16.5 -41q0 -9 -1 -12l-74 -337q-4 -12 -4 -37q0 -61 42 -99.5
t115 -38.5q78 0 123 44t64 131l80 362q5 19 21 32t36 13q24 0 40.5 -17t16.5 -41q0 -9 -1 -12l-75 -339q-48 -217 -201 -262q-104 -31 -116 -86q-3 -14 5 -22.5t23 -8.5z" />
    <glyph glyph-name="uogonek" unicode="&#x173;" 
d="M541 438q0 -8 -1 -11l-87 -393q-7 -30 -35 -38q-73 -51 -73 -86q0 -11 8 -18t21 -7h8q14 2 25 -8t11 -24q0 -24 -24 -31q-29 -8 -62 -8q-41 0 -66 16.5t-25 44.5q0 40 38 72.5t101 52.5q-28 13 -28 46q0 8 1 11l2 9q-81 -78 -165 -78q-69 0 -108.5 32t-39.5 89q0 13 5 41
l66 299q4 17 18 28.5t32 11.5q22 0 37 -15t15 -36q0 -8 -1 -11l-55 -247q-4 -13 -4 -31q0 -68 80 -68q73 0 138 65l66 303q4 17 18 28.5t32 11.5q22 0 37 -15t15 -36z" />
    <glyph glyph-name="Wcircumflex" unicode="&#x174;" horiz-adv-x="903" 
d="M524 68l-18 424l-220 -454q-20 -44 -70 -44q-30 0 -52.5 21.5t-24.5 51.5l-36 539q-1 28 17.5 47.5t45.5 19.5q25 0 43.5 -18t19.5 -43l14 -459l239 488q15 32 51 32q23 0 39.5 -15.5t17.5 -38.5l22 -466l230 486q15 34 53 34q25 0 42.5 -17t17.5 -41q0 -15 -7 -28
l-278 -550q-21 -43 -69 -43q-31 0 -53.5 21.5t-23.5 52.5zM630 732l-51 87l-94 -94q-8 -8 -19 -8t-18 8t-7 18q0 9 6 17l69 79q25 28 55 28h35q34 0 42 -25l36 -82q3 -6 3 -13q0 -12 -9.5 -21t-21.5 -9q-18 0 -26 15z" />
    <glyph glyph-name="wcircumflex" unicode="&#x175;" horiz-adv-x="754" 
d="M429 58l-28 296l-173 -323q-19 -37 -62 -37q-27 0 -47.5 18.5t-22.5 45.5l-33 374q-2 22 13.5 39.5t37.5 17.5q21 0 35.5 -13.5t16.5 -34.5l21 -309l179 326q18 31 53 31q22 0 39.5 -15.5t19.5 -38.5l31 -303l169 330q14 27 44 27q21 0 35.5 -14.5t14.5 -35.5
q0 -13 -6 -23l-204 -385q-19 -37 -62 -37q-28 0 -48.5 19t-22.5 45zM520 585l-51 87l-94 -94q-8 -8 -19 -8t-18 8t-7 18t6 17l69 79q25 28 55 28h35q34 0 42 -25l36 -82q3 -6 3 -13q0 -12 -9.5 -21t-21.5 -9q-18 0 -26 15z" />
    <glyph glyph-name="Ycircumflex" unicode="&#x176;" horiz-adv-x="637" 
d="M656 585l-272 -309l-52 -237q-5 -19 -20.5 -32t-35.5 -13q-24 0 -40.5 17t-16.5 41q0 9 1 12l47 214l-140 314q-5 15 -5 24q0 24 17 40.5t41 16.5q37 0 53 -35l109 -256l234 272q14 19 40 19q22 0 37.5 -15.5t15.5 -37.5q0 -19 -13 -35zM499 732l-51 87l-94 -94
q-8 -8 -19 -8t-18 8t-7 18q0 9 6 17l69 79q25 28 55 28h35q34 0 42 -25l36 -82q3 -6 3 -13q0 -12 -9.5 -21t-21.5 -9q-18 0 -26 15z" />
    <glyph glyph-name="ycircumflex" unicode="&#x177;" horiz-adv-x="503" 
d="M17 -100q5 -1 19 -1q37 0 65 40l38 58l-78 429q-1 2 -1 9q0 22 16 38t38 16q20 0 34.5 -13t17.5 -32l54 -323l211 345q12 23 42 23q21 0 35 -15t14 -34q0 -12 -8 -26l-316 -501q-37 -58 -77 -83.5t-95 -25.5q-14 0 -18 1q-18 2 -31 15.5t-13 31.5q0 22 16 36t37 12z
M400 585l-51 87l-94 -94q-8 -8 -19 -8t-18 8t-7 18t6 17l69 79q25 28 55 28h35q34 0 42 -25l36 -82q3 -6 3 -13q0 -12 -9.5 -21t-21.5 -9q-18 0 -26 15z" />
    <glyph glyph-name="Ydieresis" unicode="&#x178;" horiz-adv-x="637" 
d="M656 585l-272 -309l-52 -237q-5 -19 -20.5 -32t-35.5 -13q-24 0 -40.5 17t-16.5 41q0 9 1 12l47 214l-140 314q-5 15 -5 24q0 24 17 40.5t41 16.5q37 0 53 -35l109 -256l234 272q14 19 40 19q22 0 37.5 -15.5t15.5 -37.5q0 -19 -13 -35zM279 783q0 26 20 45.5t46 19.5
q22 0 37 -14.5t15 -37.5q0 -26 -20 -45.5t-46 -19.5q-22 0 -37 15t-15 37zM488 783q0 26 20 45.5t46 19.5q23 0 37.5 -14.5t14.5 -37.5q0 -26 -20 -45.5t-46 -19.5q-22 0 -37 15t-15 37z" />
    <glyph glyph-name="Zacute" unicode="&#x179;" horiz-adv-x="589" 
d="M-2 58q0 23 16 40l434 466h-275q-21 0 -36.5 15t-15.5 36q0 22 15.5 37t36.5 15h391q24 0 41 -17t17 -42q0 -24 -15 -40l-436 -465h284q21 0 36 -15t15 -37q0 -21 -15 -36t-36 -15h-398q-24 0 -41.5 17t-17.5 41zM401 717q-10 0 -18 8t-8 18q0 15 10 22l116 98q11 8 23 8
q13 0 21.5 -9.5t8.5 -22.5q0 -17 -13 -27l-123 -90q-8 -5 -17 -5z" />
    <glyph glyph-name="zacute" unicode="&#x17a;" horiz-adv-x="476" 
d="M-3 48q0 16 14 33l302 310h-183q-19 0 -32.5 13.5t-13.5 32.5t13.5 32.5t32.5 13.5h297q19 0 32.5 -13.5t13.5 -32.5q0 -18 -13 -32l-306 -314h190q19 0 32.5 -13.5t13.5 -32.5t-13.5 -32t-32.5 -13h-299q-20 0 -34 14t-14 34zM313 570q-10 0 -18 8t-8 18q0 15 10 22
l116 98q11 8 23 8q13 0 21.5 -9.5t8.5 -22.5q0 -17 -13 -27l-123 -90q-8 -5 -17 -5z" />
    <glyph glyph-name="Zdotaccent" unicode="&#x17b;" horiz-adv-x="589" 
d="M-2 58q0 23 16 40l434 466h-275q-21 0 -36.5 15t-15.5 36q0 22 15.5 37t36.5 15h391q24 0 41 -17t17 -42q0 -24 -15 -40l-436 -465h284q21 0 36 -15t15 -37q0 -21 -15 -36t-36 -15h-398q-24 0 -41.5 17t-17.5 41zM356 782q0 26 20 46t46 20q23 0 38 -15t15 -38
q0 -26 -20.5 -45.5t-46.5 -19.5q-23 0 -37.5 15t-14.5 37z" />
    <glyph glyph-name="zdotaccent" unicode="&#x17c;" horiz-adv-x="476" 
d="M-3 48q0 16 14 33l302 310h-183q-19 0 -32.5 13.5t-13.5 32.5t13.5 32.5t32.5 13.5h297q19 0 32.5 -13.5t13.5 -32.5q0 -18 -13 -32l-306 -314h190q19 0 32.5 -13.5t13.5 -32.5t-13.5 -32t-32.5 -13h-299q-20 0 -34 14t-14 34zM268 635q0 26 20 46t46 20q23 0 38 -15
t15 -38q0 -26 -20.5 -45.5t-46.5 -19.5q-23 0 -37.5 15t-14.5 37z" />
    <glyph glyph-name="Zcaron" unicode="&#x17d;" horiz-adv-x="589" 
d="M-2 58q0 23 16 40l434 466h-275q-21 0 -36.5 15t-15.5 36q0 22 15.5 37t36.5 15h391q24 0 41 -17t17 -42q0 -24 -15 -40l-436 -465h284q21 0 36 -15t15 -37q0 -21 -15 -36t-36 -15h-398q-24 0 -41.5 17t-17.5 41zM359 858l51 -87l94 94q8 8 19 8t18 -8t7 -18q0 -9 -6 -17
l-69 -79q-25 -28 -55 -28h-35q-34 0 -42 25l-36 82q-3 6 -3 13q0 12 9.5 21t21.5 9q18 0 26 -15z" />
    <glyph glyph-name="zcaron" unicode="&#x17e;" horiz-adv-x="476" 
d="M-3 48q0 16 14 33l302 310h-183q-19 0 -32.5 13.5t-13.5 32.5t13.5 32.5t32.5 13.5h297q19 0 32.5 -13.5t13.5 -32.5q0 -18 -13 -32l-306 -314h190q19 0 32.5 -13.5t13.5 -32.5t-13.5 -32t-32.5 -13h-299q-20 0 -34 14t-14 34zM271 711l51 -87l94 94q8 8 19 8t18 -8
t7 -18t-6 -17l-69 -79q-25 -28 -55 -28h-35q-34 0 -42 25l-36 82q-3 6 -3 13q0 12 9.5 21t21.5 9q18 0 26 -15z" />
    <glyph glyph-name="longs" unicode="&#x17f;" horiz-adv-x="308" 
d="M413 629q0 -17 -13 -29.5t-30 -12.5q-8 0 -10 1q-12 3 -25 3q-61 0 -78 -81l-105 -476q-4 -17 -18 -28.5t-32 -11.5q-22 0 -36.5 15t-14.5 36q0 8 1 11l74 335h-29q-19 0 -32.5 13.5t-13.5 32.5t13.5 32.5t32.5 13.5h49l6 27q37 167 171 167q31 0 60 -8q30 -9 30 -40z
" />
    <glyph glyph-name="uni018F" unicode="&#x18f;" horiz-adv-x="745" 
d="M732 382q2 -111 -51.5 -203.5t-142 -142.5t-188.5 -48q-134 0 -219.5 81t-85.5 215q0 20 1 25q2 59 65 59h499v7q0 88 -56 143.5t-148 55.5q-76 0 -141 -53q-14 -13 -34 -13q-22 0 -38 16t-16 38q0 26 21 42q91 74 215 74q136 2 228.5 -82t90.5 -214zM591 265h-429
q5 -73 59.5 -123t134.5 -50q75 0 140 47q65 49 95 126z" />
    <glyph glyph-name="uni0192" unicode="&#x192;" horiz-adv-x="444" 
d="M478 615q0 -20 -14 -34t-34 -14q-11 0 -17 2q-12 5 -27 5q-62 0 -80 -78l-36 -158h84q19 0 33 -14t14 -33t-14 -32.5t-33 -13.5h-104l-81 -366q-5 -21 -20.5 -33.5t-36.5 -12.5q-24 0 -41 17t-17 41q0 10 1 13l76 341h-19q-19 0 -33 14t-14 33t14 32.5t33 13.5h39l40 182
q16 75 59.5 116t110.5 41q50 0 90 -20q27 -13 27 -42z" />
    <glyph glyph-name="uni019D" unicode="&#x19d;" horiz-adv-x="720" 
d="M672 673q24 0 40.5 -17t16.5 -41q0 -9 -1 -12l-121 -550q-5 -26 -26 -42.5t-48 -16.5q-48 0 -68 44l-218 476l-107 -487q-48 -223 -241 -223q-19 0 -24 1q-20 2 -34 16.5t-14 34.5q0 22 16.5 38t38.5 14h9q53 0 86.5 31.5t45.5 89.5l128 581q6 27 28 45t51 18
q23 0 43 -13t30 -34l211 -460l102 462q5 19 20.5 32t35.5 13z" />
    <glyph glyph-name="Ohorn" unicode="&#x1a0;" horiz-adv-x="765" 
d="M710 539q42 -67 42 -156q3 -162 -110.5 -280t-271.5 -115q-138 0 -228.5 81.5t-90.5 214.5q-2 106 49 197.5t140.5 145t192.5 51.5q164 0 253 -106q48 28 63 65h-7q-16 0 -27.5 12t-11.5 30q0 22 17 38.5t39 16.5q21 0 35 -15t14 -39q0 -39 -28 -79t-70 -62zM630 375
q0 90 -58 144.5t-146 54.5q-103 2 -179 -82t-74 -201q0 -91 57.5 -145t146.5 -54q102 -2 178.5 82t74.5 201z" />
    <glyph glyph-name="ohorn" unicode="&#x1a1;" horiz-adv-x="573" 
d="M498 411q41 -56 41 -134q2 -114 -79.5 -203t-195.5 -86q-107 0 -169.5 60t-62.5 157q-2 114 79.5 203.5t195.5 86.5q101 0 163 -54q46 27 60 63q-1 -1 -7 -1q-16 0 -27.5 12t-11.5 30q0 23 17 39t39 16q21 0 35 -14.5t14 -38.5q0 -36 -26 -74t-65 -62zM430 273
q0 60 -33.5 94.5t-92.5 34.5q-68 0 -115.5 -58t-47.5 -134q0 -60 33.5 -94.5t92.5 -34.5q68 0 115.5 57.5t47.5 134.5z" />
    <glyph glyph-name="Uhorn" unicode="&#x1af;" horiz-adv-x="719" 
d="M722 580l-70 -316q-30 -138 -102.5 -207t-202.5 -69q-132 0 -204.5 61t-72.5 167q0 19 5 47l80 365q5 19 21 32t36 13q24 0 40.5 -17t16.5 -41q0 -9 -1 -12l-74 -337q-4 -12 -4 -37q0 -61 42 -99.5t115 -38.5q78 0 123 44t64 131l80 362q5 19 21 32t36 13
q21 0 36.5 -13.5t19.5 -33.5q65 32 79 74q-1 -1 -7 -1q-16 0 -27.5 12t-11.5 30q0 23 17 39t39 16q21 0 35 -14.5t14 -38.5q0 -50 -39.5 -94t-103.5 -69z" />
    <glyph glyph-name="uhorn" unicode="&#x1b0;" 
d="M535 403l-82 -369q-4 -17 -18 -28.5t-32 -11.5q-21 0 -36 15.5t-15 36.5q0 8 1 11l2 9q-81 -78 -165 -78q-69 0 -108.5 32t-39.5 89q0 13 5 41l66 299q4 17 18 28.5t32 11.5q22 0 37 -15t15 -36q0 -8 -1 -11l-55 -247q-4 -13 -4 -31q0 -68 80 -68q73 0 138 65l66 303
q4 17 18 28.5t32 11.5t32 -11t18 -27q48 29 58 62h-7q-16 0 -28 12t-12 30q0 22 17 38.5t39 16.5q21 0 35.5 -15t14.5 -39q0 -45 -33 -85t-88 -68z" />
    <glyph glyph-name="Gcaron" unicode="&#x1e6;" horiz-adv-x="717" 
d="M678 308l-2 -18l-32 -145q-10 -43 -38 -69q-100 -88 -236 -88q-139 0 -229 82.5t-90 213.5q-3 167 112.5 282t279.5 112q147 0 231 -100q14 -17 14 -37q0 -24 -16.5 -41t-40.5 -17q-27 0 -45 21q-57 70 -159 70q-101 2 -178.5 -82.5t-75.5 -200.5q0 -87 56 -143t148 -56
q83 0 151 59l23 104h-141q-21 0 -36 15t-15 36q0 22 15 37t36 15h211q57 0 57 -50zM450 858l51 -87l94 94q8 8 19 8t18 -8t7 -18q0 -9 -6 -17l-69 -79q-25 -28 -55 -28h-35q-34 0 -42 25l-36 82q-3 6 -3 13q0 12 9.5 21t21.5 9q18 0 26 -15z" />
    <glyph glyph-name="gcaron" unicode="&#x1e7;" horiz-adv-x="580" 
d="M553 437q0 -8 -1 -11l-89 -401q-25 -120 -94 -170q-67 -51 -157 -51q-120 0 -193 53q-19 13 -19 37q0 19 13.5 32.5t32.5 13.5q16 0 28 -9q55 -41 136 -41q118 0 148 135l12 52q-63 -77 -155 -77q-83 0 -133 51t-50 147q-2 117 70 208.5t181 88.5q46 0 90.5 -22.5
t70.5 -58.5l8 35q4 17 18 28.5t32 11.5q21 0 36 -15.5t15 -36.5zM388 158l39 175q-19 32 -54 50.5t-78 18.5q-67 0 -110.5 -54.5t-43.5 -130.5q0 -57 33 -90.5t88 -33.5q70 0 126 65zM325 711l51 -87l94 94q8 8 19 8t18 -8t7 -18t-6 -17l-69 -79q-25 -28 -55 -28h-35
q-34 0 -42 25l-36 82q-3 6 -3 13q0 12 9.5 21t21.5 9q18 0 26 -15z" />
    <glyph glyph-name="uni01EA" unicode="&#x1ea;" horiz-adv-x="765" 
d="M386 -90q0 -11 8 -18t21 -7h8q14 2 25 -8t11 -24q0 -24 -24 -31q-29 -8 -62 -8q-41 0 -66 16.5t-25 44.5q0 68 108 114q-4 -1 -20 -1q-138 0 -228.5 81.5t-90.5 214.5q-2 106 49 197.5t140.5 145t192.5 51.5q136 2 228 -81t91 -214q1 -137 -81 -246t-208 -138
q-77 -54 -77 -89zM377 92q102 -2 178.5 82t74.5 201q0 90 -58 144.5t-146 54.5q-103 2 -179 -82t-74 -201q0 -91 57.5 -145t146.5 -54z" />
    <glyph glyph-name="uni01EB" unicode="&#x1eb;" horiz-adv-x="573" 
d="M264 -90q0 -11 8 -18t21 -7h8q14 2 25 -8t11 -24q0 -24 -24 -31q-29 -8 -62 -8q-41 0 -66 16.5t-25 44.5q0 67 107 113h-3q-107 0 -169.5 60t-62.5 157q-2 114 79.5 203.5t195.5 86.5q107 0 169.5 -60t62.5 -158q0 -95 -55.5 -173t-142.5 -105q-77 -54 -77 -89zM267 81
q68 0 115.5 57.5t47.5 134.5q0 60 -33.5 94.5t-92.5 34.5q-68 0 -115.5 -58t-47.5 -134q0 -60 33.5 -94.5t92.5 -34.5z" />
    <glyph glyph-name="Aringacute" unicode="&#x1fa;" horiz-adv-x="673" 
d="M607 54q0 -25 -17.5 -42.5t-42.5 -17.5q-22 0 -38.5 14t-20.5 36l-12 84h-320l-62 -106q-19 -28 -49 -28q-23 0 -40 17t-17 40q0 13 9 30l333 544q31 48 86 48q37 0 65 -24t34 -60l91 -525q1 -2 1 -10zM217 231h244l-49 333zM471 908q41 0 67 -26t26 -67q0 -46 -33 -79
t-79 -33q-41 0 -67 26t-26 67q0 45 33 78q34 34 79 34zM467 857q-23 0 -40 -17t-17 -39q0 -21 13 -34t33 -13q23 0 40 16.5t17 39.5q0 21 -12.5 34t-33.5 13zM488 929q-10 0 -18 8t-8 18q0 15 10 22l116 98q11 8 23 8q13 0 21.5 -9.5t8.5 -22.5q0 -17 -13 -27l-123 -90
q-8 -5 -17 -5z" />
    <glyph glyph-name="aringacute" unicode="&#x1fb;" horiz-adv-x="581" 
d="M555 438q0 -8 -1 -11l-87 -393q-4 -17 -18 -28.5t-32 -11.5q-21 0 -36.5 15.5t-15.5 35.5q0 8 1 11l2 8q-61 -76 -151 -76q-85 0 -135 53t-50 146q-1 77 29.5 147.5t90.5 116.5t134 44q51 0 93.5 -21.5t66.5 -59.5l8 35q4 17 17.5 28.5t32.5 11.5q21 0 36 -15.5t15 -35.5
zM387 149l42 187q-18 30 -51.5 48t-75.5 18q-68 0 -114 -58t-46 -136q0 -58 33 -92.5t86 -34.5q36 0 70 18.5t56 49.5zM396 761q41 0 67 -26t26 -67q0 -46 -33 -79t-79 -33q-41 0 -67 26t-26 67q0 45 33 78q34 34 79 34zM392 710q-23 0 -40 -17t-17 -39q0 -21 13 -34t33 -13
q23 0 40 16.5t17 39.5q0 21 -12.5 34t-33.5 13zM413 782q-10 0 -18 8t-8 18q0 15 10 22l116 98q11 8 23 8q13 0 21.5 -9.5t8.5 -22.5q0 -17 -13 -27l-123 -90q-8 -5 -17 -5z" />
    <glyph glyph-name="AEacute" unicode="&#x1fc;" horiz-adv-x="959" 
d="M998 615q0 -21 -15 -36t-36 -15h-305l-38 -173h275q21 0 36 -15t15 -37q0 -21 -15 -36t-36 -15h-298l-41 -185h282q21 0 36.5 -15t15.5 -36q0 -22 -15.5 -37t-36.5 -15h-351q-27 0 -42 13.5t-15 36.5q0 2 2 18l13 60h-251l-92 -115q-16 -19 -39 -19q-21 0 -35.5 15
t-14.5 36q0 18 11 32l463 554q30 36 76 36h400q21 0 36 -15t15 -37zM452 231l72 332l-264 -332h192zM618 717q-10 0 -18 8t-8 18q0 15 10 22l116 98q11 8 23 8q13 0 21.5 -9.5t8.5 -22.5q0 -17 -13 -27l-123 -90q-8 -5 -17 -5z" />
    <glyph glyph-name="aeacute" unicode="&#x1fd;" horiz-adv-x="924" 
d="M892 288q0 -19 -1 -25q-5 -56 -66 -56h-315q-1 -2 -1 -17q0 -46 39 -80t107 -34q50 0 95 21q7 4 18 4q17 0 29 -12t12 -29q0 -24 -22 -36q-67 -36 -128 -36q-135 0 -179 107l-13 -61q-4 -17 -18 -28.5t-33 -11.5q-21 0 -36 15.5t-15 35.5q0 8 1 11l2 8q-61 -76 -151 -76
q-85 0 -135 53t-50 146q-1 77 29.5 147.5t90.5 116.5t134 44q51 0 93.5 -21.5t66.5 -59.5l7 34q4 18 18 29.5t33 11.5q21 0 36 -15t15 -36q0 -8 -1 -11l-3 -14q29 37 71.5 59.5t88.5 22.5q87 0 134 -54t47 -153zM795 295q0 52 -32 83t-91 31q-55 0 -99 -38q-42 -36 -53 -90
h274q1 2 1 14zM387 149l42 187q-18 30 -51.5 48t-75.5 18q-68 0 -114 -58t-46 -136q0 -58 33 -92.5t86 -34.5q36 0 70 18.5t56 49.5zM537 570q-10 0 -18 8t-8 18q0 15 10 22l116 98q11 8 23 8q13 0 21.5 -9.5t8.5 -22.5q0 -17 -13 -27l-123 -90q-8 -5 -17 -5z" />
    <glyph glyph-name="Oslashacute" unicode="&#x1fe;" horiz-adv-x="765" 
d="M766 690q0 -10 -9 -20l-82 -86q77 -80 77 -201q3 -162 -110.5 -280t-271.5 -115q-116 0 -202 60l-81 -86q-10 -10 -22 -10q-10 0 -17 7t-7 17q0 12 9 21l79 84q-78 78 -78 203q-2 106 49 197.5t140.5 145t192.5 51.5q120 0 204 -61l83 88q10 10 21 10q25 0 25 -25z
M211 167l346 366q-53 41 -131 41q-103 2 -179 -82t-74 -201q0 -72 38 -124zM593 497l-346 -366q56 -39 130 -39q102 -2 178.5 82t74.5 201q0 72 -37 122zM486 717q-10 0 -18 8t-8 18q0 15 10 22l116 98q11 8 23 8q13 0 21.5 -9.5t8.5 -22.5q0 -17 -13 -27l-123 -90
q-8 -5 -17 -5z" />
    <glyph glyph-name="oslashacute" unicode="&#x1ff;" horiz-adv-x="573" 
d="M539 277q2 -114 -79.5 -203t-195.5 -86q-77 0 -130 31l-47 -58q-7 -9 -18 -9q-8 0 -15 6.5t-7 15.5q0 8 6 15l45 55q-66 60 -66 161q-2 114 79.5 203.5t195.5 86.5q77 0 134 -33l49 60q8 9 18 9q8 0 14.5 -6t6.5 -15q0 -8 -6 -15l-48 -59q64 -58 64 -159zM166 126
l210 257q-29 19 -72 19q-68 0 -115.5 -58t-47.5 -134q0 -50 25 -84zM430 273q0 49 -22 81l-210 -257q29 -16 69 -16q68 0 115.5 57.5t47.5 134.5zM360 570q-10 0 -18 8t-8 18q0 15 10 22l116 98q11 8 23 8q13 0 21.5 -9.5t8.5 -22.5q0 -17 -13 -27l-123 -90q-8 -5 -17 -5z
" />
    <glyph glyph-name="uni0218" unicode="&#x218;" horiz-adv-x="594" 
d="M21 116q0 23 17 40t40 17q20 0 37 -14q79 -67 189 -67q57 0 88.5 27.5t31.5 68.5q0 30 -28 49.5t-100 46.5q-59 22 -103 44q-96 52 -96 142q0 84 70.5 145.5t179.5 61.5q127 0 216 -69q22 -19 22 -45q0 -23 -16.5 -39.5t-39.5 -16.5q-20 0 -35 12q-72 55 -163 55
q-45 0 -77.5 -25.5t-32.5 -59.5q0 -28 27.5 -46t98.5 -45q64 -24 103 -45q99 -50 99 -144q0 -92 -70 -156.5t-185 -64.5q-150 0 -252 84q-21 18 -21 44zM157 -271q-9 0 -16 7t-7 14q0 13 10 19q44 25 59 62h-8q-18 0 -30.5 12.5t-12.5 33.5q0 24 19 42t43 18t39 -15.5
t15 -42.5q0 -39 -27 -78.5t-68 -66.5q-8 -5 -16 -5z" />
    <glyph glyph-name="uni0219" unicode="&#x219;" horiz-adv-x="472" 
d="M10 82q0 20 14 33.5t33 13.5q17 0 29 -9q63 -49 137 -49q38 0 62.5 18.5t24.5 46.5q0 20 -21.5 34t-74.5 33q-45 15 -79 32q-74 37 -74 103t52 111.5t140 45.5q95 0 166 -52q19 -13 19 -35q0 -19 -13 -32t-32 -13q-14 0 -26 9q-56 39 -117 39q-39 0 -62 -16t-23 -41
q0 -18 20 -30t73 -32q42 -15 64 -24.5t46 -26t34.5 -37.5t12.5 -51q0 -70 -55 -117.5t-146 -47.5q-108 0 -185 56q-19 14 -19 38zM98 -271q-9 0 -16 7t-7 14q0 13 10 19q44 25 59 62h-8q-18 0 -30.5 12.5t-12.5 33.5q0 24 19 42t43 18t39 -15.5t15 -42.5q0 -39 -27 -78.5
t-68 -66.5q-8 -5 -16 -5z" />
    <glyph glyph-name="uni021A" unicode="&#x21a;" horiz-adv-x="577" 
d="M189 52q0 9 1 12l110 500h-144q-21 0 -36 15t-15 37q0 21 15 36t36 15h428q21 0 36 -15t15 -36q0 -22 -15 -37t-36 -15h-167l-115 -525q-5 -19 -20.5 -32t-35.5 -13q-24 0 -40.5 17t-16.5 41zM156 -271q-9 0 -16 7t-7 14q0 13 10 19q44 25 59 62h-8q-18 0 -30.5 12.5
t-12.5 33.5q0 24 19 42t43 18t39 -15.5t15 -42.5q0 -39 -27 -78.5t-68 -66.5q-8 -5 -16 -5z" />
    <glyph glyph-name="uni021B" unicode="&#x21b;" horiz-adv-x="319" 
d="M340 438q0 -19 -13 -32.5t-32 -13.5h-67l-56 -250q-3 -11 -3 -20q0 -41 49 -41h4q18 2 32 -11.5t14 -32.5q0 -29 -29 -41q-26 -8 -51 -8q-62 0 -96.5 24t-34.5 70q0 19 4 34l61 276h-29q-19 0 -32 13.5t-13 32.5t13 32t32 13h49l22 98q4 17 18 28.5t32 11.5q22 0 37 -15
t15 -36q0 -8 -1 -11l-17 -76h47q19 0 32 -13t13 -32zM27 -271q-9 0 -16 7t-7 14q0 13 10 19q44 25 59 62h-8q-18 0 -30.5 12.5t-12.5 33.5q0 24 19 42t43 18t39 -15.5t15 -42.5q0 -39 -27 -78.5t-68 -66.5q-8 -5 -16 -5z" />
    <glyph glyph-name="uni0232" unicode="&#x232;" horiz-adv-x="637" 
d="M656 585l-272 -309l-52 -237q-5 -19 -20.5 -32t-35.5 -13q-24 0 -40.5 17t-16.5 41q0 9 1 12l47 214l-140 314q-5 15 -5 24q0 24 17 40.5t41 16.5q37 0 53 -35l109 -256l234 272q14 19 40 19q22 0 37.5 -15.5t15.5 -37.5q0 -19 -13 -35zM269 764q0 13 9 22t22 9h272
q13 0 22 -9t9 -22t-9 -22t-22 -9h-272q-13 0 -22 9t-9 22z" />
    <glyph glyph-name="uni0233" unicode="&#x233;" horiz-adv-x="503" 
d="M17 -100q5 -1 19 -1q37 0 65 40l38 58l-78 429q-1 2 -1 9q0 22 16 38t38 16q20 0 34.5 -13t17.5 -32l54 -323l211 345q12 23 42 23q21 0 35 -15t14 -34q0 -12 -8 -26l-316 -501q-37 -58 -77 -83.5t-95 -25.5q-14 0 -18 1q-18 2 -31 15.5t-13 31.5q0 22 16 36t37 12z
M170 617q0 13 9 22t22 9h272q13 0 22 -9t9 -22t-9 -22t-22 -9h-272q-13 0 -22 9t-9 22z" />
    <glyph glyph-name="uni0237" unicode="&#x237;" horiz-adv-x="241" 
d="M-126 -151q0 19 14 32.5t33 11.5h8q60 0 78 79l106 477q4 17 18 28.5t32 11.5q22 0 36.5 -15t14.5 -36q0 -8 -1 -11l-101 -455q-37 -168 -172 -168q-15 0 -27 2q-17 2 -28 14t-11 29z" />
    <glyph glyph-name="uni0259" unicode="&#x259;" horiz-adv-x="557" 
d="M247 -12q-94 0 -153.5 59t-59.5 155q0 13 1 17q2 57 65 57h317l1 17q0 46 -40 81t-107 35q-54 0 -99 -22q-7 -4 -17 -4q-17 0 -28.5 12t-11.5 29q0 24 21 35q69 36 143 36q113 0 178.5 -58t65.5 -158q2 -117 -80 -205.5t-196 -85.5zM128 188q0 -50 34 -82t93 -32
q55 0 98 38q42 36 53 90h-277q-1 -2 -1 -14z" />
    <glyph glyph-name="uni0272" unicode="&#x272;" 
d="M523 372q0 -22 -4 -39l-66 -299q-4 -17 -18 -28.5t-32 -11.5q-21 0 -36.5 15.5t-15.5 35.5q0 8 1 11l55 247q4 13 4 31q0 68 -80 68q-73 0 -138 -65l-81 -365q-37 -168 -172 -168q-15 0 -27 2q-17 2 -28 14t-11 29q0 18 14 31t33 13h8q60 0 78 79l106 477q4 17 18 28.5
t32 11.5q21 0 36 -15.5t15 -36.5q0 -8 -1 -11l-2 -9q81 78 165 78q69 0 108 -32t39 -91z" />
    <glyph glyph-name="uni02B0" unicode="&#x2b0;" horiz-adv-x="405" 
d="M295 366l33 152q2 16 2 19q0 46 -57 46q-39 0 -82 -43l-42 -190q-3 -13 -13.5 -21.5t-23.5 -8.5q-18 0 -29.5 14.5t-7.5 31.5l82 370q3 13 13.5 21.5t23.5 8.5q18 0 29.5 -14.5t7.5 -31.5l-27 -122q50 50 108 50q48 0 75 -21.5t27 -60.5q0 -10 -4 -30l-42 -186
q-3 -12 -13.5 -21t-22.5 -9q-18 0 -29.5 14.5t-7.5 31.5z" />
    <glyph glyph-name="uni02BC" unicode="&#x2bc;" horiz-adv-x="244" 
d="M143 424q-12 0 -20 8t-8 20q0 14 12 23q53 35 68 71h-9q-24 0 -39 15t-15 41q0 30 23.5 52.5t53.5 22.5q29 0 48 -19.5t19 -52.5q0 -47 -33 -95.5t-85 -81.5q-4 -4 -15 -4z" />
    <glyph glyph-name="circumflex" unicode="&#x2c6;" horiz-adv-x="285" 
d="M284 565l-51 87l-94 -94q-8 -8 -19 -8t-18 8t-7 18t6 17l69 79q25 28 55 28h35q34 0 42 -25l36 -82q3 -6 3 -13q0 -12 -9.5 -21t-21.5 -9q-18 0 -26 15z" />
    <glyph glyph-name="caron" unicode="&#x2c7;" horiz-adv-x="285" 
d="M171 691l51 -87l94 94q8 8 19 8t18 -8t7 -18t-6 -17l-69 -79q-25 -28 -55 -28h-35q-34 0 -42 25l-36 82q-3 6 -3 13q0 12 9.5 21t21.5 9q18 0 26 -15z" />
    <glyph glyph-name="uni02C9" unicode="&#x2c9;" horiz-adv-x="363" 
d="M99 622q0 13 9 22t22 9h271q13 0 22 -9t9 -22t-9 -22t-22 -9h-271q-13 0 -22 9t-9 22z" />
    <glyph glyph-name="uni02CB" unicode="&#x2cb;" horiz-adv-x="240" 
d="M227 563l-73 80q-12 12 -12 27t10.5 25.5t25.5 10.5q18 0 29 -14l66 -88q9 -10 9 -21q0 -13 -9 -22t-22 -9t-24 11z" />
    <glyph glyph-name="breve" unicode="&#x2d8;" horiz-adv-x="351" 
d="M105 617q-8 11 -8 22q0 14 10 24t24 10q16 0 26 -13q36 -44 99 -44q69 0 127 52q7 7 19 7t20.5 -8.5t8.5 -20.5q0 -11 -10 -21q-84 -71 -176 -71q-88 0 -140 63z" />
    <glyph glyph-name="dotaccent" unicode="&#x2d9;" horiz-adv-x="149" 
d="M99 615q0 26 20 46t46 20q23 0 38 -15t15 -38q0 -26 -20.5 -45.5t-46.5 -19.5q-23 0 -37.5 15t-14.5 37z" />
    <glyph glyph-name="ring" unicode="&#x2da;" horiz-adv-x="246" 
d="M220 741q41 0 67 -26t26 -67q0 -46 -33 -79t-79 -33q-41 0 -67 26t-26 67q0 45 33 78q34 34 79 34zM216 690q-23 0 -40 -17t-17 -39q0 -21 13 -34t33 -13q23 0 40 16.5t17 39.5q0 21 -12.5 34t-33.5 13z" />
    <glyph glyph-name="ogonek" unicode="&#x2db;" horiz-adv-x="207" 
d="M83 -178q-29 -8 -62 -8q-41 0 -66 16.5t-25 44.5q0 40 38.5 72.5t101.5 52.5q51 16 54 10q0 -2 -3 -4q-87 -59 -87 -96q0 -11 8 -18t21 -7h8q14 2 25 -8t11 -24q0 -24 -24 -31z" />
    <glyph glyph-name="tilde" unicode="&#x2dc;" horiz-adv-x="321" 
d="M180 632q-32 0 -47 -57q-5 -21 -27 -21q-14 0 -23 11.5t-5 24.5q30 104 110 104q24 0 38 -9.5t34 -34.5q24 -34 48 -34q30 0 47 57q5 21 27 21q15 0 23.5 -11.5t4.5 -25.5q-32 -103 -110 -103q-24 0 -38 9.5t-34 34.5q-24 34 -48 34z" />
    <glyph glyph-name="hungarumlaut" unicode="&#x2dd;" horiz-adv-x="324" 
d="M90 575q0 9 6 15l89 105q11 12 25 12q13 0 22 -9t9 -22t-10 -23l-98 -96q-7 -7 -18 -7t-18 7.5t-7 17.5zM236 575q0 9 6 15l89 105q11 12 25 12q13 0 22 -9t9 -22t-10 -23l-98 -96q-7 -7 -18 -7t-18 7.5t-7 17.5z" />
    <glyph glyph-name="gravecomb" unicode="&#x300;" horiz-adv-x="0" 
d="M-13 563l-73 80q-12 12 -12 27t10.5 25.5t25.5 10.5q18 0 29 -14l66 -88q9 -10 9 -21q0 -13 -9 -22t-22 -9t-24 11z" />
    <glyph glyph-name="acutecomb" unicode="&#x301;" horiz-adv-x="0" 
d="M-112 550q-10 0 -18 8t-8 18q0 15 10 22l116 98q11 8 23 8q13 0 21.5 -9.5t8.5 -22.5q0 -17 -13 -27l-123 -90q-8 -5 -17 -5z" />
    <glyph glyph-name="uni0302" unicode="&#x302;" horiz-adv-x="0" 
d="M-1 565l-51 87l-94 -94q-8 -8 -19 -8t-18 8t-7 18t6 17l69 79q25 28 55 28h35q34 0 42 -25l36 -82q3 -6 3 -13q0 -12 -9.5 -21t-21.5 -9q-18 0 -26 15z" />
    <glyph glyph-name="tildecomb" unicode="&#x303;" horiz-adv-x="0" 
d="M-141 632q-32 0 -47 -57q-5 -21 -27 -21q-14 0 -23 11.5t-5 24.5q30 104 110 104q24 0 38 -9.5t34 -34.5q24 -34 48 -34q30 0 47 57q5 21 27 21q15 0 23.5 -11.5t4.5 -25.5q-32 -103 -110 -103q-24 0 -38 9.5t-34 34.5q-24 34 -48 34z" />
    <glyph glyph-name="uni0304" unicode="&#x304;" horiz-adv-x="0" 
d="M-269 597q0 13 9 22t22 9h272q13 0 22 -9t9 -22t-9 -22t-22 -9h-272q-13 0 -22 9t-9 22z" />
    <glyph glyph-name="uni0306" unicode="&#x306;" horiz-adv-x="0" 
d="M-246 617q-8 11 -8 22q0 14 10 24t24 10q16 0 26 -13q36 -44 99 -44q69 0 127 52q7 7 19 7t20.5 -8.5t8.5 -20.5q0 -11 -10 -21q-84 -71 -176 -71q-88 0 -140 63z" />
    <glyph glyph-name="uni0307" unicode="&#x307;" horiz-adv-x="0" 
d="M-50 615q0 26 20 46t46 20q23 0 38 -15t15 -38q0 -26 -20.5 -45.5t-46.5 -19.5q-23 0 -37.5 15t-14.5 37z" />
    <glyph glyph-name="uni0308" unicode="&#x308;" horiz-adv-x="0" 
d="M-289 616q0 26 20 45.5t46 19.5q22 0 37 -14.5t15 -37.5q0 -26 -20 -45.5t-46 -19.5q-22 0 -37 15t-15 37zM-80 616q0 26 20 45.5t46 19.5q23 0 37.5 -14.5t14.5 -37.5q0 -26 -20 -45.5t-46 -19.5q-22 0 -37 15t-15 37z" />
    <glyph glyph-name="uni0309" unicode="&#x309;" horiz-adv-x="0" 
d="M12 577q0 7 4 12q11 24 11 42q0 15 -11.5 25.5t-27.5 10.5q-21 0 -41 -23q-7 -10 -20 -10q-11 0 -18 7.5t-7 17.5q0 9 6 16q33 41 86 41q38 0 64.5 -21.5t26.5 -57.5q0 -34 -25 -74q-8 -12 -22 -12q-11 0 -18.5 7.5t-7.5 18.5z" />
    <glyph glyph-name="uni030A" unicode="&#x30a;" horiz-adv-x="0" 
d="M-26 741q41 0 67 -26t26 -67q0 -46 -33 -79t-79 -33q-41 0 -67 26t-26 67q0 45 34 78q33 34 78 34zM-30 690q-23 0 -40 -17t-17 -39q0 -21 13 -34t33 -13q23 0 40 16.5t17 39.5q0 21 -12.5 34t-33.5 13z" />
    <glyph glyph-name="uni030B" unicode="&#x30b;" horiz-adv-x="0" 
d="M-234 575q0 9 6 15l89 105q10 12 25 12q13 0 22 -9t9 -22t-10 -23l-98 -96q-7 -7 -18 -7t-18 7.5t-7 17.5zM-88 575q0 9 6 15l89 105q11 12 25 12q13 0 22 -9t9 -22t-10 -23l-98 -96q-7 -7 -18 -7t-18 7.5t-7 17.5z" />
    <glyph glyph-name="uni030C" unicode="&#x30c;" horiz-adv-x="0" 
d="M-114 691l51 -87l94 94q8 8 19 8t18 -8t7 -18t-6 -17l-69 -79q-25 -28 -55 -28h-35q-34 0 -42 25l-36 82q-3 6 -3 13q0 12 9.5 21t21.5 9q18 0 26 -15z" />
    <glyph glyph-name="dotbelowcomb" unicode="&#x323;" horiz-adv-x="0" 
d="M-214 -125q0 26 20 46t46 20q22 0 37.5 -15.5t15.5 -37.5q0 -26 -20.5 -45.5t-46.5 -19.5q-23 0 -37.5 14.5t-14.5 37.5z" />
    <glyph glyph-name="uni0326" unicode="&#x326;" horiz-adv-x="0" 
d="M-255 -271q-9 0 -16 7t-7 14q0 13 10 19q44 25 59 62h-8q-18 0 -30.5 12.5t-12.5 33.5q0 24 19 42t43 18t39 -15.5t15 -42.5q0 -39 -27 -78.5t-68 -66.5q-8 -5 -16 -5z" />
    <glyph glyph-name="uni0327" unicode="&#x327;" horiz-adv-x="0" 
d="M-298 -145q0 10 7.5 18t18.5 8q7 0 15 -5q31 -22 69 -22q26 0 40.5 11t14.5 29q0 26 -33 26q-12 0 -24 -9q-8 -5 -17 -5q-10 0 -16 6t-6 14q0 13 4 18l40 67h55l-39 -64q16 11 32 11q26 0 42.5 -16.5t16.5 -44.5q0 -41 -31 -66t-80 -25q-54 0 -97 26q-12 9 -12 23z" />
    <glyph glyph-name="uni0328" unicode="&#x328;" horiz-adv-x="0" 
d="M-124 -178q-29 -8 -62 -8q-41 0 -66 16.5t-25 44.5q0 40 38.5 72.5t101.5 52.5q51 16 54 10q0 -2 -3 -4q-87 -59 -87 -96q0 -11 8 -18t21 -7h8q14 2 25 -8t11 -24q0 -24 -24 -31z" />
    <glyph glyph-name="uni037E" unicode="&#x37e;" horiz-adv-x="245" 
d="M167 490q27 0 45.5 -19t18.5 -45q0 -31 -22.5 -53.5t-54.5 -22.5q-26 0 -44.5 19t-18.5 46q0 31 22.5 53t53.5 22zM22 -124q-12 0 -20 8t-8 20q0 14 12 23q53 35 68 71h-10q-22 0 -37.5 15t-15.5 41q0 30 23 52.5t53 22.5q29 0 48 -19.5t19 -52.5q0 -47 -32.5 -95.5
t-84.5 -81.5q-4 -4 -15 -4z" />
    <glyph glyph-name="tonos" unicode="&#x384;" horiz-adv-x="134" 
d="M91 598l52 161q4 12 14.5 19.5t22.5 7.5q16 0 28 -11.5t12 -27.5q0 -11 -5 -19l-80 -148q-6 -13 -21 -13q-12 0 -19.5 9.5t-3.5 21.5z" />
    <glyph glyph-name="dieresistonos" unicode="&#x385;" horiz-adv-x="424" 
d="M252 598l52 161q4 12 14.5 19.5t22.5 7.5q16 0 28 -11.5t12 -27.5q0 -11 -5 -19l-80 -148q-6 -13 -21 -13q-12 0 -19.5 9.5t-3.5 21.5zM94 616q0 26 20 45.5t46 19.5q22 0 37 -15t15 -37q0 -25 -20 -45t-46 -20q-22 0 -37 15t-15 37zM380 616q0 26 20 45.5t46 19.5
q22 0 37 -15t15 -37q0 -25 -20 -45t-46 -20q-22 0 -37 15t-15 37z" />
    <glyph glyph-name="Alphatonos" unicode="&#x386;" horiz-adv-x="673" 
d="M607 54q0 -25 -17.5 -42.5t-42.5 -17.5q-22 0 -38.5 14t-20.5 36l-12 84h-320l-62 -106q-19 -28 -49 -28q-23 0 -40 17t-17 40q0 13 9 30l333 544q31 48 86 48q37 0 65 -24t34 -60l91 -525q1 -2 1 -10zM217 231h244l-49 333zM115 491l52 161q4 12 14.5 19.5t22.5 7.5
q16 0 28 -11.5t12 -27.5q0 -11 -5 -19l-80 -148q-6 -13 -21 -13q-12 0 -19.5 9.5t-3.5 21.5z" />
    <glyph glyph-name="Epsilontonos" unicode="&#x388;" horiz-adv-x="629" 
d="M82 50q0 2 2 18l120 544q12 55 68 55h343q21 0 36 -15t15 -37q0 -21 -15 -36t-36 -15h-305l-38 -173h275q21 0 36 -15t15 -37q0 -21 -15 -36t-36 -15h-298l-41 -185h282q21 0 36.5 -15t15.5 -36q0 -22 -15.5 -37t-36.5 -15h-351q-27 0 -42 13.5t-15 36.5zM35 491l52 161
q4 12 14.5 19.5t22.5 7.5q16 0 28 -11.5t12 -27.5q0 -11 -5 -19l-80 -148q-6 -13 -21 -13q-12 0 -19.5 9.5t-3.5 21.5z" />
    <glyph glyph-name="Etatonos" unicode="&#x389;" horiz-adv-x="775" 
d="M546 52q0 9 1 12l50 227h-347l-55 -252q-5 -19 -20.5 -32t-35.5 -13q-24 0 -40.5 17t-16.5 41q0 9 1 12l124 564q5 19 20.5 32t35.5 13q24 0 40.5 -17t16.5 -41q0 -9 -1 -12l-46 -209h347l51 234q5 19 20.5 32t35.5 13q24 0 40.5 -17t16.5 -41q0 -9 -1 -12l-124 -564
q-5 -19 -20.5 -32t-35.5 -13q-24 0 -40.5 17t-16.5 41zM35 491l52 161q4 12 14.5 19.5t22.5 7.5q16 0 28 -11.5t12 -27.5q0 -11 -5 -19l-80 -148q-6 -13 -21 -13q-12 0 -19.5 9.5t-3.5 21.5z" />
    <glyph glyph-name="Iotatonos" unicode="&#x38a;" horiz-adv-x="311" 
d="M82 52q0 9 1 12l124 564q5 19 20.5 32t35.5 13q24 0 40.5 -17t16.5 -41q0 -9 -1 -12l-124 -564q-5 -19 -20.5 -32t-35.5 -13q-24 0 -40.5 17t-16.5 41zM35 491l52 161q4 12 14.5 19.5t22.5 7.5q16 0 28 -11.5t12 -27.5q0 -11 -5 -19l-80 -148q-6 -13 -21 -13
q-12 0 -19.5 9.5t-3.5 21.5z" />
    <glyph glyph-name="Omicrontonos" unicode="&#x38c;" horiz-adv-x="798" 
d="M466 678q136 2 228 -81t91 -214q3 -162 -110.5 -280t-271.5 -115q-138 0 -228.5 81.5t-90.5 214.5q-2 106 49 197.5t140.5 145t192.5 51.5zM459 574q-103 2 -179 -82t-74 -201q0 -91 57.5 -145t146.5 -54q102 -2 178.5 82t74.5 201q0 90 -58 144.5t-146 54.5zM35 491
l52 161q4 12 14.5 19.5t22.5 7.5q16 0 28 -11.5t12 -27.5q0 -11 -5 -19l-80 -148q-6 -13 -21 -13q-12 0 -19.5 9.5t-3.5 21.5z" />
    <glyph glyph-name="Upsilontonos" unicode="&#x38e;" horiz-adv-x="709" 
d="M728 585l-272 -309l-52 -237q-5 -19 -20.5 -32t-35.5 -13q-24 0 -40.5 17t-16.5 41q0 9 1 12l47 214l-140 314q-5 15 -5 24q0 24 17 40.5t41 16.5q37 0 53 -35l109 -256l234 272q14 19 40 19q22 0 37.5 -15.5t15.5 -37.5q0 -19 -13 -35zM35 491l52 161q4 12 14.5 19.5
t22.5 7.5q16 0 28 -11.5t12 -27.5q0 -11 -5 -19l-80 -148q-6 -13 -21 -13q-12 0 -19.5 9.5t-3.5 21.5z" />
    <glyph glyph-name="Omegatonos" unicode="&#x38f;" horiz-adv-x="803" 
d="M706 52q0 -22 -15.5 -37t-36.5 -15h-155q-23 0 -40.5 17t-17.5 40q0 19 11 34t29 21q85 27 134 99q51 72 51 165q0 90 -54 143.5t-146 53.5q-108 2 -182 -83t-72 -198q0 -107 80 -168q27 -20 27 -55q0 -28 -20 -48.5t-49 -20.5h-149q-21 0 -36 15t-15 37q0 21 15 36
t36 15h108q-111 84 -111 223q-2 88 43.5 169t133.5 133t196 50q141 0 231 -77t90 -205q0 -103 -56 -179q-56 -73 -135 -114h53q21 0 36.5 -15t15.5 -36zM35 491l52 161q4 12 14.5 19.5t22.5 7.5q16 0 28 -11.5t12 -27.5q0 -11 -5 -19l-80 -148q-6 -13 -21 -13
q-12 0 -19.5 9.5t-3.5 21.5z" />
    <glyph glyph-name="iotadieresistonos" unicode="&#x390;" horiz-adv-x="253" 
d="M37 112l77 337q4 17 18 28.5t32 11.5q21 0 36 -15.5t15 -36.5q0 -8 -1 -11l-68 -295q-3 -11 -3 -20q0 -20 18 -26q8 -2 17 -9q18 -15 18 -39q0 -18 -12.5 -32.5t-29.5 -15.5q-5 -1 -21 -1q-101 0 -101 84q0 15 5 40zM185 618l52 161q4 12 14.5 19.5t22.5 7.5
q16 0 28 -11.5t12 -27.5q0 -11 -5 -19l-80 -148q-6 -13 -21 -13q-12 0 -19.5 9.5t-3.5 21.5zM27 636q0 26 20 45.5t46 19.5q22 0 37 -15t15 -37q0 -25 -20 -45t-46 -20q-22 0 -37 15t-15 37zM313 636q0 26 20 45.5t46 19.5q22 0 37 -15t15 -37q0 -25 -20 -45t-46 -20
q-22 0 -37 15t-15 37z" />
    <glyph glyph-name="Alpha" unicode="&#x391;" horiz-adv-x="673" 
d="M607 54q0 -25 -17.5 -42.5t-42.5 -17.5q-22 0 -38.5 14t-20.5 36l-12 84h-320l-62 -106q-19 -28 -49 -28q-23 0 -40 17t-17 40q0 13 9 30l333 544q31 48 86 48q37 0 65 -24t34 -60l91 -525q1 -2 1 -10zM217 231h244l-49 333z" />
    <glyph glyph-name="Beta" unicode="&#x392;" horiz-adv-x="648" 
d="M30 50q0 2 2 18l120 544q12 55 68 55h248q79 0 127.5 -45t48.5 -112t-45.5 -118.5t-107.5 -57.5q43 -12 70 -50.5t27 -85.5q0 -81 -60.5 -139.5t-170.5 -58.5h-270q-27 0 -42 13.5t-15 36.5zM437 564h-179l-38 -173h191q54 0 81 27.5t27 71.5q0 31 -24 52.5t-58 21.5z
M382 288h-185l-41 -185h195q54 0 86.5 30t32.5 75q0 36 -23.5 58t-64.5 22z" />
    <glyph glyph-name="Gamma" unicode="&#x393;" horiz-adv-x="552" 
d="M30 52q0 9 1 12l121 548q12 55 68 55h343q21 0 36 -15t15 -37q0 -21 -15 -36t-36 -15h-305l-115 -525q-5 -19 -20.5 -32t-35.5 -13q-24 0 -40.5 17t-16.5 41z" />
    <glyph glyph-name="uni0394" unicode="&#x394;" horiz-adv-x="673" 
d="M-19 39q0 17 12 36l337 550q31 48 86 48q37 0 65 -24t34 -60l90 -522q1 -4 1 -16q0 -51 -57 -51h-514q-54 0 -54 39zM409 549l-267 -446h338z" />
    <glyph glyph-name="Epsilon" unicode="&#x395;" horiz-adv-x="577" 
d="M30 50q0 2 2 18l120 544q12 55 68 55h343q21 0 36 -15t15 -37q0 -21 -15 -36t-36 -15h-305l-38 -173h275q21 0 36 -15t15 -37q0 -21 -15 -36t-36 -15h-298l-41 -185h282q21 0 36.5 -15t15.5 -36q0 -22 -15.5 -37t-36.5 -15h-351q-27 0 -42 13.5t-15 36.5z" />
    <glyph glyph-name="Zeta" unicode="&#x396;" horiz-adv-x="589" 
d="M-2 58q0 23 16 40l434 466h-275q-21 0 -36.5 15t-15.5 36q0 22 15.5 37t36.5 15h391q24 0 41 -17t17 -42q0 -24 -15 -40l-436 -465h284q21 0 36 -15t15 -37q0 -21 -15 -36t-36 -15h-398q-24 0 -41.5 17t-17.5 41z" />
    <glyph glyph-name="Eta" unicode="&#x397;" horiz-adv-x="723" 
d="M494 52q0 9 1 12l50 227h-347l-55 -252q-5 -19 -20.5 -32t-35.5 -13q-24 0 -40.5 17t-16.5 41q0 9 1 12l124 564q5 19 20.5 32t35.5 13q24 0 40.5 -17t16.5 -41q0 -9 -1 -12l-46 -209h347l51 234q5 19 20.5 32t35.5 13q24 0 40.5 -17t16.5 -41q0 -9 -1 -12l-124 -564
q-5 -19 -20.5 -32t-35.5 -13q-24 0 -40.5 17t-16.5 41z" />
    <glyph glyph-name="Theta" unicode="&#x398;" horiz-adv-x="765" 
d="M433 678q136 2 228 -81t91 -214q3 -162 -110.5 -280t-271.5 -115q-138 0 -228.5 81.5t-90.5 214.5q-2 106 49 197.5t140.5 145t192.5 51.5zM426 574q-103 2 -179 -82t-74 -201q0 -91 57.5 -145t146.5 -54q102 -2 178.5 82t74.5 201q0 90 -58 144.5t-146 54.5zM229 339
q0 22 15 37t36 15h239q21 0 36 -15t15 -36q0 -22 -15 -37t-36 -15h-239q-21 0 -36 15t-15 36z" />
    <glyph glyph-name="Iota" unicode="&#x399;" horiz-adv-x="259" 
d="M30 52q0 9 1 12l124 564q5 19 20.5 32t35.5 13q24 0 40.5 -17t16.5 -41q0 -9 -1 -12l-124 -564q-5 -19 -20.5 -32t-35.5 -13q-24 0 -40.5 17t-16.5 41z" />
    <glyph glyph-name="Kappa" unicode="&#x39a;" horiz-adv-x="621" 
d="M633 621q0 -24 -16 -37l-269 -232l182 -269q8 -13 8 -31q0 -24 -17 -41t-41 -17q-32 0 -50 29l-171 263l-78 -72l-38 -175q-5 -19 -20.5 -32t-35.5 -13q-24 0 -40.5 17t-16.5 41q0 9 1 12l124 564q5 19 20.5 32t35.5 13q24 0 40.5 -17t16.5 -41q0 -9 -1 -12l-54 -244
l333 300q14 14 36 14q21 0 36 -15t15 -37z" />
    <glyph glyph-name="Lambda" unicode="&#x39b;" horiz-adv-x="673" 
d="M483 47l-74 502l-309 -526q-15 -29 -51 -29q-24 0 -41.5 18t-17.5 42q0 16 8 30l332 541q31 48 86 48q37 0 65 -24t34 -60l91 -522q1 -2 1 -10q0 -26 -18.5 -44.5t-44.5 -18.5q-23 0 -40.5 15t-20.5 38z" />
    <glyph glyph-name="Mu" unicode="&#x39c;" horiz-adv-x="835" 
d="M606 52q0 9 1 12l101 461l-314 -515q-9 -16 -28 -16q-27 0 -32 27l-85 504l-106 -486q-5 -19 -20.5 -32t-35.5 -13q-24 0 -40.5 17t-16.5 40q0 9 1 12l118 535q7 32 33 53.5t60 21.5q35 0 62 -23t32 -57l66 -395l261 430q26 45 80 45q40 0 66 -27.5t26 -68.5
q0 -13 -1 -17l-115 -521q-5 -19 -20.5 -32t-35.5 -13q-24 0 -40.5 17t-16.5 41z" />
    <glyph glyph-name="Nu" unicode="&#x39d;" horiz-adv-x="720" 
d="M465 38l-218 476l-104 -475q-5 -19 -20.5 -32t-35.5 -13q-24 0 -40.5 17t-16.5 41q0 9 1 12l120 546q6 27 28 45t51 18q23 0 43 -13t30 -34l211 -460l102 462q5 19 20.5 32t35.5 13q24 0 40.5 -17t16.5 -41q0 -9 -1 -12l-121 -550q-5 -26 -26 -42.5t-48 -16.5
q-48 0 -68 44z" />
    <glyph glyph-name="Xi" unicode="&#x39e;" horiz-adv-x="621" 
d="M128 615q0 22 15.5 37t36.5 15h427q21 0 36.5 -15t15.5 -37q0 -21 -15.5 -36t-36.5 -15h-427q-21 0 -36.5 15t-15.5 36zM74 340q0 21 15 36t36 15h415q21 0 36 -15t15 -36q0 -22 -15 -37t-36 -15h-415q-21 0 -36 15t-15 37zM4 51q0 22 15.5 37t36.5 15h427q21 0 36.5 -15
t15.5 -37q0 -21 -15.5 -36t-36.5 -15h-427q-21 0 -36.5 15t-15.5 36z" />
    <glyph glyph-name="Omicron" unicode="&#x39f;" horiz-adv-x="765" 
d="M433 678q136 2 228 -81t91 -214q3 -162 -110.5 -280t-271.5 -115q-138 0 -228.5 81.5t-90.5 214.5q-2 106 49 197.5t140.5 145t192.5 51.5zM426 574q-103 2 -179 -82t-74 -201q0 -91 57.5 -145t146.5 -54q102 -2 178.5 82t74.5 201q0 90 -58 144.5t-146 54.5z" />
    <glyph glyph-name="Pi" unicode="&#x3a0;" horiz-adv-x="723" 
d="M494 52q0 9 1 12l110 500h-347l-115 -525q-5 -19 -20.5 -32t-35.5 -13q-24 0 -40.5 17t-16.5 41q0 9 1 12l121 548q12 55 68 55h455q27 0 42 -13.5t15 -36.5q0 -2 -2 -18l-123 -560q-5 -19 -20.5 -32t-35.5 -13q-24 0 -40.5 17t-16.5 41z" />
    <glyph glyph-name="Rho" unicode="&#x3a1;" horiz-adv-x="608" 
d="M30 52q0 9 1 12l121 548q12 55 68 55h212q92 0 145 -51t53 -129q0 -94 -68 -166t-199 -72h-174l-46 -210q-5 -19 -20.5 -32t-35.5 -13q-24 0 -40.5 17t-16.5 41zM508 476q0 37 -27 62.5t-68 25.5h-155l-47 -212h160q62 0 99.5 35t37.5 89z" />
    <glyph glyph-name="Sigma" unicode="&#x3a3;" horiz-adv-x="560" 
d="M172 103h254q21 0 36.5 -15t15.5 -36q0 -22 -15.5 -37t-36.5 -15h-342q-29 0 -49.5 20.5t-20.5 49.5q0 30 24 52l258 229l-150 204q-14 20 -14 42q0 29 21 49.5t50 20.5h348q21 0 36 -15t15 -37q0 -21 -15 -36t-36 -15h-280l131 -180q15 -20 15 -39q0 -26 -25 -48z" />
    <glyph glyph-name="Tau" unicode="&#x3a4;" horiz-adv-x="577" 
d="M189 52q0 9 1 12l110 500h-144q-21 0 -36 15t-15 37q0 21 15 36t36 15h428q21 0 36 -15t15 -36q0 -22 -15 -37t-36 -15h-167l-115 -525q-5 -19 -20.5 -32t-35.5 -13q-24 0 -40.5 17t-16.5 41z" />
    <glyph glyph-name="Upsilon" unicode="&#x3a5;" horiz-adv-x="637" 
d="M656 585l-272 -309l-52 -237q-5 -19 -20.5 -32t-35.5 -13q-24 0 -40.5 17t-16.5 41q0 9 1 12l47 214l-140 314q-5 15 -5 24q0 24 17 40.5t41 16.5q37 0 53 -35l109 -256l234 272q14 19 40 19q22 0 37.5 -15.5t15.5 -37.5q0 -19 -13 -35z" />
    <glyph glyph-name="Phi" unicode="&#x3a6;" horiz-adv-x="834" 
d="M436 65l-6 -27q-4 -19 -20 -31.5t-36 -12.5q-24 0 -40 17t-16 41q0 9 1 12l1 4q-264 29 -264 236q-3 120 108 205.5t277 91.5l6 28q4 19 20 31.5t36 12.5q24 0 40 -17t16 -41q0 -9 -1 -12l-1 -5q264 -29 264 -237q2 -119 -108.5 -204.5t-276.5 -91.5zM343 171l74 324
q-111 -11 -174.5 -62t-63.5 -129q0 -54 42 -88.5t122 -44.5zM698 361q0 54 -42 89t-122 45l-74 -324q111 11 174.5 62t63.5 128z" />
    <glyph glyph-name="Chi" unicode="&#x3a7;" horiz-adv-x="661" 
d="M672 582l-247 -247l152 -255q8 -14 8 -29q0 -23 -18 -40t-42 -17q-31 0 -51 31l-141 235l-250 -249q-17 -17 -39 -17t-38 16t-16 38t15 37l265 264l-141 238q-8 14 -8 29q0 23 18 40t42 17q32 0 52 -32l129 -218l230 232q18 18 40 18q23 0 38.5 -15.5t15.5 -38.5t-14 -37
z" />
    <glyph glyph-name="Psi" unicode="&#x3a8;" horiz-adv-x="836" 
d="M792 673q24 0 40.5 -17t16.5 -41q0 -10 -1 -13l-50 -223q-25 -106 -117 -175.5t-229 -78.5l-20 -87q-4 -19 -20 -31.5t-36 -12.5q-24 0 -40.5 17t-16.5 41q0 9 1 12l15 64q-233 26 -233 211q0 37 10 80l48 209q5 19 20.5 32t35.5 13q24 0 40.5 -16.5t16.5 -40.5
q0 -10 -1 -13l-45 -200q-6 -24 -6 -48q0 -50 35 -82t103 -41l90 397q4 19 20 31.5t36 12.5q24 0 40 -17t16 -41q0 -9 -1 -12l-84 -371q85 11 138.5 55.5t69.5 115.5l51 225q5 19 21 32t36 13z" />
    <glyph glyph-name="uni03A9" unicode="&#x3a9;" horiz-adv-x="765" 
d="M668 52q0 -22 -15.5 -37t-36.5 -15h-155q-23 0 -40.5 17t-17.5 40q0 19 11 34t29 21q85 27 134 99q51 72 51 165q0 90 -54 143.5t-146 53.5q-108 2 -182 -83t-72 -198q0 -107 80 -168q27 -20 27 -55q0 -28 -20 -48.5t-49 -20.5h-149q-21 0 -36 15t-15 37q0 21 15 36
t36 15h108q-111 84 -111 223q-2 88 43.5 169t133.5 133t196 50q141 0 231 -77t90 -205q0 -103 -56 -179q-56 -73 -135 -114h53q21 0 36.5 -15t15.5 -36z" />
    <glyph glyph-name="Iotadieresis" unicode="&#x3aa;" horiz-adv-x="259" 
d="M30 52q0 9 1 12l124 564q5 19 20.5 32t35.5 13q24 0 40.5 -17t16.5 -41q0 -9 -1 -12l-124 -564q-5 -19 -20.5 -32t-35.5 -13q-24 0 -40.5 17t-16.5 41zM90 783q0 26 20 45.5t46 19.5q22 0 37 -14.5t15 -37.5q0 -26 -20 -45.5t-46 -19.5q-22 0 -37 15t-15 37zM299 783
q0 26 20 45.5t46 19.5q23 0 37.5 -14.5t14.5 -37.5q0 -26 -20 -45.5t-46 -19.5q-22 0 -37 15t-15 37z" />
    <glyph glyph-name="Upsilondieresis" unicode="&#x3ab;" horiz-adv-x="637" 
d="M656 585l-272 -309l-52 -237q-5 -19 -20.5 -32t-35.5 -13q-24 0 -40.5 17t-16.5 41q0 9 1 12l47 214l-140 314q-5 15 -5 24q0 24 17 40.5t41 16.5q37 0 53 -35l109 -256l234 272q14 19 40 19q22 0 37.5 -15.5t15.5 -37.5q0 -19 -13 -35zM279 783q0 26 20 45.5t46 19.5
q22 0 37 -14.5t15 -37.5q0 -26 -20 -45.5t-46 -19.5q-22 0 -37 15t-15 37zM488 783q0 26 20 45.5t46 19.5q23 0 37.5 -14.5t14.5 -37.5q0 -26 -20 -45.5t-46 -19.5q-22 0 -37 15t-15 37z" />
    <glyph glyph-name="alphatonos" unicode="&#x3ac;" horiz-adv-x="595" 
d="M554 427l-66 -296q-3 -10 -3 -20q0 -20 18 -26q8 -2 17 -9q18 -15 18 -39q0 -18 -12.5 -32.5t-29.5 -15.5q-5 -1 -21 -1q-98 0 -98 87q-71 -87 -160 -87q-85 0 -135 53t-50 146q-1 77 29.5 147.5t90.5 116.5t134 44q51 0 93.5 -21.5t66.5 -59.5l8 35q4 17 17.5 28.5
t32.5 11.5q21 0 36 -15.5t15 -35.5q0 -8 -1 -11zM387 149l42 187q-18 30 -51.5 48t-75.5 18q-68 0 -114 -58t-46 -136q0 -58 33 -92.5t86 -34.5q35 0 69.5 19t56.5 49zM354 618l52 161q4 12 14.5 19.5t22.5 7.5q16 0 28 -11.5t12 -27.5q0 -11 -5 -19l-80 -148
q-6 -13 -21 -13q-12 0 -19.5 9.5t-3.5 21.5z" />
    <glyph glyph-name="epsilontonos" unicode="&#x3ad;" horiz-adv-x="484" 
d="M9 128q0 52 46.5 88.5t114.5 36.5q-42 10 -69.5 40t-27.5 70q0 47 40 88q40 43 162 43q110 0 187 -65q15 -13 15 -34q0 -19 -13 -32.5t-32 -13.5q-18 0 -31 13q-50 47 -129 47q-43 0 -69.5 -18t-26.5 -47q0 -57 97 -58h30q17 0 29.5 -12.5t12.5 -29.5t-12.5 -29.5
t-29.5 -12.5h-75q-105 0 -105 -59q0 -28 31 -49t77 -21q60 0 118 29q12 6 21 6q18 0 31 -13t13 -31q0 -26 -22 -38q-66 -38 -160 -38q-102 0 -162.5 41t-60.5 99zM327 618l52 161q4 12 14.5 19.5t22.5 7.5q16 0 28 -11.5t12 -27.5q0 -11 -5 -19l-80 -148q-6 -13 -21 -13
q-12 0 -19.5 9.5t-3.5 21.5z" />
    <glyph glyph-name="etatonos" unicode="&#x3ae;" 
d="M524 373q0 -12 -5 -40l-108 -483q-4 -17 -18 -28.5t-32 -11.5q-21 0 -36 15.5t-15 36.5q0 8 1 11l96 430q5 25 5 30q0 69 -90 69q-64 0 -129 -65l-66 -303q-4 -17 -18 -28.5t-32 -11.5q-21 0 -36.5 15.5t-15.5 35.5q0 8 1 11l87 393q4 17 18 28.5t32 11.5q21 0 36 -15.5
t15 -36.5q0 -8 -1 -11l-2 -9q81 78 165 78q68 0 108 -32.5t40 -89.5zM345 618l52 161q4 12 14.5 19.5t22.5 7.5q16 0 28 -11.5t12 -27.5q0 -11 -5 -19l-80 -148q-6 -13 -21 -13q-12 0 -19.5 9.5t-3.5 21.5z" />
    <glyph glyph-name="iotatonos" unicode="&#x3af;" horiz-adv-x="253" 
d="M37 112l77 337q4 17 18 28.5t32 11.5q21 0 36 -15.5t15 -36.5q0 -8 -1 -11l-68 -295q-3 -11 -3 -20q0 -20 18 -26q8 -2 17 -9q18 -15 18 -39q0 -18 -12.5 -32.5t-29.5 -15.5q-5 -1 -21 -1q-101 0 -101 84q0 15 5 40zM181 618l52 161q4 12 14.5 19.5t22.5 7.5
q16 0 28 -11.5t12 -27.5q0 -11 -5 -19l-80 -148q-6 -13 -21 -13q-12 0 -19.5 9.5t-3.5 21.5z" />
    <glyph glyph-name="upsilondieresistonos" unicode="&#x3b0;" horiz-adv-x="570" 
d="M66 231l50 218q4 17 18 28.5t32 11.5q21 0 36 -15.5t15 -36.5q0 -8 -1 -11l-48 -209q-5 -22 -5 -45q0 -91 95 -91q77 0 131 74t54 174q0 43 -14 91q-1 3 -1 14q0 24 15 38.5t36 14.5q39 0 50 -37q17 -56 17 -118q2 -142 -82.5 -244t-205.5 -100q-97 0 -148.5 46.5
t-51.5 128.5q0 34 8 68zM348 618l52 161q4 12 14.5 19.5t22.5 7.5q16 0 28 -11.5t12 -27.5q0 -11 -5 -19l-80 -148q-6 -13 -21 -13q-12 0 -19.5 9.5t-3.5 21.5zM190 636q0 26 20 45.5t46 19.5q22 0 37 -15t15 -37q0 -25 -20 -45t-46 -20q-22 0 -37 15t-15 37zM476 636
q0 26 20 45.5t46 19.5q22 0 37 -15t15 -37q0 -25 -20 -45t-46 -20q-22 0 -37 15t-15 37z" />
    <glyph glyph-name="alpha" unicode="&#x3b1;" horiz-adv-x="595" 
d="M554 427l-66 -296q-3 -10 -3 -20q0 -20 18 -26q8 -2 17 -9q18 -15 18 -39q0 -18 -12.5 -32.5t-29.5 -15.5q-5 -1 -21 -1q-98 0 -98 87q-71 -87 -160 -87q-85 0 -135 53t-50 146q-1 77 29.5 147.5t90.5 116.5t134 44q51 0 93.5 -21.5t66.5 -59.5l8 35q4 17 17.5 28.5
t32.5 11.5q21 0 36 -15.5t15 -35.5q0 -8 -1 -11zM387 149l42 187q-18 30 -51.5 48t-75.5 18q-68 0 -114 -58t-46 -136q0 -58 33 -92.5t86 -34.5q35 0 69.5 19t56.5 49z" />
    <glyph glyph-name="beta" unicode="&#x3b2;" horiz-adv-x="581" 
d="M134 65l-49 -215q-4 -17 -18 -28.5t-32 -11.5q-21 0 -36 15.5t-15 36.5q0 8 1 11l131 578q25 111 103.5 168.5t174.5 57.5q93 0 145 -40.5t52 -112.5q0 -70 -54.5 -119.5t-124.5 -60.5q53 -9 86.5 -44t33.5 -95q2 -90 -72 -154.5t-166 -62.5q-109 0 -160 77zM426 209
q0 39 -28 61.5t-73 22.5q-20 0 -31.5 12.5t-11.5 31.5q0 22 14 35.5t35 13.5q64 0 105 32t41 85q0 37 -26.5 58.5t-72.5 21.5q-55 0 -99 -35.5t-58 -96.5l-70 -307q34 -63 122 -63q68 0 110.5 36.5t42.5 91.5z" />
    <glyph glyph-name="gamma" unicode="&#x3b3;" horiz-adv-x="503" 
d="M521 438q0 -8 -3 -15q-35 -107 -108 -221q-73 -112 -159 -197l-35 -155q-4 -17 -18 -28.5t-32 -11.5q-21 0 -36 15.5t-15 36.5q0 8 1 11l14 62q20 88 20 178q0 166 -64 302q-5 12 -5 20q0 21 16 37.5t37 16.5q32 0 46 -28q31 -58 47 -134q18 -77 18 -147q0 -29 -3 -56
q56 60 105 150q50 91 75 178q12 37 48 37q21 0 36 -16t15 -35z" />
    <glyph glyph-name="delta" unicode="&#x3b4;" horiz-adv-x="573" 
d="M539 257q2 -104 -80 -187.5t-199 -81.5q-114 0 -172 57t-58 145q0 76 50 141q51 66 129 97q-50 35 -50 93q0 64 62.5 111t154.5 47q88 0 147 -39q21 -14 21 -38q0 -19 -13.5 -32t-32.5 -13q-14 0 -25 8q-43 30 -106 30q-44 0 -74 -19.5t-30 -46.5q0 -19 19 -31.5
t69 -32.5q64 -26 94 -44q94 -52 94 -164zM435 247q0 39 -19 64q-17 24 -42 39t-77 36q-73 -24 -114.5 -73.5t-41.5 -109.5q0 -54 33.5 -88t94.5 -34q69 0 117.5 50t48.5 116z" />
    <glyph glyph-name="epsilon" unicode="&#x3b5;" horiz-adv-x="484" 
d="M9 128q0 52 46.5 88.5t114.5 36.5q-42 10 -69.5 40t-27.5 70q0 47 40 88q40 43 162 43q110 0 187 -65q15 -13 15 -34q0 -19 -13 -32.5t-32 -13.5q-18 0 -31 13q-50 47 -129 47q-43 0 -69.5 -18t-26.5 -47q0 -57 97 -58h30q17 0 29.5 -12.5t12.5 -29.5t-12.5 -29.5
t-29.5 -12.5h-75q-105 0 -105 -59q0 -28 31 -49t77 -21q60 0 118 29q12 6 21 6q18 0 31 -13t13 -31q0 -26 -22 -38q-66 -38 -160 -38q-102 0 -162.5 41t-60.5 99z" />
    <glyph glyph-name="zeta" unicode="&#x3b6;" horiz-adv-x="487" 
d="M26 167q0 117 96 222q98 107 264 186h-203q-19 0 -32.5 13.5t-13.5 32.5t13.5 32.5t32.5 13.5h309q19 0 32.5 -13.5t13.5 -32.5q0 -29 -26 -42q-169 -84 -272 -185q-102 -100 -102 -205q0 -96 145 -96q63 0 91.5 -18t28.5 -56q0 -56 -74 -162q-13 -20 -37 -20
q-19 0 -32.5 13t-13.5 33q0 12 8 26q33 49 33 70t-38 21q-106 0 -164.5 43t-58.5 124z" />
    <glyph glyph-name="eta" unicode="&#x3b7;" 
d="M524 373q0 -12 -5 -40l-108 -483q-4 -17 -18 -28.5t-32 -11.5q-21 0 -36 15.5t-15 36.5q0 8 1 11l96 430q5 25 5 30q0 69 -90 69q-64 0 -129 -65l-66 -303q-4 -17 -18 -28.5t-32 -11.5q-21 0 -36.5 15.5t-15.5 35.5q0 8 1 11l87 393q4 17 18 28.5t32 11.5q21 0 36 -15.5
t15 -36.5q0 -8 -1 -11l-2 -9q81 78 165 78q68 0 108 -32.5t40 -89.5z" />
    <glyph glyph-name="theta" unicode="&#x3b8;" horiz-adv-x="573" 
d="M572 413q2 -105 -37 -203.5t-111.5 -161.5t-159.5 -60q-102 0 -160 70t-58 195q-2 104 37.5 202.5t112.5 161.5t160 61q102 0 159 -70t57 -195zM174 381h288q3 25 3 48q0 73 -29.5 114.5t-87.5 41.5q-56 0 -103 -59q-45 -57 -71 -145zM444 289h-289q-3 -27 -3 -52
q0 -73 29.5 -114.5t88.5 -41.5q58 0 103 60q45 58 71 148z" />
    <glyph glyph-name="iota" unicode="&#x3b9;" horiz-adv-x="253" 
d="M37 112l77 337q4 17 18 28.5t32 11.5q21 0 36 -15.5t15 -36.5q0 -8 -1 -11l-68 -295q-3 -11 -3 -20q0 -20 18 -26q8 -2 17 -9q18 -15 18 -39q0 -18 -12.5 -32.5t-29.5 -15.5q-5 -1 -21 -1q-101 0 -101 84q0 15 5 40z" />
    <glyph glyph-name="kappa" unicode="&#x3ba;" horiz-adv-x="526" 
d="M522 444q0 -21 -15 -33l-187 -147l124 -188q9 -13 9 -28q0 -22 -17.5 -38t-40.5 -16q-29 0 -48 30l-113 179l-87 -73l-21 -96q-4 -17 -17.5 -28.5t-32.5 -11.5q-21 0 -36 15t-15 36q0 8 1 11l87 393q4 17 18 28.5t32 11.5q21 0 36 -15.5t15 -36.5q0 -8 -1 -11l-38 -171
l273 223q14 11 29 11q19 0 32 -13t13 -32z" />
    <glyph glyph-name="lambda" unicode="&#x3bb;" horiz-adv-x="503" 
d="M347 569l94 -512q1 -2 1 -9q0 -22 -16 -38t-38 -16q-20 0 -34.5 13t-17.5 32l-54 323l-211 -345q-12 -23 -42 -23q-21 0 -35 15t-14 34q0 12 8 26l265 418l-11 55q-7 37 -43 42l-17 1q-19 0 -31.5 13.5t-12.5 32.5q0 17 11.5 29.5t28.5 15.5q14 2 28 2q62 -2 96 -27.5
t45 -81.5z" />
    <glyph glyph-name="uni03BC" unicode="&#x3bc;" horiz-adv-x="579" 
d="M33 -190q-21 0 -36 15.5t-15 36.5q0 8 1 11l130 576q4 17 18 28.5t32 11.5q21 0 36 -15.5t15 -36.5q0 -8 -1 -11l-55 -246q-4 -13 -4 -30q0 -34 21.5 -52t57.5 -18t73 18t64 46l67 305q4 17 18 28.5t32 11.5q22 0 36.5 -15t14.5 -36q0 -8 -1 -11l-65 -296q-3 -10 -3 -20
q0 -20 18 -26q8 -2 17 -9q18 -15 18 -39q0 -18 -12.5 -32.5t-29.5 -15.5q-5 -1 -21 -1q-97 0 -99 86q-34 -39 -77.5 -62.5t-85.5 -23.5q-58 0 -75 36l-39 -174q-4 -17 -18 -28.5t-32 -11.5z" />
    <glyph glyph-name="nu" unicode="&#x3bd;" horiz-adv-x="503" 
d="M130 62l-65 363q-1 2 -1 10q0 23 15.5 38.5t38.5 15.5q21 0 36 -13t18 -33l54 -338q67 73 119 165t77 182q11 37 48 37q21 0 36 -16t15 -35q0 -8 -3 -15q-33 -101 -98.5 -207t-148.5 -195q-24 -27 -60 -27q-30 0 -53 19t-28 49z" />
    <glyph glyph-name="xi" unicode="&#x3be;" horiz-adv-x="487" 
d="M532 621q0 -19 -13.5 -32.5t-32.5 -13.5h-159q-49 -12 -83 -45q-35 -33 -35 -70q0 -35 31 -55t84 -20h94q18 0 31.5 -13t13.5 -32t-13.5 -32t-31.5 -13h-111q-79 0 -126.5 -33t-47.5 -93q0 -76 150 -76q63 0 91.5 -18t28.5 -56q0 -59 -74 -163q-14 -19 -37 -19
q-19 0 -32.5 13t-13.5 32q0 11 8 25q33 53 33 72q0 21 -34 21q-235 0 -235 144q0 73 49 119t119 61q-41 7 -67 34t-26 71t39 86t94 60h-40q-19 0 -32.5 13.5t-13.5 32.5t13.5 32.5t32.5 13.5h300q19 0 32.5 -13.5t13.5 -32.5z" />
    <glyph glyph-name="omicron" unicode="&#x3bf;" horiz-adv-x="573" 
d="M307 495q107 0 169.5 -60t62.5 -158q2 -114 -79.5 -203t-195.5 -86q-107 0 -169.5 60t-62.5 157q-2 114 79.5 203.5t195.5 86.5zM304 402q-68 0 -115.5 -58t-47.5 -134q0 -60 33.5 -94.5t92.5 -34.5q68 0 115.5 57.5t47.5 134.5q0 60 -33.5 94.5t-92.5 34.5z" />
    <glyph glyph-name="pi" unicode="&#x3c0;" horiz-adv-x="610" 
d="M651 437q0 -19 -13.5 -32.5t-32.5 -13.5h-49l-81 -357q-4 -17 -18 -28.5t-32 -11.5q-21 0 -36 15.5t-15 36.5q0 8 1 11l76 334h-222l-81 -357q-4 -17 -18 -28.5t-32 -11.5q-21 0 -36 15.5t-15 36.5q0 8 1 11l76 334h-28q-19 0 -32.5 13.5t-13.5 32.5t13.5 32.5t32.5 13.5
h509q19 0 32.5 -13.5t13.5 -32.5z" />
    <glyph glyph-name="rho" unicode="&#x3c1;" horiz-adv-x="578" 
d="M134 69l-49 -219q-4 -17 -18 -28.5t-32 -11.5q-21 0 -36 15.5t-15 36.5q0 8 1 11l83 369q26 116 98 184q74 69 180 69q94 0 148 -57.5t54 -152.5q1 -72 -30 -140.5t-91 -113.5t-133 -43q-51 0 -93.5 21.5t-66.5 59.5zM331 402q-58 0 -99.5 -43.5t-59.5 -116.5l-21 -96
q18 -30 51.5 -47.5t75.5 -17.5q68 0 114 57.5t46 135.5q0 56 -28.5 92t-78.5 36z" />
    <glyph glyph-name="uni03C2" unicode="&#x3c2;" horiz-adv-x="488" 
d="M310 495q98 0 156 -52q17 -15 17 -38q0 -20 -15 -34.5t-35 -14.5t-34 13q-36 33 -88 33q-74 0 -122.5 -56.5t-48.5 -135.5q0 -61 39 -89t121 -28q107 0 107 -77q0 -54 -74 -160q-13 -19 -37 -19q-19 0 -32 13t-13 32q0 11 8 25q35 52 35 71q0 22 -39 22
q-97 0 -159.5 54.5t-62.5 151.5q-2 117 80.5 204t196.5 85z" />
    <glyph glyph-name="sigma" unicode="&#x3c3;" horiz-adv-x="573" 
d="M33 205q-2 113 88.5 196.5t220.5 81.5h213q19 0 32.5 -14t13.5 -33t-13.5 -32.5t-32.5 -13.5h-70q45 -45 45 -122q2 -110 -76 -196t-190 -84q-107 0 -169 60t-62 157zM378 390h-48q-83 0 -135.5 -53.5t-52.5 -126.5q0 -60 33 -94.5t92 -34.5q68 0 115.5 56.5t47.5 128.5
q0 91 -52 124z" />
    <glyph glyph-name="tau" unicode="&#x3c4;" horiz-adv-x="476" 
d="M503 437q0 -19 -13.5 -32.5t-32.5 -13.5h-133l-54 -249q-3 -11 -3 -20q0 -41 49 -41h4q18 2 32 -11.5t14 -32.5q0 -29 -29 -41q-26 -8 -51 -8q-130 0 -130 99q0 14 3 29l60 275h-109q-19 0 -32.5 13.5t-13.5 32.5t13.5 32.5t32.5 13.5h347q19 0 32.5 -13.5t13.5 -32.5z
" />
    <glyph glyph-name="upsilon" unicode="&#x3c5;" horiz-adv-x="570" 
d="M66 231l50 218q4 17 18 28.5t32 11.5q21 0 36 -15.5t15 -36.5q0 -8 -1 -11l-48 -209q-5 -22 -5 -45q0 -91 95 -91q77 0 131 74t54 174q0 43 -14 91q-1 3 -1 14q0 24 15 38.5t36 14.5q39 0 50 -37q17 -56 17 -118q2 -142 -82.5 -244t-205.5 -100q-97 0 -148.5 46.5
t-51.5 128.5q0 34 8 68z" />
    <glyph glyph-name="phi" unicode="&#x3c6;" horiz-adv-x="685" 
d="M340 -12l-30 -138q-4 -17 -18 -28.5t-32 -11.5q-22 0 -36.5 15t-14.5 36q0 8 1 11l27 122q-83 9 -144 70t-61 147q0 91 45 161t134 108q7 4 18 4q19 0 33 -13.5t14 -33.5q0 -29 -26 -42q-107 -52 -107 -179q0 -55 33.5 -90t80.5 -39l80 365q8 43 63 43q110 0 181.5 -64.5
t71.5 -158.5q0 -120 -79 -202t-234 -82zM542 267q0 54 -33.5 89t-80.5 39l-68 -314q85 0 133.5 51t48.5 135z" />
    <glyph glyph-name="chi" unicode="&#x3c7;" horiz-adv-x="496" 
d="M516 436q0 -18 -13 -34l-214 -253l108 -270q4 -8 4 -20q0 -20 -17 -34.5t-39 -14.5q-38 0 -52 39l-82 214l-193 -234q-16 -19 -38 -19q-21 0 -36 16t-15 38q0 17 12 32l229 273l-101 251q-4 7 -4 18q0 21 17.5 36t38.5 15q38 0 52 -39l76 -196l177 215q17 20 39 20
q20 0 35.5 -16t15.5 -37z" />
    <glyph glyph-name="psi" unicode="&#x3c8;" horiz-adv-x="713" 
d="M636 489q21 0 36 -15t15 -36q0 -8 -1 -11l-46 -210q-49 -229 -284 -229l-30 -138q-4 -17 -18 -28.5t-32 -11.5q-22 0 -36.5 15t-14.5 36q0 8 1 11l27 122q-81 12 -136 61t-55 124q0 26 11 81l41 189q4 17 18 28.5t33 11.5q21 0 36 -15t15 -36q0 -8 -1 -11l-39 -182
q-8 -40 -8 -58q0 -39 27.5 -65.5t77.5 -34.5l119 546q4 17 17.5 28.5t32.5 11.5q21 0 36 -15t15 -36q0 -8 -1 -11l-116 -530q131 0 163 151l47 216q4 18 17.5 29.5t32.5 11.5z" />
    <glyph glyph-name="omega" unicode="&#x3c9;" horiz-adv-x="772" 
d="M368 129q-62 -141 -178 -141q-73 0 -116 55q-42 55 -42 141q0 74 39 155q41 81 108 141q13 11 32 11q20 0 34 -14t14 -34q0 -16 -14 -33q-50 -51 -78.5 -111t-28.5 -115q0 -45 20 -74t55 -29q42 0 73.5 43.5t47.5 117.5l19 88q4 17 18 28.5t32 11.5q22 0 37 -15t15 -36
q0 -8 -1 -11l-15 -66q-9 -36 -9 -68q0 -93 75 -93q54 -3 92.5 68t37.5 150q0 64 -24 121q-3 9 -3 20q0 21 14.5 36t36.5 15q32 0 46 -29q33 -70 33 -162q1 -75 -31.5 -148.5t-87.5 -119.5t-115 -44q-66 0 -96 35t-40 106z" />
    <glyph glyph-name="iotadieresis" unicode="&#x3ca;" horiz-adv-x="253" 
d="M37 112l77 337q4 17 18 28.5t32 11.5q21 0 36 -15.5t15 -36.5q0 -8 -1 -11l-68 -295q-3 -11 -3 -20q0 -20 18 -26q8 -2 17 -9q18 -15 18 -39q0 -18 -12.5 -32.5t-29.5 -15.5q-5 -1 -21 -1q-101 0 -101 84q0 15 5 40zM49 636q0 26 20 45.5t46 19.5q22 0 37 -14.5t15 -37.5
q0 -26 -20 -45.5t-46 -19.5q-22 0 -37 15t-15 37zM258 636q0 26 20 45.5t46 19.5q23 0 37.5 -14.5t14.5 -37.5q0 -26 -20 -45.5t-46 -19.5q-22 0 -37 15t-15 37z" />
    <glyph glyph-name="upsilondieresis" unicode="&#x3cb;" horiz-adv-x="570" 
d="M66 231l50 218q4 17 18 28.5t32 11.5q21 0 36 -15.5t15 -36.5q0 -8 -1 -11l-48 -209q-5 -22 -5 -45q0 -91 95 -91q77 0 131 74t54 174q0 43 -14 91q-1 3 -1 14q0 24 15 38.5t36 14.5q39 0 50 -37q17 -56 17 -118q2 -142 -82.5 -244t-205.5 -100q-97 0 -148.5 46.5
t-51.5 128.5q0 34 8 68zM212 636q0 26 20 45.5t46 19.5q22 0 37 -14.5t15 -37.5q0 -26 -20 -45.5t-46 -19.5q-22 0 -37 15t-15 37zM421 636q0 26 20 45.5t46 19.5q23 0 37.5 -14.5t14.5 -37.5q0 -26 -20 -45.5t-46 -19.5q-22 0 -37 15t-15 37z" />
    <glyph glyph-name="omicrontonos" unicode="&#x3cc;" horiz-adv-x="573" 
d="M307 495q107 0 169.5 -60t62.5 -158q2 -114 -79.5 -203t-195.5 -86q-107 0 -169.5 60t-62.5 157q-2 114 79.5 203.5t195.5 86.5zM304 402q-68 0 -115.5 -58t-47.5 -134q0 -60 33.5 -94.5t92.5 -34.5q68 0 115.5 57.5t47.5 134.5q0 60 -33.5 94.5t-92.5 34.5zM346 618
l52 161q4 12 14.5 19.5t22.5 7.5q16 0 28 -11.5t12 -27.5q0 -11 -5 -19l-80 -148q-6 -13 -21 -13q-12 0 -19.5 9.5t-3.5 21.5z" />
    <glyph glyph-name="upsilontonos" unicode="&#x3cd;" horiz-adv-x="570" 
d="M66 231l50 218q4 17 18 28.5t32 11.5q21 0 36 -15.5t15 -36.5q0 -8 -1 -11l-48 -209q-5 -22 -5 -45q0 -91 95 -91q77 0 131 74t54 174q0 43 -14 91q-1 3 -1 14q0 24 15 38.5t36 14.5q39 0 50 -37q17 -56 17 -118q2 -142 -82.5 -244t-205.5 -100q-97 0 -148.5 46.5
t-51.5 128.5q0 34 8 68zM344 618l52 161q4 12 14.5 19.5t22.5 7.5q16 0 28 -11.5t12 -27.5q0 -11 -5 -19l-80 -148q-6 -13 -21 -13q-12 0 -19.5 9.5t-3.5 21.5z" />
    <glyph glyph-name="omegatonos" unicode="&#x3ce;" horiz-adv-x="772" 
d="M368 129q-62 -141 -178 -141q-73 0 -116 55q-42 55 -42 141q0 74 39 155q41 81 108 141q13 11 32 11q20 0 34 -14t14 -34q0 -16 -14 -33q-50 -51 -78.5 -111t-28.5 -115q0 -45 20 -74t55 -29q42 0 73.5 43.5t47.5 117.5l19 88q4 17 18 28.5t32 11.5q22 0 37 -15t15 -36
q0 -8 -1 -11l-15 -66q-9 -36 -9 -68q0 -93 75 -93q54 -3 92.5 68t37.5 150q0 64 -24 121q-3 9 -3 20q0 21 14.5 36t36.5 15q32 0 46 -29q33 -70 33 -162q1 -75 -31.5 -148.5t-87.5 -119.5t-115 -44q-66 0 -96 35t-40 106zM437 618l52 161q4 12 14.5 19.5t22.5 7.5
q16 0 28 -11.5t12 -27.5q0 -11 -5 -19l-80 -148q-6 -13 -21 -13q-12 0 -19.5 9.5t-3.5 21.5z" />
    <glyph glyph-name="uni0401" unicode="&#x401;" horiz-adv-x="577" 
d="M30 50q0 2 2 18l120 544q12 55 68 55h343q21 0 36 -15t15 -37q0 -21 -15 -36t-36 -15h-305l-38 -173h275q21 0 36 -15t15 -37q0 -21 -15 -36t-36 -15h-298l-41 -185h282q21 0 36.5 -15t15.5 -36q0 -22 -15.5 -37t-36.5 -15h-351q-27 0 -42 13.5t-15 36.5zM266 783
q0 26 20 45.5t46 19.5q22 0 37 -14.5t15 -37.5q0 -26 -20 -45.5t-46 -19.5q-22 0 -37 15t-15 37zM475 783q0 26 20 45.5t46 19.5q23 0 37.5 -14.5t14.5 -37.5q0 -26 -20 -45.5t-46 -19.5q-22 0 -37 15t-15 37z" />
    <glyph glyph-name="uni0402" unicode="&#x402;" horiz-adv-x="764" 
d="M455 42q0 19 12.5 33.5t31.5 16.5q90 12 110 102l2 10q3 15 3 29q0 44 -33 69t-96 25q-57 0 -126 -25l-57 -263q-5 -19 -20.5 -32t-35.5 -13q-24 0 -40.5 17t-16.5 40q0 9 1 12l110 501h-144q-21 0 -36.5 15t-15.5 36q0 22 15.5 37t36.5 15h427q21 0 36.5 -15t15.5 -37
q0 -21 -15.5 -36t-36.5 -15h-166l-38 -169q68 35 144 35q102 0 156.5 -48t54.5 -127q0 -25 -6 -51l-2 -10q-20 -89 -81 -143q-31 -27 -72 -44q-42 -17 -69 -17q-20 0 -34.5 15t-14.5 37z" />
    <glyph glyph-name="uni0403" unicode="&#x403;" horiz-adv-x="552" 
d="M30 52q0 9 1 12l121 548q12 55 68 55h343q21 0 36 -15t15 -37q0 -21 -15 -36t-36 -15h-305l-115 -525q-5 -19 -20.5 -32t-35.5 -13q-24 0 -40.5 17t-16.5 41zM431 717q-13 0 -22 9t-9 22q0 14 11 23l112 94q11 8 23 8q14 0 24.5 -10.5t10.5 -24.5q0 -18 -14 -29l-118 -86
q-11 -6 -18 -6z" />
    <glyph glyph-name="uni0404" unicode="&#x404;" horiz-adv-x="682" 
d="M694 529q0 -24 -17 -41.5t-41 -17.5q-30 0 -48 25q-54 79 -161 79q-78 0 -145 -50q-64 -49 -93 -133h296q21 0 36 -15t15 -36q0 -22 -15 -37t-36 -15h-312q0 -86 56.5 -141t147.5 -55q76 0 141 53q14 13 34 13q23 0 38.5 -15.5t15.5 -38.5q0 -24 -21 -42
q-91 -74 -215 -74q-136 -2 -228.5 82t-90.5 214q-2 111 51.5 203.5t142 142.5t188.5 48q162 0 250 -114q11 -16 11 -35z" />
    <glyph glyph-name="uni0405" unicode="&#x405;" horiz-adv-x="594" 
d="M21 116q0 23 17 40t40 17q20 0 37 -14q79 -67 189 -67q57 0 88.5 27.5t31.5 68.5q0 30 -28 49.5t-100 46.5q-59 22 -103 44q-96 52 -96 142q0 84 70.5 145.5t179.5 61.5q127 0 216 -69q22 -19 22 -45q0 -23 -16.5 -39.5t-39.5 -16.5q-20 0 -35 12q-72 55 -163 55
q-45 0 -77.5 -25.5t-32.5 -59.5q0 -28 27.5 -46t98.5 -45q64 -24 103 -45q99 -50 99 -144q0 -92 -70 -156.5t-185 -64.5q-150 0 -252 84q-21 18 -21 44z" />
    <glyph glyph-name="uni0406" unicode="&#x406;" horiz-adv-x="259" 
d="M30 52q0 9 1 12l124 564q5 19 20.5 32t35.5 13q24 0 40.5 -17t16.5 -41q0 -9 -1 -12l-124 -564q-5 -19 -20.5 -32t-35.5 -13q-24 0 -40.5 17t-16.5 41z" />
    <glyph glyph-name="uni0407" unicode="&#x407;" horiz-adv-x="259" 
d="M30 52q0 9 1 12l124 564q5 19 20.5 32t35.5 13q24 0 40.5 -17t16.5 -41q0 -9 -1 -12l-124 -564q-5 -19 -20.5 -32t-35.5 -13q-24 0 -40.5 17t-16.5 41zM90 783q0 26 20 45.5t46 19.5q22 0 37 -14.5t15 -37.5q0 -26 -20 -45.5t-46 -19.5q-22 0 -37 15t-15 37zM299 783
q0 26 20 45.5t46 19.5q23 0 37.5 -14.5t14.5 -37.5q0 -26 -20 -45.5t-46 -19.5q-22 0 -37 15t-15 37z" />
    <glyph glyph-name="uni0408" unicode="&#x408;" horiz-adv-x="481" 
d="M-14 76q0 22 15.5 37.5t37.5 15.5q18 0 31 -10q38 -27 84 -27q53 0 86.5 31.5t45.5 89.5l91 415q5 19 20.5 32t35.5 13q24 0 40.5 -17t16.5 -41q0 -9 -1 -12l-86 -392q-48 -223 -241 -223q-90 0 -154 46q-22 16 -22 42z" />
    <glyph glyph-name="uni0409" unicode="&#x409;" horiz-adv-x="1072" 
d="M772 0h-221q-27 0 -42 13.5t-15 36.5q0 2 2 18l109 496h-237l-33 -111q-48 -161 -95 -260t-91.5 -143.5t-98.5 -60.5q-10 -2 -16 -2q-23 0 -39 16.5t-16 39.5q0 42 43 54q55 13 102 91t103 266l48 161q15 52 70 52h329q57 0 57 -50l-2 -18l-40 -181h152q92 0 145 -51
t53 -129q0 -94 -68 -166t-199 -72zM667 315l-47 -212h157q64 0 102 35t38 89q0 37 -27 62.5t-68 25.5h-155z" />
    <glyph glyph-name="uni040A" unicode="&#x40a;" horiz-adv-x="1072" 
d="M494 50q0 2 2 18l48 223h-347l-55 -252q-4 -19 -19.5 -32t-35.5 -13q-24 0 -40.5 17t-16.5 40q0 9 1 12l123 565q5 19 20.5 32t35.5 13q24 0 40.5 -17t16.5 -40q0 -9 -1 -12l-46 -210h347l51 234q5 19 20.5 32t35.5 13q24 0 40.5 -17t16.5 -41q0 -9 -1 -12l-46 -209h165
q86 0 136.5 -48.5t50.5 -121.5q0 -40 -14.5 -78.5t-43.5 -72t-79.5 -54t-114.5 -19.5h-233q-27 0 -42 13.5t-15 36.5zM661 291l-41 -188h172q56 0 90 31t34 79q0 33 -24 55.5t-62 22.5h-169z" />
    <glyph glyph-name="uni040B" unicode="&#x40b;" horiz-adv-x="790" 
d="M613 231q0 96 -128 96q-57 0 -126 -25l-57 -263q-5 -19 -20.5 -32t-35.5 -13q-24 0 -40.5 17t-16.5 40q0 9 1 12l110 501h-144q-21 0 -36.5 15t-15.5 36q0 22 15.5 37t36.5 15h427q21 0 36.5 -15t15.5 -37q0 -21 -15.5 -36t-36.5 -15h-166l-38 -169q68 35 144 35
q100 0 155 -44t55 -129q0 -25 -8 -68l-33 -150q-4 -19 -19.5 -32t-35.5 -13q-24 0 -40.5 17t-16.5 40q0 9 1 12l27 126q5 28 5 42z" />
    <glyph glyph-name="uni040C" unicode="&#x40c;" horiz-adv-x="621" 
d="M633 621q0 -24 -16 -37l-269 -232l182 -269q8 -13 8 -31q0 -24 -17 -41t-41 -17q-32 0 -50 29l-171 263l-78 -72l-38 -175q-5 -19 -20.5 -32t-35.5 -13q-24 0 -40.5 17t-16.5 41q0 9 1 12l124 564q5 19 20.5 32t35.5 13q24 0 40.5 -17t16.5 -41q0 -9 -1 -12l-54 -244
l333 300q14 14 36 14q21 0 36 -15t15 -37zM446 717q-13 0 -22 9t-9 22q0 14 11 23l112 94q11 8 23 8q14 0 24.5 -10.5t10.5 -24.5q0 -18 -14 -29l-118 -86q-10 -6 -18 -6z" />
    <glyph glyph-name="uni040E" unicode="&#x40e;" horiz-adv-x="640" 
d="M682 616q0 -20 -10 -33l-318 -458q-49 -71 -103.5 -104t-132.5 -33h-9q-20 1 -35 16.5t-15 36.5q0 24 18.5 40t41.5 12q3 -1 14 -1q34 0 59 18t61 66l4 6l-137 413q-3 9 -3 17q0 24 17.5 42.5t41.5 18.5q20 0 36 -11.5t21 -30.5l105 -352l239 368q18 26 48 26
q24 0 40.5 -17t16.5 -40zM284 779q-12 12 -12 28t11.5 27.5t27.5 11.5q17 0 28 -11q37 -40 98 -40q56 0 105 43q9 9 23 9q15 0 25.5 -10.5t10.5 -25.5q0 -14 -11 -25q-68 -65 -165 -65q-83 0 -141 58z" />
    <glyph glyph-name="uni040F" unicode="&#x40f;" horiz-adv-x="703" 
d="M711 616q0 -9 -1 -12l-120 -549q-12 -55 -68 -55h-174l-21 -94q-4 -17 -17.5 -28.5t-31.5 -11.5q-21 0 -35.5 15t-14.5 35q0 8 1 11l16 73h-158q-27 0 -42 13.5t-15 36.5q0 2 2 18l122 560q5 19 20.5 32t35.5 13q24 0 40.5 -17t16.5 -40q0 -9 -1 -12l-110 -501h327
l115 525q5 19 20.5 32t35.5 13q24 0 40.5 -17t16.5 -40z" />
    <glyph glyph-name="uni0410" unicode="&#x410;" horiz-adv-x="673" 
d="M607 54q0 -25 -17.5 -42.5t-42.5 -17.5q-22 0 -38.5 14t-20.5 36l-12 84h-320l-62 -106q-19 -28 -49 -28q-23 0 -40 17t-17 40q0 13 9 30l333 544q31 48 86 48q37 0 65 -24t34 -60l91 -525q1 -2 1 -10zM217 231h244l-49 333z" />
    <glyph glyph-name="uni0411" unicode="&#x411;" horiz-adv-x="608" 
d="M614 615q0 -21 -15.5 -36t-36.5 -15h-304l-33 -146h153q90 0 143.5 -51.5t53.5 -128.5q0 -44 -15.5 -84.5t-46 -75.5t-83 -56.5t-120.5 -21.5h-223q-27 0 -42 13.5t-15 36.5q0 2 2 18l119 544q12 55 68 55h343q21 0 36.5 -15t15.5 -37zM203 315l-47 -212h160
q62 0 99.5 35t37.5 89q0 37 -27 62.5t-68 25.5h-155z" />
    <glyph glyph-name="uni0412" unicode="&#x412;" horiz-adv-x="648" 
d="M30 50q0 2 2 18l120 544q12 55 68 55h248q79 0 127.5 -45t48.5 -112t-45.5 -118.5t-107.5 -57.5q43 -12 70 -50.5t27 -85.5q0 -81 -60.5 -139.5t-170.5 -58.5h-270q-27 0 -42 13.5t-15 36.5zM437 564h-179l-38 -173h191q54 0 81 27.5t27 71.5q0 31 -24 52.5t-58 21.5z
M382 288h-185l-41 -185h195q54 0 86.5 30t32.5 75q0 36 -23.5 58t-64.5 22z" />
    <glyph glyph-name="uni0413" unicode="&#x413;" horiz-adv-x="552" 
d="M30 52q0 9 1 12l121 548q12 55 68 55h343q21 0 36 -15t15 -37q0 -21 -15 -36t-36 -15h-305l-115 -525q-5 -19 -20.5 -32t-35.5 -13q-24 0 -40.5 17t-16.5 41z" />
    </font>
</defs>
</svg>
