<?xml version="1.0" standalone="no"?>
<!DOCTYPE svg PUBLIC "-//W3C//DTD SVG 1.1//EN" "http://www.w3.org/Graphics/SVG/1.1/DTD/svg11.dtd" >
<svg xmlns="http://www.w3.org/2000/svg" xmlns:xlink="http://www.w3.org/1999/xlink" version="1.1">
<metadata>
Created by FontForge 20170731 at Tue Dec 25 03:00:00 2018
 By Aleksey,,,
Copyright (c) 2018 by Mark Simonson. All rights reserved.
</metadata>
<defs>
<font id="ProximaSoft-Thin" horiz-adv-x="528" >
  <font-face 
    font-family="Proxima Soft Thin"
    font-weight="250"
    font-stretch="normal"
    units-per-em="1000"
    panose-1="2 0 5 6 3 0 0 2 0 4"
    ascent="790"
    descent="-210"
    x-height="483"
    cap-height="667"
    bbox="-347 -291 1085 1081"
    underline-thickness="24"
    underline-position="-244"
    unicode-range="U+000D-FB04"
  />
<missing-glyph horiz-adv-x="527" 
d="M88 -48v758q0 19 11.5 30.5t30.5 11.5h267q19 0 30.5 -11.5t11.5 -30.5v-758q0 -19 -11.5 -30.5t-30.5 -11.5h-267q-19 0 -30.5 11.5t-11.5 30.5zM407 722h-288v-782h288v782z" />
    <glyph glyph-name="f_f_j" unicode="ffj" horiz-adv-x="694" 
d="M275 656q0 -13 -14 -13l-15 3q-15 4 -25 4q-91 0 -91 -116v-51h86q5 0 9.5 -4t4.5 -9q0 -6 -4.5 -10t-9.5 -4h-86v-443q0 -6 -4.5 -10.5t-10.5 -4.5t-10.5 4.5t-4.5 10.5v443h-68q-5 0 -9.5 4t-4.5 10q0 5 4.5 9t9.5 4h68v51q0 67 32 105t89 38q26 0 44 -7q10 -3 10 -14z
M521 656q0 -13 -14 -13l-15 3q-15 4 -25 4q-91 0 -91 -116v-51h86q5 0 9.5 -4t4.5 -9q0 -6 -4.5 -10t-9.5 -4h-86v-443q0 -6 -4.5 -10.5t-10.5 -4.5t-10.5 4.5t-4.5 10.5v443h-68q-5 0 -9.5 4t-4.5 10q0 5 4.5 9t9.5 4h68v51q0 67 32 105t89 38q26 0 44 -7q10 -3 10 -14z
M564 615q0 12 9 20.5t20 8.5q12 0 20.5 -8.5t8.5 -20.5t-8.5 -20.5t-20.5 -8.5q-11 0 -20 8.5t-9 20.5zM451 -190q-10 3 -10 14q0 14 13 14q1 0 14 -3t25 -3q85 0 85 92v546q0 6 4.5 10.5t10.5 4.5t10.5 -4.5t4.5 -10.5v-546q0 -59 -30 -89.5t-85 -30.5q-21 0 -42 6z" />
    <glyph glyph-name="f_j" unicode="fj" horiz-adv-x="448" 
d="M275 656q0 -13 -14 -13l-15 3q-15 4 -25 4q-91 0 -91 -116v-51h86q5 0 9.5 -4t4.5 -9q0 -6 -4.5 -10t-9.5 -4h-86v-443q0 -6 -4.5 -10.5t-10.5 -4.5t-10.5 4.5t-4.5 10.5v443h-68q-5 0 -9.5 4t-4.5 10q0 5 4.5 9t9.5 4h68v51q0 67 32 105t89 38q26 0 44 -7q10 -3 10 -14z
M318 615q0 12 9 20.5t20 8.5q12 0 20.5 -8.5t8.5 -20.5t-8.5 -20.5t-20.5 -8.5q-11 0 -20 8.5t-9 20.5zM205 -190q-10 3 -10 14q0 14 13 14q1 0 14 -3t25 -3q85 0 85 92v546q0 6 4.5 10.5t10.5 4.5t10.5 -4.5t4.5 -10.5v-546q0 -59 -30 -89.5t-85 -30.5q-21 0 -42 6z" />
    <glyph glyph-name="f_f" unicode="ff" horiz-adv-x="492" 
d="M275 656q0 -13 -14 -13l-15 3q-15 4 -25 4q-91 0 -91 -116v-51h86q5 0 9.5 -4t4.5 -9q0 -6 -4.5 -10t-9.5 -4h-86v-443q0 -6 -4.5 -10.5t-10.5 -4.5t-10.5 4.5t-4.5 10.5v443h-68q-5 0 -9.5 4t-4.5 10q0 5 4.5 9t9.5 4h68v51q0 67 32 105t89 38q26 0 44 -7q10 -3 10 -14z
M521 656q0 -13 -14 -13l-15 3q-15 4 -25 4q-91 0 -91 -116v-51h86q5 0 9.5 -4t4.5 -9q0 -6 -4.5 -10t-9.5 -4h-86v-443q0 -6 -4.5 -10.5t-10.5 -4.5t-10.5 4.5t-4.5 10.5v443h-68q-5 0 -9.5 4t-4.5 10q0 5 4.5 9t9.5 4h68v51q0 67 32 105t89 38q26 0 44 -7q10 -3 10 -14z
" />
    <glyph glyph-name="fi" unicode="fi" horiz-adv-x="448" 
d="M275 656q0 -13 -14 -13l-15 3q-15 4 -25 4q-91 0 -91 -116v-51h86q5 0 9.5 -4t4.5 -9q0 -6 -4.5 -10t-9.5 -4h-86v-443q0 -6 -4.5 -10.5t-10.5 -4.5t-10.5 4.5t-4.5 10.5v443h-68q-5 0 -9.5 4t-4.5 10q0 5 4.5 9t9.5 4h68v51q0 67 32 105t89 38q26 0 44 -7q10 -3 10 -14z
M318 615q0 12 9 20.5t20 8.5q12 0 20.5 -8.5t8.5 -20.5t-8.5 -20.5t-20.5 -8.5q-11 0 -20 8.5t-9 20.5zM332 13v457q0 6 4.5 10.5t10.5 4.5t10.5 -4.5t4.5 -10.5v-457q0 -6 -4.5 -10.5t-10.5 -4.5t-10.5 4.5t-4.5 10.5z" />
    <glyph glyph-name="fl" unicode="fl" horiz-adv-x="448" 
d="M275 656q0 -13 -14 -13l-15 3q-15 4 -25 4q-91 0 -91 -116v-51h86q5 0 9.5 -4t4.5 -9q0 -6 -4.5 -10t-9.5 -4h-86v-443q0 -6 -4.5 -10.5t-10.5 -4.5t-10.5 4.5t-4.5 10.5v443h-68q-5 0 -9.5 4t-4.5 10q0 5 4.5 9t9.5 4h68v51q0 67 32 105t89 38q26 0 44 -7q10 -3 10 -14z
M332 13v641q0 6 4.5 10.5t10.5 4.5t10.5 -4.5t4.5 -10.5v-641q0 -6 -4.5 -10.5t-10.5 -4.5t-10.5 4.5t-4.5 10.5z" />
    <glyph glyph-name="f_f_i" unicode="ffi" horiz-adv-x="694" 
d="M275 656q0 -13 -14 -13l-15 3q-15 4 -25 4q-91 0 -91 -116v-51h86q5 0 9.5 -4t4.5 -9q0 -6 -4.5 -10t-9.5 -4h-86v-443q0 -6 -4.5 -10.5t-10.5 -4.5t-10.5 4.5t-4.5 10.5v443h-68q-5 0 -9.5 4t-4.5 10q0 5 4.5 9t9.5 4h68v51q0 67 32 105t89 38q26 0 44 -7q10 -3 10 -14z
M521 656q0 -13 -14 -13l-15 3q-15 4 -25 4q-91 0 -91 -116v-51h86q5 0 9.5 -4t4.5 -9q0 -6 -4.5 -10t-9.5 -4h-86v-443q0 -6 -4.5 -10.5t-10.5 -4.5t-10.5 4.5t-4.5 10.5v443h-68q-5 0 -9.5 4t-4.5 10q0 5 4.5 9t9.5 4h68v51q0 67 32 105t89 38q26 0 44 -7q10 -3 10 -14z
M564 615q0 12 9 20.5t20 8.5q12 0 20.5 -8.5t8.5 -20.5t-8.5 -20.5t-20.5 -8.5q-11 0 -20 8.5t-9 20.5zM578 13v457q0 6 4.5 10.5t10.5 4.5t10.5 -4.5t4.5 -10.5v-457q0 -6 -4.5 -10.5t-10.5 -4.5t-10.5 4.5t-4.5 10.5z" />
    <glyph glyph-name="f_f_l" unicode="ffl" horiz-adv-x="694" 
d="M275 656q0 -13 -14 -13l-15 3q-15 4 -25 4q-91 0 -91 -116v-51h86q5 0 9.5 -4t4.5 -9q0 -6 -4.5 -10t-9.5 -4h-86v-443q0 -6 -4.5 -10.5t-10.5 -4.5t-10.5 4.5t-4.5 10.5v443h-68q-5 0 -9.5 4t-4.5 10q0 5 4.5 9t9.5 4h68v51q0 67 32 105t89 38q26 0 44 -7q10 -3 10 -14z
M521 656q0 -13 -14 -13l-15 3q-15 4 -25 4q-91 0 -91 -116v-51h86q5 0 9.5 -4t4.5 -9q0 -6 -4.5 -10t-9.5 -4h-86v-443q0 -6 -4.5 -10.5t-10.5 -4.5t-10.5 4.5t-4.5 10.5v443h-68q-5 0 -9.5 4t-4.5 10q0 5 4.5 9t9.5 4h68v51q0 67 32 105t89 38q26 0 44 -7q10 -3 10 -14z
M578 13v641q0 6 4.5 10.5t10.5 4.5t10.5 -4.5t4.5 -10.5v-641q0 -6 -4.5 -10.5t-10.5 -4.5t-10.5 4.5t-4.5 10.5z" />
    <glyph glyph-name="f_b" unicode="fb" horiz-adv-x="812" 
d="M275 656q0 -13 -14 -13l-15 3q-15 4 -25 4q-91 0 -91 -116v-51h86q5 0 9.5 -4t4.5 -9q0 -6 -4.5 -10t-9.5 -4h-86v-443q0 -6 -4.5 -10.5t-10.5 -4.5t-10.5 4.5t-4.5 10.5v443h-68q-5 0 -9.5 4t-4.5 10q0 5 4.5 9t9.5 4h68v51q0 67 32 105t89 38q26 0 44 -7q10 -3 10 -14z
M752 241q0 -114 -59.5 -183.5t-156.5 -69.5q-53 0 -99.5 25.5t-74.5 67.5v-68q0 -6 -4.5 -10.5t-10.5 -4.5t-10.5 4.5t-4.5 10.5v641q0 6 4.5 10.5t10.5 4.5t10.5 -4.5t4.5 -10.5v-254q30 45 75.5 70t98.5 25q97 0 156.5 -70t59.5 -184zM719 241q0 99 -49 163
q-48 64 -134 64q-52 0 -100.5 -28.5t-73.5 -69.5v-259q25 -41 73 -68.5t101 -27.5q86 0 134 63q49 64 49 163z" />
    <glyph glyph-name="f_h" unicode="fh" horiz-adv-x="774" 
d="M275 656q0 -13 -14 -13l-15 3q-15 4 -25 4q-91 0 -91 -116v-51h86q5 0 9.5 -4t4.5 -9q0 -6 -4.5 -10t-9.5 -4h-86v-443q0 -6 -4.5 -10.5t-10.5 -4.5t-10.5 4.5t-4.5 10.5v443h-68q-5 0 -9.5 4t-4.5 10q0 5 4.5 9t9.5 4h68v51q0 67 32 105t89 38q26 0 44 -7q10 -3 10 -14z
M658 13v326q0 70 -31 99.5t-94 29.5q-47 0 -95.5 -26t-75.5 -65v-364q0 -6 -4.5 -10.5t-10.5 -4.5t-10.5 4.5t-4.5 10.5v641q0 6 4.5 10.5t10.5 4.5t10.5 -4.5t4.5 -10.5v-247q30 36 78 61q50 27 97 27q76 0 113.5 -37t37.5 -119v-326q0 -6 -4.5 -10.5t-10.5 -4.5t-10.5 4.5
t-4.5 10.5z" />
    <glyph glyph-name="f_k" unicode="fk" horiz-adv-x="742" 
d="M275 656q0 -13 -14 -13l-15 3q-15 4 -25 4q-91 0 -91 -116v-51h86q5 0 9.5 -4t4.5 -9q0 -6 -4.5 -10t-9.5 -4h-86v-443q0 -6 -4.5 -10.5t-10.5 -4.5t-10.5 4.5t-4.5 10.5v443h-68q-5 0 -9.5 4t-4.5 10q0 5 4.5 9t9.5 4h68v51q0 67 32 105t89 38q26 0 44 -7q10 -3 10 -14z
M485 265l210 -240q4 -5 4 -11t-4.5 -11t-11.5 -5t-12 6l-209 239l-100 -92v-138q0 -6 -4.5 -10.5t-10.5 -4.5t-10.5 4.5t-4.5 10.5v641q0 6 4.5 10.5t10.5 4.5t10.5 -4.5t4.5 -10.5v-464l313 291q4 4 10 4q14 0 14 -15q0 -8 -5 -11z" />
    <glyph glyph-name=".notdef" horiz-adv-x="527" 
d="M88 -48v758q0 19 11.5 30.5t30.5 11.5h267q19 0 30.5 -11.5t11.5 -30.5v-758q0 -19 -11.5 -30.5t-30.5 -11.5h-267q-19 0 -30.5 11.5t-11.5 30.5zM407 722h-288v-782h288v782z" />
    <glyph glyph-name=".null" horiz-adv-x="0" 
 />
    <glyph glyph-name="nonmarkingreturn" horiz-adv-x="333" 
 />
    <glyph glyph-name="CR" unicode="&#xd;" horiz-adv-x="0" 
 />
    <glyph glyph-name="space" unicode=" " horiz-adv-x="260" 
 />
    <glyph glyph-name="exclam" unicode="!" horiz-adv-x="208" 
d="M94 169l-11 479q0 8 6.5 14.5t14.5 6.5t14.5 -6.5t6.5 -14.5l-11 -479q0 -10 -10 -10t-10 10zM104 56q13 0 23 -9.5t10 -22.5t-9.5 -23t-23.5 -10q-13 0 -23 10t-10 23t10 22.5t23 9.5z" />
    <glyph glyph-name="quotedbl" unicode="&#x22;" horiz-adv-x="290" 
d="M76 452l-3 45q-10 127 -11 154q0 11 7.5 18.5t18.5 7.5t18.5 -7.5t7.5 -18.5q-1 -27 -11 -154l-3 -45q0 -11 -12 -11t-12 11zM190 452l-3 45q-10 127 -11 154q0 11 7.5 18.5t18.5 7.5t18.5 -7.5t7.5 -18.5q-1 -27 -11 -154l-3 -45q0 -11 -12 -11t-12 11z" />
    <glyph glyph-name="numbersign" unicode="#" horiz-adv-x="567" 
d="M539 461q0 -14 -15 -14h-107l-77 -227h102q15 0 15 -15q0 -14 -15 -14h-111l-61 -182q-3 -11 -15 -11q-6 0 -11 4.5t-5 9.5q0 2 3 13l57 166h-125l-61 -182q-3 -11 -15 -11q-6 0 -11 5t-5 10q0 1 2 9l57 169h-97q-15 0 -15 14q0 15 15 15h107l76 227h-100q-14 0 -14 14
q0 15 14 15h110l60 182q3 11 15 11q6 0 11 -5t5 -10q0 -1 -2 -9l-56 -169h124l60 182q3 11 15 11q6 0 11 -5t5 -10q0 -1 -2 -9l-57 -169h98q15 0 15 -15zM307 220l77 227h-124l-76 -227h123z" />
    <glyph glyph-name="dollar" unicode="$" horiz-adv-x="575" 
d="M307 -11v-75q0 -6 -4.5 -11t-11.5 -5t-11.5 5t-4.5 11v74q-130 4 -212 94q-4 4 -4 11t5 12.5t12 5.5q8 0 13 -6q76 -81 186 -87v318q-64 19 -106 36q-95 43 -95 136q0 75 58 121t143 49v76q0 6 4.5 11t11.5 5t11.5 -5t4.5 -11v-77q115 -8 182 -82q5 -8 5 -11q0 -7 -5 -12
t-12 -5q-9 0 -13 6q-59 66 -157 74v-285q66 -20 107 -39q100 -47 100 -154q0 -32 -11 -61t-34 -56t-65 -44t-97 -19zM275 371v277q-71 -2 -119 -42q-47 -39 -47 -98q3 -57 40.5 -84t125.5 -53zM479 169q-2 67 -42 98.5t-130 59.5v-308q92 4 132 49q40 44 40 101z" />
    <glyph glyph-name="percent" unicode="%" horiz-adv-x="709" 
d="M36 513q0 70 43.5 117t109.5 47t110 -47q43 -46 43 -117q0 -70 -43 -116t-110 -46t-110 46t-43 116zM138 13q0 3 3 9l408 640q4 7 14 7q6 0 10.5 -4.5t4.5 -11.5q0 -2 -2 -8l-410 -640q-3 -7 -12 -7q-7 0 -11.5 4.5t-4.5 10.5zM309 513q0 57 -34 97q-33 40 -86 40
q-52 0 -86 -40t-34 -97q0 -55 34 -95t86 -40q53 0 86 39q34 40 34 96zM367 150q0 70 43.5 117t109.5 47t109.5 -47t43.5 -117t-43 -116t-110 -46t-110 46t-43 116zM640 150q0 57 -34 97q-33 40 -86 40t-87 -40q-33 -41 -33 -97t33 -96q35 -39 87 -39q53 0 86 39q34 40 34 96
z" />
    <glyph glyph-name="ampersand" unicode="&#x26;" horiz-adv-x="637" 
d="M562 16q0 -7 -5 -12.5t-12 -5.5t-12 5q-29 25 -91 87q-81 -102 -199 -102q-84 0 -140 47t-56 132q0 69 36.5 115.5t114.5 90.5q-58 88 -58 154q0 64 43.5 107t105.5 43q60 0 95 -32.5t35 -89.5q0 -45 -24 -80q-23 -33 -57 -56q-31 -21 -94 -56q29 -42 94 -115
q52 -58 100 -106q41 61 74 156q5 12 16 12q7 0 12 -5t5 -12q0 -3 -2 -9q-44 -111 -80 -166q46 -46 94 -89q5 -5 5 -13zM227 389q46 24 84 49q73 48 73 117q0 43 -26 67.5t-69 24.5q-47 0 -81 -34q-33 -35 -33 -86q0 -59 52 -138zM417 114q-89 94 -105 112q-71 82 -97 121
q-68 -41 -100.5 -82t-32.5 -98q0 -71 47 -110t114 -39q99 0 174 96z" />
    <glyph glyph-name="quotesingle" unicode="'" horiz-adv-x="176" 
d="M76 452l-3 45q-10 127 -11 154q0 11 7.5 18.5t18.5 7.5t18.5 -7.5t7.5 -18.5q-1 -27 -11 -154l-3 -45q0 -11 -12 -11t-12 11z" />
    <glyph glyph-name="parenleft" unicode="(" horiz-adv-x="206" 
d="M168 -190q-121 202 -121 433t121 434q3 5 9 5q10 0 10 -10q0 -1 -2 -7q-52 -113 -77 -205q-26 -96 -26 -217q0 -120 26 -218q25 -92 77 -204q2 -6 2 -7q0 -10 -10 -10q-5 0 -9 6z" />
    <glyph glyph-name="parenright" unicode=")" horiz-adv-x="206" 
d="M19 -186q0 1 2 7q52 112 77 204q26 98 26 218q0 121 -26 217q-25 92 -77 205q-2 6 -2 7q0 10 10 10q6 0 9 -5q121 -203 121 -434t-121 -433q-4 -6 -9 -6q-10 0 -10 10z" />
    <glyph glyph-name="asterisk" unicode="*" horiz-adv-x="330" 
d="M151 422l5 106l-89 -58q-4 -2 -8 -2q-5 0 -9.5 4t-4.5 10q0 8 8 13l94 48l-94 48q-8 5 -8 13q0 6 4.5 10t9.5 4q4 0 8 -2l89 -58l-5 106q0 15 14 15t14 -15l-5 -106l89 58q4 2 8 2q5 0 9.5 -4t4.5 -10q0 -8 -8 -13l-94 -48l94 -48q8 -5 8 -13q0 -6 -4.5 -10t-9.5 -4
q-4 0 -8 2l-89 58l5 -106q0 -15 -14 -15t-14 15z" />
    <glyph glyph-name="plus" unicode="+" horiz-adv-x="494" 
d="M263 322v-208q0 -6 -4.5 -11t-11.5 -5t-11.5 5t-4.5 11v208h-189q-6 0 -10.5 4.5t-4.5 10.5t4.5 10.5t10.5 4.5h189v202q0 6 4.5 11t11.5 5t11.5 -5t4.5 -11v-202h189q6 0 10.5 -4.5t4.5 -10.5t-4.5 -10.5t-10.5 -4.5h-189z" />
    <glyph glyph-name="comma" unicode="," horiz-adv-x="208" 
d="M79 -115q-14 0 -14 14q0 6 4 10q42 42 42 83q-2 -1 -8 -1q-14 0 -23 9.5t-9 23.5q0 13 9 22.5t23 9.5q16 0 27.5 -14.5t11.5 -38.5q0 -66 -54 -115q-3 -3 -9 -3z" />
    <glyph glyph-name="hyphen" unicode="-" horiz-adv-x="300" 
d="M28 242q0 6 4.5 10.5t10.5 4.5h214q6 0 10.5 -4.5t4.5 -10.5t-4.5 -10.5t-10.5 -4.5h-214q-6 0 -10.5 4.5t-4.5 10.5z" />
    <glyph glyph-name="period" unicode="." horiz-adv-x="208" 
d="M104 56q13 0 23 -9.5t10 -22.5t-9.5 -23t-23.5 -10q-13 0 -23 10t-10 23t10 22.5t23 9.5z" />
    <glyph glyph-name="slash" unicode="/" horiz-adv-x="268" 
d="M5 -7l2 8l227 678q6 10 14 10q15 0 15 -16l-2 -7l-227 -678q-6 -10 -14 -10q-6 0 -10.5 4.5t-4.5 10.5z" />
    <glyph glyph-name="zero" unicode="0" horiz-adv-x="605" 
d="M303 677q60 1 107 -29t74.5 -80t41.5 -110.5t14 -124.5q1 -87 -23 -163.5t-79.5 -130t-134.5 -51.5q-60 -1 -107.5 29t-75 81t-41.5 111t-14 124q0 65 14 125t41.5 110t75 80t107.5 29zM303 647q-69 1 -117 -47t-67.5 -117t-18.5 -150q-1 -81 18.5 -150t67.5 -117.5
t117 -47.5q69 -1 116 47.5t66.5 117.5t19.5 150q0 60 -11 114.5t-34.5 100.5t-63.5 73t-93 26z" />
    <glyph glyph-name="one" unicode="1" horiz-adv-x="277" 
d="M157 14v607l-95 -104q-5 -5 -11 -5q-16 0 -16 16q0 6 4 11l116 123q4 7 14 7q8 0 14 -6t6 -14v-635q0 -6 -4.5 -11t-11.5 -5t-11.5 5t-4.5 11z" />
    <glyph glyph-name="two" unicode="2" horiz-adv-x="577" 
d="M57 19q0 9 7 15q138 114 207 179q175 163 175 283q0 73 -48.5 112t-117.5 39q-113 0 -176 -79q-6 -6 -13 -6q-16 0 -16 16q0 6 4 10q70 89 202 89q78 0 137.5 -47t59.5 -134q0 -74 -49 -147q-50 -76 -121 -143q-85 -78 -202 -176h361q6 0 10.5 -4.5t4.5 -10.5t-4.5 -10.5
t-10.5 -4.5h-391q-7 0 -13 6t-6 13z" />
    <glyph glyph-name="three" unicode="3" horiz-adv-x="531" 
d="M45 86q-3 3 -3 10q0 16 16 16q9 0 13 -7q64 -87 181 -87q84 0 132.5 42.5t48.5 116.5q0 78 -55 115q-56 38 -138 38h-42q-6 0 -11 4.5t-5 10.5t5 10.5t11 4.5h42q78 0 130 36q53 36 53 107q0 66 -50 105q-49 39 -121 39q-102 0 -173 -80q-5 -5 -12 -5q-16 0 -16 16
q0 6 4 11q77 88 197 88q83 0 143 -47.5t60 -126.5q0 -72 -45 -111q-46 -38 -97 -47q55 -5 103.5 -49.5t48.5 -118.5q0 -83 -57.5 -136t-155.5 -53q-66 0 -120.5 27t-86.5 71z" />
    <glyph glyph-name="four" unicode="4" horiz-adv-x="524" 
d="M488 210q0 -6 -4.5 -10.5t-10.5 -4.5h-88v-181q0 -6 -4.5 -11t-11.5 -5t-11.5 5t-4.5 11v181h-293q-9 0 -16.5 7t-7.5 16t4 14l296 425q9 12 22 12q11 0 19 -8t8 -19v-417h88q6 0 10.5 -4.5t4.5 -10.5zM73 225h280v406z" />
    <glyph glyph-name="five" unicode="5" horiz-adv-x="574" 
d="M86 97q0 7 4.5 12t11.5 5q9 0 13 -7q65 -89 182 -89q77 0 128.5 52t51.5 128q0 82 -51 132t-129 50q-86 0 -157 -59q-8 -6 -15 -6q-10 0 -16.5 7t-6.5 16v311q0 18 18 18h333q6 0 10.5 -4.5t4.5 -10.5t-4.5 -10.5t-10.5 -4.5h-319v-291q66 64 163 64q89 0 150.5 -57
t61.5 -155q0 -93 -62.5 -151.5t-149.5 -58.5q-139 0 -208 100q-3 3 -3 9z" />
    <glyph glyph-name="six" unicode="6" horiz-adv-x="577" 
d="M303 677q105 0 167 -79q4 -4 4 -10q0 -7 -5 -11.5t-11 -4.5q-7 0 -13 6q-52 69 -142 69q-107 0 -157 -95q-49 -94 -49 -229q0 -28 1 -36q26 44 83.5 81.5t119.5 37.5q96 0 153.5 -54.5t57.5 -155.5q0 -83 -59 -145.5t-156 -62.5q-121 0 -177 98q-55 98 -55 247
q0 67 13.5 127t41 110t75 79t108.5 28zM300 376q-58 0 -112.5 -36t-85.5 -94q7 -88 55 -159q48 -69 140 -69q84 0 133.5 54.5t49.5 123.5q0 86 -48.5 133t-131.5 47z" />
    <glyph glyph-name="seven" unicode="7" horiz-adv-x="489" 
d="M130 14q0 3 3 9l282 614h-366q-6 0 -10.5 4.5t-4.5 10.5t4.5 10.5t10.5 4.5h391q14 0 14 -15q0 -2 -2 -8l-290 -636q-6 -10 -15 -10q-7 0 -12 5t-5 11z" />
    <glyph glyph-name="eight" unicode="8" horiz-adv-x="561" 
d="M239 344q-69 17 -115 57q-47 42 -47 105q0 80 60 125.5t144 45.5q82 0 143 -46t61 -125q0 -63 -47 -105q-46 -40 -115 -57q72 -18 122 -65t50 -114q0 -77 -60.5 -127t-153.5 -50q-94 0 -154.5 50t-60.5 127q0 67 50 114q52 47 123 65zM281 647q-73 0 -123 -38
q-49 -37 -49 -103q0 -69 56 -102q57 -33 116 -45q60 12 115 45q57 33 57 102q0 65 -50 103t-122 38zM281 330q-32 -4 -72.5 -21.5t-76.5 -56.5t-34 -87q0 -65 54 -106t129 -41q74 0 128 41t54 106q1 37 -19 68.5t-51.5 51t-60.5 31t-51 14.5z" />
    <glyph glyph-name="nine" unicode="9" horiz-adv-x="577" 
d="M103 78q0 7 5 11.5t11 4.5q7 0 13 -6q52 -69 142 -69q107 0 157 95q49 94 49 229q0 28 -1 36q-26 -44 -83.5 -81.5t-119.5 -37.5q-96 0 -153.5 54.5t-57.5 155.5q0 83 59 145.5t156 62.5q120 0 176 -99q56 -98 56 -246q0 -67 -13.5 -127t-41 -110t-75 -79t-108.5 -28
q-105 0 -167 79q-4 4 -4 10zM280 648q-84 0 -133.5 -54.5t-49.5 -123.5q0 -86 48.5 -133t131.5 -47q58 0 112.5 36t85.5 94q-7 89 -56 159q-47 69 -139 69z" />
    <glyph glyph-name="colon" unicode=":" horiz-adv-x="208" 
d="M104 490q14 0 23.5 -9.5t9.5 -23.5q0 -13 -10 -22.5t-23 -9.5t-23 9.5t-10 22.5q0 14 10 23.5t23 9.5zM104 56q13 0 23 -9.5t10 -22.5t-9.5 -23t-23.5 -10q-13 0 -23 10t-10 23t10 22.5t23 9.5z" />
    <glyph glyph-name="semicolon" unicode=";" horiz-adv-x="208" 
d="M71 457q0 14 10 23.5t23 9.5q14 0 23.5 -9.5t9.5 -23.5q0 -13 -10 -22.5t-23 -9.5t-23 9.5t-10 22.5zM79 -115q-14 0 -14 14q0 6 4 10q42 42 42 83q-2 -1 -8 -1q-14 0 -23 9.5t-9 23.5q0 13 9 22.5t23 9.5q16 0 27.5 -14.5t11.5 -38.5q0 -66 -54 -115q-3 -3 -9 -3z" />
    <glyph glyph-name="less" unicode="&#x3c;" horiz-adv-x="494" 
d="M27 335q0 9 9 14l407 219q6 2 8 2q16 0 16 -16q0 -9 -9 -14l-388 -206l388 -204q9 -5 9 -14q0 -16 -16 -16q-2 0 -8 2l-407 218q-9 4 -9 15z" />
    <glyph glyph-name="equal" unicode="=" horiz-adv-x="494" 
d="M27 433q0 6 4.5 10.5t10.5 4.5h410q6 0 10.5 -4.5t4.5 -10.5t-4.5 -10.5t-10.5 -4.5h-410q-6 0 -10.5 4.5t-4.5 10.5zM27 235q0 6 4.5 10.5t10.5 4.5h410q6 0 10.5 -4.5t4.5 -10.5t-4.5 -10.5t-10.5 -4.5h-410q-6 0 -10.5 4.5t-4.5 10.5z" />
    <glyph glyph-name="greater" unicode="&#x3e;" horiz-adv-x="494" 
d="M43 100q-16 0 -16 16q0 9 9 14l388 204l-388 206q-9 5 -9 14q0 16 16 16q2 0 8 -2l407 -219q9 -5 9 -14q0 -11 -9 -15l-407 -218q-6 -2 -8 -2z" />
    <glyph glyph-name="question" unicode="?" horiz-adv-x="467" 
d="M285 382q41 28 58 42.5t31.5 40t16.5 59.5q0 53 -41 88t-110 35q-116 0 -182 -86q-6 -6 -12 -6q-16 0 -16 16q0 6 3 9q75 97 207 97q84 0 135 -44.5t51 -108.5q0 -38 -17 -69q-16 -28 -38.5 -48t-65.5 -49q-52 -35 -73 -58.5t-21 -55.5q0 -22 23 -45q5 -3 5 -11
q0 -15 -15 -15q-6 0 -10 4q-33 30 -33 67q1 20 7 36t11.5 27t22.5 26t26.5 22t36.5 27zM222 56q13 0 23 -9.5t10 -22.5t-9.5 -23t-23.5 -10q-13 0 -23 10t-10 23t10 22.5t23 9.5z" />
    <glyph glyph-name="at" unicode="@" horiz-adv-x="783" 
d="M747 311q0 -104 -43.5 -165t-107.5 -61q-38 0 -62 25.5t-24 62.5v6q-29 -41 -75 -67.5t-96 -26.5q-68 0 -110 43t-42 115q-3 102 74 180.5t169 76.5q47 0 81 -23.5t50 -63.5l12 59q2 12 14 12q7 0 11.5 -5.5t3.5 -12.5l-59 -278q-1 -4 -1 -18q0 -26 15 -42t39 -16
q43 0 82.5 50t39.5 150q2 125 -81 211.5t-208 84.5q-93 2 -178.5 -50t-136.5 -137.5t-49 -175.5q0 -121 83 -203.5t208 -82.5q92 0 178 51q6 2 7 2q14 0 14 -14q0 -8 -6 -12q-95 -56 -197 -56q-132 -2 -225.5 91t-91.5 223q-2 103 54.5 195.5t149.5 146.5t193 52
q136 2 226.5 -94t88.5 -233zM519 223l34 157q-12 39 -44.5 66t-78.5 27q-82 2 -147 -70.5t-63 -159.5q0 -59 32 -95t87 -36q53 0 100 31t80 80z" />
    <glyph glyph-name="A" unicode="A" horiz-adv-x="636" 
d="M607 16q0 -18 -17 -18q-11 0 -16 11l-70 170h-372l-70 -170q-5 -11 -16 -11q-7 0 -12 5t-5 12q0 3 2 9l262 628q6 17 25 17t25 -17l262 -628q2 -6 2 -8zM144 209h348l-174 421z" />
    <glyph glyph-name="B" unicode="B" horiz-adv-x="600" 
d="M88 18v631q0 18 18 18h233q83 0 132.5 -45t49.5 -125q0 -58 -34 -100.5t-84 -52.5q52 -7 91.5 -57t39.5 -107q0 -84 -51.5 -132t-139.5 -48h-237q-18 0 -18 18zM120 358h219q70 0 108.5 38.5t38.5 100.5t-39.5 101t-107.5 39h-219v-279zM120 30h223q73 0 114.5 40
t41.5 109q0 62 -42 105.5t-114 43.5h-223v-298z" />
    <glyph glyph-name="C" unicode="C" horiz-adv-x="667" 
d="M65 333q-2 148 96.5 247.5t236.5 97.5q131 0 222 -94q4 -4 4 -11q0 -16 -16 -16q-7 0 -12 5q-80 86 -198 86q-125 2 -212.5 -88.5t-85.5 -226.5q-2 -135 85.5 -226t212.5 -89q57 0 109.5 23t88.5 64q5 5 12 5t12 -4.5t5 -11.5t-5 -12q-93 -94 -222 -94q-138 -3 -236.5 97
t-96.5 248z" />
    <glyph glyph-name="D" unicode="D" horiz-adv-x="684" 
d="M88 18v631q0 18 18 18h180q146 2 240 -97t92 -237q2 -139 -91.5 -237t-240.5 -96h-180q-18 0 -18 18zM120 30h166q136 0 216.5 86t80.5 217t-81 217.5t-216 86.5h-166v-607z" />
    <glyph glyph-name="E" unicode="E" horiz-adv-x="558" 
d="M88 18v631q0 18 18 18h377q6 0 10.5 -4.5t4.5 -10.5t-4.5 -10.5t-10.5 -4.5h-363v-279h356q6 0 10.5 -4.5t4.5 -10.5t-4.5 -10.5t-10.5 -4.5h-356v-298h363q6 0 10.5 -4.5t4.5 -10.5t-4.5 -10.5t-10.5 -4.5h-377q-18 0 -18 18z" />
    <glyph glyph-name="F" unicode="F" horiz-adv-x="533" 
d="M88 14v635q0 18 18 18h377q6 0 10.5 -4.5t4.5 -10.5t-4.5 -10.5t-10.5 -4.5h-363v-279h356q6 0 10.5 -4.5t4.5 -10.5t-4.5 -10.5t-10.5 -4.5h-356v-314q0 -6 -4.5 -11t-11.5 -5t-11.5 5t-4.5 11z" />
    <glyph glyph-name="G" unicode="G" horiz-adv-x="708" 
d="M642 302v-195q0 -15 -9 -22q-95 -98 -235 -98q-138 -2 -236.5 98t-96.5 248q-2 148 96.5 247.5t236.5 97.5q138 0 235 -94q4 -3 4 -10q0 -15 -15 -15q-6 0 -10 4q-85 85 -214 85q-125 2 -212.5 -88.5t-85.5 -226.5q-2 -135 85.5 -226.5t212.5 -89.5q63 0 118.5 25
t93.5 65v183h-262q-6 0 -10.5 4.5t-4.5 10.5t4.5 10.5t10.5 4.5h276q18 0 18 -18z" />
    <glyph glyph-name="H" unicode="H" horiz-adv-x="695" 
d="M575 14v314h-455v-314q0 -6 -4.5 -11t-11.5 -5t-11.5 5t-4.5 11v639q0 6 4.5 11t11.5 5t11.5 -5t4.5 -11v-295h455v295q0 6 4.5 11t11.5 5t11.5 -5t4.5 -11v-639q0 -6 -4.5 -11t-11.5 -5t-11.5 5t-4.5 11z" />
    <glyph glyph-name="I" unicode="I" horiz-adv-x="208" 
d="M88 14v639q0 6 4.5 11t11.5 5t11.5 -5t4.5 -11v-639q0 -6 -4.5 -11t-11.5 -5t-11.5 5t-4.5 11z" />
    <glyph glyph-name="J" unicode="J" horiz-adv-x="465" 
d="M21 74q0 8 5.5 13t12.5 5q10 0 14 -7q55 -67 132 -67q72 0 116 46t44 121v468q0 6 4.5 11t11.5 5t11.5 -5t4.5 -11v-468q0 -94 -54.5 -145.5t-137.5 -51.5q-101 0 -160 75q-4 5 -4 11z" />
    <glyph glyph-name="K" unicode="K" horiz-adv-x="571" 
d="M521 14q0 -7 -4.5 -11.5t-10.5 -4.5q-7 0 -12 5l-294 325l-80 -87v-227q0 -6 -4.5 -11t-11.5 -5t-11.5 5t-4.5 11v639q0 6 4.5 11t11.5 5t11.5 -5t4.5 -11v-371l344 381q4 6 12 6q6 0 11 -4.5t5 -11.5q0 -3 -5 -11l-267 -294l297 -323q4 -5 4 -11z" />
    <glyph glyph-name="L" unicode="L" horiz-adv-x="499" 
d="M88 18v635q0 6 4.5 11t11.5 5t11.5 -5t4.5 -11v-623h322q6 0 10.5 -4.5t4.5 -10.5t-4.5 -10.5t-10.5 -4.5h-336q-18 0 -18 18z" />
    <glyph glyph-name="M" unicode="M" horiz-adv-x="770" 
d="M650 14v615l-254 -620q-4 -10 -11 -10t-11 10l-254 620v-615q0 -6 -4.5 -11t-11.5 -5t-11.5 5t-4.5 11v625q0 12 8.5 21t21.5 9q21 0 28 -19l239 -586l239 586q7 19 28 19q13 0 21.5 -9t8.5 -21v-625q0 -6 -4.5 -11t-11.5 -5t-11.5 5t-4.5 11z" />
    <glyph glyph-name="N" unicode="N" horiz-adv-x="690" 
d="M565 7l-445 608v-601q0 -6 -4.5 -11t-11.5 -5t-11.5 5t-4.5 11v634q0 8 6 14.5t14 6.5q12 0 17 -9l445 -602v595q0 6 4.5 11t11.5 5t11.5 -5t4.5 -11v-634q0 -8 -6 -14.5t-14 -6.5q-12 0 -17 9z" />
    <glyph glyph-name="O" unicode="O" horiz-adv-x="764" 
d="M382 678q140 0 228.5 -98.5t88.5 -246.5t-88.5 -246.5t-228.5 -98.5q-140 -2 -229.5 98t-87.5 247q-2 147 87.5 247t229.5 98zM382 648q-127 0 -204.5 -88t-77.5 -227q-2 -136 77 -226.5t205 -88.5q124 -2 204 88.5t78 226.5q0 138 -78 226.5t-204 88.5z" />
    <glyph glyph-name="P" unicode="P" horiz-adv-x="555" 
d="M88 14v635q0 18 18 18h213q88 0 141.5 -54.5t53.5 -134.5t-53.5 -134.5t-141.5 -54.5h-199v-275q0 -6 -4.5 -11t-11.5 -5t-11.5 5t-4.5 11zM318 637h-198v-318h198q72 0 116.5 44.5t44.5 114.5t-44.5 114.5t-116.5 44.5z" />
    <glyph glyph-name="Q" unicode="Q" horiz-adv-x="764" 
d="M602 76l66 -66q5 -5 5 -11q0 -16 -16 -16q-7 0 -11 4l-68 68q-82 -67 -196 -67q-140 -2 -229.5 98t-87.5 247q-2 147 87.5 247t229.5 98q140 0 228.5 -98.5t88.5 -246.5q0 -160 -97 -257zM556 77l-101 101q-4 4 -4 11q0 16 16 16q7 0 11 -4l101 -102q85 88 85 234
q0 138 -78 226.5t-204 88.5q-127 0 -204.5 -88t-77.5 -227q-2 -136 77 -226.5t205 -88.5q100 0 174 59z" />
    <glyph glyph-name="R" unicode="R" horiz-adv-x="579" 
d="M323 288l188 -263q3 -3 3 -10t-4.5 -12t-11.5 -5q-10 0 -14 7l-198 283h-166v-274q0 -6 -4.5 -11t-11.5 -5t-11.5 5t-4.5 11v635q0 18 18 18h212q86 0 141.5 -50.5t55.5 -138.5q0 -85 -54.5 -136.5t-137.5 -53.5zM120 637v-319h198q72 0 117 45t45 115t-45 114.5
t-117 44.5h-198z" />
    <glyph glyph-name="S" unicode="S" horiz-adv-x="575" 
d="M59 93q0 7 5 12.5t12 5.5q8 0 13 -6q80 -87 197 -87q105 0 148 46q45 46 45 105q0 49 -27 81q-25 30 -61 47t-108 37q-63 17 -111 37q-98 41 -98 137q0 77 60.5 123.5t148.5 46.5q129 0 206 -83q5 -5 5 -11q0 -7 -5 -12t-12 -5q-9 0 -13 6q-67 75 -181 75
q-73 0 -123.5 -40t-50.5 -100q0 -42 24 -69q23 -24 56.5 -38.5t104.5 -34.5q70 -21 115 -41q105 -44 105 -156q0 -73 -55 -127t-173 -54q-137 0 -223 94q-4 4 -4 11z" />
    <glyph glyph-name="T" unicode="T" horiz-adv-x="559" 
d="M263 14v623h-212q-6 0 -10.5 4.5t-4.5 10.5t4.5 10.5t10.5 4.5h457q6 0 10.5 -4.5t4.5 -10.5t-4.5 -10.5t-10.5 -4.5h-213v-623q0 -6 -4.5 -11t-11.5 -5t-11.5 5t-4.5 11z" />
    <glyph glyph-name="U" unicode="U" horiz-adv-x="672" 
d="M88 253v400q0 6 4.5 11t11.5 5t11.5 -5t4.5 -11v-400q0 -112 56 -173.5t160 -61.5t160 61.5t56 173.5v400q0 6 4.5 11t11.5 5t11.5 -5t4.5 -11v-400q0 -126 -64.5 -195.5t-183.5 -69.5t-183.5 69.5t-64.5 195.5z" />
    <glyph glyph-name="V" unicode="V" horiz-adv-x="636" 
d="M293 15l-262 628q-2 6 -2 8q0 7 5 12.5t12 5.5q11 0 16 -11l256 -621l256 621q5 11 16 11q7 0 12 -5t5 -12q0 -3 -2 -9l-262 -628q-6 -17 -25 -17t-25 17z" />
    <glyph glyph-name="W" unicode="W" horiz-adv-x="852" 
d="M594 16l-168 591l-168 -591q-5 -18 -24 -18t-24 18l-179 629l-1 7q0 7 5 12t12 5q10 0 16 -13l171 -608l171 605q5 16 21 16t21 -16l171 -605l171 608q6 13 16 13q7 0 12 -5.5t5 -12.5l-1 -6l-179 -629q-5 -18 -24 -18t-24 18z" />
    <glyph glyph-name="X" unicode="X" horiz-adv-x="638" 
d="M597 15q0 -7 -5 -12t-12 -5t-13 6l-248 315l-248 -315q-6 -6 -13 -6t-12 5t-5 12q0 5 4 10l256 317l-241 299q-3 5 -3 11q0 7 5 12t12 5q9 0 13 -7l232 -295l232 295q4 7 13 7q7 0 12 -5t5 -12q0 -5 -4 -10l-240 -299l256 -318q4 -5 4 -10z" />
    <glyph glyph-name="Y" unicode="Y" horiz-adv-x="610" 
d="M572 642l-251 -352v-276q0 -6 -4.5 -11t-11.5 -5t-11.5 5t-4.5 11v276l-251 352q-3 3 -3 10t5 12t12 5q10 0 14 -7l239 -341l239 341q4 7 14 7q7 0 12 -5t5 -12t-3 -10z" />
    <glyph glyph-name="Z" unicode="Z" horiz-adv-x="578" 
d="M51 21q0 7 4 12l425 604h-414q-6 0 -10.5 4.5t-4.5 10.5t4.5 10.5t10.5 4.5h433q8 0 14.5 -6t6.5 -15q0 -7 -4 -12l-426 -604h422q6 0 10.5 -4.5t4.5 -10.5t-4.5 -10.5t-10.5 -4.5h-440q-8 0 -14.5 6t-6.5 15z" />
    <glyph glyph-name="bracketleft" unicode="[" horiz-adv-x="212" 
d="M34 -172v832q0 18 18 18h130q6 0 10.5 -4.5t4.5 -10.5t-4.5 -10.5t-10.5 -4.5h-118v-808h118q6 0 10.5 -4.5t4.5 -10.5t-4.5 -10.5t-10.5 -4.5h-130q-18 0 -18 18z" />
    <glyph glyph-name="backslash" unicode="\" horiz-adv-x="268" 
d="M234 -12l-227 678l-2 7q0 6 4.5 11t10.5 5q8 0 14 -10l227 -678l2 -8q0 -6 -4.5 -10.5t-10.5 -4.5q-8 0 -14 10z" />
    <glyph glyph-name="bracketright" unicode="]" horiz-adv-x="212" 
d="M15 -175q0 6 4.5 10.5t10.5 4.5h118v808h-118q-6 0 -10.5 4.5t-4.5 10.5t4.5 10.5t10.5 4.5h130q18 0 18 -18v-832q0 -18 -18 -18h-130q-6 0 -10.5 4.5t-4.5 10.5z" />
    <glyph glyph-name="asciicircum" unicode="^" horiz-adv-x="424" 
d="M368 339l-156 301l-156 -301q-3 -8 -13 -8q-6 0 -10.5 4.5t-4.5 10.5q0 1 2 7l164 305q6 11 18 11q13 0 18 -11l164 -305q2 -6 2 -7q0 -6 -4.5 -10.5t-10.5 -4.5q-10 0 -13 8z" />
    <glyph glyph-name="underscore" unicode="_" horiz-adv-x="564" 
d="M-5 -55q0 6 4.5 10.5t10.5 4.5h544q6 0 10.5 -4.5t4.5 -10.5t-4.5 -10.5t-10.5 -4.5h-544q-6 0 -10.5 4.5t-4.5 10.5z" />
    <glyph glyph-name="grave" unicode="`" horiz-adv-x="205" 
d="M174 557l-145 119q-6 4 -6 11q0 6 4.5 10.5t10.5 4.5q5 0 9 -4l140 -126q4 -4 4 -8q0 -10 -10 -10q-4 0 -7 3z" />
    <glyph glyph-name="a" unicode="a" horiz-adv-x="514" 
d="M428 349v-336q0 -6 -4.5 -10.5t-10.5 -4.5t-10.5 4.5t-4.5 10.5v46q-65 -71 -167 -71q-69 0 -119 44.5t-50 116.5t49.5 116.5t119.5 44.5q102 0 167 -71v109q0 55 -38.5 87.5t-97.5 32.5q-86 0 -146 -66q-5 -5 -12 -5q-6 0 -10.5 4.5t-4.5 10.5t4 10q67 73 169 73
q76 0 121 -38t45 -108zM398 89v120q-56 74 -159 74q-64 0 -104 -38t-40 -96t40 -96t104 -38q103 0 159 74z" />
    <glyph glyph-name="b" unicode="b" horiz-adv-x="566" 
d="M506 241q0 -114 -59.5 -183.5t-156.5 -69.5q-53 0 -99.5 25.5t-74.5 67.5v-68q0 -6 -4.5 -10.5t-10.5 -4.5t-10.5 4.5t-4.5 10.5v641q0 6 4.5 10.5t10.5 4.5t10.5 -4.5t4.5 -10.5v-254q30 45 75.5 70t98.5 25q97 0 156.5 -70t59.5 -184zM473 241q0 99 -49 163
q-48 64 -134 64q-52 0 -100.5 -28.5t-73.5 -69.5v-259q25 -41 73 -68.5t101 -27.5q86 0 134 63q49 64 49 163z" />
    <glyph glyph-name="c" unicode="c" horiz-adv-x="493" 
d="M288 495q93 0 157 -71q3 -4 3 -9q0 -14 -14 -14q-7 0 -10 5q-52 62 -134 62q-89 0 -143 -64.5t-54 -161.5q0 -98 53.5 -162.5t143.5 -64.5q80 0 133 63q3 5 11 5q14 0 14 -14q0 -7 -3 -10q-64 -71 -157 -71q-102 0 -165 73t-63 181q0 107 63.5 180t164.5 73z" />
    <glyph glyph-name="d" unicode="d" horiz-adv-x="566" 
d="M480 654v-641q0 -6 -4.5 -10.5t-10.5 -4.5t-10.5 4.5t-4.5 10.5v68q-28 -42 -74.5 -67.5t-99.5 -25.5q-97 0 -156.5 69.5t-59.5 183.5t59.5 184t156.5 70q53 0 98.5 -25t75.5 -70v254q0 6 4.5 10.5t10.5 4.5t10.5 -4.5t4.5 -10.5zM450 111v259q-25 41 -73.5 69.5
t-100.5 28.5q-86 0 -135 -64q-48 -64 -48 -163t48 -163q49 -63 135 -63q53 0 101 27.5t73 68.5z" />
    <glyph glyph-name="e" unicode="e" horiz-adv-x="571" 
d="M287 495q103 0 163.5 -71t60.5 -171q0 -21 -18 -21h-399q3 -92 59 -154.5t144 -62.5q92 0 160 65q3 3 9 3q13 0 13 -13q0 -5 -4 -9q-78 -73 -178 -73q-104 0 -170.5 71.5t-66.5 182.5q0 105 65.5 179t161.5 74zM94 259h385q0 81 -52 145t-141 64q-85 0 -137 -63.5
t-55 -145.5z" />
    <glyph glyph-name="f" unicode="f" horiz-adv-x="246" 
d="M275 656q0 -13 -14 -13l-15 3q-15 4 -25 4q-91 0 -91 -116v-51h86q5 0 9.5 -4t4.5 -9q0 -6 -4.5 -10t-9.5 -4h-86v-443q0 -6 -4.5 -10.5t-10.5 -4.5t-10.5 4.5t-4.5 10.5v443h-68q-5 0 -9.5 4t-4.5 10q0 5 4.5 9t9.5 4h68v51q0 67 32 105t89 38q26 0 44 -7q10 -3 10 -14z
" />
    <glyph glyph-name="g" unicode="g" horiz-adv-x="566" 
d="M480 470v-473q0 -96 -54 -144.5t-150 -48.5q-61 0 -100 13.5t-75 49.5q-5 5 -5 12q0 16 16 16q6 0 11 -5q55 -59 153 -59q80 0 127 42.5t47 123.5v83q-29 -42 -75.5 -68t-98.5 -26q-97 0 -156.5 69.5t-59.5 184.5q0 113 59.5 184t156.5 71q53 0 98.5 -25t75.5 -70v70
q0 6 4.5 10.5t10.5 4.5t10.5 -4.5t4.5 -10.5zM450 111v259q-25 41 -73.5 69.5t-100.5 28.5q-84 0 -133.5 -64.5t-49.5 -163.5q0 -98 48 -163q49 -64 135 -64q52 0 100.5 28.5t73.5 69.5z" />
    <glyph glyph-name="h" unicode="h" 
d="M412 13v326q0 70 -31 99.5t-94 29.5q-47 0 -95.5 -26t-75.5 -65v-364q0 -6 -4.5 -10.5t-10.5 -4.5t-10.5 4.5t-4.5 10.5v641q0 6 4.5 10.5t10.5 4.5t10.5 -4.5t4.5 -10.5v-247q30 36 78 61q50 27 97 27q76 0 113.5 -37t37.5 -119v-326q0 -6 -4.5 -10.5t-10.5 -4.5
t-10.5 4.5t-4.5 10.5z" />
    <glyph glyph-name="i" unicode="i" horiz-adv-x="202" 
d="M72 615q0 12 9 20.5t20 8.5q12 0 20.5 -8.5t8.5 -20.5t-8.5 -20.5t-20.5 -8.5q-11 0 -20 8.5t-9 20.5zM86 13v457q0 6 4.5 10.5t10.5 4.5t10.5 -4.5t4.5 -10.5v-457q0 -6 -4.5 -10.5t-10.5 -4.5t-10.5 4.5t-4.5 10.5z" />
    <glyph glyph-name="j" unicode="j" horiz-adv-x="202" 
d="M72 615q0 12 9 20.5t20 8.5q12 0 20.5 -8.5t8.5 -20.5t-8.5 -20.5t-20.5 -8.5q-11 0 -20 8.5t-9 20.5zM-41 -190q-10 3 -10 14q0 14 13 14q1 0 14 -3t25 -3q85 0 85 92v546q0 6 4.5 10.5t10.5 4.5t10.5 -4.5t4.5 -10.5v-546q0 -59 -30 -89.5t-85 -30.5q-21 0 -42 6z" />
    <glyph glyph-name="k" unicode="k" horiz-adv-x="496" 
d="M239 265l210 -240q4 -5 4 -11t-4.5 -11t-11.5 -5t-12 6l-209 239l-100 -92v-138q0 -6 -4.5 -10.5t-10.5 -4.5t-10.5 4.5t-4.5 10.5v641q0 6 4.5 10.5t10.5 4.5t10.5 -4.5t4.5 -10.5v-464l313 291q4 4 10 4q14 0 14 -15q0 -8 -5 -11z" />
    <glyph glyph-name="l" unicode="l" horiz-adv-x="202" 
d="M86 13v641q0 6 4.5 10.5t10.5 4.5t10.5 -4.5t4.5 -10.5v-641q0 -6 -4.5 -10.5t-10.5 -4.5t-10.5 4.5t-4.5 10.5z" />
    <glyph glyph-name="m" unicode="m" horiz-adv-x="770" 
d="M684 348v-335q0 -6 -4.5 -10.5t-10.5 -4.5t-10.5 4.5t-4.5 10.5v335q0 120 -104 120q-40 0 -84 -27q-44 -25 -66 -63v-365q0 -6 -4.5 -10.5t-10.5 -4.5t-10.5 4.5t-4.5 10.5v335q0 120 -104 120q-39 0 -82 -26t-68 -65v-364q0 -6 -4.5 -10.5t-10.5 -4.5t-10.5 4.5
t-4.5 10.5v457q0 6 4.5 10.5t10.5 4.5t10.5 -4.5t4.5 -10.5v-63q19 30 63 58q45 30 92 30q51 0 83.5 -26t41.5 -66q22 35 66 64q44 28 93 28q129 0 129 -147z" />
    <glyph glyph-name="n" unicode="n" 
d="M442 337v-324q0 -6 -4.5 -10.5t-10.5 -4.5t-10.5 4.5t-4.5 10.5v324q0 70 -31 100.5t-94 30.5q-47 0 -95.5 -26t-75.5 -65v-364q0 -6 -4.5 -10.5t-10.5 -4.5t-10.5 4.5t-4.5 10.5v457q0 6 4.5 10.5t10.5 4.5t10.5 -4.5t4.5 -10.5v-64q29 37 78 62q50 27 97 27
q76 0 113.5 -38t37.5 -120z" />
    <glyph glyph-name="o" unicode="o" horiz-adv-x="570" 
d="M60 242q0 108 62.5 180.5t162.5 72.5t162.5 -72.5t62.5 -180.5q0 -109 -62.5 -181.5t-162.5 -72.5q-99 0 -162 72.5t-63 181.5zM477 242q0 94 -52 160t-140 66q-86 0 -139 -66t-53 -160t53 -160.5t139 -66.5q87 0 139.5 66.5t52.5 160.5z" />
    <glyph glyph-name="p" unicode="p" horiz-adv-x="566" 
d="M506 242q0 -114 -59.5 -184t-156.5 -70q-53 0 -98.5 25t-75.5 70v-254q0 -6 -4.5 -10.5t-10.5 -4.5t-10.5 4.5t-4.5 10.5v641q0 6 4.5 10.5t10.5 4.5t10.5 -4.5t4.5 -10.5v-68q28 42 74.5 67.5t99.5 25.5q97 0 156.5 -69.5t59.5 -183.5zM473 242q0 100 -49 162
q-48 64 -134 64q-53 0 -101 -27.5t-73 -68.5v-259q25 -41 73.5 -69.5t100.5 -28.5q86 0 134 64q49 64 49 163z" />
    <glyph glyph-name="q" unicode="q" horiz-adv-x="566" 
d="M480 470v-641q0 -6 -4.5 -10.5t-10.5 -4.5t-10.5 4.5t-4.5 10.5v254q-30 -45 -75.5 -70t-98.5 -25q-97 0 -156.5 70t-59.5 184t59.5 183.5t156.5 69.5q53 0 99.5 -25.5t74.5 -67.5v68q0 6 4.5 10.5t10.5 4.5t10.5 -4.5t4.5 -10.5zM450 113v259q-25 41 -73 68.5t-101 27.5
q-86 0 -135 -64q-48 -63 -48 -162q0 -98 48 -163q49 -64 135 -64q52 0 100.5 28.5t73.5 69.5z" />
    <glyph glyph-name="r" unicode="r" horiz-adv-x="304" 
d="M284 474q0 -7 -6 -12t-15 -5q-43 0 -86 -30q-42 -28 -61 -65v-349q0 -6 -4.5 -10.5t-10.5 -4.5t-10.5 4.5t-4.5 10.5v457q0 6 4.5 10.5t10.5 4.5t10.5 -4.5t4.5 -10.5v-76q58 79 129 94q14 3 20 3q8 0 13.5 -5t5.5 -12z" />
    <glyph glyph-name="s" unicode="s" horiz-adv-x="454" 
d="M49 65q0 7 5 11.5t11 4.5q7 0 12 -5q58 -61 144 -61q65 0 104 31.5t39 80.5q0 33 -20 53q-18 20 -45 31.5t-81 25.5q-52 13 -87 26q-77 30 -77 104q0 56 45 92t119 36q100 0 158 -63q4 -5 4 -10q0 -6 -4.5 -10.5t-10.5 -4.5q-8 0 -11 5q-48 56 -136 56q-61 0 -97.5 -28
t-36.5 -73q0 -29 18 -48q18 -17 42 -26.5t78 -23.5q49 -12 90 -28q82 -31 82 -114q0 -62 -45.5 -100.5t-127.5 -38.5q-104 0 -167 66q-5 5 -5 11z" />
    <glyph glyph-name="t" unicode="t" horiz-adv-x="256" 
d="M245 21q0 -6 -5 -11q-26 -22 -66 -22q-82 0 -82 97v371h-68q-5 0 -9.5 4t-4.5 10q0 5 4.5 9t9.5 4h68v119q0 6 4.5 10.5t10.5 4.5t10.5 -4.5t4.5 -10.5v-119h86q5 0 9.5 -4t4.5 -9q0 -6 -4.5 -10t-9.5 -4h-86v-371q0 -70 52 -70q16 -2 35 9t22 11q14 0 14 -14z" />
    <glyph glyph-name="u" unicode="u" 
d="M442 470v-457q0 -6 -4.5 -10.5t-10.5 -4.5t-10.5 4.5t-4.5 10.5v61q-34 -38 -81 -62t-94 -24q-76 0 -113.5 37t-37.5 119v326q0 6 4.5 10.5t10.5 4.5t10.5 -4.5t4.5 -10.5v-326q0 -70 31 -99.5t94 -29.5q49 0 96 25q49 26 75 63v367q0 6 4.5 10.5t10.5 4.5t10.5 -4.5
t4.5 -10.5z" />
    <glyph glyph-name="v" unicode="v" horiz-adv-x="471" 
d="M452 468q0 -3 -2 -9l-191 -445q-7 -16 -23 -16q-17 0 -24 16l-191 445q-2 6 -2 9q0 7 4.5 12t11.5 5q12 0 14 -10l187 -440l186 440q2 10 14 10q7 0 11.5 -5t4.5 -12z" />
    <glyph glyph-name="w" unicode="w" horiz-adv-x="704" 
d="M495 9l-143 429l-143 -429q-3 -11 -15 -11t-15 11l-150 453l-1 8q0 15 15 15q12 0 15 -11l137 -427l142 427q3 11 15 11t15 -11l142 -427l137 427q3 11 15 11q6 0 10.5 -5t4.5 -11l-2 -10l-149 -450q-3 -11 -15 -11t-15 11z" />
    <glyph glyph-name="x" unicode="x" horiz-adv-x="472" 
d="M435 14q0 -7 -4.5 -11.5t-10.5 -4.5t-12 6l-172 224l-172 -224q-6 -6 -12 -6t-10.5 4.5t-4.5 11.5q0 6 3 9l179 225l-168 212q-3 3 -3 9q0 7 4.5 11.5t10.5 4.5t12 -6l161 -210l161 210q6 6 12 6t10.5 -4.5t4.5 -11.5q0 -6 -3 -9l-168 -212l179 -225q3 -3 3 -9z" />
    <glyph glyph-name="y" unicode="y" horiz-adv-x="471" 
d="M65 -165q1 0 12.5 -2t20.5 -2q48 0 76 66l44 100l-197 463q-2 6 -2 8q0 7 4.5 12t11.5 5q12 0 14 -10l187 -440l186 440q2 10 14 10q7 0 11.5 -5t4.5 -12q0 -3 -2 -9l-246 -573q-36 -82 -106 -82q-16 0 -33 3q-14 3 -14 14q0 14 14 14z" />
    <glyph glyph-name="z" unicode="z" horiz-adv-x="466" 
d="M58 19q0 5 4 10l305 427h-295q-5 0 -9.5 4t-4.5 9q0 6 4.5 10t9.5 4h313q19 0 19 -19q0 -6 -4 -11l-307 -426h301q5 0 9.5 -4t4.5 -10q0 -5 -4.5 -9t-9.5 -4h-317q-19 0 -19 19z" />
    <glyph glyph-name="braceleft" unicode="{" horiz-adv-x="237" 
d="M59 -77v234q0 59 -41 70q-13 6 -13 17t13 17q41 11 41 70v234q0 48 30 80.5t69 32.5h49q6 0 10.5 -4.5t4.5 -10.5t-4.5 -10.5t-10.5 -4.5h-49q-28 0 -48.5 -24t-20.5 -59v-234q0 -67 -45 -87q45 -20 45 -87v-234q0 -35 20.5 -59t48.5 -24h49q6 0 10.5 -4.5t4.5 -10.5
t-4.5 -10.5t-10.5 -4.5h-49q-39 0 -69 32.5t-30 80.5z" />
    <glyph glyph-name="bar" unicode="|" horiz-adv-x="206" 
d="M88 -7v681q0 6 4.5 10.5t10.5 4.5t10.5 -4.5t4.5 -10.5v-681q0 -6 -4.5 -10.5t-10.5 -4.5t-10.5 4.5t-4.5 10.5z" />
    <glyph glyph-name="braceright" unicode="}" horiz-adv-x="237" 
d="M79 -190h-49q-6 0 -10.5 4.5t-4.5 10.5t4.5 10.5t10.5 4.5h49q28 0 48.5 24t20.5 59v234q0 67 45 87q-45 20 -45 87v234q0 35 -20.5 59t-48.5 24h-49q-6 0 -10.5 4.5t-4.5 10.5t4.5 10.5t10.5 4.5h49q39 0 69 -32.5t30 -80.5v-234q0 -59 41 -70q13 -6 13 -17t-13 -17
q-41 -11 -41 -70v-234q0 -48 -30 -80.5t-69 -32.5z" />
    <glyph glyph-name="asciitilde" unicode="~" horiz-adv-x="496" 
d="M467 651q-24 -218 -128 -218q-44 3 -63.5 27t-42.5 85q-19 51 -34 70.5t-42 19.5q-76 0 -98 -190q-2 -13 -15 -13q-6 0 -11 5t-4 12q24 216 128 216q44 -3 64.5 -28t41.5 -85q19 -51 34 -70.5t42 -19.5q76 0 98 192q2 13 15 13q7 0 11.5 -5.5t3.5 -10.5z" />
    <glyph glyph-name="uni00A0" unicode="&#xa0;" horiz-adv-x="260" 
 />
    <glyph glyph-name="exclamdown" unicode="&#xa1;" horiz-adv-x="208" 
d="M137 459q0 -13 -10 -22.5t-23 -9.5t-23 9.5t-10 22.5q0 14 10 23.5t23 9.5q14 0 23.5 -9.5t9.5 -23.5zM104 324q10 0 10 -10l11 -479q0 -8 -6.5 -14.5t-14.5 -6.5t-14.5 6.5t-6.5 14.5l11 479q0 10 10 10z" />
    <glyph glyph-name="cent" unicode="&#xa2;" horiz-adv-x="493" 
d="M448 69q0 -7 -3 -10q-61 -70 -153 -71v-75q0 -6 -4.5 -10.5t-10.5 -4.5t-10.5 4.5t-4.5 10.5v76q-91 10 -146.5 81.5t-55.5 171.5t55.5 171t146.5 81v58q0 6 4.5 10.5t10.5 4.5t10.5 -4.5t4.5 -10.5v-57q92 -1 153 -71q3 -4 3 -9q0 -14 -14 -14q-7 0 -10 5
q-52 62 -132 62v-453q78 0 131 63q3 5 11 5q14 0 14 -14zM262 17v449q-79 -10 -124 -73q-45 -61 -45 -151q0 -89 45 -152q46 -63 124 -73z" />
    <glyph glyph-name="sterling" unicode="&#xa3;" horiz-adv-x="491" 
d="M478 36q0 -7 -6 -13q-46 -37 -114 -37q-48 0 -91 24q-44 24 -87 24q-33 0 -104 -33q-6 -2 -8 -2q-7 0 -12 5t-5 12q0 12 10 16q138 66 138 171q0 32 -17 64h-152q-6 0 -10.5 4.5t-4.5 10.5t4.5 10.5t10.5 4.5h130l-28 30q-39 39 -61 75q-20 35 -20 87q0 75 60 131.5
t148 56.5q52 0 97.5 -25t71.5 -68q2 -6 2 -8q0 -6 -4.5 -10.5t-10.5 -4.5q-10 0 -14 7q-21 34 -59.5 56.5t-82.5 22.5q-73 0 -124 -43.5t-51 -114.5q0 -45 17 -76t59 -77q25 -26 34 -39h139q6 0 10.5 -4.5t4.5 -10.5t-4.5 -10.5t-10.5 -4.5h-119q15 -32 15 -64
q0 -48 -21 -82t-65 -67q27 10 55 10q33 0 86 -25q44 -23 76 -23q48 0 93 32q3 3 10 3q6 0 10.5 -4.5t4.5 -10.5z" />
    <glyph glyph-name="currency" unicode="&#xa4;" horiz-adv-x="577" 
d="M463 180l72 -72q4 -4 4 -10t-4.5 -10.5t-10.5 -4.5t-10 4l-71 71q-62 -59 -155 -59t-155 59l-71 -71q-4 -4 -10 -4t-10.5 4.5t-4.5 10.5t4 10l72 72q-50 65 -50 153q0 91 51 154l-74 74q-4 4 -4 10t4.5 10.5t10.5 4.5t10 -4l73 -73q63 57 154 57q92 0 154 -57l72 72
q4 4 10 4t10.5 -4.5t4.5 -10.5t-4 -10l-73 -73q51 -63 51 -154q0 -88 -50 -153zM480 333q0 85 -52 144t-140 59q-86 0 -139 -59.5t-53 -143.5q0 -85 53 -144.5t139 -59.5q88 0 140 59.5t52 144.5z" />
    <glyph glyph-name="yen" unicode="&#xa5;" horiz-adv-x="610" 
d="M575 652q0 -6 -4 -10l-229 -323h234q6 0 10.5 -4.5t4.5 -10.5t-4.5 -10.5t-10.5 -4.5h-255v-130h255q6 0 10.5 -4.5t4.5 -10.5t-4.5 -10.5t-10.5 -4.5h-255v-115q0 -6 -4.5 -11t-11.5 -5t-11.5 5t-4.5 11v115h-255q-6 0 -10.5 4.5t-4.5 10.5t4.5 10.5t10.5 4.5h255v130
h-255q-6 0 -10.5 4.5t-4.5 10.5t4.5 10.5t10.5 4.5h234l-229 323q-4 4 -4 10q0 7 5 12t12 5q10 0 14 -7l239 -341l239 341q4 7 14 7q7 0 12 -5t5 -12z" />
    <glyph glyph-name="brokenbar" unicode="&#xa6;" horiz-adv-x="206" 
d="M88 384v290q0 6 4.5 10.5t10.5 4.5t10.5 -4.5t4.5 -10.5v-290q0 -6 -4.5 -10.5t-10.5 -4.5t-10.5 4.5t-4.5 10.5zM88 -7v290q0 6 4.5 10.5t10.5 4.5t10.5 -4.5t4.5 -10.5v-290q0 -6 -4.5 -10.5t-10.5 -4.5t-10.5 4.5t-4.5 10.5z" />
    <glyph glyph-name="section" unicode="&#xa7;" horiz-adv-x="454" 
d="M394 58q0 -65 -47 -102t-126 -37q-104 0 -167 66q-5 8 -5 11q0 7 5 11.5t11 4.5q7 0 12 -5q55 -61 144 -61q64 0 103.5 30.5t39.5 81.5q-3 48 -35 68.5t-111 40.5q-59 16 -88 27q-76 32 -76 104q0 50 34.5 83.5t95.5 46.5q-67 19 -98.5 46.5t-31.5 74.5q0 56 44 92
t120 36q96 0 157 -63q4 -5 4 -10q0 -15 -14 -15q-8 0 -11 5q-47 56 -136 56q-58 0 -96 -29t-38 -74q0 -29 18 -48q17 -17 41.5 -26.5t77.5 -22.5q55 -14 90 -27q83 -34 83 -117q0 -88 -100 -127q51 -18 75.5 -47t24.5 -74zM84 296q0 -29 20 -49q19 -17 46 -27t88 -26
q14 -2 22 -5q53 24 78.5 52t25.5 68q-3 47 -34.5 68t-103.5 40q-77 -21 -109.5 -49.5t-32.5 -71.5z" />
    <glyph glyph-name="dieresis" unicode="&#xa8;" horiz-adv-x="404" 
d="M73 598q0 11 8.5 19.5t19.5 8.5t19.5 -8.5t8.5 -19.5t-8.5 -19.5t-19.5 -8.5t-19.5 8.5t-8.5 19.5zM275 598q0 11 8.5 19.5t19.5 8.5t19.5 -8.5t8.5 -19.5t-8.5 -19.5t-19.5 -8.5t-19.5 8.5t-8.5 19.5z" />
    <glyph glyph-name="copyright" unicode="&#xa9;" horiz-adv-x="778" 
d="M389 678q139 2 243 -102t102 -243q2 -140 -102 -244t-243 -101q-139 -3 -243.5 101.5t-101.5 243.5q-3 139 101 243t244 102zM389 652q-128 3 -225 -94t-94 -225q-3 -128 94 -225t225 -94q128 -3 225 94t94 225q2 129 -94 225t-225 94zM389 549q84 0 136 -55q4 -5 4 -10
t-4 -9.5t-10 -4.5q-5 0 -10 5q-47 47 -116 47q-73 0 -126 -53.5t-53 -134.5q0 -79 54 -134t125 -55q70 0 116 48q5 5 10 5q6 0 10 -4.5t4 -9.5q0 -6 -4 -10q-54 -56 -136 -56q-86 0 -147 63.5t-61 153.5t61 152t147 62z" />
    <glyph glyph-name="ordfeminine" unicode="&#xaa;" horiz-adv-x="372" 
d="M303 549v-211q0 -5 -4 -9.5t-9 -4.5q-6 0 -10 4.5t-4 9.5v26q-45 -46 -113 -46q-46 0 -79.5 29.5t-33.5 75.5q0 47 33 75.5t80 28.5q68 0 113 -46v68q0 34 -26 54t-64 20q-57 0 -95 -41q-4 -4 -10 -4q-13 0 -13 13q0 5 4 9q47 48 115 48q53 0 84.5 -25.5t31.5 -73.5z
M276 386v73q-38 46 -104 46q-41 0 -67 -23t-26 -59t25.5 -59.5t67.5 -23.5q66 0 104 46z" />
    <glyph glyph-name="guillemotleft" unicode="&#xab;" horiz-adv-x="364" 
d="M187 66l-146 164q-5 8 -5 13t5 13l146 161q3 5 11 5q14 0 14 -15q0 -5 -3 -9l-140 -155l140 -157q4 -5 4 -10q0 -6 -4.5 -10.5t-10.5 -4.5q-8 0 -11 5zM292 66l-146 164q-5 8 -5 13t5 13l146 161q3 5 11 5q14 0 14 -15q0 -5 -3 -9l-140 -155l140 -157q4 -5 4 -10
q0 -6 -4.5 -10.5t-10.5 -4.5q-8 0 -11 5z" />
    <glyph glyph-name="logicalnot" unicode="&#xac;" horiz-adv-x="494" 
d="M449 218q-7 0 -11.5 5t-4.5 11v184h-391q-6 0 -10.5 4.5t-4.5 10.5t4.5 10.5t10.5 4.5h405q18 0 18 -18v-196q0 -6 -4.5 -11t-11.5 -5z" />
    <glyph glyph-name="uni00AD" unicode="&#xad;" horiz-adv-x="300" 
d="M28 242q0 6 4.5 10.5t10.5 4.5h214q6 0 10.5 -4.5t4.5 -10.5t-4.5 -10.5t-10.5 -4.5h-214q-6 0 -10.5 4.5t-4.5 10.5z" />
    <glyph glyph-name="registered" unicode="&#xae;" horiz-adv-x="494" 
d="M247 677q88 0 150 -62t62 -150t-62 -150t-150 -62t-150 62t-62 150t62 150t150 62zM247 651q-77 0 -131.5 -54.5t-54.5 -131.5q0 -76 55 -131t131 -55t131 55t55 131q0 77 -54.5 131.5t-131.5 54.5zM308 345l-61 94h-51v-86q0 -14 -14 -14q-15 0 -15 14v213q0 8 6 14
t14 6h79q31 0 52.5 -21t21.5 -53q0 -31 -18 -49.5t-40 -22.5l52 -78q2 -4 2 -7q0 -7 -4.5 -11.5t-10.5 -4.5q-9 0 -13 6zM266 559h-70v-92h70q16 0 30 13.5t14 31.5q0 20 -13 33.5t-31 13.5z" />
    <glyph glyph-name="overscore" unicode="&#xaf;" horiz-adv-x="363" 
d="M38 594q0 6 4.5 10t9.5 4h259q5 0 9.5 -4t4.5 -10q0 -5 -4.5 -9t-9.5 -4h-259q-5 0 -9.5 4t-4.5 9z" />
    <glyph glyph-name="degree" unicode="&#xb0;" horiz-adv-x="273" 
d="M26 566q0 46 32 78.5t78 32.5t78.5 -32.5t32.5 -78.5t-32.5 -78t-78.5 -32t-78 32t-32 78zM56 566q0 -33 23.5 -56.5t56.5 -23.5t57 23.5t24 56.5t-24 57t-57 24t-56.5 -24t-23.5 -57z" />
    <glyph glyph-name="plusminus" unicode="&#xb1;" horiz-adv-x="494" 
d="M263 322v-208q0 -6 -4.5 -11t-11.5 -5t-11.5 5t-4.5 11v208h-189q-6 0 -10.5 4.5t-4.5 10.5t4.5 10.5t10.5 4.5h189v202q0 6 4.5 11t11.5 5t11.5 -5t4.5 -11v-202h189q6 0 10.5 -4.5t4.5 -10.5t-4.5 -10.5t-10.5 -4.5h-189zM27 15q0 6 4.5 10.5t10.5 4.5h410
q6 0 10.5 -4.5t4.5 -10.5t-4.5 -10.5t-10.5 -4.5h-410q-6 0 -10.5 4.5t-4.5 10.5z" />
    <glyph glyph-name="uni00B2" unicode="&#xb2;" horiz-adv-x="330" 
d="M22 437q0 9 7 13q124 89 179.5 149.5t55.5 114.5q0 42 -28 64.5t-72 22.5q-69 0 -107 -44q-3 -4 -10 -4q-13 0 -13 13q0 4 3 9q46 52 128 52q51 0 89 -28q39 -29 39 -84q0 -61 -53.5 -121.5t-171.5 -146.5h216q13 0 13 -13t-13 -13h-246q-6 0 -11 4.5t-5 11.5z" />
    <glyph glyph-name="uni00B3" unicode="&#xb3;" horiz-adv-x="360" 
d="M36 471q-3 5 -3 8q0 13 14 13q7 0 10 -4q39 -48 111 -48q50 0 79 23.5t29 64.5q0 43 -32 65t-85 22h-25q-13 0 -13 12q0 13 13 13h25q50 0 80.5 20.5t30.5 60.5q0 36 -29.5 58t-73.5 22q-64 0 -105 -44q-4 -4 -10 -4q-13 0 -13 13q0 6 4 10q51 51 125 51q56 0 93.5 -29
t37.5 -76q0 -40 -26 -64t-63 -30q36 -4 66 -30t30 -70q0 -51 -37.5 -82.5t-100.5 -31.5q-88 0 -132 57z" />
    <glyph glyph-name="acute" unicode="&#xb4;" horiz-adv-x="205" 
d="M24 554q-10 0 -10 10q0 4 4 8l140 126q4 4 9 4q6 0 10.5 -4.5t4.5 -10.5q0 -7 -6 -11l-145 -119q-3 -3 -7 -3z" />
    <glyph glyph-name="uni00B5" unicode="&#xb5;" horiz-adv-x="542" 
d="M503 15h2q5 0 8.5 -4.5t3.5 -8.5q0 -12 -12 -14h-11q-74 0 -82 86q-33 -38 -79 -62t-90 -24q-95 0 -127 65v-224q0 -6 -4.5 -10.5t-10.5 -4.5t-10.5 4.5t-4.5 10.5v641q0 6 4.5 10.5t10.5 4.5t10.5 -4.5t4.5 -10.5v-326q0 -70 31.5 -100.5t95.5 -30.5q46 0 95 26
q49 28 74 64v367q0 6 4.5 10.5t10.5 4.5t10.5 -4.5t4.5 -10.5v-385q0 -70 52 -70h9z" />
    <glyph glyph-name="paragraph" unicode="&#xb6;" horiz-adv-x="449" 
d="M327 -87v724h-98v-724q0 -6 -4.5 -10.5t-10.5 -4.5t-10.5 4.5t-4.5 10.5v410q-71 0 -121.5 50.5t-50.5 121.5t50.5 121.5t121.5 50.5h140q18 0 18 -18v-736q0 -6 -4.5 -10.5t-10.5 -4.5t-10.5 4.5t-4.5 10.5z" />
    <glyph glyph-name="middot" unicode="&#xb7;" horiz-adv-x="208" 
d="M71 245q0 13 10 22.5t23 9.5t23 -9.5t10 -22.5t-9.5 -23t-23.5 -10q-13 0 -23 10t-10 23z" />
    <glyph glyph-name="cedilla" unicode="&#xb8;" horiz-adv-x="191" 
d="M7 -164q-7 4 -7 13q0 14 14 14q6 0 10 -3q29 -20 69 -20q30 0 49.5 13.5t19.5 35.5q0 43 -44 43q-21 0 -38 -14q-4 -4 -10 -4q-15 0 -15 15l2 8l27 74h30l-26 -69q15 12 38 12q29 0 47 -17.5t18 -47.5q0 -33 -28 -54.5t-70 -21.5q-49 0 -86 23z" />
    <glyph glyph-name="uni00B9" unicode="&#xb9;" horiz-adv-x="192" 
d="M102 434v347l-54 -59q-3 -5 -10 -5q-14 0 -14 14q0 5 4 9l73 77q6 6 13 6t12.5 -5.5t5.5 -12.5v-371q0 -6 -4.5 -10.5t-10.5 -4.5t-10.5 4.5t-4.5 10.5z" />
    <glyph glyph-name="ordmasculine" unicode="&#xba;" horiz-adv-x="405" 
d="M202 648q68 0 112 -47q43 -46 43 -118q0 -70 -43.5 -117.5t-111.5 -47.5q-67 0 -110.5 47.5t-43.5 117.5q0 71 43 118t111 47zM202 621q-56 0 -90 -39.5t-34 -98.5t34 -99t90 -40q57 0 91.5 40t34.5 99t-34.5 98.5t-91.5 39.5z" />
    <glyph glyph-name="guillemotright" unicode="&#xbb;" horiz-adv-x="364" 
d="M46 76q0 5 4 10l140 157l-140 155q-3 4 -3 9q0 15 14 15q8 0 11 -5l146 -161q5 -8 5 -13t-5 -13l-146 -164q-3 -5 -11 -5q-6 0 -10.5 4.5t-4.5 10.5zM151 76q0 5 4 10l140 157l-140 155q-3 4 -3 9q0 15 14 15q8 0 11 -5l146 -161q5 -8 5 -13t-5 -13l-146 -164
q-3 -5 -11 -5q-6 0 -10.5 4.5t-4.5 10.5z" />
    <glyph glyph-name="onequarter" unicode="&#xbc;" horiz-adv-x="653" 
d="M102 280v347l-54 -59q-3 -5 -10 -5q-14 0 -14 14q0 5 4 9l73 77q6 6 13 6t12.5 -5.5t5.5 -12.5v-371q0 -6 -4.5 -10.5t-10.5 -4.5t-10.5 4.5t-4.5 10.5zM98 -2q-7 0 -11.5 4.5t-4.5 10.5q0 3 3 9l408 640q4 7 14 7q6 0 10.5 -4.5t4.5 -11.5q0 -2 -2 -8l-410 -640
q-4 -7 -12 -7zM629 126q0 -13 -13 -13h-51v-100q0 -15 -14 -15q-15 0 -15 15v100h-180q-7 0 -12.5 5.5t-5.5 12.5q0 5 4 10l178 250q8 11 20 11q10 0 17.5 -7.5t7.5 -17.5v-238h51q13 0 13 -13zM371 139h165v232z" />
    <glyph glyph-name="onehalf" unicode="&#xbd;" horiz-adv-x="693" 
d="M102 280v347l-54 -59q-3 -5 -10 -5q-14 0 -14 14q0 5 4 9l73 77q6 6 13 6t12.5 -5.5t5.5 -12.5v-371q0 -6 -4.5 -10.5t-10.5 -4.5t-10.5 4.5t-4.5 10.5zM98 -2q-7 0 -11.5 4.5t-4.5 10.5q0 3 3 9l408 640q4 7 14 7q6 0 10.5 -4.5t4.5 -11.5q0 -2 -2 -8l-410 -640
q-4 -7 -12 -7zM385 16q0 9 7 13q124 89 179.5 149.5t55.5 114.5q0 42 -28 64.5t-72 22.5q-69 0 -107 -44q-3 -4 -10 -4q-13 0 -13 13q0 5 3 9q46 52 128 52q51 0 89 -28q39 -28 39 -84q0 -61 -53.5 -121.5t-171.5 -146.5h216q13 0 13 -13t-13 -13h-246q-6 0 -11 4.5t-5 11.5
z" />
    <glyph glyph-name="threequarters" unicode="&#xbe;" horiz-adv-x="771" 
d="M36 317q-3 5 -3 8q0 13 14 13q7 0 10 -4q39 -48 111 -48q50 0 79 23.5t29 64.5q0 43 -32 65t-85 22h-25q-13 0 -13 12q0 13 13 13h25q50 0 80.5 20.5t30.5 60.5q0 36 -29.5 58t-73.5 22q-64 0 -105 -44q-4 -4 -10 -4q-13 0 -13 13q0 6 4 10q51 51 125 51q56 0 93.5 -29
t37.5 -76q0 -40 -26 -64t-63 -30q36 -4 66 -30t30 -70q0 -51 -37.5 -82.5t-100.5 -31.5q-88 0 -132 57zM216 -2q-7 0 -11.5 4.5t-4.5 10.5q0 3 3 9l408 640q4 7 14 7q6 0 10.5 -4.5t4.5 -11.5q0 -2 -2 -8l-410 -640q-4 -7 -12 -7zM747 126q0 -13 -13 -13h-51v-100
q0 -15 -14 -15q-15 0 -15 15v100h-180q-7 0 -12.5 5.5t-5.5 12.5q0 5 4 10l178 250q8 11 20 11q10 0 17.5 -7.5t7.5 -17.5v-238h51q13 0 13 -13zM489 139h165v232z" />
    <glyph glyph-name="questiondown" unicode="&#xbf;" horiz-adv-x="391" 
d="M245 427q-13 0 -23 9.5t-10 22.5q0 14 10 23.5t23 9.5q14 0 23.5 -9.5t9.5 -23.5q0 -13 -10 -22.5t-23 -9.5zM182 101q-41 -28 -58 -42.5t-31.5 -40t-16.5 -59.5q0 -53 41 -88t110 -35q116 0 182 86q6 6 12 6q16 0 16 -16q0 -6 -3 -9q-75 -97 -207 -97q-84 0 -135 44.5
t-51 108.5q0 38 17 69q16 28 38.5 48t65.5 49q52 35 73 58.5t21 55.5q0 22 -23 45q-5 3 -5 11q0 15 15 15q6 0 10 -4q33 -30 33 -67q0 -30 -14 -55q-13 -22 -31.5 -38.5t-58.5 -44.5z" />
    <glyph glyph-name="Agrave" unicode="&#xc0;" horiz-adv-x="636" 
d="M607 16q0 -18 -17 -18q-11 0 -16 11l-70 170h-372l-70 -170q-5 -11 -16 -11q-7 0 -12 5t-5 12q0 3 2 9l262 628q6 17 25 17t25 -17l262 -628q2 -6 2 -8zM144 209h348l-174 421zM302 724l-145 119q-6 5 -6 11t4.5 10.5t10.5 4.5q5 0 9 -4l140 -126q4 -4 4 -8
q0 -10 -10 -10q-4 0 -7 3z" />
    <glyph glyph-name="Aacute" unicode="&#xc1;" horiz-adv-x="636" 
d="M607 16q0 -18 -17 -18q-11 0 -16 11l-70 170h-372l-70 -170q-5 -11 -16 -11q-7 0 -12 5t-5 12q0 3 2 9l262 628q6 17 25 17t25 -17l262 -628q2 -6 2 -8zM144 209h348l-174 421zM326 721q-10 0 -10 10q0 4 4 8l140 126q4 4 9 4q6 0 10.5 -4.5t4.5 -10.5t-6 -11l-145 -119
q-3 -3 -7 -3z" />
    <glyph glyph-name="Acircumflex" unicode="&#xc2;" horiz-adv-x="636" 
d="M607 16q0 -18 -17 -18q-11 0 -16 11l-70 170h-372l-70 -170q-5 -11 -16 -11q-7 0 -12 5t-5 12q0 3 2 9l262 628q6 17 25 17t25 -17l262 -628q2 -6 2 -8zM144 209h348l-174 421zM410 720l-91 123l-91 -123q-4 -4 -9 -4q-12 0 -12 12l2 6l89 128q6 11 20 11h2q14 0 20 -11
l89 -128l2 -6q0 -12 -12 -12q-5 0 -9 4z" />
    <glyph glyph-name="Atilde" unicode="&#xc3;" horiz-adv-x="636" 
d="M607 16q0 -18 -17 -18q-11 0 -16 11l-70 170h-372l-70 -170q-5 -11 -16 -11q-7 0 -12 5t-5 12q0 3 2 9l262 628q6 17 25 17t25 -17l262 -628q2 -6 2 -8zM144 209h348l-174 421zM306 784q-16 28 -26.5 39t-26.5 11q-25 0 -41 -24.5t-18 -71.5q0 -13 -13 -13q-5 0 -9 4.5
t-4 9.5q3 54 26.5 88t61.5 34q25 0 41.5 -15t33.5 -48q16 -28 26.5 -39t26.5 -11q54 0 59 96q0 13 13 13q5 0 9 -4.5t4 -9.5q-3 -54 -26.5 -88t-61.5 -34q-26 0 -40.5 14t-34.5 49z" />
    <glyph glyph-name="Adieresis" unicode="&#xc4;" horiz-adv-x="636" 
d="M607 16q0 -18 -17 -18q-11 0 -16 11l-70 170h-372l-70 -170q-5 -11 -16 -11q-7 0 -12 5t-5 12q0 3 2 9l262 628q6 17 25 17t25 -17l262 -628q2 -6 2 -8zM144 209h348l-174 421zM189 765q0 11 8.5 19.5t19.5 8.5t19.5 -8.5t8.5 -19.5t-8.5 -19.5t-19.5 -8.5t-19.5 8.5
t-8.5 19.5zM391 765q0 11 8.5 19.5t19.5 8.5t19.5 -8.5t8.5 -19.5t-8.5 -19.5t-19.5 -8.5t-19.5 8.5t-8.5 19.5z" />
    <glyph glyph-name="Aring" unicode="&#xc5;" horiz-adv-x="636" 
d="M607 16q0 -18 -17 -18q-11 0 -16 11l-70 170h-372l-70 -170q-5 -11 -16 -11q-7 0 -12 5t-5 12q0 3 2 9l262 628q6 17 25 17t25 -17l262 -628q2 -6 2 -8zM144 209h348l-174 421zM318 906q38 0 65 -27.5t27 -65.5t-27 -65.5t-65 -27.5t-65.5 27.5t-27.5 65.5t27.5 65.5
t65.5 27.5zM318 882q-29 0 -49 -20t-20 -49q0 -28 20 -48.5t49 -20.5q28 0 48 20t20 49t-20 49t-48 20z" />
    <glyph glyph-name="AE" unicode="&#xc6;" horiz-adv-x="930" 
d="M867 15q0 -6 -4.5 -10.5t-10.5 -4.5h-377q-18 0 -18 18v161h-285l-110 -173q-5 -8 -14 -8q-6 0 -10.5 4.5t-4.5 11.5q0 2 2 8l403 633q8 12 22 12h392q6 0 10.5 -4.5t4.5 -10.5t-4.5 -10.5t-10.5 -4.5h-363v-279h356q6 0 10.5 -4.5t4.5 -10.5t-4.5 -10.5t-10.5 -4.5h-356
v-298h363q6 0 10.5 -4.5t4.5 -10.5zM191 209h266v421z" />
    <glyph glyph-name="Ccedilla" unicode="&#xc7;" horiz-adv-x="667" 
d="M625 94q0 -7 -5 -12q-91 -91 -216 -94l-17 -46q15 12 38 12q29 0 47 -17.5t18 -47.5q0 -33 -28 -54.5t-70 -21.5q-49 0 -86 23q-7 4 -7 13q0 14 14 14q5 0 10 -3q29 -20 69 -20q30 0 49.5 13.5t19.5 35.5q0 43 -44 43q-21 0 -38 -14q-4 -4 -10 -4q-15 0 -15 15l2 8l19 52
q-132 8 -221 104.5t-89 239.5q-2 148 96.5 247.5t236.5 97.5q131 0 222 -94q4 -4 4 -11q0 -16 -16 -16q-7 0 -12 5q-80 86 -198 86q-125 2 -212.5 -88.5t-85.5 -226.5q-2 -135 85.5 -226t212.5 -89q57 0 109.5 23t88.5 64q5 5 12 5t12 -4.5t5 -11.5z" />
    <glyph glyph-name="Egrave" unicode="&#xc8;" horiz-adv-x="558" 
d="M88 18v631q0 18 18 18h377q6 0 10.5 -4.5t4.5 -10.5t-4.5 -10.5t-10.5 -4.5h-363v-279h356q6 0 10.5 -4.5t4.5 -10.5t-4.5 -10.5t-10.5 -4.5h-356v-298h363q6 0 10.5 -4.5t4.5 -10.5t-4.5 -10.5t-10.5 -4.5h-377q-18 0 -18 18zM280 724l-145 119q-6 5 -6 11t4.5 10.5
t10.5 4.5q5 0 9 -4l140 -126q4 -4 4 -8q0 -10 -10 -10q-4 0 -7 3z" />
    <glyph glyph-name="Eacute" unicode="&#xc9;" horiz-adv-x="558" 
d="M88 18v631q0 18 18 18h377q6 0 10.5 -4.5t4.5 -10.5t-4.5 -10.5t-10.5 -4.5h-363v-279h356q6 0 10.5 -4.5t4.5 -10.5t-4.5 -10.5t-10.5 -4.5h-356v-298h363q6 0 10.5 -4.5t4.5 -10.5t-4.5 -10.5t-10.5 -4.5h-377q-18 0 -18 18zM304 721q-10 0 -10 10q0 4 4 8l140 126
q4 4 9 4q6 0 10.5 -4.5t4.5 -10.5t-6 -11l-145 -119q-3 -3 -7 -3z" />
    <glyph glyph-name="Ecircumflex" unicode="&#xca;" horiz-adv-x="558" 
d="M88 18v631q0 18 18 18h377q6 0 10.5 -4.5t4.5 -10.5t-4.5 -10.5t-10.5 -4.5h-363v-279h356q6 0 10.5 -4.5t4.5 -10.5t-4.5 -10.5t-10.5 -4.5h-356v-298h363q6 0 10.5 -4.5t4.5 -10.5t-4.5 -10.5t-10.5 -4.5h-377q-18 0 -18 18zM388 720l-91 123l-91 -123q-4 -4 -9 -4
q-12 0 -12 12l2 6l89 128q6 11 20 11h2q14 0 20 -11l89 -128l2 -6q0 -12 -12 -12q-5 0 -9 4z" />
    <glyph glyph-name="Edieresis" unicode="&#xcb;" horiz-adv-x="558" 
d="M88 18v631q0 18 18 18h377q6 0 10.5 -4.5t4.5 -10.5t-4.5 -10.5t-10.5 -4.5h-363v-279h356q6 0 10.5 -4.5t4.5 -10.5t-4.5 -10.5t-10.5 -4.5h-356v-298h363q6 0 10.5 -4.5t4.5 -10.5t-4.5 -10.5t-10.5 -4.5h-377q-18 0 -18 18zM167 765q0 11 8.5 19.5t19.5 8.5t19.5 -8.5
t8.5 -19.5t-8.5 -19.5t-19.5 -8.5t-19.5 8.5t-8.5 19.5zM369 765q0 11 8.5 19.5t19.5 8.5t19.5 -8.5t8.5 -19.5t-8.5 -19.5t-19.5 -8.5t-19.5 8.5t-8.5 19.5z" />
    <glyph glyph-name="Igrave" unicode="&#xcc;" horiz-adv-x="208" 
d="M88 14v639q0 6 4.5 11t11.5 5t11.5 -5t4.5 -11v-639q0 -6 -4.5 -11t-11.5 -5t-11.5 5t-4.5 11zM88 724l-145 119q-6 5 -6 11t4.5 10.5t10.5 4.5q5 0 9 -4l140 -126q4 -4 4 -8q0 -10 -10 -10q-4 0 -7 3z" />
    <glyph glyph-name="Iacute" unicode="&#xcd;" horiz-adv-x="208" 
d="M88 14v639q0 6 4.5 11t11.5 5t11.5 -5t4.5 -11v-639q0 -6 -4.5 -11t-11.5 -5t-11.5 5t-4.5 11zM112 721q-10 0 -10 10q0 4 4 8l140 126q4 4 9 4q6 0 10.5 -4.5t4.5 -10.5t-6 -11l-145 -119q-3 -3 -7 -3z" />
    <glyph glyph-name="Icircumflex" unicode="&#xce;" horiz-adv-x="208" 
d="M88 14v639q0 6 4.5 11t11.5 5t11.5 -5t4.5 -11v-639q0 -6 -4.5 -11t-11.5 -5t-11.5 5t-4.5 11zM196 720l-91 123l-91 -123q-4 -4 -9 -4q-12 0 -12 12l2 6l89 128q6 11 20 11h2q14 0 20 -11l89 -128l2 -6q0 -12 -12 -12q-5 0 -9 4z" />
    <glyph glyph-name="Idieresis" unicode="&#xcf;" horiz-adv-x="208" 
d="M88 14v639q0 6 4.5 11t11.5 5t11.5 -5t4.5 -11v-639q0 -6 -4.5 -11t-11.5 -5t-11.5 5t-4.5 11zM-25 765q0 11 8.5 19.5t19.5 8.5t19.5 -8.5t8.5 -19.5t-8.5 -19.5t-19.5 -8.5t-19.5 8.5t-8.5 19.5zM177 765q0 11 8.5 19.5t19.5 8.5t19.5 -8.5t8.5 -19.5t-8.5 -19.5
t-19.5 -8.5t-19.5 8.5t-8.5 19.5z" />
    <glyph glyph-name="Eth" unicode="&#xd0;" horiz-adv-x="715" 
d="M649 333q2 -139 -91.5 -237t-240.5 -96h-180q-18 0 -18 18v299h-94q-6 0 -10.5 4.5t-4.5 10.5t4.5 10.5t10.5 4.5h94v302q0 18 18 18h180q146 2 240 -97t92 -237zM614 333q0 131 -81 217.5t-216 86.5h-166v-290h175q6 0 10.5 -4.5t4.5 -10.5t-4.5 -10.5t-10.5 -4.5h-175
v-287h166q136 0 216.5 86t80.5 217z" />
    <glyph glyph-name="Ntilde" unicode="&#xd1;" horiz-adv-x="690" 
d="M565 7l-445 608v-601q0 -6 -4.5 -11t-11.5 -5t-11.5 5t-4.5 11v634q0 8 6 14.5t14 6.5q12 0 17 -9l445 -602v595q0 6 4.5 11t11.5 5t11.5 -5t4.5 -11v-634q0 -8 -6 -14.5t-14 -6.5q-12 0 -17 9zM333 784q-16 28 -26.5 39t-26.5 11q-25 0 -41 -24.5t-18 -71.5
q0 -13 -13 -13q-5 0 -9 4.5t-4 9.5q3 54 26.5 88t61.5 34q25 0 41.5 -15t33.5 -48q16 -28 26.5 -39t26.5 -11q25 0 41 24.5t18 71.5q0 13 13 13q5 0 9 -4.5t4 -9.5q-3 -54 -26.5 -88t-61.5 -34q-26 0 -40.5 14t-34.5 49z" />
    <glyph glyph-name="Ograve" unicode="&#xd2;" horiz-adv-x="764" 
d="M382 678q140 0 228.5 -98.5t88.5 -246.5t-88.5 -246.5t-228.5 -98.5q-140 -2 -229.5 98t-87.5 247q-2 147 87.5 247t229.5 98zM382 648q-127 0 -204.5 -88t-77.5 -227q-2 -136 77 -226.5t205 -88.5q124 -2 204 88.5t78 226.5q0 138 -78 226.5t-204 88.5zM366 724
l-145 119q-6 5 -6 11t4.5 10.5t10.5 4.5q5 0 9 -4l140 -126q4 -4 4 -8q0 -10 -10 -10q-4 0 -7 3z" />
    <glyph glyph-name="Oacute" unicode="&#xd3;" horiz-adv-x="764" 
d="M382 678q140 0 228.5 -98.5t88.5 -246.5t-88.5 -246.5t-228.5 -98.5q-140 -2 -229.5 98t-87.5 247q-2 147 87.5 247t229.5 98zM382 648q-127 0 -204.5 -88t-77.5 -227q-2 -136 77 -226.5t205 -88.5q124 -2 204 88.5t78 226.5q0 138 -78 226.5t-204 88.5zM390 721
q-10 0 -10 10q0 4 4 8l140 126q4 4 9 4q6 0 10.5 -4.5t4.5 -10.5t-6 -11l-145 -119q-3 -3 -7 -3z" />
    <glyph glyph-name="Ocircumflex" unicode="&#xd4;" horiz-adv-x="764" 
d="M382 678q140 0 228.5 -98.5t88.5 -246.5t-88.5 -246.5t-228.5 -98.5q-140 -2 -229.5 98t-87.5 247q-2 147 87.5 247t229.5 98zM382 648q-127 0 -204.5 -88t-77.5 -227q-2 -136 77 -226.5t205 -88.5q124 -2 204 88.5t78 226.5q0 138 -78 226.5t-204 88.5zM474 720l-91 123
l-91 -123q-4 -4 -9 -4q-12 0 -12 12l2 6l89 128q6 11 20 11h2q14 0 20 -11l89 -128l2 -6q0 -12 -12 -12q-5 0 -9 4z" />
    <glyph glyph-name="Otilde" unicode="&#xd5;" horiz-adv-x="764" 
d="M382 678q140 0 228.5 -98.5t88.5 -246.5t-88.5 -246.5t-228.5 -98.5q-140 -2 -229.5 98t-87.5 247q-2 147 87.5 247t229.5 98zM382 648q-127 0 -204.5 -88t-77.5 -227q-2 -136 77 -226.5t205 -88.5q124 -2 204 88.5t78 226.5q0 138 -78 226.5t-204 88.5zM370 784
q-16 28 -26.5 39t-26.5 11q-25 0 -41 -24.5t-18 -71.5q0 -13 -13 -13q-5 0 -9 4.5t-4 9.5q3 54 26.5 88t61.5 34q25 0 41.5 -15t33.5 -48q16 -28 26.5 -39t26.5 -11q54 0 59 96q0 13 13 13q5 0 9 -4.5t4 -9.5q-3 -54 -26.5 -88t-61.5 -34q-26 0 -40.5 14t-34.5 49z" />
    <glyph glyph-name="Odieresis" unicode="&#xd6;" horiz-adv-x="764" 
d="M382 678q140 0 228.5 -98.5t88.5 -246.5t-88.5 -246.5t-228.5 -98.5q-140 -2 -229.5 98t-87.5 247q-2 147 87.5 247t229.5 98zM382 648q-127 0 -204.5 -88t-77.5 -227q-2 -136 77 -226.5t205 -88.5q124 -2 204 88.5t78 226.5q0 138 -78 226.5t-204 88.5zM253 765
q0 11 8.5 19.5t19.5 8.5t19.5 -8.5t8.5 -19.5t-8.5 -19.5t-19.5 -8.5t-19.5 8.5t-8.5 19.5zM455 765q0 11 8.5 19.5t19.5 8.5t19.5 -8.5t8.5 -19.5t-8.5 -19.5t-19.5 -8.5t-19.5 8.5t-8.5 19.5z" />
    <glyph glyph-name="multiply" unicode="&#xd7;" horiz-adv-x="494" 
d="M247 313l-146 -146q-4 -4 -10 -4t-10.5 4.5t-4.5 10.5t4 10l146 146l-146 146q-4 4 -4 10t4.5 10.5t10.5 4.5t10 -4l146 -146l146 146q4 4 10 4t10.5 -4.5t4.5 -10.5t-4 -10l-146 -146l146 -146q4 -4 4 -10t-4.5 -10.5t-10.5 -4.5t-10 4z" />
    <glyph glyph-name="Oslash" unicode="&#xd8;" horiz-adv-x="764" 
d="M699 333q0 -148 -88.5 -246.5t-228.5 -98.5q-108 0 -190 61l-65 -90q-6 -7 -12 -7q-13 0 -13 14q0 4 3 9l66 92q-106 100 -106 266q-2 147 87.5 247t229.5 98q107 0 188 -60l66 91q4 6 12 6q13 0 13 -13q0 -6 -3 -10l-67 -92q108 -99 108 -267zM190 93l362 500
q-71 55 -170 55q-127 0 -204.5 -88t-77.5 -227q0 -155 90 -240zM664 333q0 155 -91 241l-362 -499q71 -57 171 -57q124 -2 204 88.5t78 226.5z" />
    <glyph glyph-name="Ugrave" unicode="&#xd9;" horiz-adv-x="672" 
d="M88 253v400q0 6 4.5 11t11.5 5t11.5 -5t4.5 -11v-400q0 -112 56 -173.5t160 -61.5t160 61.5t56 173.5v400q0 6 4.5 11t11.5 5t11.5 -5t4.5 -11v-400q0 -126 -64.5 -195.5t-183.5 -69.5t-183.5 69.5t-64.5 195.5zM320 724l-145 119q-6 5 -6 11t4.5 10.5t10.5 4.5q5 0 9 -4
l140 -126q4 -4 4 -8q0 -10 -10 -10q-4 0 -7 3z" />
    <glyph glyph-name="Uacute" unicode="&#xda;" horiz-adv-x="672" 
d="M88 253v400q0 6 4.5 11t11.5 5t11.5 -5t4.5 -11v-400q0 -112 56 -173.5t160 -61.5t160 61.5t56 173.5v400q0 6 4.5 11t11.5 5t11.5 -5t4.5 -11v-400q0 -126 -64.5 -195.5t-183.5 -69.5t-183.5 69.5t-64.5 195.5zM344 721q-10 0 -10 10q0 4 4 8l140 126q4 4 9 4
q6 0 10.5 -4.5t4.5 -10.5t-6 -11l-145 -119q-3 -3 -7 -3z" />
    <glyph glyph-name="Ucircumflex" unicode="&#xdb;" horiz-adv-x="672" 
d="M88 253v400q0 6 4.5 11t11.5 5t11.5 -5t4.5 -11v-400q0 -112 56 -173.5t160 -61.5t160 61.5t56 173.5v400q0 6 4.5 11t11.5 5t11.5 -5t4.5 -11v-400q0 -126 -64.5 -195.5t-183.5 -69.5t-183.5 69.5t-64.5 195.5zM428 720l-91 123l-91 -123q-4 -4 -9 -4q-12 0 -12 12l2 6
l89 128q6 11 20 11h2q14 0 20 -11l89 -128l2 -6q0 -12 -12 -12q-5 0 -9 4z" />
    <glyph glyph-name="Udieresis" unicode="&#xdc;" horiz-adv-x="672" 
d="M88 253v400q0 6 4.5 11t11.5 5t11.5 -5t4.5 -11v-400q0 -112 56 -173.5t160 -61.5t160 61.5t56 173.5v400q0 6 4.5 11t11.5 5t11.5 -5t4.5 -11v-400q0 -126 -64.5 -195.5t-183.5 -69.5t-183.5 69.5t-64.5 195.5zM207 765q0 11 8.5 19.5t19.5 8.5t19.5 -8.5t8.5 -19.5
t-8.5 -19.5t-19.5 -8.5t-19.5 8.5t-8.5 19.5zM409 765q0 11 8.5 19.5t19.5 8.5t19.5 -8.5t8.5 -19.5t-8.5 -19.5t-19.5 -8.5t-19.5 8.5t-8.5 19.5z" />
    <glyph glyph-name="Yacute" unicode="&#xdd;" horiz-adv-x="610" 
d="M572 642l-251 -352v-276q0 -6 -4.5 -11t-11.5 -5t-11.5 5t-4.5 11v276l-251 352q-3 3 -3 10t5 12t12 5q10 0 14 -7l239 -341l239 341q4 7 14 7q7 0 12 -5t5 -12t-3 -10zM313 721q-10 0 -10 10q0 4 4 8l140 126q4 4 9 4q6 0 10.5 -4.5t4.5 -10.5t-6 -11l-145 -119
q-3 -3 -7 -3z" />
    <glyph glyph-name="Thorn" unicode="&#xde;" horiz-adv-x="555" 
d="M88 14v639q0 6 4.5 11t11.5 5t11.5 -5t4.5 -11v-115h199q88 0 141.5 -54.5t53.5 -135.5q0 -79 -53.5 -133.5t-141.5 -54.5h-199v-146q0 -6 -4.5 -11t-11.5 -5t-11.5 5t-4.5 11zM318 508h-198v-318h198q72 0 116.5 44t44.5 114t-44.5 115t-116.5 45z" />
    <glyph glyph-name="germandbls" unicode="&#xdf;" horiz-adv-x="522" 
d="M462 176q0 -85 -52.5 -136.5t-139.5 -51.5q-63 0 -112 31q-7 4 -7 12q0 14 14 14q3 0 18.5 -8t39 -15.5t46.5 -6.5q75 0 117.5 43t42.5 118q0 78 -60 126.5t-171 47.5q-5 0 -9.5 4t-4.5 9q0 13 13 13q84 4 129 44t45 103q0 60 -39.5 93.5t-93.5 33.5q-68 0 -107 -39
t-39 -112v-486q0 -6 -4.5 -10.5t-10.5 -4.5t-10.5 4.5t-4.5 10.5v486q0 84 46.5 131t130.5 47q65 0 115 -43t50 -113q0 -56 -37 -98.5t-97 -56.5q87 -9 139.5 -61.5t52.5 -128.5z" />
    <glyph glyph-name="agrave" unicode="&#xe0;" horiz-adv-x="514" 
d="M428 349v-336q0 -6 -4.5 -10.5t-10.5 -4.5t-10.5 4.5t-4.5 10.5v46q-65 -71 -167 -71q-69 0 -119 44.5t-50 116.5t49.5 116.5t119.5 44.5q102 0 167 -71v109q0 55 -38.5 87.5t-97.5 32.5q-86 0 -146 -66q-5 -5 -12 -5q-6 0 -10.5 4.5t-4.5 10.5t4 10q67 73 169 73
q76 0 121 -38t45 -108zM398 89v120q-56 74 -159 74q-64 0 -104 -38t-40 -96t40 -96t104 -38q103 0 159 74zM247 577l-145 119q-6 4 -6 11q0 6 4.5 10.5t10.5 4.5q5 0 9 -4l140 -126q4 -4 4 -8q0 -10 -10 -10q-4 0 -7 3z" />
    <glyph glyph-name="aacute" unicode="&#xe1;" horiz-adv-x="514" 
d="M428 349v-336q0 -6 -4.5 -10.5t-10.5 -4.5t-10.5 4.5t-4.5 10.5v46q-65 -71 -167 -71q-69 0 -119 44.5t-50 116.5t49.5 116.5t119.5 44.5q102 0 167 -71v109q0 55 -38.5 87.5t-97.5 32.5q-86 0 -146 -66q-5 -5 -12 -5q-6 0 -10.5 4.5t-4.5 10.5t4 10q67 73 169 73
q76 0 121 -38t45 -108zM398 89v120q-56 74 -159 74q-64 0 -104 -38t-40 -96t40 -96t104 -38q103 0 159 74zM271 574q-10 0 -10 10q0 4 4 8l140 126q4 4 9 4q6 0 10.5 -4.5t4.5 -10.5q0 -7 -6 -11l-145 -119q-3 -3 -7 -3z" />
    <glyph glyph-name="acircumflex" unicode="&#xe2;" horiz-adv-x="514" 
d="M428 349v-336q0 -6 -4.5 -10.5t-10.5 -4.5t-10.5 4.5t-4.5 10.5v46q-65 -71 -167 -71q-69 0 -119 44.5t-50 116.5t49.5 116.5t119.5 44.5q102 0 167 -71v109q0 55 -38.5 87.5t-97.5 32.5q-86 0 -146 -66q-5 -5 -12 -5q-6 0 -10.5 4.5t-4.5 10.5t4 10q67 73 169 73
q76 0 121 -38t45 -108zM398 89v120q-56 74 -159 74q-64 0 -104 -38t-40 -96t40 -96t104 -38q103 0 159 74zM355 573l-91 123l-91 -123q-4 -4 -9 -4q-12 0 -12 12l2 6l89 128q6 11 20 11h2q14 0 20 -11l89 -128l2 -6q0 -12 -12 -12q-5 0 -9 4z" />
    <glyph glyph-name="atilde" unicode="&#xe3;" horiz-adv-x="514" 
d="M428 349v-336q0 -6 -4.5 -10.5t-10.5 -4.5t-10.5 4.5t-4.5 10.5v46q-65 -71 -167 -71q-69 0 -119 44.5t-50 116.5t49.5 116.5t119.5 44.5q102 0 167 -71v109q0 55 -38.5 87.5t-97.5 32.5q-86 0 -146 -66q-5 -5 -12 -5q-6 0 -10.5 4.5t-4.5 10.5t4 10q67 73 169 73
q76 0 121 -38t45 -108zM398 89v120q-56 74 -159 74q-64 0 -104 -38t-40 -96t40 -96t104 -38q103 0 159 74zM251 637q-16 28 -26.5 39t-26.5 11q-54 0 -59 -96q0 -13 -13 -13q-5 0 -9 4.5t-4 9.5q3 54 26.5 88t61.5 34q25 0 41.5 -15t33.5 -48q16 -28 26.5 -39t26.5 -11
q54 0 59 96q0 13 13 13q5 0 9 -4.5t4 -9.5q-3 -54 -26.5 -88t-61.5 -34q-26 0 -40.5 14t-34.5 49z" />
    <glyph glyph-name="adieresis" unicode="&#xe4;" horiz-adv-x="514" 
d="M428 349v-336q0 -6 -4.5 -10.5t-10.5 -4.5t-10.5 4.5t-4.5 10.5v46q-65 -71 -167 -71q-69 0 -119 44.5t-50 116.5t49.5 116.5t119.5 44.5q102 0 167 -71v109q0 55 -38.5 87.5t-97.5 32.5q-86 0 -146 -66q-5 -5 -12 -5q-6 0 -10.5 4.5t-4.5 10.5t4 10q67 73 169 73
q76 0 121 -38t45 -108zM398 89v120q-56 74 -159 74q-64 0 -104 -38t-40 -96t40 -96t104 -38q103 0 159 74zM134 618q0 11 8.5 19.5t19.5 8.5t19.5 -8.5t8.5 -19.5t-8.5 -19.5t-19.5 -8.5t-19.5 8.5t-8.5 19.5zM336 618q0 11 8.5 19.5t19.5 8.5t19.5 -8.5t8.5 -19.5
t-8.5 -19.5t-19.5 -8.5t-19.5 8.5t-8.5 19.5z" />
    <glyph glyph-name="aring" unicode="&#xe5;" horiz-adv-x="514" 
d="M428 349v-336q0 -6 -4.5 -10.5t-10.5 -4.5t-10.5 4.5t-4.5 10.5v46q-65 -71 -167 -71q-69 0 -119 44.5t-50 116.5t49.5 116.5t119.5 44.5q102 0 167 -71v109q0 55 -38.5 87.5t-97.5 32.5q-86 0 -146 -66q-5 -5 -12 -5q-6 0 -10.5 4.5t-4.5 10.5t4 10q67 73 169 73
q76 0 121 -38t45 -108zM398 89v120q-56 74 -159 74q-64 0 -104 -38t-40 -96t40 -96t104 -38q103 0 159 74zM263 759q38 0 65 -27.5t27 -65.5t-27 -65.5t-65 -27.5t-65.5 27.5t-27.5 65.5t27.5 65.5t65.5 27.5zM263 735q-29 0 -49 -20t-20 -49q0 -28 20 -48.5t49 -20.5
q28 0 48 20t20 49t-20 49t-48 20z" />
    <glyph glyph-name="ae" unicode="&#xe6;" horiz-adv-x="905" 
d="M642 15q88 0 149 64q4 4 9 4q13 0 13 -13q0 -4 -3 -9q-71 -73 -167 -73q-69 0 -121 37t-77 105q-21 -65 -72.5 -103.5t-119.5 -38.5q-85 0 -138 44t-53 118q0 72 52.5 116t127.5 44q113 0 182 -69v107q0 57 -39.5 88.5t-108.5 31.5q-94 0 -160 -67q-4 -4 -11 -4
t-11.5 4.5t-4.5 10.5t5 11q70 72 190 72q62 0 111 -30q49 -28 57 -94q24 55 73.5 89.5t107.5 34.5q99 0 155.5 -70.5t56.5 -171.5q0 -21 -18 -21h-373q3 -92 55 -154.5t133 -62.5zM633 468q-77 2 -127 -63.5t-52 -145.5h359q0 82 -47.5 145.5t-132.5 63.5zM252 283
q-70 0 -113.5 -38t-43.5 -96t43.5 -96t113.5 -38q76 0 124 51t48 122v19q-60 76 -172 76z" />
    <glyph glyph-name="ccedilla" unicode="&#xe7;" horiz-adv-x="493" 
d="M448 69q0 -7 -3 -10q-59 -67 -145 -71l-17 -46q15 12 38 12q29 0 47 -17.5t18 -47.5q0 -33 -28 -54.5t-70 -21.5q-49 0 -86 23q-7 4 -7 13q0 14 14 14q5 0 10 -3q29 -20 69 -20q30 0 49.5 13.5t19.5 35.5q0 43 -44 43q-21 0 -38 -14q-4 -4 -10 -4q-15 0 -15 15l2 8l19 52
q-94 6 -152.5 78.5t-58.5 174.5q0 107 63.5 180t164.5 73q93 0 157 -71q3 -4 3 -9q0 -14 -14 -14q-7 0 -10 5q-52 62 -134 62q-89 0 -143 -64.5t-54 -161.5q0 -98 53.5 -162.5t143.5 -64.5q80 0 133 63q3 5 11 5q14 0 14 -14z" />
    <glyph glyph-name="egrave" unicode="&#xe8;" horiz-adv-x="571" 
d="M287 495q103 0 163.5 -71t60.5 -171q0 -21 -18 -21h-399q3 -92 59 -154.5t144 -62.5q92 0 160 65q3 3 9 3q13 0 13 -13q0 -5 -4 -9q-78 -73 -178 -73q-104 0 -170.5 71.5t-66.5 182.5q0 105 65.5 179t161.5 74zM94 259h385q0 81 -52 145t-141 64q-85 0 -137 -63.5
t-55 -145.5zM270 577l-145 119q-6 4 -6 11q0 6 4.5 10.5t10.5 4.5q5 0 9 -4l140 -126q4 -4 4 -8q0 -10 -10 -10q-4 0 -7 3z" />
    <glyph glyph-name="eacute" unicode="&#xe9;" horiz-adv-x="571" 
d="M287 495q103 0 163.5 -71t60.5 -171q0 -21 -18 -21h-399q3 -92 59 -154.5t144 -62.5q92 0 160 65q3 3 9 3q13 0 13 -13q0 -5 -4 -9q-78 -73 -178 -73q-104 0 -170.5 71.5t-66.5 182.5q0 105 65.5 179t161.5 74zM94 259h385q0 81 -52 145t-141 64q-85 0 -137 -63.5
t-55 -145.5zM294 574q-10 0 -10 10q0 4 4 8l140 126q4 4 9 4q6 0 10.5 -4.5t4.5 -10.5q0 -7 -6 -11l-145 -119q-3 -3 -7 -3z" />
    <glyph glyph-name="ecircumflex" unicode="&#xea;" horiz-adv-x="571" 
d="M287 495q103 0 163.5 -71t60.5 -171q0 -21 -18 -21h-399q3 -92 59 -154.5t144 -62.5q92 0 160 65q3 3 9 3q13 0 13 -13q0 -5 -4 -9q-78 -73 -178 -73q-104 0 -170.5 71.5t-66.5 182.5q0 105 65.5 179t161.5 74zM94 259h385q0 81 -52 145t-141 64q-85 0 -137 -63.5
t-55 -145.5zM378 573l-91 123l-91 -123q-4 -4 -9 -4q-12 0 -12 12l2 6l89 128q6 11 20 11h2q14 0 20 -11l89 -128l2 -6q0 -12 -12 -12q-5 0 -9 4z" />
    <glyph glyph-name="edieresis" unicode="&#xeb;" horiz-adv-x="571" 
d="M287 495q103 0 163.5 -71t60.5 -171q0 -21 -18 -21h-399q3 -92 59 -154.5t144 -62.5q92 0 160 65q3 3 9 3q13 0 13 -13q0 -5 -4 -9q-78 -73 -178 -73q-104 0 -170.5 71.5t-66.5 182.5q0 105 65.5 179t161.5 74zM94 259h385q0 81 -52 145t-141 64q-85 0 -137 -63.5
t-55 -145.5zM157 618q0 11 8.5 19.5t19.5 8.5t19.5 -8.5t8.5 -19.5t-8.5 -19.5t-19.5 -8.5t-19.5 8.5t-8.5 19.5zM359 618q0 11 8.5 19.5t19.5 8.5t19.5 -8.5t8.5 -19.5t-8.5 -19.5t-19.5 -8.5t-19.5 8.5t-8.5 19.5z" />
    <glyph glyph-name="igrave" unicode="&#xec;" horiz-adv-x="202" 
d="M86 13v457q0 6 4.5 10.5t10.5 4.5t10.5 -4.5t4.5 -10.5v-457q0 -6 -4.5 -10.5t-10.5 -4.5t-10.5 4.5t-4.5 10.5zM85 577l-145 119q-6 4 -6 11q0 6 4.5 10.5t10.5 4.5q5 0 9 -4l140 -126q4 -4 4 -8q0 -10 -10 -10q-4 0 -7 3z" />
    <glyph glyph-name="iacute" unicode="&#xed;" horiz-adv-x="202" 
d="M86 13v457q0 6 4.5 10.5t10.5 4.5t10.5 -4.5t4.5 -10.5v-457q0 -6 -4.5 -10.5t-10.5 -4.5t-10.5 4.5t-4.5 10.5zM109 574q-10 0 -10 10q0 4 4 8l140 126q4 4 9 4q6 0 10.5 -4.5t4.5 -10.5q0 -7 -6 -11l-145 -119q-3 -3 -7 -3z" />
    <glyph glyph-name="icircumflex" unicode="&#xee;" horiz-adv-x="202" 
d="M86 13v457q0 6 4.5 10.5t10.5 4.5t10.5 -4.5t4.5 -10.5v-457q0 -6 -4.5 -10.5t-10.5 -4.5t-10.5 4.5t-4.5 10.5zM193 573l-91 123l-91 -123q-4 -4 -9 -4q-12 0 -12 12l2 6l89 128q6 11 20 11h2q14 0 20 -11l89 -128l2 -6q0 -12 -12 -12q-5 0 -9 4z" />
    <glyph glyph-name="idieresis" unicode="&#xef;" horiz-adv-x="202" 
d="M86 13v457q0 6 4.5 10.5t10.5 4.5t10.5 -4.5t4.5 -10.5v-457q0 -6 -4.5 -10.5t-10.5 -4.5t-10.5 4.5t-4.5 10.5zM-28 618q0 11 8.5 19.5t19.5 8.5t19.5 -8.5t8.5 -19.5t-8.5 -19.5t-19.5 -8.5t-19.5 8.5t-8.5 19.5zM174 618q0 11 8.5 19.5t19.5 8.5t19.5 -8.5t8.5 -19.5
t-8.5 -19.5t-19.5 -8.5t-19.5 8.5t-8.5 19.5z" />
    <glyph glyph-name="eth" unicode="&#xf0;" horiz-adv-x="570" 
d="M510 242q0 -109 -62.5 -181.5t-162.5 -72.5q-99 0 -162 72.5t-63 181.5q0 108 62.5 180.5t162.5 72.5q95 0 156 -85q-60 96 -162 174l-129 -57q-1 -1 -6 -1q-14 0 -14 14q0 10 8 13l115 51l-21 15l-53 34q-8 6 -8 14q0 7 5 11.5t12 4.5q6 0 8 -2q63 -40 91 -62l99 44
q1 1 6 1q14 0 14 -14q0 -10 -8 -13l-86 -38q198 -163 198 -357zM477 242q0 94 -52 160t-140 66q-86 0 -139 -66t-53 -160t53 -160.5t139 -66.5q87 0 139.5 66.5t52.5 160.5z" />
    <glyph glyph-name="ntilde" unicode="&#xf1;" 
d="M442 337v-324q0 -6 -4.5 -10.5t-10.5 -4.5t-10.5 4.5t-4.5 10.5v324q0 70 -31 100.5t-94 30.5q-47 0 -95.5 -26t-75.5 -65v-364q0 -6 -4.5 -10.5t-10.5 -4.5t-10.5 4.5t-4.5 10.5v457q0 6 4.5 10.5t10.5 4.5t10.5 -4.5t4.5 -10.5v-64q29 37 78 62q50 27 97 27
q76 0 113.5 -38t37.5 -120zM252 637q-16 28 -26.5 39t-26.5 11q-25 0 -41 -24.5t-18 -71.5q0 -13 -13 -13q-5 0 -9 4.5t-4 9.5q3 54 26.5 88t61.5 34q25 0 41.5 -15t33.5 -48q16 -28 26.5 -39t26.5 -11q54 0 59 96q0 13 13 13q5 0 9 -4.5t4 -9.5q-3 -54 -26.5 -88t-61.5 -34
q-26 0 -40.5 14t-34.5 49z" />
    <glyph glyph-name="ograve" unicode="&#xf2;" horiz-adv-x="570" 
d="M60 242q0 108 62.5 180.5t162.5 72.5t162.5 -72.5t62.5 -180.5q0 -109 -62.5 -181.5t-162.5 -72.5q-99 0 -162 72.5t-63 181.5zM477 242q0 94 -52 160t-140 66q-86 0 -139 -66t-53 -160t53 -160.5t139 -66.5q87 0 139.5 66.5t52.5 160.5zM269 577l-145 119q-6 4 -6 11
q0 6 4.5 10.5t10.5 4.5q5 0 9 -4l140 -126q4 -4 4 -8q0 -10 -10 -10q-4 0 -7 3z" />
    <glyph glyph-name="oacute" unicode="&#xf3;" horiz-adv-x="570" 
d="M60 242q0 108 62.5 180.5t162.5 72.5t162.5 -72.5t62.5 -180.5q0 -109 -62.5 -181.5t-162.5 -72.5q-99 0 -162 72.5t-63 181.5zM477 242q0 94 -52 160t-140 66q-86 0 -139 -66t-53 -160t53 -160.5t139 -66.5q87 0 139.5 66.5t52.5 160.5zM293 574q-10 0 -10 10q0 4 4 8
l140 126q4 4 9 4q6 0 10.5 -4.5t4.5 -10.5q0 -7 -6 -11l-145 -119q-3 -3 -7 -3z" />
    <glyph glyph-name="ocircumflex" unicode="&#xf4;" horiz-adv-x="570" 
d="M60 242q0 108 62.5 180.5t162.5 72.5t162.5 -72.5t62.5 -180.5q0 -109 -62.5 -181.5t-162.5 -72.5q-99 0 -162 72.5t-63 181.5zM477 242q0 94 -52 160t-140 66q-86 0 -139 -66t-53 -160t53 -160.5t139 -66.5q87 0 139.5 66.5t52.5 160.5zM377 573l-91 123l-91 -123
q-4 -4 -9 -4q-12 0 -12 12l2 6l89 128q6 11 20 11h2q14 0 20 -11l89 -128l2 -6q0 -12 -12 -12q-5 0 -9 4z" />
    <glyph glyph-name="otilde" unicode="&#xf5;" horiz-adv-x="570" 
d="M60 242q0 108 62.5 180.5t162.5 72.5t162.5 -72.5t62.5 -180.5q0 -109 -62.5 -181.5t-162.5 -72.5q-99 0 -162 72.5t-63 181.5zM477 242q0 94 -52 160t-140 66q-86 0 -139 -66t-53 -160t53 -160.5t139 -66.5q87 0 139.5 66.5t52.5 160.5zM273 637q-16 28 -26.5 39
t-26.5 11q-54 0 -59 -96q0 -13 -13 -13q-5 0 -9 4.5t-4 9.5q3 54 26.5 88t61.5 34q25 0 41.5 -15t33.5 -48q16 -28 26.5 -39t26.5 -11q25 0 41 24.5t18 71.5q0 13 13 13q5 0 9 -4.5t4 -9.5q-3 -54 -26.5 -88t-61.5 -34q-26 0 -40.5 14t-34.5 49z" />
    <glyph glyph-name="odieresis" unicode="&#xf6;" horiz-adv-x="570" 
d="M60 242q0 108 62.5 180.5t162.5 72.5t162.5 -72.5t62.5 -180.5q0 -109 -62.5 -181.5t-162.5 -72.5q-99 0 -162 72.5t-63 181.5zM477 242q0 94 -52 160t-140 66q-86 0 -139 -66t-53 -160t53 -160.5t139 -66.5q87 0 139.5 66.5t52.5 160.5zM156 618q0 11 8.5 19.5t19.5 8.5
t19.5 -8.5t8.5 -19.5t-8.5 -19.5t-19.5 -8.5t-19.5 8.5t-8.5 19.5zM358 618q0 11 8.5 19.5t19.5 8.5t19.5 -8.5t8.5 -19.5t-8.5 -19.5t-19.5 -8.5t-19.5 8.5t-8.5 19.5z" />
    <glyph glyph-name="divide" unicode="&#xf7;" horiz-adv-x="511" 
d="M223 536q0 13 9.5 22.5t23.5 9.5t23.5 -9.5t9.5 -22.5q0 -14 -10 -24t-23 -10t-23 10t-10 24zM27 337q0 6 4.5 10.5t10.5 4.5h427q6 0 10.5 -4.5t4.5 -10.5t-4.5 -10.5t-10.5 -4.5h-427q-6 0 -10.5 4.5t-4.5 10.5zM223 133q0 14 10 23.5t23 9.5q14 0 23.5 -9.5t9.5 -23.5
q0 -13 -9.5 -23t-23.5 -10q-13 0 -23 10t-10 23z" />
    <glyph glyph-name="oslash" unicode="&#xf8;" horiz-adv-x="570" 
d="M510 242q0 -109 -62.5 -181.5t-162.5 -72.5q-75 0 -134 45l-53 -74q-6 -7 -13 -7q-13 0 -13 13q0 5 3 9l56 77q-71 76 -71 191q0 108 62.5 180.5t162.5 72.5q77 0 135 -45l54 74q6 7 12 7q12 0 12 -12q0 -5 -3 -10l-56 -77q71 -74 71 -190zM149 76l253 349
q-47 43 -117 43q-86 0 -139 -66t-53 -160q0 -99 56 -166zM477 242q0 98 -56 165l-252 -350q48 -42 116 -42q87 0 139.5 66.5t52.5 160.5z" />
    <glyph glyph-name="ugrave" unicode="&#xf9;" 
d="M442 470v-457q0 -6 -4.5 -10.5t-10.5 -4.5t-10.5 4.5t-4.5 10.5v61q-34 -38 -81 -62t-94 -24q-76 0 -113.5 37t-37.5 119v326q0 6 4.5 10.5t10.5 4.5t10.5 -4.5t4.5 -10.5v-326q0 -70 31 -99.5t94 -29.5q49 0 96 25q49 26 75 63v367q0 6 4.5 10.5t10.5 4.5t10.5 -4.5
t4.5 -10.5zM248 577l-145 119q-6 4 -6 11q0 6 4.5 10.5t10.5 4.5q5 0 9 -4l140 -126q4 -4 4 -8q0 -10 -10 -10q-4 0 -7 3z" />
    <glyph glyph-name="uacute" unicode="&#xfa;" 
d="M442 470v-457q0 -6 -4.5 -10.5t-10.5 -4.5t-10.5 4.5t-4.5 10.5v61q-34 -38 -81 -62t-94 -24q-76 0 -113.5 37t-37.5 119v326q0 6 4.5 10.5t10.5 4.5t10.5 -4.5t4.5 -10.5v-326q0 -70 31 -99.5t94 -29.5q49 0 96 25q49 26 75 63v367q0 6 4.5 10.5t10.5 4.5t10.5 -4.5
t4.5 -10.5zM272 574q-10 0 -10 10q0 4 4 8l140 126q4 4 9 4q6 0 10.5 -4.5t4.5 -10.5q0 -7 -6 -11l-145 -119q-3 -3 -7 -3z" />
    <glyph glyph-name="ucircumflex" unicode="&#xfb;" 
d="M442 470v-457q0 -6 -4.5 -10.5t-10.5 -4.5t-10.5 4.5t-4.5 10.5v61q-34 -38 -81 -62t-94 -24q-76 0 -113.5 37t-37.5 119v326q0 6 4.5 10.5t10.5 4.5t10.5 -4.5t4.5 -10.5v-326q0 -70 31 -99.5t94 -29.5q49 0 96 25q49 26 75 63v367q0 6 4.5 10.5t10.5 4.5t10.5 -4.5
t4.5 -10.5zM356 573l-91 123l-91 -123q-4 -4 -9 -4q-12 0 -12 12l2 6l89 128q6 11 20 11h2q14 0 20 -11l89 -128l2 -6q0 -12 -12 -12q-5 0 -9 4z" />
    <glyph glyph-name="udieresis" unicode="&#xfc;" 
d="M442 470v-457q0 -6 -4.5 -10.5t-10.5 -4.5t-10.5 4.5t-4.5 10.5v61q-34 -38 -81 -62t-94 -24q-76 0 -113.5 37t-37.5 119v326q0 6 4.5 10.5t10.5 4.5t10.5 -4.5t4.5 -10.5v-326q0 -70 31 -99.5t94 -29.5q49 0 96 25q49 26 75 63v367q0 6 4.5 10.5t10.5 4.5t10.5 -4.5
t4.5 -10.5zM135 618q0 11 8.5 19.5t19.5 8.5t19.5 -8.5t8.5 -19.5t-8.5 -19.5t-19.5 -8.5t-19.5 8.5t-8.5 19.5zM337 618q0 11 8.5 19.5t19.5 8.5t19.5 -8.5t8.5 -19.5t-8.5 -19.5t-19.5 -8.5t-19.5 8.5t-8.5 19.5z" />
    <glyph glyph-name="yacute" unicode="&#xfd;" horiz-adv-x="471" 
d="M65 -165q1 0 12.5 -2t20.5 -2q48 0 76 66l44 100l-197 463q-2 6 -2 8q0 7 4.5 12t11.5 5q12 0 14 -10l187 -440l186 440q2 10 14 10q7 0 11.5 -5t4.5 -12q0 -3 -2 -9l-246 -573q-36 -82 -106 -82q-16 0 -33 3q-14 3 -14 14q0 14 14 14zM244 574q-10 0 -10 10q0 4 4 8
l140 126q4 4 9 4q6 0 10.5 -4.5t4.5 -10.5q0 -7 -6 -11l-145 -119q-3 -3 -7 -3z" />
    <glyph glyph-name="thorn" unicode="&#xfe;" horiz-adv-x="566" 
d="M116 83v-254q0 -6 -4.5 -10.5t-10.5 -4.5t-10.5 4.5t-4.5 10.5v825q0 6 4.5 10.5t10.5 4.5t10.5 -4.5t4.5 -10.5v-252q27 41 74 67t100 26q97 0 156.5 -69.5t59.5 -183.5t-59.5 -184t-156.5 -70q-53 0 -98.5 25t-75.5 70zM290 468q-53 0 -101 -27.5t-73 -68.5v-259
q25 -41 73.5 -69.5t100.5 -28.5q86 0 134 64q49 64 49 163q0 100 -49 162q-48 64 -134 64z" />
    <glyph glyph-name="ydieresis" unicode="&#xff;" horiz-adv-x="471" 
d="M65 -165q1 0 12.5 -2t20.5 -2q48 0 76 66l44 100l-197 463q-2 6 -2 8q0 7 4.5 12t11.5 5q12 0 14 -10l187 -440l186 440q2 10 14 10q7 0 11.5 -5t4.5 -12q0 -3 -2 -9l-246 -573q-36 -82 -106 -82q-16 0 -33 3q-14 3 -14 14q0 14 14 14zM107 618q0 11 8.5 19.5t19.5 8.5
t19.5 -8.5t8.5 -19.5t-8.5 -19.5t-19.5 -8.5t-19.5 8.5t-8.5 19.5zM309 618q0 11 8.5 19.5t19.5 8.5t19.5 -8.5t8.5 -19.5t-8.5 -19.5t-19.5 -8.5t-19.5 8.5t-8.5 19.5z" />
    <glyph glyph-name="Amacron" unicode="&#x100;" horiz-adv-x="636" 
d="M607 16q0 -18 -17 -18q-11 0 -16 11l-70 170h-372l-70 -170q-5 -11 -16 -11q-7 0 -12 5t-5 12q0 3 2 9l262 628q6 17 25 17t25 -17l262 -628q2 -6 2 -8zM144 209h348l-174 421zM174 761q0 6 4.5 10t9.5 4h259q5 0 9.5 -4t4.5 -10q0 -5 -4.5 -9t-9.5 -4h-259q-5 0 -9.5 4
t-4.5 9z" />
    <glyph glyph-name="amacron" unicode="&#x101;" horiz-adv-x="514" 
d="M428 349v-336q0 -6 -4.5 -10.5t-10.5 -4.5t-10.5 4.5t-4.5 10.5v46q-65 -71 -167 -71q-69 0 -119 44.5t-50 116.5t49.5 116.5t119.5 44.5q102 0 167 -71v109q0 55 -38.5 87.5t-97.5 32.5q-86 0 -146 -66q-5 -5 -12 -5q-6 0 -10.5 4.5t-4.5 10.5t4 10q67 73 169 73
q76 0 121 -38t45 -108zM398 89v120q-56 74 -159 74q-64 0 -104 -38t-40 -96t40 -96t104 -38q103 0 159 74zM119 614q0 6 4.5 10t9.5 4h259q5 0 9.5 -4t4.5 -10q0 -5 -4.5 -9t-9.5 -4h-259q-5 0 -9.5 4t-4.5 9z" />
    <glyph glyph-name="Abreve" unicode="&#x102;" horiz-adv-x="636" 
d="M607 16q0 -18 -17 -18q-11 0 -16 11l-70 170h-372l-70 -170q-5 -11 -16 -11q-7 0 -12 5t-5 12q0 3 2 9l262 628q6 17 25 17t25 -17l262 -628q2 -6 2 -8zM144 209h348l-174 421zM149 790q-3 4 -3 9t4 9.5t10 4.5q8 0 11 -5q56 -70 147 -70t147 70q3 5 11 5q5 0 9 -4.5
t4 -9.5t-3 -9q-66 -79 -168 -79q-100 0 -169 79z" />
    <glyph glyph-name="abreve" unicode="&#x103;" horiz-adv-x="514" 
d="M428 349v-336q0 -6 -4.5 -10.5t-10.5 -4.5t-10.5 4.5t-4.5 10.5v46q-65 -71 -167 -71q-69 0 -119 44.5t-50 116.5t49.5 116.5t119.5 44.5q102 0 167 -71v109q0 55 -38.5 87.5t-97.5 32.5q-86 0 -146 -66q-5 -5 -12 -5q-6 0 -10.5 4.5t-4.5 10.5t4 10q67 73 169 73
q76 0 121 -38t45 -108zM398 89v120q-56 74 -159 74q-64 0 -104 -38t-40 -96t40 -96t104 -38q103 0 159 74zM94 643q-3 5 -3 9q0 5 4 9.5t10 4.5q8 0 11 -5q56 -70 147 -70t147 70q3 5 11 5q5 0 9 -4.5t4 -9.5q0 -4 -3 -9q-66 -79 -168 -79q-100 0 -169 79z" />
    <glyph glyph-name="Aogonek" unicode="&#x104;" horiz-adv-x="636" 
d="M495 -109q0 -23 14 -36.5t38 -13.5q12 0 25 5l12 4q13 0 13 -13q0 -8 -6 -11q-19 -12 -44 -12q-36 0 -61 20t-25 52t28.5 63.5t77.5 55.5l7 3v1l-70 170h-372l-70 -170q-5 -11 -16 -11q-7 0 -12 5t-5 12q0 3 2 9l262 628q6 17 25 17t25 -17l262 -628q2 -6 2 -8
q0 -15 -13 -18q-99 -53 -99 -107zM144 209h348l-174 421z" />
    <glyph glyph-name="aogonek" unicode="&#x105;" horiz-adv-x="514" 
d="M428 349v-336q0 -1 -2 -7q2 -2 -5 -6q-102 -54 -102 -109q0 -23 14 -36.5t38 -13.5q12 0 25 5l12 4q13 0 13 -13q0 -8 -6 -11q-20 -12 -44 -12q-36 0 -61 20t-25 52t28.5 63.5t77.5 55.5l8 3q-1 1 -1 5v46q-65 -71 -167 -71q-69 0 -119 44.5t-50 116.5t49.5 116.5
t119.5 44.5q102 0 167 -71v109q0 55 -38.5 87.5t-97.5 32.5q-86 0 -146 -66q-5 -5 -12 -5q-6 0 -10.5 4.5t-4.5 10.5t4 10q67 73 169 73q76 0 121 -38t45 -108zM398 89v120q-56 74 -159 74q-64 0 -104 -38t-40 -96t40 -96t104 -38q103 0 159 74z" />
    <glyph glyph-name="Cacute" unicode="&#x106;" horiz-adv-x="667" 
d="M65 333q-2 148 96.5 247.5t236.5 97.5q131 0 222 -94q4 -4 4 -11q0 -16 -16 -16q-7 0 -12 5q-80 86 -198 86q-125 2 -212.5 -88.5t-85.5 -226.5q-2 -135 85.5 -226t212.5 -89q57 0 109.5 23t88.5 64q5 5 12 5t12 -4.5t5 -11.5t-5 -12q-93 -94 -222 -94q-138 -3 -236.5 97
t-96.5 248zM406 721q-10 0 -10 10q0 4 4 8l140 126q4 4 9 4q6 0 10.5 -4.5t4.5 -10.5t-6 -11l-145 -119q-3 -3 -7 -3z" />
    <glyph glyph-name="cacute" unicode="&#x107;" horiz-adv-x="493" 
d="M288 495q93 0 157 -71q3 -4 3 -9q0 -14 -14 -14q-7 0 -10 5q-52 62 -134 62q-89 0 -143 -64.5t-54 -161.5q0 -98 53.5 -162.5t143.5 -64.5q80 0 133 63q3 5 11 5q14 0 14 -14q0 -7 -3 -10q-64 -71 -157 -71q-102 0 -165 73t-63 181q0 107 63.5 180t164.5 73zM294 574
q-10 0 -10 10q0 4 4 8l140 126q4 4 9 4q6 0 10.5 -4.5t4.5 -10.5q0 -7 -6 -11l-145 -119q-3 -3 -7 -3z" />
    <glyph glyph-name="Ccircumflex" unicode="&#x108;" horiz-adv-x="667" 
d="M65 333q-2 148 96.5 247.5t236.5 97.5q131 0 222 -94q4 -4 4 -11q0 -16 -16 -16q-7 0 -12 5q-80 86 -198 86q-125 2 -212.5 -88.5t-85.5 -226.5q-2 -135 85.5 -226t212.5 -89q57 0 109.5 23t88.5 64q5 5 12 5t12 -4.5t5 -11.5t-5 -12q-93 -94 -222 -94q-138 -3 -236.5 97
t-96.5 248zM490 720l-91 123l-91 -123q-4 -4 -9 -4q-12 0 -12 12l2 6l89 128q6 11 20 11h2q14 0 20 -11l89 -128l2 -6q0 -12 -12 -12q-5 0 -9 4z" />
    <glyph glyph-name="ccircumflex" unicode="&#x109;" horiz-adv-x="493" 
d="M288 495q93 0 157 -71q3 -4 3 -9q0 -14 -14 -14q-7 0 -10 5q-52 62 -134 62q-89 0 -143 -64.5t-54 -161.5q0 -98 53.5 -162.5t143.5 -64.5q80 0 133 63q3 5 11 5q14 0 14 -14q0 -7 -3 -10q-64 -71 -157 -71q-102 0 -165 73t-63 181q0 107 63.5 180t164.5 73zM378 573
l-91 123l-91 -123q-4 -4 -9 -4q-12 0 -12 12l2 6l89 128q6 11 20 11h2q14 0 20 -11l89 -128l2 -6q0 -12 -12 -12q-5 0 -9 4z" />
    <glyph glyph-name="Cdotaccent" unicode="&#x10a;" horiz-adv-x="667" 
d="M65 333q-2 148 96.5 247.5t236.5 97.5q131 0 222 -94q4 -4 4 -11q0 -16 -16 -16q-7 0 -12 5q-80 86 -198 86q-125 2 -212.5 -88.5t-85.5 -226.5q-2 -135 85.5 -226t212.5 -89q57 0 109.5 23t88.5 64q5 5 12 5t12 -4.5t5 -11.5t-5 -12q-93 -94 -222 -94q-138 -3 -236.5 97
t-96.5 248zM398 791q12 0 20.5 -8.5t8.5 -20.5t-8.5 -20.5t-20.5 -8.5q-11 0 -20 8.5t-9 20.5t9 20.5t20 8.5z" />
    <glyph glyph-name="cdotaccent" unicode="&#x10b;" horiz-adv-x="493" 
d="M288 495q93 0 157 -71q3 -4 3 -9q0 -14 -14 -14q-7 0 -10 5q-52 62 -134 62q-89 0 -143 -64.5t-54 -161.5q0 -98 53.5 -162.5t143.5 -64.5q80 0 133 63q3 5 11 5q14 0 14 -14q0 -7 -3 -10q-64 -71 -157 -71q-102 0 -165 73t-63 181q0 107 63.5 180t164.5 73zM286 644
q12 0 20.5 -8.5t8.5 -20.5t-8.5 -20.5t-20.5 -8.5q-11 0 -20 8.5t-9 20.5t9 20.5t20 8.5z" />
    <glyph glyph-name="Ccaron" unicode="&#x10c;" horiz-adv-x="667" 
d="M65 333q-2 148 96.5 247.5t236.5 97.5q131 0 222 -94q4 -4 4 -11q0 -16 -16 -16q-7 0 -12 5q-80 86 -198 86q-125 2 -212.5 -88.5t-85.5 -226.5q-2 -135 85.5 -226t212.5 -89q57 0 109.5 23t88.5 64q5 5 12 5t12 -4.5t5 -11.5t-5 -12q-93 -94 -222 -94q-138 -3 -236.5 97
t-96.5 248zM508 861l-2 -6l-89 -128q-6 -11 -20 -11h-2q-14 0 -20 11l-89 128l-2 6q0 12 12 12q5 0 9 -4l91 -123l91 123q4 4 9 4q12 0 12 -12z" />
    <glyph glyph-name="ccaron" unicode="&#x10d;" horiz-adv-x="493" 
d="M288 495q93 0 157 -71q3 -4 3 -9q0 -14 -14 -14q-7 0 -10 5q-52 62 -134 62q-89 0 -143 -64.5t-54 -161.5q0 -98 53.5 -162.5t143.5 -64.5q80 0 133 63q3 5 11 5q14 0 14 -14q0 -7 -3 -10q-64 -71 -157 -71q-102 0 -165 73t-63 181q0 107 63.5 180t164.5 73zM396 714
l-2 -6l-89 -128q-6 -11 -20 -11h-2q-14 0 -20 11l-89 128l-2 6q0 12 12 12q5 0 9 -4l91 -123l91 123q4 4 9 4q12 0 12 -12z" />
    <glyph glyph-name="Dcaron" unicode="&#x10e;" horiz-adv-x="684" 
d="M88 18v631q0 18 18 18h180q146 2 240 -97t92 -237q2 -139 -91.5 -237t-240.5 -96h-180q-18 0 -18 18zM120 30h166q136 0 216.5 86t80.5 217t-81 217.5t-216 86.5h-166v-607zM456 861l-2 -6l-89 -128q-6 -11 -20 -11h-2q-14 0 -20 11l-89 128l-2 6q0 12 12 12q5 0 9 -4
l91 -123l91 123q4 4 9 4q12 0 12 -12z" />
    <glyph glyph-name="dcaron" unicode="&#x10f;" horiz-adv-x="605" 
d="M480 654v-641q0 -6 -4.5 -10.5t-10.5 -4.5t-10.5 4.5t-4.5 10.5v68q-28 -42 -74.5 -67.5t-99.5 -25.5q-97 0 -156.5 69.5t-59.5 183.5t59.5 184t156.5 70q53 0 98.5 -25t75.5 -70v254q0 6 4.5 10.5t10.5 4.5t10.5 -4.5t4.5 -10.5zM450 111v259q-25 41 -73.5 69.5
t-100.5 28.5q-86 0 -135 -64q-48 -64 -48 -163t48 -163q49 -63 135 -63q53 0 101 27.5t73 68.5zM528 521q0 8 7 12q42 40 42 83q-2 -1 -8 -1q-14 0 -23 9.5t-9 23.5q0 13 9 22.5t23 9.5q16 0 27.5 -14.5t11.5 -38.5q0 -68 -54 -115q-6 -6 -12 -6q-14 0 -14 15z" />
    <glyph glyph-name="Dcroat" unicode="&#x110;" horiz-adv-x="715" 
d="M649 333q2 -139 -91.5 -237t-240.5 -96h-180q-18 0 -18 18v299h-94q-6 0 -10.5 4.5t-4.5 10.5t4.5 10.5t10.5 4.5h94v302q0 18 18 18h180q146 2 240 -97t92 -237zM614 333q0 131 -81 217.5t-216 86.5h-166v-290h175q6 0 10.5 -4.5t4.5 -10.5t-4.5 -10.5t-10.5 -4.5h-175
v-287h166q136 0 216.5 86t80.5 217z" />
    <glyph glyph-name="dslash" unicode="&#x111;" horiz-adv-x="566" 
d="M559 555q0 -6 -4.5 -10t-9.5 -4h-65v-528q0 -6 -4.5 -10.5t-10.5 -4.5t-10.5 4.5t-4.5 10.5v68q-28 -42 -74.5 -67.5t-99.5 -25.5q-97 0 -156.5 69.5t-59.5 183.5t59.5 184t156.5 70q53 0 98.5 -25t75.5 -70v141h-154q-5 0 -9.5 4t-4.5 9q0 6 4.5 10t9.5 4h154v86
q0 6 4.5 10.5t10.5 4.5t10.5 -4.5t4.5 -10.5v-86h65q5 0 9.5 -4t4.5 -9zM450 111v259q-25 41 -73.5 69.5t-100.5 28.5q-86 0 -135 -64q-48 -64 -48 -163t48 -163q49 -63 135 -63q53 0 101 27.5t73 68.5z" />
    <glyph glyph-name="Emacron" unicode="&#x112;" horiz-adv-x="558" 
d="M88 18v631q0 18 18 18h377q6 0 10.5 -4.5t4.5 -10.5t-4.5 -10.5t-10.5 -4.5h-363v-279h356q6 0 10.5 -4.5t4.5 -10.5t-4.5 -10.5t-10.5 -4.5h-356v-298h363q6 0 10.5 -4.5t4.5 -10.5t-4.5 -10.5t-10.5 -4.5h-377q-18 0 -18 18zM152 761q0 6 4.5 10t9.5 4h259q5 0 9.5 -4
t4.5 -10q0 -5 -4.5 -9t-9.5 -4h-259q-5 0 -9.5 4t-4.5 9z" />
    <glyph glyph-name="emacron" unicode="&#x113;" horiz-adv-x="571" 
d="M287 495q103 0 163.5 -71t60.5 -171q0 -21 -18 -21h-399q3 -92 59 -154.5t144 -62.5q92 0 160 65q3 3 9 3q13 0 13 -13q0 -5 -4 -9q-78 -73 -178 -73q-104 0 -170.5 71.5t-66.5 182.5q0 105 65.5 179t161.5 74zM94 259h385q0 81 -52 145t-141 64q-85 0 -137 -63.5
t-55 -145.5zM142 614q0 6 4.5 10t9.5 4h259q5 0 9.5 -4t4.5 -10q0 -5 -4.5 -9t-9.5 -4h-259q-5 0 -9.5 4t-4.5 9z" />
    <glyph glyph-name="Ebreve" unicode="&#x114;" horiz-adv-x="558" 
d="M88 18v631q0 18 18 18h377q6 0 10.5 -4.5t4.5 -10.5t-4.5 -10.5t-10.5 -4.5h-363v-279h356q6 0 10.5 -4.5t4.5 -10.5t-4.5 -10.5t-10.5 -4.5h-356v-298h363q6 0 10.5 -4.5t4.5 -10.5t-4.5 -10.5t-10.5 -4.5h-377q-18 0 -18 18zM127 790q-3 4 -3 9t4 9.5t10 4.5q8 0 11 -5
q56 -70 147 -70t147 70q3 5 11 5q5 0 9 -4.5t4 -9.5t-3 -9q-66 -79 -168 -79q-100 0 -169 79z" />
    <glyph glyph-name="ebreve" unicode="&#x115;" horiz-adv-x="571" 
d="M287 495q103 0 163.5 -71t60.5 -171q0 -21 -18 -21h-399q3 -92 59 -154.5t144 -62.5q92 0 160 65q3 3 9 3q13 0 13 -13q0 -5 -4 -9q-78 -73 -178 -73q-104 0 -170.5 71.5t-66.5 182.5q0 105 65.5 179t161.5 74zM94 259h385q0 81 -52 145t-141 64q-85 0 -137 -63.5
t-55 -145.5zM117 643q-3 5 -3 9q0 5 4 9.5t10 4.5q8 0 11 -5q56 -70 147 -70t147 70q3 5 11 5q5 0 9 -4.5t4 -9.5q0 -4 -3 -9q-66 -79 -168 -79q-100 0 -169 79z" />
    <glyph glyph-name="Edotaccent" unicode="&#x116;" horiz-adv-x="558" 
d="M88 18v631q0 18 18 18h377q6 0 10.5 -4.5t4.5 -10.5t-4.5 -10.5t-10.5 -4.5h-363v-279h356q6 0 10.5 -4.5t4.5 -10.5t-4.5 -10.5t-10.5 -4.5h-356v-298h363q6 0 10.5 -4.5t4.5 -10.5t-4.5 -10.5t-10.5 -4.5h-377q-18 0 -18 18zM296 791q12 0 20.5 -8.5t8.5 -20.5
t-8.5 -20.5t-20.5 -8.5q-11 0 -20 8.5t-9 20.5t9 20.5t20 8.5z" />
    <glyph glyph-name="edotaccent" unicode="&#x117;" horiz-adv-x="571" 
d="M287 495q103 0 163.5 -71t60.5 -171q0 -21 -18 -21h-399q3 -92 59 -154.5t144 -62.5q92 0 160 65q3 3 9 3q13 0 13 -13q0 -5 -4 -9q-78 -73 -178 -73q-104 0 -170.5 71.5t-66.5 182.5q0 105 65.5 179t161.5 74zM94 259h385q0 81 -52 145t-141 64q-85 0 -137 -63.5
t-55 -145.5zM286 644q12 0 20.5 -8.5t8.5 -20.5t-8.5 -20.5t-20.5 -8.5q-11 0 -20 8.5t-9 20.5t9 20.5t20 8.5z" />
    <glyph glyph-name="Eogonek" unicode="&#x118;" horiz-adv-x="558" 
d="M496 0q-102 -54 -102 -109q0 -23 14 -36.5t38 -13.5q12 0 24 5l13 4q13 0 13 -13q0 -8 -6 -11q-20 -12 -44 -12q-36 0 -61 20t-25 52q0 30 26 60t70 54h-350q-18 0 -18 18v631q0 18 18 18h377q6 0 10.5 -4.5t4.5 -10.5t-4.5 -10.5t-10.5 -4.5h-363v-279h356
q6 0 10.5 -4.5t4.5 -10.5t-4.5 -10.5t-10.5 -4.5h-356v-298h363q6 0 10.5 -4.5t4.5 -10.5l-1 -6q10 -3 -1 -9z" />
    <glyph glyph-name="eogonek" unicode="&#x119;" horiz-adv-x="571" 
d="M60 242q0 105 65.5 179t161.5 74q103 0 163.5 -71t60.5 -171q0 -21 -23 -21h-394q3 -92 59 -154.5t144 -62.5q92 0 160 65q4 4 9 4q13 0 13 -13q0 -6 -4 -10q-64 -59 -91 -98.5t-27 -71.5q0 -23 14 -36.5t38 -13.5q15 0 28 6q1 1 5 1q14 0 14 -13q0 -8 -7 -11
q-17 -10 -40 -10q-36 0 -61 20t-25 52q0 61 69 119q-45 -17 -95 -17q-104 0 -170.5 71.5t-66.5 182.5zM94 259h385q0 81 -52 145t-141 64q-85 0 -137 -63.5t-55 -145.5z" />
    <glyph glyph-name="Ecaron" unicode="&#x11a;" horiz-adv-x="558" 
d="M88 18v631q0 18 18 18h377q6 0 10.5 -4.5t4.5 -10.5t-4.5 -10.5t-10.5 -4.5h-363v-279h356q6 0 10.5 -4.5t4.5 -10.5t-4.5 -10.5t-10.5 -4.5h-356v-298h363q6 0 10.5 -4.5t4.5 -10.5t-4.5 -10.5t-10.5 -4.5h-377q-18 0 -18 18zM406 861l-2 -6l-89 -128q-6 -11 -20 -11h-2
q-14 0 -20 11l-89 128l-2 6q0 12 12 12q5 0 9 -4l91 -123l91 123q4 4 9 4q12 0 12 -12z" />
    <glyph glyph-name="ecaron" unicode="&#x11b;" horiz-adv-x="571" 
d="M287 495q103 0 163.5 -71t60.5 -171q0 -21 -18 -21h-399q3 -92 59 -154.5t144 -62.5q92 0 160 65q3 3 9 3q13 0 13 -13q0 -5 -4 -9q-78 -73 -178 -73q-104 0 -170.5 71.5t-66.5 182.5q0 105 65.5 179t161.5 74zM94 259h385q0 81 -52 145t-141 64q-85 0 -137 -63.5
t-55 -145.5zM396 714l-2 -6l-89 -128q-6 -11 -20 -11h-2q-14 0 -20 11l-89 128l-2 6q0 12 12 12q5 0 9 -4l91 -123l91 123q4 4 9 4q12 0 12 -12z" />
    <glyph glyph-name="Gcircumflex" unicode="&#x11c;" horiz-adv-x="708" 
d="M642 302v-195q0 -15 -9 -22q-95 -98 -235 -98q-138 -2 -236.5 98t-96.5 248q-2 148 96.5 247.5t236.5 97.5q138 0 235 -94q4 -3 4 -10q0 -15 -15 -15q-6 0 -10 4q-85 85 -214 85q-125 2 -212.5 -88.5t-85.5 -226.5q-2 -135 85.5 -226.5t212.5 -89.5q63 0 118.5 25
t93.5 65v183h-262q-6 0 -10.5 4.5t-4.5 10.5t4.5 10.5t10.5 4.5h276q18 0 18 -18zM489 720l-91 123l-91 -123q-4 -4 -9 -4q-12 0 -12 12l2 6l89 128q6 11 20 11h2q14 0 20 -11l89 -128l2 -6q0 -12 -12 -12q-5 0 -9 4z" />
    <glyph glyph-name="gcircumflex" unicode="&#x11d;" horiz-adv-x="566" 
d="M480 470v-473q0 -96 -54 -144.5t-150 -48.5q-61 0 -100 13.5t-75 49.5q-5 5 -5 12q0 16 16 16q6 0 11 -5q55 -59 153 -59q80 0 127 42.5t47 123.5v83q-29 -42 -75.5 -68t-98.5 -26q-97 0 -156.5 69.5t-59.5 184.5q0 113 59.5 184t156.5 71q53 0 98.5 -25t75.5 -70v70
q0 6 4.5 10.5t10.5 4.5t10.5 -4.5t4.5 -10.5zM450 111v259q-25 41 -73.5 69.5t-100.5 28.5q-84 0 -133.5 -64.5t-49.5 -163.5q0 -98 48 -163q49 -64 135 -64q52 0 100.5 28.5t73.5 69.5zM377 573l-91 123l-91 -123q-4 -4 -9 -4q-12 0 -12 12l2 6l89 128q6 11 20 11h2
q14 0 20 -11l89 -128l2 -6q0 -12 -12 -12q-5 0 -9 4z" />
    <glyph glyph-name="Gbreve" unicode="&#x11e;" horiz-adv-x="708" 
d="M642 302v-195q0 -15 -9 -22q-95 -98 -235 -98q-138 -2 -236.5 98t-96.5 248q-2 148 96.5 247.5t236.5 97.5q138 0 235 -94q4 -3 4 -10q0 -15 -15 -15q-6 0 -10 4q-85 85 -214 85q-125 2 -212.5 -88.5t-85.5 -226.5q-2 -135 85.5 -226.5t212.5 -89.5q63 0 118.5 25
t93.5 65v183h-262q-6 0 -10.5 4.5t-4.5 10.5t4.5 10.5t10.5 4.5h276q18 0 18 -18zM228 790q-3 4 -3 9t4 9.5t10 4.5q8 0 11 -5q56 -70 147 -70t147 70q3 5 11 5q5 0 9 -4.5t4 -9.5t-3 -9q-66 -79 -168 -79q-100 0 -169 79z" />
    <glyph glyph-name="gbreve" unicode="&#x11f;" horiz-adv-x="566" 
d="M480 470v-473q0 -96 -54 -144.5t-150 -48.5q-61 0 -100 13.5t-75 49.5q-5 5 -5 12q0 16 16 16q6 0 11 -5q55 -59 153 -59q80 0 127 42.5t47 123.5v83q-29 -42 -75.5 -68t-98.5 -26q-97 0 -156.5 69.5t-59.5 184.5q0 113 59.5 184t156.5 71q53 0 98.5 -25t75.5 -70v70
q0 6 4.5 10.5t10.5 4.5t10.5 -4.5t4.5 -10.5zM450 111v259q-25 41 -73.5 69.5t-100.5 28.5q-84 0 -133.5 -64.5t-49.5 -163.5q0 -98 48 -163q49 -64 135 -64q52 0 100.5 28.5t73.5 69.5zM116 643q-3 5 -3 9q0 5 4 9.5t10 4.5q8 0 11 -5q56 -70 147 -70t147 70q3 5 11 5
q5 0 9 -4.5t4 -9.5q0 -4 -3 -9q-66 -79 -168 -79q-100 0 -169 79z" />
    <glyph glyph-name="Gdotaccent" unicode="&#x120;" horiz-adv-x="708" 
d="M642 302v-195q0 -15 -9 -22q-95 -98 -235 -98q-138 -2 -236.5 98t-96.5 248q-2 148 96.5 247.5t236.5 97.5q138 0 235 -94q4 -3 4 -10q0 -15 -15 -15q-6 0 -10 4q-85 85 -214 85q-125 2 -212.5 -88.5t-85.5 -226.5q-2 -135 85.5 -226.5t212.5 -89.5q63 0 118.5 25
t93.5 65v183h-262q-6 0 -10.5 4.5t-4.5 10.5t4.5 10.5t10.5 4.5h276q18 0 18 -18zM397 791q12 0 20.5 -8.5t8.5 -20.5t-8.5 -20.5t-20.5 -8.5q-11 0 -20 8.5t-9 20.5t9 20.5t20 8.5z" />
    <glyph glyph-name="gdotaccent" unicode="&#x121;" horiz-adv-x="566" 
d="M480 470v-473q0 -96 -54 -144.5t-150 -48.5q-61 0 -100 13.5t-75 49.5q-5 5 -5 12q0 16 16 16q6 0 11 -5q55 -59 153 -59q80 0 127 42.5t47 123.5v83q-29 -42 -75.5 -68t-98.5 -26q-97 0 -156.5 69.5t-59.5 184.5q0 113 59.5 184t156.5 71q53 0 98.5 -25t75.5 -70v70
q0 6 4.5 10.5t10.5 4.5t10.5 -4.5t4.5 -10.5zM450 111v259q-25 41 -73.5 69.5t-100.5 28.5q-84 0 -133.5 -64.5t-49.5 -163.5q0 -98 48 -163q49 -64 135 -64q52 0 100.5 28.5t73.5 69.5zM285 644q12 0 20.5 -8.5t8.5 -20.5t-8.5 -20.5t-20.5 -8.5q-11 0 -20 8.5t-9 20.5
t9 20.5t20 8.5z" />
    <glyph glyph-name="uni0122" unicode="&#x122;" horiz-adv-x="708" 
d="M642 302v-195q0 -15 -9 -22q-95 -98 -235 -98q-138 -2 -236.5 98t-96.5 248q-2 148 96.5 247.5t236.5 97.5q138 0 235 -94q4 -3 4 -10q0 -15 -15 -15q-6 0 -10 4q-85 85 -214 85q-125 2 -212.5 -88.5t-85.5 -226.5q-2 -135 85.5 -226.5t212.5 -89.5q63 0 118.5 25
t93.5 65v183h-262q-6 0 -10.5 4.5t-4.5 10.5t4.5 10.5t10.5 4.5h276q18 0 18 -18zM357 -243q0 8 7 12q42 40 42 83q-2 -1 -8 -1q-14 0 -23 9.5t-9 23.5q0 13 9 22.5t23 9.5q16 0 27.5 -14.5t11.5 -38.5q0 -68 -54 -115q-6 -6 -12 -6q-14 0 -14 15z" />
    <glyph glyph-name="uni0123" unicode="&#x123;" horiz-adv-x="566" 
d="M238 617q0 68 54 115q6 6 12 6q14 0 14 -15q0 -8 -7 -12q-42 -40 -42 -83l8 1q14 0 23 -9.5t9 -23.5q0 -13 -9 -22.5t-23 -9.5q-16 0 -27.5 14.5t-11.5 38.5zM480 470v-473q0 -96 -54 -144.5t-150 -48.5q-61 0 -100 13.5t-75 49.5q-5 5 -5 12q0 16 16 16q6 0 11 -5
q55 -59 153 -59q80 0 127 42.5t47 123.5v83q-29 -42 -75.5 -68t-98.5 -26q-97 0 -156.5 69.5t-59.5 184.5q0 113 59.5 184t156.5 71q53 0 98.5 -25t75.5 -70v70q0 6 4.5 10.5t10.5 4.5t10.5 -4.5t4.5 -10.5zM450 111v259q-25 41 -73.5 69.5t-100.5 28.5q-84 0 -133.5 -64.5
t-49.5 -163.5q0 -98 48 -163q49 -64 135 -64q52 0 100.5 28.5t73.5 69.5z" />
    <glyph glyph-name="Hcircumflex" unicode="&#x124;" horiz-adv-x="695" 
d="M575 14v314h-455v-314q0 -6 -4.5 -11t-11.5 -5t-11.5 5t-4.5 11v639q0 6 4.5 11t11.5 5t11.5 -5t4.5 -11v-295h455v295q0 6 4.5 11t11.5 5t11.5 -5t4.5 -11v-639q0 -6 -4.5 -11t-11.5 -5t-11.5 5t-4.5 11zM440 720l-91 123l-91 -123q-4 -4 -9 -4q-12 0 -12 12l2 6l89 128
q6 11 20 11h2q14 0 20 -11l89 -128l2 -6q0 -12 -12 -12q-5 0 -9 4z" />
    <glyph glyph-name="hcircumflex" unicode="&#x125;" 
d="M412 13v326q0 70 -31 99.5t-94 29.5q-47 0 -95.5 -26t-75.5 -65v-364q0 -6 -4.5 -10.5t-10.5 -4.5t-10.5 4.5t-4.5 10.5v641q0 6 4.5 10.5t10.5 4.5t10.5 -4.5t4.5 -10.5v-247q30 36 78 61q50 27 97 27q76 0 113.5 -37t37.5 -119v-326q0 -6 -4.5 -10.5t-10.5 -4.5
t-10.5 4.5t-4.5 10.5zM356 720l-91 123l-91 -123q-4 -4 -9 -4q-12 0 -12 12l2 6l89 128q6 11 20 11h2q14 0 20 -11l89 -128l2 -6q0 -12 -12 -12q-5 0 -9 4z" />
    <glyph glyph-name="Hbar" unicode="&#x126;" horiz-adv-x="717" 
d="M707 515q0 -6 -4.5 -10t-9.5 -4h-74v-487q0 -6 -4.5 -11t-11.5 -5t-11.5 5t-4.5 11v314h-455v-314q0 -6 -4.5 -11t-11.5 -5t-11.5 5t-4.5 11v487h-76q-5 0 -9.5 4t-4.5 10q0 5 4.5 9t9.5 4h76v125q0 6 4.5 11t11.5 5t11.5 -5t4.5 -11v-125h455v125q0 6 4.5 11t11.5 5
t11.5 -5t4.5 -11v-125h74q5 0 9.5 -4t4.5 -9zM587 358v143h-455v-143h455z" />
    <glyph glyph-name="hbar" unicode="&#x127;" 
d="M442 339v-326q0 -6 -4.5 -10.5t-10.5 -4.5t-10.5 4.5t-4.5 10.5v326q0 70 -31 99.5t-94 29.5q-47 0 -95.5 -26t-75.5 -65v-364q0 -6 -4.5 -10.5t-10.5 -4.5t-10.5 4.5t-4.5 10.5v528h-64q-5 0 -9.5 4t-4.5 10q0 5 4.5 9t9.5 4h64v86q0 6 4.5 10.5t10.5 4.5t10.5 -4.5
t4.5 -10.5v-86h154q5 0 9.5 -4t4.5 -9q0 -6 -4.5 -10t-9.5 -4h-154v-134q30 36 78 61q50 27 97 27q76 0 113.5 -37t37.5 -119z" />
    <glyph glyph-name="Itilde" unicode="&#x128;" horiz-adv-x="208" 
d="M88 14v639q0 6 4.5 11t11.5 5t11.5 -5t4.5 -11v-639q0 -6 -4.5 -11t-11.5 -5t-11.5 5t-4.5 11zM92 784q-16 28 -26.5 39t-26.5 11q-54 0 -59 -96q0 -13 -13 -13q-5 0 -9 4.5t-4 9.5q3 54 26.5 88t61.5 34q25 0 41.5 -15t33.5 -48q16 -28 26.5 -39t26.5 -11q54 0 59 96
q0 13 13 13q5 0 9 -4.5t4 -9.5q-3 -54 -26.5 -88t-61.5 -34q-26 0 -40.5 14t-34.5 49z" />
    <glyph glyph-name="itilde" unicode="&#x129;" horiz-adv-x="202" 
d="M86 13v457q0 6 4.5 10.5t10.5 4.5t10.5 -4.5t4.5 -10.5v-457q0 -6 -4.5 -10.5t-10.5 -4.5t-10.5 4.5t-4.5 10.5zM89 637q-16 28 -26.5 39t-26.5 11q-54 0 -59 -96q0 -13 -13 -13q-5 0 -9 4.5t-4 9.5q3 54 26.5 88t61.5 34q25 0 41.5 -15t33.5 -48q16 -28 26.5 -39
t26.5 -11q25 0 41 24.5t18 71.5q0 13 13 13q5 0 9 -4.5t4 -9.5q-3 -54 -26.5 -88t-61.5 -34q-26 0 -40.5 14t-34.5 49z" />
    <glyph glyph-name="Imacron" unicode="&#x12a;" horiz-adv-x="208" 
d="M88 14v639q0 6 4.5 11t11.5 5t11.5 -5t4.5 -11v-639q0 -6 -4.5 -11t-11.5 -5t-11.5 5t-4.5 11zM-40 761q0 6 4.5 10t9.5 4h259q5 0 9.5 -4t4.5 -10q0 -5 -4.5 -9t-9.5 -4h-259q-5 0 -9.5 4t-4.5 9z" />
    <glyph glyph-name="imacron" unicode="&#x12b;" horiz-adv-x="202" 
d="M86 13v457q0 6 4.5 10.5t10.5 4.5t10.5 -4.5t4.5 -10.5v-457q0 -6 -4.5 -10.5t-10.5 -4.5t-10.5 4.5t-4.5 10.5zM-43 614q0 6 4.5 10t9.5 4h259q5 0 9.5 -4t4.5 -10q0 -5 -4.5 -9t-9.5 -4h-259q-5 0 -9.5 4t-4.5 9z" />
    <glyph glyph-name="Ibreve" unicode="&#x12c;" horiz-adv-x="208" 
d="M88 14v639q0 6 4.5 11t11.5 5t11.5 -5t4.5 -11v-639q0 -6 -4.5 -11t-11.5 -5t-11.5 5t-4.5 11zM-65 790q-3 4 -3 9t4 9.5t10 4.5q8 0 11 -5q56 -70 147 -70t147 70q3 5 11 5q5 0 9 -4.5t4 -9.5t-3 -9q-66 -79 -168 -79q-100 0 -169 79z" />
    <glyph glyph-name="ibreve" unicode="&#x12d;" horiz-adv-x="202" 
d="M86 13v457q0 6 4.5 10.5t10.5 4.5t10.5 -4.5t4.5 -10.5v-457q0 -6 -4.5 -10.5t-10.5 -4.5t-10.5 4.5t-4.5 10.5zM-68 643q-3 5 -3 9q0 5 4 9.5t10 4.5q8 0 11 -5q56 -70 147 -70t147 70q3 5 11 5q5 0 9 -4.5t4 -9.5q0 -4 -3 -9q-66 -79 -168 -79q-100 0 -169 79z" />
    <glyph glyph-name="Iogonek" unicode="&#x12e;" horiz-adv-x="208" 
d="M120 0q-102 -54 -102 -109q0 -23 14 -36.5t38 -13.5q9 0 17 2.5t13.5 4.5t6.5 2q13 0 13 -13q0 -8 -6 -11q-20 -12 -44 -12q-36 0 -61 20t-25 52t28.5 63.5t77.5 55.5h1q-3 5 -3 9v639q0 6 4.5 11t11.5 5t11.5 -5t4.5 -11v-639q0 -4 -1 -5q15 -2 1 -9z" />
    <glyph glyph-name="iogonek" unicode="&#x12f;" horiz-adv-x="202" 
d="M72 615q0 12 9 20.5t20 8.5q12 0 20.5 -8.5t8.5 -20.5t-8.5 -20.5t-20.5 -8.5q-11 0 -20 8.5t-9 20.5zM116 0q-102 -54 -102 -109q0 -23 14 -36.5t38 -13.5q12 0 24 5l13 4q13 0 13 -13q0 -8 -6 -11q-20 -12 -44 -12q-36 0 -61 20t-25 52t28.5 63.5t77.5 55.5l2 1
q-2 6 -2 7v457q0 6 4.5 10.5t10.5 4.5t10.5 -4.5t4.5 -10.5v-457q0 -3 -1 -4q15 -2 1 -9z" />
    <glyph glyph-name="Idot" unicode="&#x130;" horiz-adv-x="208" 
d="M88 14v639q0 6 4.5 11t11.5 5t11.5 -5t4.5 -11v-639q0 -6 -4.5 -11t-11.5 -5t-11.5 5t-4.5 11zM104 791q12 0 20.5 -8.5t8.5 -20.5t-8.5 -20.5t-20.5 -8.5q-11 0 -20 8.5t-9 20.5t9 20.5t20 8.5z" />
    <glyph glyph-name="dotlessi" unicode="&#x131;" horiz-adv-x="202" 
d="M86 13v457q0 6 4.5 10.5t10.5 4.5t10.5 -4.5t4.5 -10.5v-457q0 -6 -4.5 -10.5t-10.5 -4.5t-10.5 4.5t-4.5 10.5z" />
    <glyph glyph-name="IJ" unicode="&#x132;" horiz-adv-x="673" 
d="M88 14v639q0 6 4.5 11t11.5 5t11.5 -5t4.5 -11v-639q0 -6 -4.5 -11t-11.5 -5t-11.5 5t-4.5 11zM229 74q0 8 5.5 13t12.5 5q10 0 14 -7q55 -67 132 -67q72 0 116 46t44 121v468q0 6 4.5 11t11.5 5t11.5 -5t4.5 -11v-468q0 -94 -54.5 -145.5t-137.5 -51.5q-101 0 -160 75
q-4 5 -4 11z" />
    <glyph glyph-name="ij" unicode="&#x133;" horiz-adv-x="404" 
d="M72 615q0 12 9 20.5t20 8.5q12 0 20.5 -8.5t8.5 -20.5t-8.5 -20.5t-20.5 -8.5q-11 0 -20 8.5t-9 20.5zM86 13v457q0 6 4.5 10.5t10.5 4.5t10.5 -4.5t4.5 -10.5v-457q0 -6 -4.5 -10.5t-10.5 -4.5t-10.5 4.5t-4.5 10.5zM274 615q0 12 9 20.5t20 8.5q12 0 20.5 -8.5
t8.5 -20.5t-8.5 -20.5t-20.5 -8.5q-11 0 -20 8.5t-9 20.5zM161 -190q-10 3 -10 14q0 14 13 14q1 0 14 -3t25 -3q85 0 85 92v546q0 6 4.5 10.5t10.5 4.5t10.5 -4.5t4.5 -10.5v-546q0 -59 -30 -89.5t-85 -30.5q-21 0 -42 6z" />
    <glyph glyph-name="Jcircumflex" unicode="&#x134;" horiz-adv-x="465" 
d="M21 74q0 8 5.5 13t12.5 5q10 0 14 -7q55 -67 132 -67q72 0 116 46t44 121v468q0 6 4.5 11t11.5 5t11.5 -5t4.5 -11v-468q0 -94 -54.5 -145.5t-137.5 -51.5q-101 0 -160 75q-4 5 -4 11zM453 737l-91 123l-91 -123q-4 -4 -9 -4q-12 0 -12 12l2 6l89 128q6 11 20 11h2
q14 0 20 -11l89 -128l2 -6q0 -12 -12 -12q-5 0 -9 4z" />
    <glyph glyph-name="jcircumflex" unicode="&#x135;" horiz-adv-x="202" 
d="M-41 -190q-10 3 -10 14q0 14 13 14q1 0 14 -3t25 -3q85 0 85 92v546q0 6 4.5 10.5t10.5 4.5t10.5 -4.5t4.5 -10.5v-546q0 -59 -30 -89.5t-85 -30.5q-21 0 -42 6zM193 573l-91 123l-91 -123q-4 -4 -9 -4q-12 0 -12 12l2 6l89 128q6 11 20 11h2q14 0 20 -11l89 -128l2 -6
q0 -12 -12 -12q-5 0 -9 4z" />
    <glyph glyph-name="uni0136" unicode="&#x136;" horiz-adv-x="571" 
d="M521 14q0 -7 -4.5 -11.5t-10.5 -4.5q-7 0 -12 5l-294 325l-80 -87v-227q0 -6 -4.5 -11t-11.5 -5t-11.5 5t-4.5 11v639q0 6 4.5 11t11.5 5t11.5 -5t4.5 -11v-371l344 381q4 6 12 6q6 0 11 -4.5t5 -11.5q0 -3 -5 -11l-267 -294l297 -323q4 -5 4 -11zM263 -243q0 8 7 12
q42 40 42 83q-2 -1 -8 -1q-14 0 -23 9.5t-9 23.5q0 13 9 22.5t23 9.5q16 0 27.5 -14.5t11.5 -38.5q0 -68 -54 -115q-6 -6 -12 -6q-14 0 -14 15z" />
    <glyph glyph-name="uni0137" unicode="&#x137;" horiz-adv-x="496" 
d="M239 265l210 -240q4 -5 4 -11t-4.5 -11t-11.5 -5t-12 6l-209 239l-100 -92v-138q0 -6 -4.5 -10.5t-10.5 -4.5t-10.5 4.5t-4.5 10.5v641q0 6 4.5 10.5t10.5 4.5t10.5 -4.5t4.5 -10.5v-464l313 291q4 4 10 4q14 0 14 -15q0 -8 -5 -11zM213 -243q0 8 7 12q42 40 42 83
q-2 -1 -8 -1q-14 0 -23 9.5t-9 23.5q0 13 9 22.5t23 9.5q16 0 27.5 -14.5t11.5 -38.5q0 -68 -54 -115q-6 -6 -12 -6q-14 0 -14 15z" />
    <glyph glyph-name="kgreenlandic" unicode="&#x138;" horiz-adv-x="496" 
d="M239 265l210 -240q4 -5 4 -11t-4.5 -11t-11.5 -5t-12 6l-209 239l-100 -92v-138q0 -6 -4.5 -10.5t-10.5 -4.5t-10.5 4.5t-4.5 10.5v457q0 6 4.5 10.5t10.5 4.5t10.5 -4.5t4.5 -10.5v-280l313 291q4 4 10 4q14 0 14 -15q0 -8 -5 -11z" />
    <glyph glyph-name="Lacute" unicode="&#x139;" horiz-adv-x="499" 
d="M88 18v635q0 6 4.5 11t11.5 5t11.5 -5t4.5 -11v-623h322q6 0 10.5 -4.5t4.5 -10.5t-4.5 -10.5t-10.5 -4.5h-336q-18 0 -18 18zM112 721q-10 0 -10 10q0 4 4 8l140 126q4 4 9 4q6 0 10.5 -4.5t4.5 -10.5t-6 -11l-145 -119q-3 -3 -7 -3z" />
    <glyph glyph-name="lacute" unicode="&#x13a;" horiz-adv-x="202" 
d="M86 13v641q0 6 4.5 10.5t10.5 4.5t10.5 -4.5t4.5 -10.5v-641q0 -6 -4.5 -10.5t-10.5 -4.5t-10.5 4.5t-4.5 10.5zM109 721q-10 0 -10 10q0 4 4 8l140 126q4 4 9 4q6 0 10.5 -4.5t4.5 -10.5t-6 -11l-145 -119q-3 -3 -7 -3z" />
    <glyph glyph-name="uni013B" unicode="&#x13b;" horiz-adv-x="499" 
d="M88 18v635q0 6 4.5 11t11.5 5t11.5 -5t4.5 -11v-623h322q6 0 10.5 -4.5t4.5 -10.5t-4.5 -10.5t-10.5 -4.5h-336q-18 0 -18 18zM231 -243q0 8 7 12q42 40 42 83q-2 -1 -8 -1q-14 0 -23 9.5t-9 23.5q0 13 9 22.5t23 9.5q16 0 27.5 -14.5t11.5 -38.5q0 -68 -54 -115
q-6 -6 -12 -6q-14 0 -14 15z" />
    <glyph glyph-name="uni013C" unicode="&#x13c;" horiz-adv-x="202" 
d="M86 13v641q0 6 4.5 10.5t10.5 4.5t10.5 -4.5t4.5 -10.5v-641q0 -6 -4.5 -10.5t-10.5 -4.5t-10.5 4.5t-4.5 10.5zM60 -243q0 8 7 12q42 40 42 83q-2 -1 -8 -1q-14 0 -23 9.5t-9 23.5q0 13 9 22.5t23 9.5q16 0 27.5 -14.5t11.5 -38.5q0 -68 -54 -115q-6 -6 -12 -6
q-14 0 -14 15z" />
    <glyph glyph-name="Lcaron" unicode="&#x13d;" horiz-adv-x="499" 
d="M88 18v635q0 6 4.5 11t11.5 5t11.5 -5t4.5 -11v-623h322q6 0 10.5 -4.5t4.5 -10.5t-4.5 -10.5t-10.5 -4.5h-336q-18 0 -18 18zM218 520q0 8 7 12q42 40 42 83q-2 -1 -8 -1q-14 0 -23 9.5t-9 23.5q0 13 9 22.5t23 9.5q16 0 27.5 -14.5t11.5 -38.5q0 -68 -54 -115
q-6 -6 -12 -6q-14 0 -14 15z" />
    <glyph glyph-name="lcaron" unicode="&#x13e;" horiz-adv-x="237" 
d="M86 13v641q0 6 4.5 10.5t10.5 4.5t10.5 -4.5t4.5 -10.5v-641q0 -6 -4.5 -10.5t-10.5 -4.5t-10.5 4.5t-4.5 10.5zM164 521q0 8 7 12q42 40 42 83q-2 -1 -8 -1q-14 0 -23 9.5t-9 23.5q0 13 9 22.5t23 9.5q16 0 27.5 -14.5t11.5 -38.5q0 -68 -54 -115q-6 -6 -12 -6
q-14 0 -14 15z" />
    <glyph glyph-name="Ldot" unicode="&#x13f;" horiz-adv-x="499" 
d="M88 18v635q0 6 4.5 11t11.5 5t11.5 -5t4.5 -11v-623h322q6 0 10.5 -4.5t4.5 -10.5t-4.5 -10.5t-10.5 -4.5h-336q-18 0 -18 18zM312 342q0 13 10 22.5t23 9.5t23 -9.5t10 -22.5t-9.5 -23t-23.5 -10q-13 0 -23 10t-10 23z" />
    <glyph glyph-name="ldot" unicode="&#x140;" horiz-adv-x="240" 
d="M86 13v641q0 6 4.5 10.5t10.5 4.5t10.5 -4.5t4.5 -10.5v-641q0 -6 -4.5 -10.5t-10.5 -4.5t-10.5 4.5t-4.5 10.5zM188 245q0 13 10 22.5t23 9.5t23 -9.5t10 -22.5t-9.5 -23t-23.5 -10q-13 0 -23 10t-10 23z" />
    <glyph glyph-name="Lslash" unicode="&#x141;" horiz-adv-x="523" 
d="M481 15q0 -6 -4.5 -10.5t-10.5 -4.5h-336q-18 0 -18 18v287l-80 -47q-6 -2 -7 -2q-15 0 -15 15q0 6 8 12l94 55v315q0 6 4.5 11t11.5 5t11.5 -5t4.5 -11v-297l94 55q6 2 7 2q15 0 15 -15q0 -6 -8 -12l-108 -63v-293h322q6 0 10.5 -4.5t4.5 -10.5z" />
    <glyph glyph-name="lslash" unicode="&#x142;" horiz-adv-x="268" 
d="M258 397q0 -8 -7 -12l-102 -58v-314q0 -6 -4.5 -10.5t-10.5 -4.5t-10.5 4.5t-4.5 10.5v296l-88 -50q-6 -2 -7 -2q-5 0 -9.5 4t-4.5 10q0 8 7 12l102 58v313q0 6 4.5 10.5t10.5 4.5t10.5 -4.5t4.5 -10.5v-295l88 50q6 2 7 2q5 0 9.5 -4t4.5 -10z" />
    <glyph glyph-name="Nacute" unicode="&#x143;" horiz-adv-x="690" 
d="M565 7l-445 608v-601q0 -6 -4.5 -11t-11.5 -5t-11.5 5t-4.5 11v634q0 8 6 14.5t14 6.5q12 0 17 -9l445 -602v595q0 6 4.5 11t11.5 5t11.5 -5t4.5 -11v-634q0 -8 -6 -14.5t-14 -6.5q-12 0 -17 9zM353 721q-10 0 -10 10q0 4 4 8l140 126q4 4 9 4q6 0 10.5 -4.5t4.5 -10.5
t-6 -11l-145 -119q-3 -3 -7 -3z" />
    <glyph glyph-name="nacute" unicode="&#x144;" 
d="M442 337v-324q0 -6 -4.5 -10.5t-10.5 -4.5t-10.5 4.5t-4.5 10.5v324q0 70 -31 100.5t-94 30.5q-47 0 -95.5 -26t-75.5 -65v-364q0 -6 -4.5 -10.5t-10.5 -4.5t-10.5 4.5t-4.5 10.5v457q0 6 4.5 10.5t10.5 4.5t10.5 -4.5t4.5 -10.5v-64q29 37 78 62q50 27 97 27
q76 0 113.5 -38t37.5 -120zM272 574q-10 0 -10 10q0 4 4 8l140 126q4 4 9 4q6 0 10.5 -4.5t4.5 -10.5q0 -7 -6 -11l-145 -119q-3 -3 -7 -3z" />
    <glyph glyph-name="uni0145" unicode="&#x145;" horiz-adv-x="690" 
d="M565 7l-445 608v-601q0 -6 -4.5 -11t-11.5 -5t-11.5 5t-4.5 11v634q0 8 6 14.5t14 6.5q12 0 17 -9l445 -602v595q0 6 4.5 11t11.5 5t11.5 -5t4.5 -11v-634q0 -8 -6 -14.5t-14 -6.5q-12 0 -17 9zM291 -243q0 8 7 12q42 40 42 83q-2 -1 -8 -1q-14 0 -23 9.5t-9 23.5
q0 13 9 22.5t23 9.5q16 0 27.5 -14.5t11.5 -38.5q0 -68 -54 -115q-6 -6 -12 -6q-14 0 -14 15z" />
    <glyph glyph-name="uni0146" unicode="&#x146;" 
d="M442 337v-324q0 -6 -4.5 -10.5t-10.5 -4.5t-10.5 4.5t-4.5 10.5v324q0 70 -31 100.5t-94 30.5q-47 0 -95.5 -26t-75.5 -65v-364q0 -6 -4.5 -10.5t-10.5 -4.5t-10.5 4.5t-4.5 10.5v457q0 6 4.5 10.5t10.5 4.5t10.5 -4.5t4.5 -10.5v-64q29 37 78 62q50 27 97 27
q76 0 113.5 -38t37.5 -120zM223 -243q0 8 7 12q42 40 42 83q-2 -1 -8 -1q-14 0 -23 9.5t-9 23.5q0 13 9 22.5t23 9.5q16 0 27.5 -14.5t11.5 -38.5q0 -68 -54 -115q-6 -6 -12 -6q-14 0 -14 15z" />
    <glyph glyph-name="Ncaron" unicode="&#x147;" horiz-adv-x="690" 
d="M565 7l-445 608v-601q0 -6 -4.5 -11t-11.5 -5t-11.5 5t-4.5 11v634q0 8 6 14.5t14 6.5q12 0 17 -9l445 -602v595q0 6 4.5 11t11.5 5t11.5 -5t4.5 -11v-634q0 -8 -6 -14.5t-14 -6.5q-12 0 -17 9zM455 861l-2 -6l-89 -128q-6 -11 -20 -11h-2q-14 0 -20 11l-89 128l-2 6
q0 12 12 12q5 0 9 -4l91 -123l91 123q4 4 9 4q12 0 12 -12z" />
    <glyph glyph-name="ncaron" unicode="&#x148;" 
d="M442 337v-324q0 -6 -4.5 -10.5t-10.5 -4.5t-10.5 4.5t-4.5 10.5v324q0 70 -31 100.5t-94 30.5q-47 0 -95.5 -26t-75.5 -65v-364q0 -6 -4.5 -10.5t-10.5 -4.5t-10.5 4.5t-4.5 10.5v457q0 6 4.5 10.5t10.5 4.5t10.5 -4.5t4.5 -10.5v-64q29 37 78 62q50 27 97 27
q76 0 113.5 -38t37.5 -120zM374 714l-2 -6l-89 -128q-6 -11 -20 -11h-2q-14 0 -20 11l-89 128l-2 6q0 12 12 12q5 0 9 -4l91 -123l91 123q4 4 9 4q12 0 12 -12z" />
    <glyph glyph-name="napostrophe" unicode="&#x149;" 
d="M442 337v-324q0 -6 -4.5 -10.5t-10.5 -4.5t-10.5 4.5t-4.5 10.5v324q0 70 -31 100.5t-94 30.5q-47 0 -95.5 -26t-75.5 -65v-364q0 -6 -4.5 -10.5t-10.5 -4.5t-10.5 4.5t-4.5 10.5v457q0 6 4.5 10.5t10.5 4.5t10.5 -4.5t4.5 -10.5v-64q29 37 78 62q50 27 97 27
q76 0 113.5 -38t37.5 -120zM69 566q0 8 7 12q42 40 42 83q-2 -1 -8 -1q-14 0 -23 9.5t-9 23.5q0 13 9 22.5t23 9.5q16 0 27.5 -14.5t11.5 -38.5q0 -68 -54 -115q-6 -6 -12 -6q-14 0 -14 15z" />
    <glyph glyph-name="Eng" unicode="&#x14a;" horiz-adv-x="690" 
d="M602 653v-655q0 -95 -55 -144q-55 -50 -137 -50q-101 0 -160 75q-4 5 -4 11q0 7 5.5 12.5t12.5 5.5q10 0 14 -7q55 -67 132 -67q74 0 117 45t41 119v4l-448 613v-601q0 -6 -4.5 -11t-11.5 -5t-11.5 5t-4.5 11v634q0 8 6 14.5t14 6.5q12 0 17 -9l445 -602v595q0 6 4.5 11
t11.5 5t11.5 -5t4.5 -11z" />
    <glyph glyph-name="eng" unicode="&#x14b;" 
d="M442 337v-413q0 -59 -30 -89.5t-85 -30.5q-23 0 -42 6q-10 3 -10 14q0 14 13 14q1 0 14 -3t25 -3q85 0 85 92v413q0 70 -31 100.5t-94 30.5q-47 0 -95.5 -26t-75.5 -65v-364q0 -6 -4.5 -10.5t-10.5 -4.5t-10.5 4.5t-4.5 10.5v457q0 6 4.5 10.5t10.5 4.5t10.5 -4.5
t4.5 -10.5v-64q29 37 78 62q50 27 97 27q76 0 113.5 -38t37.5 -120z" />
    <glyph glyph-name="Omacron" unicode="&#x14c;" horiz-adv-x="764" 
d="M382 678q140 0 228.5 -98.5t88.5 -246.5t-88.5 -246.5t-228.5 -98.5q-140 -2 -229.5 98t-87.5 247q-2 147 87.5 247t229.5 98zM382 648q-127 0 -204.5 -88t-77.5 -227q-2 -136 77 -226.5t205 -88.5q124 -2 204 88.5t78 226.5q0 138 -78 226.5t-204 88.5zM238 761
q0 6 4.5 10t9.5 4h259q5 0 9.5 -4t4.5 -10q0 -5 -4.5 -9t-9.5 -4h-259q-5 0 -9.5 4t-4.5 9z" />
    <glyph glyph-name="omacron" unicode="&#x14d;" horiz-adv-x="570" 
d="M60 242q0 108 62.5 180.5t162.5 72.5t162.5 -72.5t62.5 -180.5q0 -109 -62.5 -181.5t-162.5 -72.5q-99 0 -162 72.5t-63 181.5zM477 242q0 94 -52 160t-140 66q-86 0 -139 -66t-53 -160t53 -160.5t139 -66.5q87 0 139.5 66.5t52.5 160.5zM141 614q0 6 4.5 10t9.5 4h259
q5 0 9.5 -4t4.5 -10q0 -5 -4.5 -9t-9.5 -4h-259q-5 0 -9.5 4t-4.5 9z" />
    <glyph glyph-name="Obreve" unicode="&#x14e;" horiz-adv-x="764" 
d="M382 678q140 0 228.5 -98.5t88.5 -246.5t-88.5 -246.5t-228.5 -98.5q-140 -2 -229.5 98t-87.5 247q-2 147 87.5 247t229.5 98zM382 648q-127 0 -204.5 -88t-77.5 -227q-2 -136 77 -226.5t205 -88.5q124 -2 204 88.5t78 226.5q0 138 -78 226.5t-204 88.5zM213 790
q-3 4 -3 9t4 9.5t10 4.5q8 0 11 -5q56 -70 147 -70t147 70q3 5 11 5q5 0 9 -4.5t4 -9.5t-3 -9q-66 -79 -168 -79q-100 0 -169 79z" />
    <glyph glyph-name="obreve" unicode="&#x14f;" horiz-adv-x="570" 
d="M60 242q0 108 62.5 180.5t162.5 72.5t162.5 -72.5t62.5 -180.5q0 -109 -62.5 -181.5t-162.5 -72.5q-99 0 -162 72.5t-63 181.5zM477 242q0 94 -52 160t-140 66q-86 0 -139 -66t-53 -160t53 -160.5t139 -66.5q87 0 139.5 66.5t52.5 160.5zM116 643q-3 5 -3 9q0 5 4 9.5
t10 4.5q8 0 11 -5q56 -70 147 -70t147 70q3 5 11 5q5 0 9 -4.5t4 -9.5q0 -4 -3 -9q-66 -79 -168 -79q-100 0 -169 79z" />
    <glyph glyph-name="Ohungarumlaut" unicode="&#x150;" horiz-adv-x="764" 
d="M382 678q140 0 228.5 -98.5t88.5 -246.5t-88.5 -246.5t-228.5 -98.5q-140 -2 -229.5 98t-87.5 247q-2 147 87.5 247t229.5 98zM382 648q-127 0 -204.5 -88t-77.5 -227q-2 -136 77 -226.5t205 -88.5q124 -2 204 88.5t78 226.5q0 138 -78 226.5t-204 88.5zM302 727
q0 6 4 10l91 130q4 7 13 7q6 0 11 -4.5t5 -11.5q0 -4 -3 -9l-99 -125q-6 -7 -11 -7q-4 0 -7.5 3t-3.5 7zM438 727q0 6 4 10l91 130q4 7 13 7q6 0 11 -4.5t5 -11.5q0 -4 -3 -9l-99 -125q-6 -7 -11 -7q-4 0 -7.5 3t-3.5 7z" />
    <glyph glyph-name="ohungarumlaut" unicode="&#x151;" horiz-adv-x="570" 
d="M60 242q0 108 62.5 180.5t162.5 72.5t162.5 -72.5t62.5 -180.5q0 -109 -62.5 -181.5t-162.5 -72.5q-99 0 -162 72.5t-63 181.5zM477 242q0 94 -52 160t-140 66q-86 0 -139 -66t-53 -160t53 -160.5t139 -66.5q87 0 139.5 66.5t52.5 160.5zM205 580q0 6 4 10l91 130
q4 7 13 7q6 0 11 -4.5t5 -11.5q0 -5 -3 -9l-99 -125q-6 -7 -11 -7q-4 0 -7.5 3t-3.5 7zM341 580q0 6 4 10l91 130q4 7 13 7q6 0 11 -4.5t5 -11.5q0 -5 -3 -9l-99 -125q-6 -7 -11 -7q-4 0 -7.5 3t-3.5 7z" />
    <glyph glyph-name="OE" unicode="&#x152;" horiz-adv-x="1124" 
d="M1061 15q0 -6 -4.5 -10.5t-10.5 -4.5h-377q-18 0 -18 18v138q-39 -80 -111 -124t-158 -44q-140 -2 -229.5 98t-87.5 247q-2 146 87.5 245.5t229.5 98.5q86 0 158 -43.5t111 -122.5v138q0 18 18 18h377q6 0 10.5 -4.5t4.5 -10.5t-4.5 -10.5t-10.5 -4.5h-363v-279h356
q6 0 10.5 -4.5t4.5 -10.5t-4.5 -10.5t-10.5 -4.5h-356v-298h363q6 0 10.5 -4.5t4.5 -10.5zM651 218v231q-33 97 -103.5 147.5t-165.5 50.5q-127 0 -204.5 -87.5t-77.5 -226.5t77.5 -227t204.5 -88q94 0 165 51.5t104 148.5z" />
    <glyph glyph-name="oe" unicode="&#x153;" horiz-adv-x="988" 
d="M714 15q92 0 160 65q3 3 9 3q13 0 13 -13q0 -5 -4 -9q-78 -73 -178 -73q-91 0 -146.5 49.5t-73.5 114.5q-17 -59 -68 -113q-50 -51 -141 -51q-99 0 -162 72.5t-63 181.5q0 108 62.5 180.5t162.5 72.5q87 0 141 -51.5t68 -112.5q17 62 71.5 113t138.5 51q104 0 164 -72.5
t60 -180.5q0 -10 -18 -10h-399q3 -92 59 -154.5t144 -62.5zM93 242q0 -94 53 -161t139 -67q87 0 139.5 66.5t52.5 161.5q0 94 -52 160t-140 66q-86 0 -139 -66t-53 -160zM703 468q-85 0 -137 -63.5t-55 -145.5h385q0 81 -52 145t-141 64z" />
    <glyph glyph-name="Racute" unicode="&#x154;" horiz-adv-x="579" 
d="M323 288l188 -263q3 -3 3 -10t-4.5 -12t-11.5 -5q-10 0 -14 7l-198 283h-166v-274q0 -6 -4.5 -11t-11.5 -5t-11.5 5t-4.5 11v635q0 18 18 18h212q86 0 141.5 -50.5t55.5 -138.5q0 -85 -54.5 -136.5t-137.5 -53.5zM120 637v-319h198q72 0 117 45t45 115t-45 114.5
t-117 44.5h-198zM302 721q-10 0 -10 10q0 4 4 8l140 126q4 4 9 4q6 0 10.5 -4.5t4.5 -10.5t-6 -11l-145 -119q-3 -3 -7 -3z" />
    <glyph glyph-name="racute" unicode="&#x155;" horiz-adv-x="304" 
d="M284 474q0 -7 -6 -12t-15 -5q-43 0 -86 -30q-42 -28 -61 -65v-349q0 -6 -4.5 -10.5t-10.5 -4.5t-10.5 4.5t-4.5 10.5v457q0 6 4.5 10.5t10.5 4.5t10.5 -4.5t4.5 -10.5v-76q58 79 129 94q14 3 20 3q8 0 13.5 -5t5.5 -12zM193 574q-10 0 -10 10q0 4 4 8l140 126q4 4 9 4
q6 0 10.5 -4.5t4.5 -10.5q0 -7 -6 -11l-145 -119q-3 -3 -7 -3z" />
    <glyph glyph-name="uni0156" unicode="&#x156;" horiz-adv-x="579" 
d="M323 288l188 -263q3 -3 3 -10t-4.5 -12t-11.5 -5q-10 0 -14 7l-198 283h-166v-274q0 -6 -4.5 -11t-11.5 -5t-11.5 5t-4.5 11v635q0 18 18 18h212q86 0 141.5 -50.5t55.5 -138.5q0 -85 -54.5 -136.5t-137.5 -53.5zM120 637v-319h198q72 0 117 45t45 115t-45 114.5
t-117 44.5h-198zM253 -243q0 8 7 12q42 40 42 83q-2 -1 -8 -1q-14 0 -23 9.5t-9 23.5q0 13 9 22.5t23 9.5q16 0 27.5 -14.5t11.5 -38.5q0 -68 -54 -115q-6 -6 -12 -6q-14 0 -14 15z" />
    <glyph glyph-name="uni0157" unicode="&#x157;" horiz-adv-x="304" 
d="M284 474q0 -7 -6 -12t-15 -5q-43 0 -86 -30q-42 -28 -61 -65v-349q0 -6 -4.5 -10.5t-10.5 -4.5t-10.5 4.5t-4.5 10.5v457q0 6 4.5 10.5t10.5 4.5t10.5 -4.5t4.5 -10.5v-76q58 79 129 94q14 3 20 3q8 0 13.5 -5t5.5 -12zM60 -243q0 8 7 12q42 40 42 83q-2 -1 -8 -1
q-14 0 -23 9.5t-9 23.5q0 13 9 22.5t23 9.5q16 0 27.5 -14.5t11.5 -38.5q0 -68 -54 -115q-6 -6 -12 -6q-14 0 -14 15z" />
    <glyph glyph-name="Rcaron" unicode="&#x158;" horiz-adv-x="579" 
d="M323 288l188 -263q3 -3 3 -10t-4.5 -12t-11.5 -5q-10 0 -14 7l-198 283h-166v-274q0 -6 -4.5 -11t-11.5 -5t-11.5 5t-4.5 11v635q0 18 18 18h212q86 0 141.5 -50.5t55.5 -138.5q0 -85 -54.5 -136.5t-137.5 -53.5zM120 637v-319h198q72 0 117 45t45 115t-45 114.5
t-117 44.5h-198zM404 861l-2 -6l-89 -128q-6 -11 -20 -11h-2q-14 0 -20 11l-89 128l-2 6q0 12 12 12q5 0 9 -4l91 -123l91 123q4 4 9 4q12 0 12 -12z" />
    <glyph glyph-name="rcaron" unicode="&#x159;" horiz-adv-x="304" 
d="M284 474q0 -7 -6 -12t-15 -5q-43 0 -86 -30q-42 -28 -61 -65v-349q0 -6 -4.5 -10.5t-10.5 -4.5t-10.5 4.5t-4.5 10.5v457q0 6 4.5 10.5t10.5 4.5t10.5 -4.5t4.5 -10.5v-76q58 79 129 94q14 3 20 3q8 0 13.5 -5t5.5 -12zM295 714l-2 -6l-89 -128q-6 -11 -20 -11h-2
q-14 0 -20 11l-89 128l-2 6q0 12 12 12q5 0 9 -4l91 -123l91 123q4 4 9 4q12 0 12 -12z" />
    <glyph glyph-name="Sacute" unicode="&#x15a;" horiz-adv-x="575" 
d="M59 93q0 7 5 12.5t12 5.5q8 0 13 -6q80 -87 197 -87q105 0 148 46q45 46 45 105q0 49 -27 81q-25 30 -61 47t-108 37q-63 17 -111 37q-98 41 -98 137q0 77 60.5 123.5t148.5 46.5q129 0 206 -83q5 -5 5 -11q0 -7 -5 -12t-12 -5q-9 0 -13 6q-67 75 -181 75
q-73 0 -123.5 -40t-50.5 -100q0 -42 24 -69q23 -24 56.5 -38.5t104.5 -34.5q70 -21 115 -41q105 -44 105 -156q0 -73 -55 -127t-173 -54q-137 0 -223 94q-4 4 -4 11zM291 721q-10 0 -10 10q0 4 4 8l140 126q4 4 9 4q6 0 10.5 -4.5t4.5 -10.5t-6 -11l-145 -119q-3 -3 -7 -3z
" />
    <glyph glyph-name="sacute" unicode="&#x15b;" horiz-adv-x="454" 
d="M49 65q0 7 5 11.5t11 4.5q7 0 12 -5q58 -61 144 -61q65 0 104 31.5t39 80.5q0 33 -20 53q-18 20 -45 31.5t-81 25.5q-52 13 -87 26q-77 30 -77 104q0 56 45 92t119 36q100 0 158 -63q4 -5 4 -10q0 -6 -4.5 -10.5t-10.5 -4.5q-8 0 -11 5q-48 56 -136 56q-61 0 -97.5 -28
t-36.5 -73q0 -29 18 -48q18 -17 42 -26.5t78 -23.5q49 -12 90 -28q82 -31 82 -114q0 -62 -45.5 -100.5t-127.5 -38.5q-104 0 -167 66q-5 5 -5 11zM226 574q-10 0 -10 10q0 4 4 8l140 126q4 4 9 4q6 0 10.5 -4.5t4.5 -10.5q0 -7 -6 -11l-145 -119q-3 -3 -7 -3z" />
    <glyph glyph-name="Scircumflex" unicode="&#x15c;" horiz-adv-x="575" 
d="M59 93q0 7 5 12.5t12 5.5q8 0 13 -6q80 -87 197 -87q105 0 148 46q45 46 45 105q0 49 -27 81q-25 30 -61 47t-108 37q-63 17 -111 37q-98 41 -98 137q0 77 60.5 123.5t148.5 46.5q129 0 206 -83q5 -5 5 -11q0 -7 -5 -12t-12 -5q-9 0 -13 6q-67 75 -181 75
q-73 0 -123.5 -40t-50.5 -100q0 -42 24 -69q23 -24 56.5 -38.5t104.5 -34.5q70 -21 115 -41q105 -44 105 -156q0 -73 -55 -127t-173 -54q-137 0 -223 94q-4 4 -4 11zM375 720l-91 123l-91 -123q-4 -4 -9 -4q-12 0 -12 12l2 6l89 128q6 11 20 11h2q14 0 20 -11l89 -128l2 -6
q0 -12 -12 -12q-5 0 -9 4z" />
    <glyph glyph-name="scircumflex" unicode="&#x15d;" horiz-adv-x="454" 
d="M49 65q0 7 5 11.5t11 4.5q7 0 12 -5q58 -61 144 -61q65 0 104 31.5t39 80.5q0 33 -20 53q-18 20 -45 31.5t-81 25.5q-52 13 -87 26q-77 30 -77 104q0 56 45 92t119 36q100 0 158 -63q4 -5 4 -10q0 -6 -4.5 -10.5t-10.5 -4.5q-8 0 -11 5q-48 56 -136 56q-61 0 -97.5 -28
t-36.5 -73q0 -29 18 -48q18 -17 42 -26.5t78 -23.5q49 -12 90 -28q82 -31 82 -114q0 -62 -45.5 -100.5t-127.5 -38.5q-104 0 -167 66q-5 5 -5 11zM310 573l-91 123l-91 -123q-4 -4 -9 -4q-12 0 -12 12l2 6l89 128q6 11 20 11h2q14 0 20 -11l89 -128l2 -6q0 -12 -12 -12
q-5 0 -9 4z" />
    <glyph glyph-name="uni015E" unicode="&#x15e;" horiz-adv-x="575" 
d="M297 -12l-17 -46q15 12 38 12q29 0 47 -17.5t18 -47.5q0 -33 -28 -54.5t-70 -21.5q-49 0 -86 23q-7 4 -7 13q0 14 14 14q6 0 10 -3q29 -20 69 -20q30 0 49.5 13.5t19.5 35.5q0 43 -44 43q-21 0 -38 -14q-4 -4 -10 -4q-15 0 -15 15l2 8l19 51q-125 7 -205 94q-4 4 -4 11
t5 12.5t12 5.5q8 0 13 -6q80 -87 197 -87q105 0 148 46q45 46 45 105q0 49 -27 81q-25 30 -61 47t-108 37q-63 17 -111 37q-98 41 -98 137q0 77 60.5 123.5t148.5 46.5q129 0 206 -83q5 -5 5 -11q0 -7 -5 -12t-12 -5q-9 0 -13 6q-67 75 -181 75q-73 0 -123.5 -40t-50.5 -100
q0 -42 24 -69q23 -24 56.5 -38.5t104.5 -34.5q70 -21 115 -41q105 -44 105 -156q0 -71 -52.5 -124.5t-164.5 -56.5z" />
    <glyph glyph-name="uni015F" unicode="&#x15f;" horiz-adv-x="454" 
d="M232 -12l-17 -46q15 12 38 12q29 0 47 -17.5t18 -47.5q0 -33 -28 -54.5t-70 -21.5q-49 0 -86 23q-7 4 -7 13q0 14 14 14q5 0 10 -3q29 -20 69 -20q30 0 49.5 13.5t19.5 35.5q0 43 -44 43q-21 0 -38 -14q-4 -4 -10 -4q-15 0 -15 15l2 8l19 51q-92 6 -149 66q-5 5 -5 11
q0 7 5 11.5t11 4.5q7 0 12 -5q58 -61 144 -61q65 0 104 31.5t39 80.5q0 33 -20 53q-18 20 -45 31.5t-81 25.5q-52 13 -87 26q-77 30 -77 104q0 56 45 92t119 36q100 0 158 -63q4 -5 4 -10q0 -6 -4.5 -10.5t-10.5 -4.5q-8 0 -11 5q-48 56 -136 56q-61 0 -97.5 -28t-36.5 -73
q0 -29 18 -48q18 -17 42 -26.5t78 -23.5q49 -12 90 -28q82 -31 82 -114q0 -59 -42.5 -97.5t-119.5 -41.5z" />
    <glyph glyph-name="Scaron" unicode="&#x160;" horiz-adv-x="575" 
d="M59 93q0 7 5 12.5t12 5.5q8 0 13 -6q80 -87 197 -87q105 0 148 46q45 46 45 105q0 49 -27 81q-25 30 -61 47t-108 37q-63 17 -111 37q-98 41 -98 137q0 77 60.5 123.5t148.5 46.5q129 0 206 -83q5 -5 5 -11q0 -7 -5 -12t-12 -5q-9 0 -13 6q-67 75 -181 75
q-73 0 -123.5 -40t-50.5 -100q0 -42 24 -69q23 -24 56.5 -38.5t104.5 -34.5q70 -21 115 -41q105 -44 105 -156q0 -73 -55 -127t-173 -54q-137 0 -223 94q-4 4 -4 11zM393 861l-2 -6l-89 -128q-6 -11 -20 -11h-2q-14 0 -20 11l-89 128l-2 6q0 12 12 12q5 0 9 -4l91 -123
l91 123q4 4 9 4q12 0 12 -12z" />
    <glyph glyph-name="scaron" unicode="&#x161;" horiz-adv-x="454" 
d="M49 65q0 7 5 11.5t11 4.5q7 0 12 -5q58 -61 144 -61q65 0 104 31.5t39 80.5q0 33 -20 53q-18 20 -45 31.5t-81 25.5q-52 13 -87 26q-77 30 -77 104q0 56 45 92t119 36q100 0 158 -63q4 -5 4 -10q0 -6 -4.5 -10.5t-10.5 -4.5q-8 0 -11 5q-48 56 -136 56q-61 0 -97.5 -28
t-36.5 -73q0 -29 18 -48q18 -17 42 -26.5t78 -23.5q49 -12 90 -28q82 -31 82 -114q0 -62 -45.5 -100.5t-127.5 -38.5q-104 0 -167 66q-5 5 -5 11zM328 714l-2 -6l-89 -128q-6 -11 -20 -11h-2q-14 0 -20 11l-89 128l-2 6q0 12 12 12q5 0 9 -4l91 -123l91 123q4 4 9 4
q12 0 12 -12z" />
    <glyph glyph-name="uni0162" unicode="&#x162;" horiz-adv-x="559" 
d="M263 14v623h-212q-6 0 -10.5 4.5t-4.5 10.5t4.5 10.5t10.5 4.5h457q6 0 10.5 -4.5t4.5 -10.5t-4.5 -10.5t-10.5 -4.5h-213v-623q0 -6 -4.5 -11t-11.5 -5t-11.5 5t-4.5 11zM239 -243q0 8 7 12q42 40 42 83q-2 -1 -8 -1q-14 0 -23 9.5t-9 23.5q0 13 9 22.5t23 9.5
q16 0 27.5 -14.5t11.5 -38.5q0 -68 -54 -115q-6 -6 -12 -6q-14 0 -14 15z" />
    <glyph glyph-name="uni0163" unicode="&#x163;" horiz-adv-x="256" 
d="M245 21q0 -6 -5 -11q-26 -22 -66 -22q-82 0 -82 97v371h-68q-5 0 -9.5 4t-4.5 10q0 5 4.5 9t9.5 4h68v119q0 6 4.5 10.5t10.5 4.5t10.5 -4.5t4.5 -10.5v-119h86q5 0 9.5 -4t4.5 -9q0 -6 -4.5 -10t-9.5 -4h-86v-371q0 -70 52 -70q16 -2 35 9t22 11q14 0 14 -14zM93 -243
q0 8 7 12q42 40 42 83q-2 -1 -8 -1q-14 0 -23 9.5t-9 23.5q0 13 9 22.5t23 9.5q16 0 27.5 -14.5t11.5 -38.5q0 -68 -54 -115q-6 -6 -12 -6q-14 0 -14 15z" />
    <glyph glyph-name="Tcaron" unicode="&#x164;" horiz-adv-x="559" 
d="M263 14v623h-212q-6 0 -10.5 4.5t-4.5 10.5t4.5 10.5t10.5 4.5h457q6 0 10.5 -4.5t4.5 -10.5t-4.5 -10.5t-10.5 -4.5h-213v-623q0 -6 -4.5 -11t-11.5 -5t-11.5 5t-4.5 11zM390 861l-2 -6l-89 -128q-6 -11 -20 -11h-2q-14 0 -20 11l-89 128l-2 6q0 12 12 12q5 0 9 -4
l91 -123l91 123q4 4 9 4q12 0 12 -12z" />
    <glyph glyph-name="tcaron" unicode="&#x165;" horiz-adv-x="256" 
d="M245 21q0 -6 -5 -11q-26 -22 -66 -22q-82 0 -82 97v371h-68q-5 0 -9.5 4t-4.5 10q0 5 4.5 9t9.5 4h68v119q0 6 4.5 10.5t10.5 4.5t10.5 -4.5t4.5 -10.5v-119h86q5 0 9.5 -4t4.5 -9q0 -6 -4.5 -10t-9.5 -4h-86v-371q0 -70 52 -70q16 -2 35 9t22 11q14 0 14 -14zM180 566
q0 8 7 12q42 40 42 83q-2 -1 -8 -1q-14 0 -23 9.5t-9 23.5q0 13 9 22.5t23 9.5q16 0 27.5 -14.5t11.5 -38.5q0 -68 -54 -115q-6 -6 -12 -6q-14 0 -14 15z" />
    <glyph glyph-name="Tbar" unicode="&#x166;" horiz-adv-x="559" 
d="M523 652q0 -6 -4.5 -10.5t-10.5 -4.5h-213v-289h154q5 0 9.5 -4t4.5 -10q0 -5 -4.5 -9t-9.5 -4h-154v-307q0 -6 -4.5 -11t-11.5 -5t-11.5 5t-4.5 11v307h-153q-5 0 -9.5 4t-4.5 10q0 5 4.5 9t9.5 4h153v289h-212q-6 0 -10.5 4.5t-4.5 10.5t4.5 10.5t10.5 4.5h457
q6 0 10.5 -4.5t4.5 -10.5z" />
    <glyph glyph-name="tbar" unicode="&#x167;" horiz-adv-x="256" 
d="M245 21q0 -6 -5 -11q-26 -22 -66 -22q-82 0 -82 97v157h-68q-5 0 -9.5 4t-4.5 10q0 5 4.5 9t9.5 4h68v187h-68q-5 0 -9.5 4t-4.5 10q0 5 4.5 9t9.5 4h68v119q0 6 4.5 10.5t10.5 4.5t10.5 -4.5t4.5 -10.5v-119h86q5 0 9.5 -4t4.5 -9q0 -6 -4.5 -10t-9.5 -4h-86v-187h60
q5 0 9.5 -4t4.5 -9q0 -6 -4.5 -10t-9.5 -4h-60v-157q0 -70 52 -70q16 -2 35 9t22 11q14 0 14 -14z" />
    <glyph glyph-name="Utilde" unicode="&#x168;" horiz-adv-x="672" 
d="M88 253v400q0 6 4.5 11t11.5 5t11.5 -5t4.5 -11v-400q0 -112 56 -173.5t160 -61.5t160 61.5t56 173.5v400q0 6 4.5 11t11.5 5t11.5 -5t4.5 -11v-400q0 -126 -64.5 -195.5t-183.5 -69.5t-183.5 69.5t-64.5 195.5zM324 784q-16 28 -26.5 39t-26.5 11q-25 0 -41 -24.5
t-18 -71.5q0 -13 -13 -13q-5 0 -9 4.5t-4 9.5q3 54 26.5 88t61.5 34q25 0 41.5 -15t33.5 -48q16 -28 26.5 -39t26.5 -11q54 0 59 96q0 13 13 13q5 0 9 -4.5t4 -9.5q-3 -54 -26.5 -88t-61.5 -34q-26 0 -40.5 14t-34.5 49z" />
    <glyph glyph-name="utilde" unicode="&#x169;" 
d="M442 470v-457q0 -6 -4.5 -10.5t-10.5 -4.5t-10.5 4.5t-4.5 10.5v61q-34 -38 -81 -62t-94 -24q-76 0 -113.5 37t-37.5 119v326q0 6 4.5 10.5t10.5 4.5t10.5 -4.5t4.5 -10.5v-326q0 -70 31 -99.5t94 -29.5q49 0 96 25q49 26 75 63v367q0 6 4.5 10.5t10.5 4.5t10.5 -4.5
t4.5 -10.5zM252 637q-16 28 -26.5 39t-26.5 11q-25 0 -41 -24.5t-18 -71.5q0 -13 -13 -13q-5 0 -9 4.5t-4 9.5q3 54 26.5 88t61.5 34q25 0 41.5 -15t33.5 -48q16 -28 26.5 -39t26.5 -11q54 0 59 96q0 13 13 13q5 0 9 -4.5t4 -9.5q-3 -54 -26.5 -88t-61.5 -34q-26 0 -40.5 14
t-34.5 49z" />
    <glyph glyph-name="Umacron" unicode="&#x16a;" horiz-adv-x="672" 
d="M88 253v400q0 6 4.5 11t11.5 5t11.5 -5t4.5 -11v-400q0 -112 56 -173.5t160 -61.5t160 61.5t56 173.5v400q0 6 4.5 11t11.5 5t11.5 -5t4.5 -11v-400q0 -126 -64.5 -195.5t-183.5 -69.5t-183.5 69.5t-64.5 195.5zM192 761q0 6 4.5 10t9.5 4h259q5 0 9.5 -4t4.5 -10
q0 -5 -4.5 -9t-9.5 -4h-259q-5 0 -9.5 4t-4.5 9z" />
    <glyph glyph-name="umacron" unicode="&#x16b;" 
d="M442 470v-457q0 -6 -4.5 -10.5t-10.5 -4.5t-10.5 4.5t-4.5 10.5v61q-34 -38 -81 -62t-94 -24q-76 0 -113.5 37t-37.5 119v326q0 6 4.5 10.5t10.5 4.5t10.5 -4.5t4.5 -10.5v-326q0 -70 31 -99.5t94 -29.5q49 0 96 25q49 26 75 63v367q0 6 4.5 10.5t10.5 4.5t10.5 -4.5
t4.5 -10.5zM120 614q0 6 4.5 10t9.5 4h259q5 0 9.5 -4t4.5 -10q0 -5 -4.5 -9t-9.5 -4h-259q-5 0 -9.5 4t-4.5 9z" />
    <glyph glyph-name="Ubreve" unicode="&#x16c;" horiz-adv-x="672" 
d="M88 253v400q0 6 4.5 11t11.5 5t11.5 -5t4.5 -11v-400q0 -112 56 -173.5t160 -61.5t160 61.5t56 173.5v400q0 6 4.5 11t11.5 5t11.5 -5t4.5 -11v-400q0 -126 -64.5 -195.5t-183.5 -69.5t-183.5 69.5t-64.5 195.5zM167 790q-3 4 -3 9t4 9.5t10 4.5q8 0 11 -5
q56 -70 147 -70t147 70q3 5 11 5q5 0 9 -4.5t4 -9.5t-3 -9q-66 -79 -168 -79q-100 0 -169 79z" />
    <glyph glyph-name="ubreve" unicode="&#x16d;" 
d="M442 470v-457q0 -6 -4.5 -10.5t-10.5 -4.5t-10.5 4.5t-4.5 10.5v61q-34 -38 -81 -62t-94 -24q-76 0 -113.5 37t-37.5 119v326q0 6 4.5 10.5t10.5 4.5t10.5 -4.5t4.5 -10.5v-326q0 -70 31 -99.5t94 -29.5q49 0 96 25q49 26 75 63v367q0 6 4.5 10.5t10.5 4.5t10.5 -4.5
t4.5 -10.5zM95 643q-3 5 -3 9q0 5 4 9.5t10 4.5q8 0 11 -5q56 -70 147 -70t147 70q3 5 11 5q5 0 9 -4.5t4 -9.5q0 -4 -3 -9q-66 -79 -168 -79q-100 0 -169 79z" />
    <glyph glyph-name="Uring" unicode="&#x16e;" horiz-adv-x="672" 
d="M88 253v400q0 6 4.5 11t11.5 5t11.5 -5t4.5 -11v-400q0 -112 56 -173.5t160 -61.5t160 61.5t56 173.5v400q0 6 4.5 11t11.5 5t11.5 -5t4.5 -11v-400q0 -126 -64.5 -195.5t-183.5 -69.5t-183.5 69.5t-64.5 195.5zM336 906q38 0 65 -27.5t27 -65.5t-27 -65.5t-65 -27.5
t-65.5 27.5t-27.5 65.5t27.5 65.5t65.5 27.5zM336 882q-29 0 -49 -20t-20 -49q0 -28 20 -48.5t49 -20.5q28 0 48 20t20 49t-20 49t-48 20z" />
    <glyph glyph-name="uring" unicode="&#x16f;" 
d="M442 470v-457q0 -6 -4.5 -10.5t-10.5 -4.5t-10.5 4.5t-4.5 10.5v61q-34 -38 -81 -62t-94 -24q-76 0 -113.5 37t-37.5 119v326q0 6 4.5 10.5t10.5 4.5t10.5 -4.5t4.5 -10.5v-326q0 -70 31 -99.5t94 -29.5q49 0 96 25q49 26 75 63v367q0 6 4.5 10.5t10.5 4.5t10.5 -4.5
t4.5 -10.5zM264 759q38 0 65 -27.5t27 -65.5t-27 -65.5t-65 -27.5t-65.5 27.5t-27.5 65.5t27.5 65.5t65.5 27.5zM264 735q-29 0 -49 -20t-20 -49q0 -28 20 -48.5t49 -20.5q28 0 48 20t20 49t-20 49t-48 20z" />
    <glyph glyph-name="Uhungarumlaut" unicode="&#x170;" horiz-adv-x="672" 
d="M88 253v400q0 6 4.5 11t11.5 5t11.5 -5t4.5 -11v-400q0 -112 56 -173.5t160 -61.5t160 61.5t56 173.5v400q0 6 4.5 11t11.5 5t11.5 -5t4.5 -11v-400q0 -126 -64.5 -195.5t-183.5 -69.5t-183.5 69.5t-64.5 195.5zM256 727q0 6 4 10l91 130q4 7 13 7q6 0 11 -4.5t5 -11.5
q0 -4 -3 -9l-99 -125q-6 -7 -11 -7q-4 0 -7.5 3t-3.5 7zM392 727q0 6 4 10l91 130q4 7 13 7q6 0 11 -4.5t5 -11.5q0 -4 -3 -9l-99 -125q-6 -7 -11 -7q-4 0 -7.5 3t-3.5 7z" />
    <glyph glyph-name="uhungarumlaut" unicode="&#x171;" 
d="M442 470v-457q0 -6 -4.5 -10.5t-10.5 -4.5t-10.5 4.5t-4.5 10.5v61q-34 -38 -81 -62t-94 -24q-76 0 -113.5 37t-37.5 119v326q0 6 4.5 10.5t10.5 4.5t10.5 -4.5t4.5 -10.5v-326q0 -70 31 -99.5t94 -29.5q49 0 96 25q49 26 75 63v367q0 6 4.5 10.5t10.5 4.5t10.5 -4.5
t4.5 -10.5zM184 580q0 6 4 10l91 130q4 7 13 7q6 0 11 -4.5t5 -11.5q0 -5 -3 -9l-99 -125q-6 -7 -11 -7q-4 0 -7.5 3t-3.5 7zM320 580q0 6 4 10l91 130q4 7 13 7q6 0 11 -4.5t5 -11.5q0 -5 -3 -9l-99 -125q-6 -7 -11 -7q-4 0 -7.5 3t-3.5 7z" />
    <glyph glyph-name="Uogonek" unicode="&#x172;" horiz-adv-x="672" 
d="M88 253v400q0 6 4.5 11t11.5 5t11.5 -5t4.5 -11v-400q0 -112 56 -173.5t160 -61.5t160 61.5t56 173.5v400q0 6 4.5 11t11.5 5t11.5 -5t4.5 -11v-400q0 -191 -141 -247q-122 -50 -122 -115q0 -23 14 -36.5t38 -13.5q15 0 28 6q1 1 5 1q14 0 14 -13q0 -8 -7 -11
q-17 -10 -40 -10q-36 0 -61 20t-25 52q0 55 77 103q-6 -1 -28 -1q-119 0 -183.5 69.5t-64.5 195.5z" />
    <glyph glyph-name="uogonek" unicode="&#x173;" 
d="M442 0q-102 -54 -102 -109q0 -23 14 -36.5t38 -13.5q12 0 24 5l13 4q13 0 13 -13q0 -8 -6 -11q-20 -12 -44 -12q-36 0 -61 20t-25 52t28.5 63.5t77.5 55.5l2 1q-2 6 -2 7v61q-34 -38 -81 -62t-94 -24q-76 0 -113.5 37t-37.5 119v326q0 6 4.5 10.5t10.5 4.5t10.5 -4.5
t4.5 -10.5v-326q0 -70 31 -99.5t94 -29.5q49 0 96 25q49 26 75 63v367q0 6 4.5 10.5t10.5 4.5t10.5 -4.5t4.5 -10.5v-457q0 -3 -1 -4q15 -2 1 -9z" />
    <glyph glyph-name="Wcircumflex" unicode="&#x174;" horiz-adv-x="852" 
d="M594 16l-168 591l-168 -591q-5 -18 -24 -18t-24 18l-179 629l-1 7q0 7 5 12t12 5q10 0 16 -13l171 -608l171 605q5 16 21 16t21 -16l171 -605l171 608q6 13 16 13q7 0 12 -5.5t5 -12.5l-1 -6l-179 -629q-5 -18 -24 -18t-24 18zM518 720l-91 123l-91 -123q-4 -4 -9 -4
q-12 0 -12 12l2 6l89 128q6 11 20 11h2q14 0 20 -11l89 -128q0 -1 1 -3t1 -3q0 -12 -12 -12q-5 0 -9 4z" />
    <glyph glyph-name="wcircumflex" unicode="&#x175;" horiz-adv-x="704" 
d="M495 9l-143 429l-143 -429q-3 -11 -15 -11t-15 11l-150 453l-1 8q0 15 15 15q12 0 15 -11l137 -427l142 427q3 11 15 11t15 -11l142 -427l137 427q3 11 15 11q6 0 10.5 -5t4.5 -11l-2 -10l-149 -450q-3 -11 -15 -11t-15 11zM444 573l-91 123l-91 -123q-4 -4 -9 -4
q-12 0 -12 12l2 6l89 128q6 11 20 11h2q14 0 20 -11l89 -128l2 -6q0 -12 -12 -12q-5 0 -9 4z" />
    <glyph glyph-name="Ycircumflex" unicode="&#x176;" horiz-adv-x="610" 
d="M572 642l-251 -352v-276q0 -6 -4.5 -11t-11.5 -5t-11.5 5t-4.5 11v276l-251 352q-3 3 -3 10t5 12t12 5q10 0 14 -7l239 -341l239 341q4 7 14 7q7 0 12 -5t5 -12t-3 -10zM397 720l-91 123l-91 -123q-4 -4 -9 -4q-12 0 -12 12l2 6l89 128q6 11 20 11h2q14 0 20 -11l89 -128
l2 -6q0 -12 -12 -12q-5 0 -9 4z" />
    <glyph glyph-name="ycircumflex" unicode="&#x177;" horiz-adv-x="471" 
d="M65 -165q1 0 12.5 -2t20.5 -2q48 0 76 66l44 100l-197 463q-2 6 -2 8q0 7 4.5 12t11.5 5q12 0 14 -10l187 -440l186 440q2 10 14 10q7 0 11.5 -5t4.5 -12q0 -3 -2 -9l-246 -573q-36 -82 -106 -82q-16 0 -33 3q-14 3 -14 14q0 14 14 14zM328 573l-91 123l-91 -123
q-4 -4 -9 -4q-12 0 -12 12l2 6l89 128q6 11 20 11h2q14 0 20 -11l89 -128l2 -6q0 -12 -12 -12q-5 0 -9 4z" />
    <glyph glyph-name="Ydieresis" unicode="&#x178;" horiz-adv-x="610" 
d="M572 642l-251 -352v-276q0 -6 -4.5 -11t-11.5 -5t-11.5 5t-4.5 11v276l-251 352q-3 3 -3 10t5 12t12 5q10 0 14 -7l239 -341l239 341q4 7 14 7q7 0 12 -5t5 -12t-3 -10zM176 765q0 11 8.5 19.5t19.5 8.5t19.5 -8.5t8.5 -19.5t-8.5 -19.5t-19.5 -8.5t-19.5 8.5t-8.5 19.5z
M378 765q0 11 8.5 19.5t19.5 8.5t19.5 -8.5t8.5 -19.5t-8.5 -19.5t-19.5 -8.5t-19.5 8.5t-8.5 19.5z" />
    <glyph glyph-name="Zacute" unicode="&#x179;" horiz-adv-x="578" 
d="M51 21q0 7 4 12l425 604h-414q-6 0 -10.5 4.5t-4.5 10.5t4.5 10.5t10.5 4.5h433q8 0 14.5 -6t6.5 -15q0 -7 -4 -12l-426 -604h422q6 0 10.5 -4.5t4.5 -10.5t-4.5 -10.5t-10.5 -4.5h-440q-8 0 -14.5 6t-6.5 15zM297 721q-10 0 -10 10q0 4 4 8l140 126q4 4 9 4
q6 0 10.5 -4.5t4.5 -10.5t-6 -11l-145 -119q-3 -3 -7 -3z" />
    <glyph glyph-name="zacute" unicode="&#x17a;" horiz-adv-x="466" 
d="M58 19q0 5 4 10l305 427h-295q-5 0 -9.5 4t-4.5 9q0 6 4.5 10t9.5 4h313q19 0 19 -19q0 -6 -4 -11l-307 -426h301q5 0 9.5 -4t4.5 -10q0 -5 -4.5 -9t-9.5 -4h-317q-19 0 -19 19zM241 574q-10 0 -10 10q0 4 4 8l140 126q4 4 9 4q6 0 10.5 -4.5t4.5 -10.5q0 -7 -6 -11
l-145 -119q-3 -3 -7 -3z" />
    <glyph glyph-name="Zdotaccent" unicode="&#x17b;" horiz-adv-x="578" 
d="M51 21q0 7 4 12l425 604h-414q-6 0 -10.5 4.5t-4.5 10.5t4.5 10.5t10.5 4.5h433q8 0 14.5 -6t6.5 -15q0 -7 -4 -12l-426 -604h422q6 0 10.5 -4.5t4.5 -10.5t-4.5 -10.5t-10.5 -4.5h-440q-8 0 -14.5 6t-6.5 15zM289 791q12 0 20.5 -8.5t8.5 -20.5t-8.5 -20.5t-20.5 -8.5
q-11 0 -20 8.5t-9 20.5t9 20.5t20 8.5z" />
    <glyph glyph-name="zdotaccent" unicode="&#x17c;" horiz-adv-x="466" 
d="M58 19q0 5 4 10l305 427h-295q-5 0 -9.5 4t-4.5 9q0 6 4.5 10t9.5 4h313q19 0 19 -19q0 -6 -4 -11l-307 -426h301q5 0 9.5 -4t4.5 -10q0 -5 -4.5 -9t-9.5 -4h-317q-19 0 -19 19zM233 644q12 0 20.5 -8.5t8.5 -20.5t-8.5 -20.5t-20.5 -8.5q-11 0 -20 8.5t-9 20.5t9 20.5
t20 8.5z" />
    <glyph glyph-name="Zcaron" unicode="&#x17d;" horiz-adv-x="578" 
d="M51 21q0 7 4 12l425 604h-414q-6 0 -10.5 4.5t-4.5 10.5t4.5 10.5t10.5 4.5h433q8 0 14.5 -6t6.5 -15q0 -7 -4 -12l-426 -604h422q6 0 10.5 -4.5t4.5 -10.5t-4.5 -10.5t-10.5 -4.5h-440q-8 0 -14.5 6t-6.5 15zM399 861l-2 -6l-89 -128q-6 -11 -20 -11h-2q-14 0 -20 11
l-89 128l-2 6q0 12 12 12q5 0 9 -4l91 -123l91 123q4 4 9 4q12 0 12 -12z" />
    <glyph glyph-name="zcaron" unicode="&#x17e;" horiz-adv-x="466" 
d="M58 19q0 5 4 10l305 427h-295q-5 0 -9.5 4t-4.5 9q0 6 4.5 10t9.5 4h313q19 0 19 -19q0 -6 -4 -11l-307 -426h301q5 0 9.5 -4t4.5 -10q0 -5 -4.5 -9t-9.5 -4h-317q-19 0 -19 19zM343 714l-2 -6l-89 -128q-6 -11 -20 -11h-2q-14 0 -20 11l-89 128l-2 6q0 12 12 12
q5 0 9 -4l91 -123l91 123q4 4 9 4q12 0 12 -12z" />
    <glyph glyph-name="longs" unicode="&#x17f;" horiz-adv-x="246" 
d="M275 656q0 -13 -14 -13l-15 3q-15 4 -25 4q-91 0 -91 -116v-521q0 -6 -4.5 -10.5t-10.5 -4.5t-10.5 4.5t-4.5 10.5v443h-68q-5 0 -9.5 4t-4.5 10q0 5 4.5 9t9.5 4h68v51q0 67 32 105t89 38q26 0 44 -7q10 -3 10 -14z" />
    <glyph glyph-name="uni018F" unicode="&#x18f;" horiz-adv-x="749" 
d="M684 333q0 -151 -91.5 -248.5t-231.5 -97.5q-139 0 -225 96t-86 239q0 18 18 18h581q-1 134 -87 221t-211 87q-129 0 -214 -85q-4 -4 -10 -4q-15 0 -15 15q0 7 4 10q97 94 235 94q138 2 236.5 -97.5t96.5 -247.5zM648 310h-565q5 -128 79.5 -210.5t198.5 -82.5
q120 0 200.5 82t86.5 211z" />
    <glyph glyph-name="uni0192" unicode="&#x192;" horiz-adv-x="412" 
d="M416 645q0 -16 -16 -16q-6 0 -10 4q-20 14 -43 14q-45 0 -77.5 -30t-43.5 -83l-53 -237h149q6 0 10.5 -4.5t4.5 -10.5t-4.5 -10.5t-10.5 -4.5h-155l-93 -417q-3 -13 -15 -13q-15 0 -15 15l1 7l90 408h-67q-6 0 -10.5 4.5t-4.5 10.5t4.5 10.5t10.5 4.5h74l52 237
q15 67 55.5 105t97.5 38q38 0 63 -19q6 -4 6 -13z" />
    <glyph glyph-name="uni019D" unicode="&#x19d;" horiz-adv-x="690" 
d="M586 669q7 0 11.5 -5t4.5 -11v-634q0 -8 -6 -14.5t-14 -6.5q-12 0 -17 9l-445 608v-614q0 -94 -54.5 -145.5t-137.5 -51.5q-28 0 -45 4q-13 2 -13 15q0 8 6.5 12.5t13.5 2.5q15 -4 38 -4q72 0 116 46t44 121v647q0 8 6 14.5t14 6.5q12 0 17 -9l445 -602v595q0 6 4.5 11
t11.5 5z" />
    <glyph glyph-name="Ohorn" unicode="&#x1a0;" horiz-adv-x="764" 
d="M640 543q59 -91 59 -210q0 -148 -88.5 -246.5t-228.5 -98.5q-140 -2 -229.5 98t-87.5 247q-2 147 87.5 247t229.5 98q153 0 241 -112q46 39 46 86q-2 -1 -8 -1q-14 0 -23 9.5t-9 23.5q0 13 9 22.5t23 9.5q16 0 27.5 -14.5t11.5 -38.5q0 -34 -17 -67.5t-43 -52.5zM664 333
q0 138 -78 226.5t-204 88.5q-127 0 -204.5 -88t-77.5 -227q-2 -136 77 -226.5t205 -88.5q124 -2 204 88.5t78 226.5z" />
    <glyph glyph-name="ohorn" unicode="&#x1a1;" horiz-adv-x="570" 
d="M510 242q0 -109 -62.5 -181.5t-162.5 -72.5q-99 0 -162 72.5t-63 181.5q0 108 62.5 180.5t162.5 72.5q89 0 150 -58q40 38 40 81q-2 -1 -8 -1q-14 0 -23 9.5t-9 23.5q0 13 9 22.5t23 9.5q16 0 27.5 -14.5t11.5 -38.5q0 -65 -52 -113q56 -70 56 -174zM477 242
q0 94 -52 160t-140 66q-86 0 -139 -66t-53 -160t53 -160.5t139 -66.5q87 0 139.5 66.5t52.5 160.5z" />
    <glyph glyph-name="Uhorn" unicode="&#x1af;" horiz-adv-x="672" 
d="M584 578v-325q0 -126 -64.5 -195.5t-183.5 -69.5t-183.5 69.5t-64.5 195.5v400q0 6 4.5 11t11.5 5t11.5 -5t4.5 -11v-400q0 -112 56 -173.5t160 -61.5t160 61.5t56 173.5v400q0 6 4.5 11t11.5 5t11.5 -5t4.5 -11v-47q39 17 64 48.5t25 64.5q-2 -1 -8 -1q-14 0 -23 9.5
t-9 23.5q0 13 9 22.5t23 9.5q16 0 27.5 -14.5t11.5 -38.5q0 -51 -33 -92.5t-87 -59.5z" />
    <glyph glyph-name="uhorn" unicode="&#x1b0;" 
d="M442 384v-371q0 -6 -4.5 -10.5t-10.5 -4.5t-10.5 4.5t-4.5 10.5v61q-34 -38 -81 -62t-94 -24q-76 0 -113.5 37t-37.5 119v326q0 6 4.5 10.5t10.5 4.5t10.5 -4.5t4.5 -10.5v-326q0 -70 31 -99.5t94 -29.5q49 0 96 25q49 26 75 63v367q0 6 4.5 10.5t10.5 4.5t10.5 -4.5
t4.5 -10.5v-56q32 18 52 46.5t20 57.5q-2 -1 -8 -1q-14 0 -23 9.5t-9 23.5q0 13 9 22.5t23 9.5q16 0 27.5 -14.5t11.5 -38.5q0 -46 -28 -85.5t-75 -59.5z" />
    <glyph glyph-name="Gcaron" unicode="&#x1e6;" horiz-adv-x="708" 
d="M642 302v-195q0 -15 -9 -22q-95 -98 -235 -98q-138 -2 -236.5 98t-96.5 248q-2 148 96.5 247.5t236.5 97.5q138 0 235 -94q4 -3 4 -10q0 -15 -15 -15q-6 0 -10 4q-85 85 -214 85q-125 2 -212.5 -88.5t-85.5 -226.5q-2 -135 85.5 -226.5t212.5 -89.5q63 0 118.5 25
t93.5 65v183h-262q-6 0 -10.5 4.5t-4.5 10.5t4.5 10.5t10.5 4.5h276q18 0 18 -18zM507 861l-2 -6l-89 -128q-6 -11 -20 -11h-2q-14 0 -20 11l-89 128l-2 6q0 12 12 12q5 0 9 -4l91 -123l91 123q4 4 9 4q12 0 12 -12z" />
    <glyph glyph-name="gcaron" unicode="&#x1e7;" horiz-adv-x="566" 
d="M480 470v-473q0 -96 -54 -144.5t-150 -48.5q-61 0 -100 13.5t-75 49.5q-5 5 -5 12q0 16 16 16q6 0 11 -5q55 -59 153 -59q80 0 127 42.5t47 123.5v83q-29 -42 -75.5 -68t-98.5 -26q-97 0 -156.5 69.5t-59.5 184.5q0 113 59.5 184t156.5 71q53 0 98.5 -25t75.5 -70v70
q0 6 4.5 10.5t10.5 4.5t10.5 -4.5t4.5 -10.5zM450 111v259q-25 41 -73.5 69.5t-100.5 28.5q-84 0 -133.5 -64.5t-49.5 -163.5q0 -98 48 -163q49 -64 135 -64q52 0 100.5 28.5t73.5 69.5zM395 714l-2 -6l-89 -128q-6 -11 -20 -11h-2q-14 0 -20 11l-89 128l-2 6q0 12 12 12
q5 0 9 -4l91 -123l91 123q4 4 9 4q12 0 12 -12z" />
    <glyph glyph-name="uni01EA" unicode="&#x1ea;" horiz-adv-x="764" 
d="M358 -109q0 -23 14 -36.5t38 -13.5q12 0 24 5l13 4q13 0 13 -13q0 -8 -6 -11q-20 -12 -44 -12q-36 0 -61 20t-25 52q0 57 76 102h-18q-140 -2 -229.5 98t-87.5 247q-2 147 87.5 247t229.5 98q140 0 228.5 -98.5t88.5 -246.5q0 -127 -68 -221.5t-181 -116.5
q-92 -53 -92 -104zM382 18q124 -2 204 88.5t78 226.5q0 138 -78 226.5t-204 88.5q-127 0 -204.5 -88t-77.5 -227q-2 -136 77 -226.5t205 -88.5z" />
    <glyph glyph-name="uni01EB" unicode="&#x1eb;" horiz-adv-x="570" 
d="M252 -109q0 -23 14 -36.5t38 -13.5q12 0 24 5l13 4q13 0 13 -13q0 -8 -6 -11q-19 -12 -44 -12q-36 0 -61 20t-25 52q0 56 75 102h-8q-99 0 -162 72.5t-63 181.5q0 108 62.5 180.5t162.5 72.5t162.5 -72.5t62.5 -180.5q0 -90 -44 -157t-119 -89q-95 -51 -95 -105zM285 15
q87 0 139.5 66.5t52.5 160.5t-52 160t-140 66q-86 0 -139 -66t-53 -160t53 -160.5t139 -66.5z" />
    <glyph glyph-name="Aringacute" unicode="&#x1fa;" horiz-adv-x="636" 
d="M607 16q0 -18 -17 -18q-11 0 -16 11l-70 170h-372l-70 -170q-5 -11 -16 -11q-7 0 -12 5t-5 12q0 3 2 9l262 628q6 17 25 17t25 -17l262 -628q2 -6 2 -8zM144 209h348l-174 421zM318 906q38 0 65 -27.5t27 -65.5t-27 -65.5t-65 -27.5t-65.5 27.5t-27.5 65.5t27.5 65.5
t65.5 27.5zM318 882q-29 0 -49 -20t-20 -49q0 -28 20 -48.5t49 -20.5q28 0 48 20t20 49t-20 49t-48 20zM325 933q-10 0 -10 10q0 4 4 8l140 126q4 4 9 4q6 0 10.5 -4.5t4.5 -10.5t-6 -11l-145 -119q-3 -3 -7 -3z" />
    <glyph glyph-name="aringacute" unicode="&#x1fb;" horiz-adv-x="514" 
d="M428 349v-336q0 -6 -4.5 -10.5t-10.5 -4.5t-10.5 4.5t-4.5 10.5v46q-65 -71 -167 -71q-69 0 -119 44.5t-50 116.5t49.5 116.5t119.5 44.5q102 0 167 -71v109q0 55 -38.5 87.5t-97.5 32.5q-86 0 -146 -66q-5 -5 -12 -5q-6 0 -10.5 4.5t-4.5 10.5t4 10q67 73 169 73
q76 0 121 -38t45 -108zM398 89v120q-56 74 -159 74q-64 0 -104 -38t-40 -96t40 -96t104 -38q103 0 159 74zM263 759q38 0 65 -27.5t27 -65.5t-27 -65.5t-65 -27.5t-65.5 27.5t-27.5 65.5t27.5 65.5t65.5 27.5zM263 735q-29 0 -49 -20t-20 -49q0 -28 20 -48.5t49 -20.5
q28 0 48 20t20 49t-20 49t-48 20zM270 786q-10 0 -10 10q0 4 4 8l140 126q4 4 9 4q6 0 10.5 -4.5t4.5 -10.5q0 -7 -6 -11l-145 -119q-3 -3 -7 -3z" />
    <glyph glyph-name="AEacute" unicode="&#x1fc;" horiz-adv-x="930" 
d="M867 15q0 -6 -4.5 -10.5t-10.5 -4.5h-377q-18 0 -18 18v161h-285l-110 -173q-5 -8 -14 -8q-6 0 -10.5 4.5t-4.5 11.5q0 2 2 8l403 633q8 12 22 12h392q6 0 10.5 -4.5t4.5 -10.5t-4.5 -10.5t-10.5 -4.5h-363v-279h356q6 0 10.5 -4.5t4.5 -10.5t-4.5 -10.5t-10.5 -4.5h-356
v-298h363q6 0 10.5 -4.5t4.5 -10.5zM191 209h266v421zM480 721q-10 0 -10 10q0 4 4 8l140 126q4 4 9 4q6 0 10.5 -4.5t4.5 -10.5t-6 -11l-145 -119q-3 -3 -7 -3z" />
    <glyph glyph-name="aeacute" unicode="&#x1fd;" horiz-adv-x="905" 
d="M642 15q88 0 149 64q4 4 9 4q13 0 13 -13q0 -4 -3 -9q-71 -73 -167 -73q-69 0 -121 37t-77 105q-21 -65 -72.5 -103.5t-119.5 -38.5q-85 0 -138 44t-53 118q0 72 52.5 116t127.5 44q113 0 182 -69v107q0 57 -39.5 88.5t-108.5 31.5q-94 0 -160 -67q-4 -4 -11 -4
t-11.5 4.5t-4.5 10.5t5 11q70 72 190 72q62 0 111 -30q49 -28 57 -94q24 55 73.5 89.5t107.5 34.5q99 0 155.5 -70.5t56.5 -171.5q0 -21 -18 -21h-373q3 -92 55 -154.5t133 -62.5zM633 468q-77 2 -127 -63.5t-52 -145.5h359q0 82 -47.5 145.5t-132.5 63.5zM252 283
q-70 0 -113.5 -38t-43.5 -96t43.5 -96t113.5 -38q76 0 124 51t48 122v19q-60 76 -172 76zM449 574q-10 0 -10 10q0 4 4 8l140 126q4 4 9 4q6 0 10.5 -4.5t4.5 -10.5q0 -7 -6 -11l-145 -119q-3 -3 -7 -3z" />
    <glyph glyph-name="Oslashacute" unicode="&#x1fe;" horiz-adv-x="764" 
d="M699 333q0 -148 -88.5 -246.5t-228.5 -98.5q-108 0 -190 61l-65 -90q-6 -7 -12 -7q-13 0 -13 14q0 4 3 9l66 92q-106 100 -106 266q-2 147 87.5 247t229.5 98q107 0 188 -60l66 91q4 6 12 6q13 0 13 -13q0 -6 -3 -10l-67 -92q108 -99 108 -267zM190 93l362 500
q-71 55 -170 55q-127 0 -204.5 -88t-77.5 -227q0 -155 90 -240zM664 333q0 155 -91 241l-362 -499q71 -57 171 -57q124 -2 204 88.5t78 226.5zM390 721q-10 0 -10 10q0 4 4 8l140 126q4 4 9 4q6 0 10.5 -4.5t4.5 -10.5t-6 -11l-145 -119q-3 -3 -7 -3z" />
    <glyph glyph-name="oslashacute" unicode="&#x1ff;" horiz-adv-x="570" 
d="M510 242q0 -109 -62.5 -181.5t-162.5 -72.5q-75 0 -134 45l-53 -74q-6 -7 -13 -7q-13 0 -13 13q0 5 3 9l56 77q-71 76 -71 191q0 108 62.5 180.5t162.5 72.5q77 0 135 -45l54 74q6 7 12 7q12 0 12 -12q0 -5 -3 -10l-56 -77q71 -74 71 -190zM149 76l253 349
q-47 43 -117 43q-86 0 -139 -66t-53 -160q0 -99 56 -166zM477 242q0 98 -56 165l-252 -350q48 -42 116 -42q87 0 139.5 66.5t52.5 160.5zM293 574q-10 0 -10 10q0 4 4 8l140 126q4 4 9 4q6 0 10.5 -4.5t4.5 -10.5q0 -7 -6 -11l-145 -119q-3 -3 -7 -3z" />
    <glyph glyph-name="uni0218" unicode="&#x218;" horiz-adv-x="575" 
d="M59 93q0 7 5 12.5t12 5.5q8 0 13 -6q80 -87 197 -87q105 0 148 46q45 46 45 105q0 49 -27 81q-25 30 -61 47t-108 37q-63 17 -111 37q-98 41 -98 137q0 77 60.5 123.5t148.5 46.5q129 0 206 -83q5 -5 5 -11q0 -7 -5 -12t-12 -5q-9 0 -13 6q-67 75 -181 75
q-73 0 -123.5 -40t-50.5 -100q0 -42 24 -69q23 -24 56.5 -38.5t104.5 -34.5q70 -21 115 -41q105 -44 105 -156q0 -73 -55 -127t-173 -54q-137 0 -223 94q-4 4 -4 11zM242 -243q0 8 7 12q42 40 42 83q-2 -1 -8 -1q-14 0 -23 9.5t-9 23.5q0 13 9 22.5t23 9.5q16 0 27.5 -14.5
t11.5 -38.5q0 -68 -54 -115q-6 -6 -12 -6q-14 0 -14 15z" />
    <glyph glyph-name="uni0219" unicode="&#x219;" horiz-adv-x="454" 
d="M49 65q0 7 5 11.5t11 4.5q7 0 12 -5q58 -61 144 -61q65 0 104 31.5t39 80.5q0 33 -20 53q-18 20 -45 31.5t-81 25.5q-52 13 -87 26q-77 30 -77 104q0 56 45 92t119 36q100 0 158 -63q4 -5 4 -10q0 -6 -4.5 -10.5t-10.5 -4.5q-8 0 -11 5q-48 56 -136 56q-61 0 -97.5 -28
t-36.5 -73q0 -29 18 -48q18 -17 42 -26.5t78 -23.5q49 -12 90 -28q82 -31 82 -114q0 -62 -45.5 -100.5t-127.5 -38.5q-104 0 -167 66q-5 5 -5 11zM177 -243q0 8 7 12q42 40 42 83q-2 -1 -8 -1q-14 0 -23 9.5t-9 23.5q0 13 9 22.5t23 9.5q16 0 27.5 -14.5t11.5 -38.5
q0 -68 -54 -115q-6 -6 -12 -6q-14 0 -14 15z" />
    <glyph glyph-name="uni021A" unicode="&#x21a;" horiz-adv-x="559" 
d="M263 14v623h-212q-6 0 -10.5 4.5t-4.5 10.5t4.5 10.5t10.5 4.5h457q6 0 10.5 -4.5t4.5 -10.5t-4.5 -10.5t-10.5 -4.5h-213v-623q0 -6 -4.5 -11t-11.5 -5t-11.5 5t-4.5 11zM239 -243q0 8 7 12q42 40 42 83q-2 -1 -8 -1q-14 0 -23 9.5t-9 23.5q0 13 9 22.5t23 9.5
q16 0 27.5 -14.5t11.5 -38.5q0 -68 -54 -115q-6 -6 -12 -6q-14 0 -14 15z" />
    <glyph glyph-name="uni021B" unicode="&#x21b;" horiz-adv-x="256" 
d="M245 21q0 -6 -5 -11q-26 -22 -66 -22q-82 0 -82 97v371h-68q-5 0 -9.5 4t-4.5 10q0 5 4.5 9t9.5 4h68v119q0 6 4.5 10.5t10.5 4.5t10.5 -4.5t4.5 -10.5v-119h86q5 0 9.5 -4t4.5 -9q0 -6 -4.5 -10t-9.5 -4h-86v-371q0 -70 52 -70q16 -2 35 9t22 11q14 0 14 -14zM93 -243
q0 8 7 12q42 40 42 83q-2 -1 -8 -1q-14 0 -23 9.5t-9 23.5q0 13 9 22.5t23 9.5q16 0 27.5 -14.5t11.5 -38.5q0 -68 -54 -115q-6 -6 -12 -6q-14 0 -14 15z" />
    <glyph glyph-name="uni0232" unicode="&#x232;" horiz-adv-x="610" 
d="M572 642l-251 -352v-276q0 -6 -4.5 -11t-11.5 -5t-11.5 5t-4.5 11v276l-251 352q-3 3 -3 10t5 12t12 5q10 0 14 -7l239 -341l239 341q4 7 14 7q7 0 12 -5t5 -12t-3 -10zM161 761q0 6 4.5 10t9.5 4h259q5 0 9.5 -4t4.5 -10q0 -5 -4.5 -9t-9.5 -4h-259q-5 0 -9.5 4t-4.5 9z
" />
    <glyph glyph-name="uni0233" unicode="&#x233;" horiz-adv-x="471" 
d="M65 -165q1 0 12.5 -2t20.5 -2q48 0 76 66l44 100l-197 463q-2 6 -2 8q0 7 4.5 12t11.5 5q12 0 14 -10l187 -440l186 440q2 10 14 10q7 0 11.5 -5t4.5 -12q0 -3 -2 -9l-246 -573q-36 -82 -106 -82q-16 0 -33 3q-14 3 -14 14q0 14 14 14zM92 614q0 6 4.5 10t9.5 4h259
q5 0 9.5 -4t4.5 -10q0 -5 -4.5 -9t-9.5 -4h-259q-5 0 -9.5 4t-4.5 9z" />
    <glyph glyph-name="uni0237" unicode="&#x237;" horiz-adv-x="202" 
d="M-41 -190q-10 3 -10 14q0 14 13 14q1 0 14 -3t25 -3q85 0 85 92v546q0 6 4.5 10.5t10.5 4.5t10.5 -4.5t4.5 -10.5v-546q0 -59 -30 -89.5t-85 -30.5q-21 0 -42 6z" />
    <glyph glyph-name="uni0259" unicode="&#x259;" horiz-adv-x="571" 
d="M284 -12q-103 0 -163.5 70.5t-60.5 170.5q0 22 18 22h399q-3 92 -59 154.5t-144 62.5q-92 0 -160 -65q-3 -3 -9 -3q-13 0 -13 13q0 5 4 9q78 73 178 73q104 0 170.5 -71.5t66.5 -182.5q0 -105 -65.5 -179t-161.5 -74zM477 224h-385q0 -81 52 -145t141 -64q85 0 137 63.5
t55 145.5z" />
    <glyph glyph-name="uni0272" unicode="&#x272;" 
d="M442 337v-324q0 -6 -4.5 -10.5t-10.5 -4.5t-10.5 4.5t-4.5 10.5v324q0 70 -31 100.5t-94 30.5q-47 0 -95.5 -26t-75.5 -65v-453q0 -59 -30 -89.5t-85 -30.5q-21 0 -42 6q-10 3 -10 13q0 7 5.5 11.5t12.5 2.5q18 -5 34 -5q85 0 85 92v546q0 6 4.5 10.5t10.5 4.5t10.5 -4.5
t4.5 -10.5v-64q29 37 78 62q50 27 97 27q76 0 113.5 -38t37.5 -120z" />
    <glyph glyph-name="uni02B0" unicode="&#x2b0;" horiz-adv-x="387" 
d="M290 338v202q0 46 -20.5 65.5t-61.5 19.5q-30 0 -61 -16.5t-50 -40.5v-230q0 -5 -4 -9.5t-10 -4.5t-10 4.5t-4 9.5v410q0 5 4 9.5t10 4.5t10 -4.5t4 -9.5v-157q21 24 53.5 40.5t64.5 16.5q52 0 77.5 -26t25.5 -83v-201q0 -5 -4 -9.5t-10 -4.5t-10 4.5t-4 9.5z" />
    <glyph glyph-name="uni02BC" unicode="&#x2bc;" horiz-adv-x="208" 
d="M79 506q-14 0 -14 14q0 6 4 10q42 42 42 83q-2 -1 -8 -1q-14 0 -23 9.5t-9 23.5q0 13 9 22.5t23 9.5q16 0 27.5 -14.5t11.5 -38.5q0 -66 -54 -115q-3 -3 -9 -3z" />
    <glyph glyph-name="circumflex" unicode="&#x2c6;" horiz-adv-x="235" 
d="M208 553l-91 123l-91 -123q-4 -4 -9 -4q-12 0 -12 12l2 6l89 128q6 11 20 11h2q14 0 20 -11l89 -128l2 -6q0 -12 -12 -12q-5 0 -9 4z" />
    <glyph glyph-name="caron" unicode="&#x2c7;" horiz-adv-x="235" 
d="M229 694l-2 -6l-89 -128q-6 -11 -20 -11h-2q-14 0 -20 11l-89 128l-2 6q0 12 12 12q5 0 9 -4l91 -123l91 123q4 4 9 4q12 0 12 -12z" />
    <glyph glyph-name="uni02C9" unicode="&#x2c9;" horiz-adv-x="363" 
d="M38 604q0 6 4.5 10t9.5 4h259q5 0 9.5 -4t4.5 -10q0 -5 -4.5 -9t-9.5 -4h-259q-5 0 -9.5 4t-4.5 9z" />
    <glyph glyph-name="uni02CB" unicode="&#x2cb;" horiz-adv-x="205" 
d="M174 557l-145 119q-6 4 -6 11q0 6 4.5 10.5t10.5 4.5q5 0 9 -4l140 -126q4 -4 4 -8q0 -10 -10 -10q-4 0 -7 3z" />
    <glyph glyph-name="breve" unicode="&#x2d8;" horiz-adv-x="351" 
d="M7 623q-3 5 -3 9q0 5 4 9.5t10 4.5q8 0 11 -5q56 -70 147 -70t147 70q3 5 11 5q5 0 9 -4.5t4 -9.5q0 -4 -3 -9q-66 -79 -168 -79q-100 0 -169 79z" />
    <glyph glyph-name="dotaccent" unicode="&#x2d9;" horiz-adv-x="98" 
d="M49 624q12 0 20.5 -8.5t8.5 -20.5t-8.5 -20.5t-20.5 -8.5q-11 0 -20 8.5t-9 20.5t9 20.5t20 8.5z" />
    <glyph glyph-name="ring" unicode="&#x2da;" horiz-adv-x="225" 
d="M113 739q38 0 65 -27.5t27 -65.5t-27 -65.5t-65 -27.5t-65.5 27.5t-27.5 65.5t27.5 65.5t65.5 27.5zM113 715q-29 0 -49 -20t-20 -49q0 -28 20 -48.5t49 -20.5q28 0 48 20t20 49t-20 49t-48 20z" />
    <glyph glyph-name="ogonek" unicode="&#x2db;" horiz-adv-x="176" 
d="M20 -114q0 32 28.5 63.5t77.5 55.5q13 5 22 5q13 0 14 -4q0 -3 -6 -6q-102 -54 -102 -109q0 -23 14 -36.5t38 -13.5q12 0 24 5l13 4q13 0 13 -13q0 -8 -6 -11q-20 -12 -44 -12q-36 0 -61 20t-25 52z" />
    <glyph glyph-name="tilde" unicode="&#x2dc;" horiz-adv-x="301" 
d="M138 617q-16 28 -26.5 39t-26.5 11q-25 0 -41 -24.5t-18 -71.5q0 -13 -13 -13q-5 0 -9 4.5t-4 9.5q3 54 26.5 88t61.5 34q25 0 41.5 -15t33.5 -48q16 -28 26.5 -39t26.5 -11q54 0 59 96q0 13 13 13q5 0 9 -4.5t4 -9.5q-3 -54 -26.5 -88t-61.5 -34q-26 0 -40.5 14
t-34.5 49z" />
    <glyph glyph-name="hungarumlaut" unicode="&#x2dd;" horiz-adv-x="277" 
d="M5 560q0 6 4 10l91 130q4 7 13 7q6 0 11 -4.5t5 -11.5q0 -5 -3 -9l-99 -125q-6 -7 -11 -7q-4 0 -7.5 3t-3.5 7zM141 560q0 6 4 10l91 130q4 7 13 7q6 0 11 -4.5t5 -11.5q0 -5 -3 -9l-99 -125q-6 -7 -11 -7q-4 0 -7.5 3t-3.5 7z" />
    <glyph glyph-name="gravecomb" unicode="&#x300;" horiz-adv-x="0" 
d="M-31 557l-145 119q-6 4 -6 11q0 6 4.5 10.5t10.5 4.5q5 0 9 -4l140 -126q4 -4 4 -8q0 -10 -10 -10q-4 0 -7 3z" />
    <glyph glyph-name="acutecomb" unicode="&#x301;" horiz-adv-x="0" 
d="M-181 554q-10 0 -10 10q0 4 4 8l140 126q4 4 9 4q6 0 10.5 -4.5t4.5 -10.5q0 -7 -6 -11l-145 -119q-3 -3 -7 -3z" />
    <glyph glyph-name="uni0302" unicode="&#x302;" horiz-adv-x="0" 
d="M-27 553l-91 123l-91 -123q-4 -4 -9 -4q-12 0 -12 12l2 6l89 128q6 11 20 11h2q14 0 20 -11l89 -128l2 -6q0 -12 -12 -12q-5 0 -9 4z" />
    <glyph glyph-name="tildecomb" unicode="&#x303;" horiz-adv-x="0" 
d="M-163 617q-16 28 -26.5 39t-26.5 11q-54 0 -59 -96q0 -13 -13 -13q-5 0 -9 4.5t-4 9.5q3 54 26.5 88t61.5 34q25 0 41.5 -15t33.5 -48q16 -28 26.5 -39t26.5 -11q25 0 41 24.5t18 71.5q0 13 13 13q5 0 9 -4.5t4 -9.5q-3 -54 -26.5 -88t-61.5 -34q-26 0 -40.5 14t-34.5 49
z" />
    <glyph glyph-name="uni0304" unicode="&#x304;" horiz-adv-x="0" 
d="M-325 594q0 6 4.5 10t9.5 4h259q5 0 9.5 -4t4.5 -10q0 -5 -4.5 -9t-9.5 -4h-259q-5 0 -9.5 4t-4.5 9z" />
    <glyph glyph-name="uni0306" unicode="&#x306;" horiz-adv-x="0" 
d="M-344 623q-3 5 -3 9q0 5 4 9.5t10 4.5q8 0 11 -5q56 -70 147 -70t147 70q3 5 11 5q5 0 9 -4.5t4 -9.5q0 -4 -3 -9q-66 -79 -168 -79q-100 0 -169 79z" />
    <glyph glyph-name="uni0307" unicode="&#x307;" horiz-adv-x="0" 
d="M-49 624q12 0 20.5 -8.5t8.5 -20.5t-8.5 -20.5t-20.5 -8.5q-11 0 -20 8.5t-9 20.5t9 20.5t20 8.5z" />
    <glyph glyph-name="uni0308" unicode="&#x308;" horiz-adv-x="0" 
d="M-331 598q0 11 8.5 19.5t19.5 8.5t19.5 -8.5t8.5 -19.5t-8.5 -19.5t-19.5 -8.5t-19.5 8.5t-8.5 19.5zM-129 598q0 11 8.5 19.5t19.5 8.5t19.5 -8.5t8.5 -19.5t-8.5 -19.5t-19.5 -8.5t-19.5 8.5t-8.5 19.5z" />
    <glyph glyph-name="uni0309" unicode="&#x309;" horiz-adv-x="0" 
d="M-51 569q0 1 2 7q18 26 18 54q0 58 -55 58q-38 0 -55 -38q-5 -9 -13 -9q-6 0 -10 4.5t-4 9.5q0 3 2 9q23 52 80 52q37 0 60.5 -22.5t23.5 -63.5q0 -32 -25 -69q-5 -6 -11 -6q-13 0 -13 14z" />
    <glyph glyph-name="uni030A" unicode="&#x30a;" horiz-adv-x="0" 
d="M-112 739q38 0 65 -27.5t27 -65.5t-27 -65.5t-65 -27.5t-65.5 27.5t-27.5 65.5t27.5 65.5t65.5 27.5zM-112 715q-29 0 -49 -20t-20 -49q0 -28 20 -48.5t49 -20.5q28 0 48 20t20 49t-20 49t-48 20z" />
    <glyph glyph-name="uni030B" unicode="&#x30b;" horiz-adv-x="0" 
d="M-272 560q0 6 4 10l91 130q4 7 13 7q6 0 11 -4.5t5 -11.5q0 -5 -3 -9l-99 -125q-6 -7 -11 -7q-4 0 -7.5 3t-3.5 7zM-136 560q0 6 4 10l91 130q4 7 13 7q6 0 11 -4.5t5 -11.5q0 -5 -3 -9l-99 -125q-6 -7 -11 -7q-4 0 -7.5 3t-3.5 7z" />
    <glyph glyph-name="uni030C" unicode="&#x30c;" horiz-adv-x="0" 
d="M-6 694l-2 -6l-89 -128q-6 -11 -20 -11h-2q-14 0 -20 11l-89 128l-2 6q0 12 12 12q5 0 9 -4l91 -123l91 123q4 4 9 4q12 0 12 -12z" />
    <glyph glyph-name="dotbelowcomb" unicode="&#x323;" horiz-adv-x="0" 
d="M-49 -90q12 0 20.5 -8.5t8.5 -20.5t-8.5 -20.5t-20.5 -8.5q-11 0 -20 8.5t-9 20.5t9 20.5t20 8.5z" />
    <glyph glyph-name="uni0326" unicode="&#x326;" horiz-adv-x="0" 
d="M-146 -243q0 8 7 12q42 40 42 83q-2 -1 -8 -1q-14 0 -23 9.5t-9 23.5q0 13 9 22.5t23 9.5q16 0 27.5 -14.5t11.5 -38.5q0 -68 -54 -115q-6 -6 -12 -6q-14 0 -14 15z" />
    <glyph glyph-name="uni0327" unicode="&#x327;" horiz-adv-x="0" 
d="M-184 -164q-7 4 -7 13q0 14 14 14q5 0 10 -3q29 -20 69 -20q30 0 49.5 13.5t19.5 35.5q0 43 -44 43q-21 0 -38 -14q-4 -4 -10 -4q-15 0 -15 15l2 8l27 74h30l-26 -69q15 12 38 12q29 0 47 -17.5t18 -47.5q0 -33 -28 -54.5t-70 -21.5q-49 0 -86 23z" />
    <glyph glyph-name="uni0328" unicode="&#x328;" horiz-adv-x="0" 
d="M-156 -114q0 32 28.5 63.5t77.5 55.5q13 5 22 5q13 0 14 -4q0 -3 -6 -6q-102 -54 -102 -109q0 -23 14 -36.5t38 -13.5q12 0 24 5l13 4q13 0 13 -13q0 -8 -6 -11q-20 -12 -44 -12q-36 0 -61 20t-25 52z" />
    <glyph glyph-name="uni037E" unicode="&#x37e;" horiz-adv-x="208" 
d="M71 457q0 14 10 23.5t23 9.5q14 0 23.5 -9.5t9.5 -23.5q0 -13 -10 -22.5t-23 -9.5t-23 9.5t-10 22.5zM79 -115q-14 0 -14 14q0 6 4 10q42 42 42 83q-2 -1 -8 -1q-14 0 -23 9.5t-9 23.5q0 13 9 22.5t23 9.5q16 0 27.5 -14.5t11.5 -38.5q0 -66 -54 -115q-3 -3 -9 -3z" />
    <glyph glyph-name="tonos" unicode="&#x384;" horiz-adv-x="109" 
d="M21 583l14 159q2 22 24 22q10 0 17 -7t7 -16l-2 -12l-37 -150q-2 -9 -11 -9q-5 0 -9 4t-3 9z" />
    <glyph glyph-name="dieresistonos" unicode="&#x385;" horiz-adv-x="338" 
d="M149 583l14 159q2 22 24 22q10 0 17 -7t7 -16l-2 -12l-37 -150q-2 -9 -11 -9q-5 0 -9 4t-3 9zM20 598q0 11 8.5 19.5t19.5 8.5t19.5 -8.5t8.5 -19.5t-8.5 -19.5t-19.5 -8.5t-19.5 8.5t-8.5 19.5zM262 598q0 11 8.5 19.5t19.5 8.5t19.5 -8.5t8.5 -19.5t-8.5 -19.5
t-19.5 -8.5t-19.5 8.5t-8.5 19.5z" />
    <glyph glyph-name="Alphatonos" unicode="&#x386;" horiz-adv-x="636" 
d="M607 16q0 -18 -17 -18q-11 0 -16 11l-70 170h-372l-70 -170q-5 -11 -16 -11q-7 0 -12 5t-5 12q0 3 2 9l262 628q6 17 25 17t25 -17l262 -628q2 -6 2 -8zM144 209h348l-174 421zM121 490l14 159q2 22 24 22q10 0 17 -7t7 -16l-2 -12l-37 -150q-2 -9 -11 -9q-5 0 -9 4t-3 9
z" />
    <glyph glyph-name="Epsilontonos" unicode="&#x388;" horiz-adv-x="588" 
d="M118 18v631q0 18 18 18h377q6 0 10.5 -4.5t4.5 -10.5t-4.5 -10.5t-10.5 -4.5h-363v-279h356q6 0 10.5 -4.5t4.5 -10.5t-4.5 -10.5t-10.5 -4.5h-356v-298h363q6 0 10.5 -4.5t4.5 -10.5t-4.5 -10.5t-10.5 -4.5h-377q-18 0 -18 18zM-10 490l14 159q2 22 24 22q10 0 17 -7
t7 -16l-2 -12l-37 -150q-2 -9 -11 -9q-5 0 -9 4t-3 9z" />
    <glyph glyph-name="Etatonos" unicode="&#x389;" horiz-adv-x="725" 
d="M605 14v314h-455v-314q0 -6 -4.5 -11t-11.5 -5t-11.5 5t-4.5 11v639q0 6 4.5 11t11.5 5t11.5 -5t4.5 -11v-295h455v295q0 6 4.5 11t11.5 5t11.5 -5t4.5 -11v-639q0 -6 -4.5 -11t-11.5 -5t-11.5 5t-4.5 11zM-10 490l14 159q2 22 24 22q10 0 17 -7t7 -16l-2 -12l-37 -150
q-2 -9 -11 -9q-5 0 -9 4t-3 9z" />
    <glyph glyph-name="Iotatonos" unicode="&#x38a;" horiz-adv-x="238" 
d="M118 14v639q0 6 4.5 11t11.5 5t11.5 -5t4.5 -11v-639q0 -6 -4.5 -11t-11.5 -5t-11.5 5t-4.5 11zM-10 490l14 159q2 22 24 22q10 0 17 -7t7 -16l-2 -12l-37 -150q-2 -9 -11 -9q-5 0 -9 4t-3 9z" />
    <glyph glyph-name="Omicrontonos" unicode="&#x38c;" horiz-adv-x="770" 
d="M388 678q140 0 228.5 -98.5t88.5 -246.5t-88.5 -246.5t-228.5 -98.5q-140 -2 -229.5 98t-87.5 247q-2 147 87.5 247t229.5 98zM388 648q-127 0 -204.5 -88t-77.5 -227q-2 -136 77 -226.5t205 -88.5q124 -2 204 88.5t78 226.5q0 138 -78 226.5t-204 88.5zM0 490l14 159
q2 22 24 22q10 0 17 -7t7 -16l-2 -12l-37 -150q-2 -9 -11 -9q-5 0 -9 4t-3 9z" />
    <glyph glyph-name="Upsilontonos" unicode="&#x38e;" horiz-adv-x="667" 
d="M629 642l-251 -352v-276q0 -6 -4.5 -11t-11.5 -5t-11.5 5t-4.5 11v276l-251 352q-3 3 -3 10t5 12t12 5q10 0 14 -7l239 -341l239 341q4 7 14 7q7 0 12 -5t5 -12t-3 -10zM0 490l14 159q2 22 24 22q10 0 17 -7t7 -16l-2 -12l-37 -150q-2 -9 -11 -9q-5 0 -9 4t-3 9z" />
    <glyph glyph-name="Omegatonos" unicode="&#x38f;" horiz-adv-x="770" 
d="M71 333q-2 147 87.5 247t229.5 98q140 2 229.5 -98t87.5 -247q0 -208 -166 -303h135q6 0 10.5 -4.5t4.5 -10.5t-4.5 -10.5t-10.5 -4.5h-187q-7 0 -12 5t-5 12q0 13 12 16q79 25 133.5 103.5t54.5 196.5q0 139 -77.5 226.5t-204.5 87.5t-204.5 -87.5t-77.5 -226.5
q0 -118 55.5 -196.5t133.5 -103.5q12 -3 12 -16q0 -7 -5 -12t-12 -5h-187q-6 0 -10.5 4.5t-4.5 10.5t4.5 10.5t10.5 4.5h135q-167 95 -167 303zM0 490l14 159q2 22 24 22q10 0 17 -7t7 -16l-2 -12l-37 -150q-2 -9 -11 -9q-5 0 -9 4t-3 9z" />
    <glyph glyph-name="iotadieresistonos" unicode="&#x390;" horiz-adv-x="216" 
d="M86 85v385q0 6 4.5 10.5t10.5 4.5t10.5 -4.5t4.5 -10.5v-385q0 -70 52 -70h9h2q5 0 8.5 -4.5t3.5 -8.5q0 -12 -12 -14h-11q-82 0 -82 97zM90 603l14 159q2 22 24 22q10 0 17 -7t7 -16l-2 -12l-37 -150q-2 -9 -11 -9q-5 0 -9 4t-3 9zM-39 618q0 11 8.5 19.5t19.5 8.5
t19.5 -8.5t8.5 -19.5t-8.5 -19.5t-19.5 -8.5t-19.5 8.5t-8.5 19.5zM203 618q0 11 8.5 19.5t19.5 8.5t19.5 -8.5t8.5 -19.5t-8.5 -19.5t-19.5 -8.5t-19.5 8.5t-8.5 19.5z" />
    <glyph glyph-name="Alpha" unicode="&#x391;" horiz-adv-x="636" 
d="M607 16q0 -18 -17 -18q-11 0 -16 11l-70 170h-372l-70 -170q-5 -11 -16 -11q-7 0 -12 5t-5 12q0 3 2 9l262 628q6 17 25 17t25 -17l262 -628q2 -6 2 -8zM144 209h348l-174 421z" />
    <glyph glyph-name="Beta" unicode="&#x392;" horiz-adv-x="600" 
d="M88 18v631q0 18 18 18h233q83 0 132.5 -45t49.5 -125q0 -58 -34 -100.5t-84 -52.5q52 -7 91.5 -57t39.5 -107q0 -84 -51.5 -132t-139.5 -48h-237q-18 0 -18 18zM120 358h219q70 0 108.5 38.5t38.5 100.5t-39.5 101t-107.5 39h-219v-279zM120 30h223q73 0 114.5 40
t41.5 109q0 62 -42 105.5t-114 43.5h-223v-298z" />
    <glyph glyph-name="Gamma" unicode="&#x393;" horiz-adv-x="533" 
d="M88 14v635q0 18 18 18h377q6 0 10.5 -4.5t4.5 -10.5t-4.5 -10.5t-10.5 -4.5h-363v-623q0 -6 -4.5 -11t-11.5 -5t-11.5 5t-4.5 11z" />
    <glyph glyph-name="uni0394" unicode="&#x394;" horiz-adv-x="636" 
d="M28 13l2 8l263 631q6 17 25 17t25 -17l263 -631l2 -8q0 -13 -16 -13h-548q-16 0 -16 13zM318 630l-249 -600h498z" />
    <glyph glyph-name="Epsilon" unicode="&#x395;" horiz-adv-x="558" 
d="M88 18v631q0 18 18 18h377q6 0 10.5 -4.5t4.5 -10.5t-4.5 -10.5t-10.5 -4.5h-363v-279h356q6 0 10.5 -4.5t4.5 -10.5t-4.5 -10.5t-10.5 -4.5h-356v-298h363q6 0 10.5 -4.5t4.5 -10.5t-4.5 -10.5t-10.5 -4.5h-377q-18 0 -18 18z" />
    <glyph glyph-name="Zeta" unicode="&#x396;" horiz-adv-x="578" 
d="M51 21q0 7 4 12l425 604h-414q-6 0 -10.5 4.5t-4.5 10.5t4.5 10.5t10.5 4.5h433q8 0 14.5 -6t6.5 -15q0 -7 -4 -12l-426 -604h422q6 0 10.5 -4.5t4.5 -10.5t-4.5 -10.5t-10.5 -4.5h-440q-8 0 -14.5 6t-6.5 15z" />
    <glyph glyph-name="Eta" unicode="&#x397;" horiz-adv-x="695" 
d="M575 14v314h-455v-314q0 -6 -4.5 -11t-11.5 -5t-11.5 5t-4.5 11v639q0 6 4.5 11t11.5 5t11.5 -5t4.5 -11v-295h455v295q0 6 4.5 11t11.5 5t11.5 -5t4.5 -11v-639q0 -6 -4.5 -11t-11.5 -5t-11.5 5t-4.5 11z" />
    <glyph glyph-name="Theta" unicode="&#x398;" horiz-adv-x="764" 
d="M382 678q140 0 228.5 -98.5t88.5 -246.5t-88.5 -246.5t-228.5 -98.5q-140 -2 -229.5 98t-87.5 247q-2 147 87.5 247t229.5 98zM382 648q-127 0 -204.5 -88t-77.5 -227q-2 -136 77 -226.5t205 -88.5q124 -2 204 88.5t78 226.5q0 138 -78 226.5t-204 88.5zM165 343
q0 6 4.5 10.5t10.5 4.5h404q6 0 10.5 -4.5t4.5 -10.5t-4.5 -10.5t-10.5 -4.5h-404q-6 0 -10.5 4.5t-4.5 10.5z" />
    <glyph glyph-name="Iota" unicode="&#x399;" horiz-adv-x="208" 
d="M88 14v639q0 6 4.5 11t11.5 5t11.5 -5t4.5 -11v-639q0 -6 -4.5 -11t-11.5 -5t-11.5 5t-4.5 11z" />
    <glyph glyph-name="Kappa" unicode="&#x39a;" horiz-adv-x="571" 
d="M521 14q0 -7 -4.5 -11.5t-10.5 -4.5q-7 0 -12 5l-294 325l-80 -87v-227q0 -6 -4.5 -11t-11.5 -5t-11.5 5t-4.5 11v639q0 6 4.5 11t11.5 5t11.5 -5t4.5 -11v-371l344 381q4 6 12 6q6 0 11 -4.5t5 -11.5q0 -3 -5 -11l-267 -294l297 -323q4 -5 4 -11z" />
    <glyph glyph-name="Lambda" unicode="&#x39b;" horiz-adv-x="636" 
d="M574 9l-256 621l-256 -621q-5 -11 -16 -11q-7 0 -12 5t-5 12q0 6 1 7l263 630q6 17 25 17t25 -17l263 -630q1 -1 1 -6q0 -7 -5 -12.5t-12 -5.5q-11 0 -16 11z" />
    <glyph glyph-name="Mu" unicode="&#x39c;" horiz-adv-x="770" 
d="M650 14v615l-254 -620q-4 -10 -11 -10t-11 10l-254 620v-615q0 -6 -4.5 -11t-11.5 -5t-11.5 5t-4.5 11v625q0 12 8.5 21t21.5 9q21 0 28 -19l239 -586l239 586q7 19 28 19q13 0 21.5 -9t8.5 -21v-625q0 -6 -4.5 -11t-11.5 -5t-11.5 5t-4.5 11z" />
    <glyph glyph-name="Nu" unicode="&#x39d;" horiz-adv-x="690" 
d="M565 7l-445 608v-601q0 -6 -4.5 -11t-11.5 -5t-11.5 5t-4.5 11v634q0 8 6 14.5t14 6.5q12 0 17 -9l445 -602v595q0 6 4.5 11t11.5 5t11.5 -5t4.5 -11v-634q0 -8 -6 -14.5t-14 -6.5q-12 0 -17 9z" />
    <glyph glyph-name="Xi" unicode="&#x39e;" horiz-adv-x="608" 
d="M61 652q0 6 4.5 10.5t10.5 4.5h457q6 0 10.5 -4.5t4.5 -10.5t-4.5 -10.5t-10.5 -4.5h-457q-6 0 -10.5 4.5t-4.5 10.5zM68 343q0 6 4.5 10.5t10.5 4.5h443q6 0 10.5 -4.5t4.5 -10.5t-4.5 -10.5t-10.5 -4.5h-443q-6 0 -10.5 4.5t-4.5 10.5zM60 15q0 6 4.5 10.5t10.5 4.5
h457q6 0 10.5 -4.5t4.5 -10.5t-4.5 -10.5t-10.5 -4.5h-457q-6 0 -10.5 4.5t-4.5 10.5z" />
    <glyph glyph-name="Omicron" unicode="&#x39f;" horiz-adv-x="764" 
d="M382 678q140 0 228.5 -98.5t88.5 -246.5t-88.5 -246.5t-228.5 -98.5q-140 -2 -229.5 98t-87.5 247q-2 147 87.5 247t229.5 98zM382 648q-127 0 -204.5 -88t-77.5 -227q-2 -136 77 -226.5t205 -88.5q124 -2 204 88.5t78 226.5q0 138 -78 226.5t-204 88.5z" />
    <glyph glyph-name="Pi" unicode="&#x3a0;" horiz-adv-x="695" 
d="M575 14v623h-455v-623q0 -6 -4.5 -11t-11.5 -5t-11.5 5t-4.5 11v635q0 18 18 18h483q18 0 18 -18v-635q0 -6 -4.5 -11t-11.5 -5t-11.5 5t-4.5 11z" />
    <glyph glyph-name="Rho" unicode="&#x3a1;" horiz-adv-x="555" 
d="M88 14v635q0 18 18 18h213q88 0 141.5 -54.5t53.5 -134.5t-53.5 -134.5t-141.5 -54.5h-199v-275q0 -6 -4.5 -11t-11.5 -5t-11.5 5t-4.5 11zM318 637h-198v-318h198q72 0 116.5 44.5t44.5 114.5t-44.5 114.5t-116.5 44.5z" />
    <glyph glyph-name="Sigma" unicode="&#x3a3;" horiz-adv-x="567" 
d="M99 30h393q6 0 10.5 -4.5t4.5 -10.5t-4.5 -10.5t-10.5 -4.5h-411q-8 0 -14.5 6t-6.5 15q0 8 5 13l252 310l-251 289q-5 5 -5 14q0 8 6.5 14t14.5 6h410q6 0 10.5 -4.5t4.5 -10.5t-4.5 -10.5t-10.5 -4.5h-391l243 -280q6 -7 6 -14q0 -3 -5 -11z" />
    <glyph glyph-name="Tau" unicode="&#x3a4;" horiz-adv-x="559" 
d="M263 14v623h-212q-6 0 -10.5 4.5t-4.5 10.5t4.5 10.5t10.5 4.5h457q6 0 10.5 -4.5t4.5 -10.5t-4.5 -10.5t-10.5 -4.5h-213v-623q0 -6 -4.5 -11t-11.5 -5t-11.5 5t-4.5 11z" />
    <glyph glyph-name="Upsilon" unicode="&#x3a5;" horiz-adv-x="610" 
d="M572 642l-251 -352v-276q0 -6 -4.5 -11t-11.5 -5t-11.5 5t-4.5 11v276l-251 352q-3 3 -3 10t5 12t12 5q10 0 14 -7l239 -341l239 341q4 7 14 7q7 0 12 -5t5 -12t-3 -10z" />
    <glyph glyph-name="Phi" unicode="&#x3a6;" horiz-adv-x="764" 
d="M398 64v-50q0 -6 -4.5 -11t-11.5 -5t-11.5 5t-4.5 11v50q-135 4 -218 80.5t-83 188.5t83 188.5t218 80.5v51q0 6 4.5 11t11.5 5t11.5 -5t4.5 -11v-51q134 -4 217.5 -81t83.5 -188t-83.5 -188t-217.5 -81zM366 94v478q-121 -4 -193.5 -70t-72.5 -169q0 -102 72.5 -168.5
t193.5 -70.5zM664 333q0 102 -73 168.5t-193 70.5v-478q119 4 192.5 70.5t73.5 168.5z" />
    <glyph glyph-name="Chi" unicode="&#x3a7;" horiz-adv-x="638" 
d="M597 15q0 -7 -5 -12t-12 -5t-13 6l-248 315l-248 -315q-6 -6 -13 -6t-12 5t-5 12q0 5 4 10l256 317l-241 299q-3 5 -3 11q0 7 5 12t12 5q9 0 13 -7l232 -295l232 295q4 7 13 7q7 0 12 -5t5 -12q0 -5 -4 -10l-240 -299l256 -318q4 -5 4 -10z" />
    <glyph glyph-name="Psi" unicode="&#x3a8;" horiz-adv-x="736" 
d="M632 669q7 0 11.5 -5t4.5 -11v-264q0 -122 -68.5 -191.5t-195.5 -73.5v-110q0 -6 -4.5 -11t-11.5 -5t-11.5 5t-4.5 11v110q-127 4 -195.5 73.5t-68.5 191.5v264q0 6 4.5 11t11.5 5t11.5 -5t4.5 -11v-264q0 -109 59.5 -170t172.5 -65v499q0 6 4.5 11t11.5 5t11.5 -5
t4.5 -11v-499q113 4 172.5 65t59.5 170v264q0 6 4.5 11t11.5 5z" />
    <glyph glyph-name="uni03A9" unicode="&#x3a9;" horiz-adv-x="764" 
d="M65 333q-2 147 87.5 247t229.5 98q140 2 229.5 -98t87.5 -247q0 -208 -166 -303h135q6 0 10.5 -4.5t4.5 -10.5t-4.5 -10.5t-10.5 -4.5h-187q-7 0 -12 5t-5 12q0 13 12 16q79 25 133.5 103.5t54.5 196.5q0 139 -77.5 226.5t-204.5 87.5t-204.5 -87.5t-77.5 -226.5
q0 -118 55.5 -196.5t133.5 -103.5q12 -3 12 -16q0 -7 -5 -12t-12 -5h-187q-6 0 -10.5 4.5t-4.5 10.5t4.5 10.5t10.5 4.5h135q-167 95 -167 303z" />
    <glyph glyph-name="Iotadieresis" unicode="&#x3aa;" horiz-adv-x="208" 
d="M88 14v639q0 6 4.5 11t11.5 5t11.5 -5t4.5 -11v-639q0 -6 -4.5 -11t-11.5 -5t-11.5 5t-4.5 11zM-25 765q0 11 8.5 19.5t19.5 8.5t19.5 -8.5t8.5 -19.5t-8.5 -19.5t-19.5 -8.5t-19.5 8.5t-8.5 19.5zM177 765q0 11 8.5 19.5t19.5 8.5t19.5 -8.5t8.5 -19.5t-8.5 -19.5
t-19.5 -8.5t-19.5 8.5t-8.5 19.5z" />
    <glyph glyph-name="Upsilondieresis" unicode="&#x3ab;" horiz-adv-x="610" 
d="M572 642l-251 -352v-276q0 -6 -4.5 -11t-11.5 -5t-11.5 5t-4.5 11v276l-251 352q-3 3 -3 10t5 12t12 5q10 0 14 -7l239 -341l239 341q4 7 14 7q7 0 12 -5t5 -12t-3 -10zM176 765q0 11 8.5 19.5t19.5 8.5t19.5 -8.5t8.5 -19.5t-8.5 -19.5t-19.5 -8.5t-19.5 8.5t-8.5 19.5z
M378 765q0 11 8.5 19.5t19.5 8.5t19.5 -8.5t8.5 -19.5t-8.5 -19.5t-19.5 -8.5t-19.5 8.5t-8.5 19.5z" />
    <glyph glyph-name="alphatonos" unicode="&#x3ac;" horiz-adv-x="580" 
d="M541 15h2q5 0 8.5 -4.5t3.5 -8.5q0 -12 -12 -14h-11q-39 0 -60 24.5t-22 68.5q-28 -42 -74.5 -67.5t-99.5 -25.5q-97 0 -156.5 69.5t-59.5 183.5t59.5 184t156.5 70q53 0 98.5 -25t75.5 -70v70q0 6 4.5 10.5t10.5 4.5t10.5 -4.5t4.5 -10.5v-385q0 -33 13.5 -51.5
t38.5 -18.5h9zM450 111v259q-25 41 -73.5 69.5t-100.5 28.5q-86 0 -135 -64q-48 -64 -48 -163t48 -163q49 -63 135 -63q53 0 101 27.5t73 68.5zM275 603l14 159q2 22 24 22q10 0 17 -7t7 -16l-2 -12l-37 -150q-2 -9 -11 -9q-5 0 -9 4t-3 9z" />
    <glyph glyph-name="epsilontonos" unicode="&#x3ad;" horiz-adv-x="487" 
d="M60 127q0 58 37 86t83 33q-42 6 -76 36q-34 31 -34 85q0 59 51 94q52 34 126 34q110 0 176 -71q3 -5 3 -10t-4 -9.5t-10 -4.5q-7 0 -10 5q-57 63 -155 63q-63 0 -104 -28t-41 -73q0 -52 43.5 -80t112.5 -28h72q5 0 9.5 -4t4.5 -9q0 -6 -4.5 -10t-9.5 -4h-72
q-165 0 -165 -105q0 -51 43 -81.5t115 -30.5q102 0 162 63q5 5 10 5q6 0 10.5 -4.5t4.5 -10.5t-4 -10q-70 -70 -183 -70q-88 0 -139.5 38.5t-51.5 100.5zM239 603l14 159q2 22 24 22q10 0 17 -7t7 -16l-2 -12l-37 -150q-2 -9 -11 -9q-5 0 -9 4t-3 9z" />
    <glyph glyph-name="etatonos" unicode="&#x3ae;" 
d="M442 337v-508q0 -6 -4.5 -10.5t-10.5 -4.5t-10.5 4.5t-4.5 10.5v508q0 70 -31 100.5t-94 30.5q-47 0 -95.5 -26t-75.5 -65v-364q0 -6 -4.5 -10.5t-10.5 -4.5t-10.5 4.5t-4.5 10.5v457q0 6 4.5 10.5t10.5 4.5t10.5 -4.5t4.5 -10.5v-64q29 37 78 62q50 27 97 27
q76 0 113.5 -38t37.5 -120zM254 603l14 159q2 22 24 22q10 0 17 -7t7 -16l-2 -12l-37 -150q-2 -9 -11 -9q-5 0 -9 4t-3 9z" />
    <glyph glyph-name="iotatonos" unicode="&#x3af;" horiz-adv-x="216" 
d="M86 85v385q0 6 4.5 10.5t10.5 4.5t10.5 -4.5t4.5 -10.5v-385q0 -70 52 -70h9h2q5 0 8.5 -4.5t3.5 -8.5q0 -12 -12 -14h-11q-82 0 -82 97zM91 603l14 159q2 22 24 22q10 0 17 -7t7 -16l-2 -12l-37 -150q-2 -9 -11 -9q-5 0 -9 4t-3 9z" />
    <glyph glyph-name="upsilondieresistonos" unicode="&#x3b0;" horiz-adv-x="549" 
d="M86 207v263q0 6 4.5 10.5t10.5 4.5t10.5 -4.5t4.5 -10.5v-263q0 -91 38.5 -141.5t109.5 -50.5q87 0 139.5 66.5t52.5 160.5q0 135 -76 223q-3 5 -3 10q0 6 4.5 10.5t10.5 4.5q8 0 12 -6q85 -103 85 -242q0 -109 -62.5 -181.5t-162.5 -72.5q-86 0 -132 57.5t-46 161.5z
M253 603l14 159q2 22 24 22q10 0 17 -7t7 -16l-2 -12l-37 -150q-2 -9 -11 -9q-5 0 -9 4t-3 9zM124 618q0 11 8.5 19.5t19.5 8.5t19.5 -8.5t8.5 -19.5t-8.5 -19.5t-19.5 -8.5t-19.5 8.5t-8.5 19.5zM366 618q0 11 8.5 19.5t19.5 8.5t19.5 -8.5t8.5 -19.5t-8.5 -19.5
t-19.5 -8.5t-19.5 8.5t-8.5 19.5z" />
    <glyph glyph-name="alpha" unicode="&#x3b1;" horiz-adv-x="580" 
d="M541 15h2q5 0 8.5 -4.5t3.5 -8.5q0 -12 -12 -14h-11q-39 0 -60 24.5t-22 68.5q-28 -42 -74.5 -67.5t-99.5 -25.5q-97 0 -156.5 69.5t-59.5 183.5t59.5 184t156.5 70q53 0 98.5 -25t75.5 -70v70q0 6 4.5 10.5t10.5 4.5t10.5 -4.5t4.5 -10.5v-385q0 -33 13.5 -51.5
t38.5 -18.5h9zM450 111v259q-25 41 -73.5 69.5t-100.5 28.5q-86 0 -135 -64q-48 -64 -48 -163t48 -163q49 -63 135 -63q53 0 101 27.5t73 68.5z" />
    <glyph glyph-name="beta" unicode="&#x3b2;" horiz-adv-x="566" 
d="M101 -186q-6 0 -10.5 4.5t-4.5 10.5v632q0 103 60.5 159.5t151.5 56.5q80 0 136.5 -47.5t56.5 -126.5q0 -72 -43 -111q-44 -38 -94 -47q55 -5 103.5 -49.5t48.5 -118.5q0 -85 -59 -138q-59 -51 -154 -51q-55 0 -102.5 26t-74.5 67v-252q0 -6 -4.5 -10.5t-10.5 -4.5z
M290 15q86 0 134.5 43.5t48.5 118.5t-54 113.5t-147 38.5q-22 0 -22 16q0 15 21 15q86 0 136.5 36.5t50.5 106.5q0 66 -46.5 106.5t-113.5 40.5q-78 0 -130 -49.5t-52 -139.5v-350q25 -41 73 -68.5t101 -27.5z" />
    <glyph glyph-name="gamma" unicode="&#x3b3;" horiz-adv-x="471" 
d="M221 -171v146q0 136 -55 265q-53 129 -141 221q-4 5 -4 10t4.5 9.5t9.5 4.5q6 0 10 -4q73 -72 133 -199t70 -235q68 91 111 202q44 114 47 221q0 6 4.5 10.5t10.5 4.5t10.5 -5t4.5 -11q-5 -116 -53 -236q-50 -124 -132 -229v-175q0 -6 -4.5 -10.5t-10.5 -4.5t-10.5 4.5
t-4.5 10.5z" />
    <glyph glyph-name="delta" unicode="&#x3b4;" horiz-adv-x="570" 
d="M510 215q2 -90 -63.5 -159.5t-161.5 -67.5q-96 0 -160.5 68t-64.5 159q0 80 45 138.5t124 85.5q-56 19 -82.5 44.5t-26.5 67.5q0 56 45 92t119 36q100 0 158 -63q4 -5 4 -10q0 -6 -4.5 -10.5t-10.5 -4.5q-8 0 -11 5q-48 56 -136 56q-61 0 -97.5 -28t-36.5 -73
q3 -41 31 -59t104 -41q73 -23 115 -45q110 -53 110 -191zM480 215q0 66 -28 106q-26 37 -65.5 58.5t-112.5 44.5q-89 -22 -135 -76t-46 -133q0 -76 54 -138t138 -62q84 -2 140.5 62t54.5 138z" />
    <glyph glyph-name="epsilon" unicode="&#x3b5;" horiz-adv-x="487" 
d="M60 127q0 58 37 86t83 33q-42 6 -76 36q-34 31 -34 85q0 59 51 94q52 34 126 34q110 0 176 -71q3 -5 3 -10t-4 -9.5t-10 -4.5q-7 0 -10 5q-57 63 -155 63q-63 0 -104 -28t-41 -73q0 -52 43.5 -80t112.5 -28h72q5 0 9.5 -4t4.5 -9q0 -6 -4.5 -10t-9.5 -4h-72
q-165 0 -165 -105q0 -51 43 -81.5t115 -30.5q102 0 162 63q5 5 10 5q6 0 10.5 -4.5t4.5 -10.5t-4 -10q-70 -70 -183 -70q-88 0 -139.5 38.5t-51.5 100.5z" />
    <glyph glyph-name="zeta" unicode="&#x3b6;" horiz-adv-x="493" 
d="M60 212q0 239 342 428h-314q-5 0 -9.5 4t-4.5 10q0 5 4.5 9t9.5 4h340q7 0 12 -5t5 -12q0 -10 -9 -15q-178 -106 -260.5 -206t-82.5 -217q0 -89 64.5 -137t177.5 -48q108 0 108 -86q0 -37 -31 -92q-5 -8 -13 -8q-16 0 -16 16q0 1 2 7q25 49 25 77q0 59 -77 59
q-126 0 -199.5 55.5t-73.5 156.5z" />
    <glyph glyph-name="eta" unicode="&#x3b7;" 
d="M442 337v-508q0 -6 -4.5 -10.5t-10.5 -4.5t-10.5 4.5t-4.5 10.5v508q0 70 -31 100.5t-94 30.5q-47 0 -95.5 -26t-75.5 -65v-364q0 -6 -4.5 -10.5t-10.5 -4.5t-10.5 4.5t-4.5 10.5v457q0 6 4.5 10.5t10.5 4.5t10.5 -4.5t4.5 -10.5v-64q29 37 78 62q50 27 97 27
q76 0 113.5 -38t37.5 -120z" />
    <glyph glyph-name="theta" unicode="&#x3b8;" horiz-adv-x="570" 
d="M510 334q0 -154 -57 -250q-55 -96 -168 -96q-112 0 -169 96q-56 97 -56 250q0 154 56 249q57 96 169 96q113 0 168 -96q57 -95 57 -249zM93 349h384q-3 133 -49 218t-143 85t-144 -86t-48 -217zM477 322h-384q2 -134 48 -221q47 -86 144 -86q96 0 143 86q48 87 49 221z
" />
    <glyph glyph-name="iota" unicode="&#x3b9;" horiz-adv-x="216" 
d="M86 85v385q0 6 4.5 10.5t10.5 4.5t10.5 -4.5t4.5 -10.5v-385q0 -70 52 -70h9h2q5 0 8.5 -4.5t3.5 -8.5q0 -12 -12 -14h-11q-82 0 -82 97z" />
    <glyph glyph-name="kappa" unicode="&#x3ba;" horiz-adv-x="496" 
d="M239 265l210 -240q4 -5 4 -11t-4.5 -11t-11.5 -5t-12 6l-209 239l-100 -92v-138q0 -6 -4.5 -10.5t-10.5 -4.5t-10.5 4.5t-4.5 10.5v457q0 6 4.5 10.5t10.5 4.5t10.5 -4.5t4.5 -10.5v-280l313 291q4 4 10 4q14 0 14 -15q0 -8 -5 -11z" />
    <glyph glyph-name="lambda" unicode="&#x3bb;" horiz-adv-x="471" 
d="M422 8l-186 440l-187 -440q-2 -10 -14 -10q-7 0 -11.5 5t-4.5 12q0 5 1 6l198 465l-44 100q-28 66 -76 66q-18 0 -30 -4h-3q-14 0 -14 14q0 11 11 13q13 4 36 4q70 0 106 -82l246 -574q2 -6 2 -8q0 -7 -4.5 -12t-11.5 -5q-12 0 -14 10z" />
    <glyph glyph-name="uni03BC" unicode="&#x3bc;" horiz-adv-x="542" 
d="M503 15h2q5 0 8.5 -4.5t3.5 -8.5q0 -12 -12 -14h-11q-74 0 -82 86q-33 -38 -79 -62t-90 -24q-95 0 -127 65v-224q0 -6 -4.5 -10.5t-10.5 -4.5t-10.5 4.5t-4.5 10.5v641q0 6 4.5 10.5t10.5 4.5t10.5 -4.5t4.5 -10.5v-326q0 -70 31.5 -100.5t95.5 -30.5q46 0 95 26
q49 28 74 64v367q0 6 4.5 10.5t10.5 4.5t10.5 -4.5t4.5 -10.5v-385q0 -70 52 -70h9z" />
    <glyph glyph-name="nu" unicode="&#x3bd;" horiz-adv-x="471" 
d="M212 14l-192 448q-1 1 -1 6q0 7 4.5 12t11.5 5q12 0 14 -10l188 -443q163 218 169 438q0 6 4.5 10.5t10.5 4.5t10.5 -5t4.5 -11q-4 -110 -51.5 -231t-128.5 -230q-7 -10 -21 -10q-16 0 -23 16z" />
    <glyph glyph-name="xi" unicode="&#x3be;" horiz-adv-x="493" 
d="M212 346q-52 9 -97 45t-45 100q0 47 33.5 89t84.5 60h-100q-5 0 -9.5 4t-4.5 10q0 5 4.5 9t9.5 4h331q5 0 9.5 -4t4.5 -10q0 -5 -4.5 -9t-9.5 -4h-174q-58 -13 -100 -57.5t-42 -91.5q0 -63 53 -98q53 -34 129 -34h127q5 0 9.5 -4t4.5 -9q0 -6 -4.5 -10t-9.5 -4h-127
q-83 0 -138 -39q-54 -39 -54 -116q0 -75 62 -113t180 -38q108 0 108 -85q0 -37 -31 -92q-5 -8 -13 -8q-16 0 -16 16q0 1 2 7q25 49 25 77q0 58 -77 58q-133 0 -203 45t-70 133q0 73 48.5 118.5t103.5 50.5z" />
    <glyph glyph-name="omicron" unicode="&#x3bf;" horiz-adv-x="570" 
d="M60 242q0 108 62.5 180.5t162.5 72.5t162.5 -72.5t62.5 -180.5q0 -109 -62.5 -181.5t-162.5 -72.5q-99 0 -162 72.5t-63 181.5zM477 242q0 94 -52 160t-140 66q-86 0 -139 -66t-53 -160t53 -160.5t139 -66.5q87 0 139.5 66.5t52.5 160.5z" />
    <glyph glyph-name="pi" unicode="&#x3c0;" horiz-adv-x="540" 
d="M530 470q0 -6 -4.5 -10t-9.5 -4h-68v-443q0 -6 -4.5 -10.5t-10.5 -4.5t-10.5 4.5t-4.5 10.5v443h-296v-443q0 -6 -4.5 -10.5t-10.5 -4.5t-10.5 4.5t-4.5 10.5v443h-68q-5 0 -9.5 4t-4.5 10q0 5 4.5 9t9.5 4h492q5 0 9.5 -4t4.5 -9z" />
    <glyph glyph-name="rho" unicode="&#x3c1;" horiz-adv-x="562" 
d="M116 83v-254q0 -6 -4.5 -10.5t-10.5 -4.5t-10.5 4.5t-4.5 10.5v413q0 108 58.5 180.5t150.5 72.5q94 0 152.5 -72.5t58.5 -180.5q0 -114 -59.5 -184t-156.5 -70q-53 0 -98.5 25t-75.5 70zM294 468q-80 0 -129 -66t-49 -160v-129q25 -41 73.5 -69.5t100.5 -28.5
q86 0 134 64q49 64 49 163q0 94 -48.5 160t-130.5 66z" />
    <glyph glyph-name="uni03C2" unicode="&#x3c2;" horiz-adv-x="475" 
d="M288 495q93 0 157 -71q3 -4 3 -9q0 -14 -14 -14q-7 0 -10 5q-52 62 -134 62q-89 0 -143 -64.5t-54 -161.5q0 -108 62 -161.5t175 -53.5q58 0 83 -16.5t25 -57.5q0 -45 -31 -105q-3 -7 -11 -7q-6 0 -10 4.5t-4 9.5q0 2 2 8q26 55 26 90q0 26 -19.5 36.5t-62.5 10.5
q-128 0 -198 62.5t-70 179.5q0 107 63.5 180t164.5 73z" />
    <glyph glyph-name="sigma" unicode="&#x3c3;" horiz-adv-x="570" 
d="M542 469q0 -5 -4.5 -9t-9.5 -4h-124q106 -80 106 -222q0 -104 -63 -175t-162 -71t-162 72.5t-63 181.5q0 104 66.5 172.5t177.5 68.5h224q5 0 9.5 -4t4.5 -10zM351 456h-47q-98 0 -154.5 -62.5t-56.5 -151.5q0 -94 53 -160.5t139 -66.5q87 0 139.5 64.5t52.5 154.5
q0 77 -34.5 135.5t-91.5 86.5z" />
    <glyph glyph-name="tau" unicode="&#x3c4;" horiz-adv-x="447" 
d="M418 469q0 -5 -4.5 -9t-9.5 -4h-171v-371q0 -70 52 -70q25 0 48 17q3 3 9 3q14 0 14 -14q0 -6 -5 -11q-26 -22 -66 -22q-82 0 -82 97v371h-160q-5 0 -9.5 4t-4.5 9q0 6 4.5 10t9.5 4h361q5 0 9.5 -4t4.5 -10z" />
    <glyph glyph-name="upsilon" unicode="&#x3c5;" horiz-adv-x="549" 
d="M86 207v263q0 6 4.5 10.5t10.5 4.5t10.5 -4.5t4.5 -10.5v-263q0 -91 38.5 -141.5t109.5 -50.5q87 0 139.5 66.5t52.5 160.5q0 135 -76 223q-3 5 -3 10q0 6 4.5 10.5t10.5 4.5q8 0 12 -6q85 -103 85 -242q0 -109 -62.5 -181.5t-162.5 -72.5q-86 0 -132 57.5t-46 161.5z
" />
    <glyph glyph-name="phi" unicode="&#x3c6;" horiz-adv-x="700" 
d="M365 -12v-159q0 -6 -4.5 -10.5t-10.5 -4.5t-10.5 4.5t-4.5 10.5v159q-135 4 -205 76q-70 73 -70 189q0 75 44 135.5t117 97.5q6 2 8 2q5 0 9.5 -4t4.5 -10q0 -7 -8 -12q-142 -73 -142 -209q0 -106 60.5 -169.5t181.5 -68.5v455q0 6 4.5 10.5t10.5 4.5q140 -1 215 -68
t75 -181q0 -111 -71 -177.5t-204 -70.5zM607 236q0 97 -61 156t-181 64v-441q120 4 181 63.5t61 157.5z" />
    <glyph glyph-name="chi" unicode="&#x3c7;" horiz-adv-x="472" 
d="M440 -171q0 -6 -4.5 -10.5t-10.5 -4.5q-8 0 -13 8l-176 308l-176 -308q-5 -8 -13 -8q-6 0 -10.5 4.5t-4.5 10.5l2 8l186 322l-175 303l-2 8q0 6 4.5 10.5t10.5 4.5q8 0 13 -8l165 -289l165 289q5 8 13 8q6 0 10.5 -4.5t4.5 -10.5l-2 -8l-175 -303l186 -322z" />
    <glyph glyph-name="psi" unicode="&#x3c8;" horiz-adv-x="700" 
d="M599 485q6 0 10.5 -4.5t4.5 -10.5v-263q0 -100 -64.5 -157.5t-184.5 -61.5v-159q0 -6 -4.5 -10.5t-10.5 -4.5t-10.5 4.5t-4.5 10.5v159q-120 4 -184.5 61.5t-64.5 157.5v263q0 6 4.5 10.5t10.5 4.5t10.5 -4.5t4.5 -10.5v-263q0 -87 57 -137.5t162 -54.5v639q0 6 4.5 10.5
t10.5 4.5t10.5 -4.5t4.5 -10.5v-639q105 4 162 54.5t57 137.5v263q0 6 4.5 10.5t10.5 4.5z" />
    <glyph glyph-name="omega" unicode="&#x3c9;" horiz-adv-x="770" 
d="M385 143q-12 -61 -52 -108q-39 -47 -103 -47q-75 0 -122.5 71t-47.5 173q0 181 83 256q4 4 10 4q15 0 15 -15q0 -7 -4 -11q-71 -73 -71 -234q0 -87 38.5 -152t100.5 -65q64 0 101 66q37 67 37 161v111q0 6 4.5 10.5t10.5 4.5t10.5 -4.5t4.5 -10.5v-111q0 -94 37 -161
q37 -66 101 -66q62 0 100.5 65t38.5 152q0 161 -71 234q-4 4 -4 11q0 15 15 15q6 0 10 -4q83 -75 83 -256q0 -102 -47.5 -173t-122.5 -71q-63 0 -104 47q-39 48 -51 108z" />
    <glyph glyph-name="iotadieresis" unicode="&#x3ca;" horiz-adv-x="216" 
d="M86 85v385q0 6 4.5 10.5t10.5 4.5t10.5 -4.5t4.5 -10.5v-385q0 -70 52 -70h9h2q5 0 8.5 -4.5t3.5 -8.5q0 -12 -12 -14h-11q-82 0 -82 97zM-28 618q0 11 8.5 19.5t19.5 8.5t19.5 -8.5t8.5 -19.5t-8.5 -19.5t-19.5 -8.5t-19.5 8.5t-8.5 19.5zM174 618q0 11 8.5 19.5
t19.5 8.5t19.5 -8.5t8.5 -19.5t-8.5 -19.5t-19.5 -8.5t-19.5 8.5t-8.5 19.5z" />
    <glyph glyph-name="upsilondieresis" unicode="&#x3cb;" horiz-adv-x="549" 
d="M86 207v263q0 6 4.5 10.5t10.5 4.5t10.5 -4.5t4.5 -10.5v-263q0 -91 38.5 -141.5t109.5 -50.5q87 0 139.5 66.5t52.5 160.5q0 135 -76 223q-3 5 -3 10q0 6 4.5 10.5t10.5 4.5q8 0 12 -6q85 -103 85 -242q0 -109 -62.5 -181.5t-162.5 -72.5q-86 0 -132 57.5t-46 161.5z
M135 618q0 11 8.5 19.5t19.5 8.5t19.5 -8.5t8.5 -19.5t-8.5 -19.5t-19.5 -8.5t-19.5 8.5t-8.5 19.5zM337 618q0 11 8.5 19.5t19.5 8.5t19.5 -8.5t8.5 -19.5t-8.5 -19.5t-19.5 -8.5t-19.5 8.5t-8.5 19.5z" />
    <glyph glyph-name="omicrontonos" unicode="&#x3cc;" horiz-adv-x="570" 
d="M60 242q0 108 62.5 180.5t162.5 72.5t162.5 -72.5t62.5 -180.5q0 -109 -62.5 -181.5t-162.5 -72.5q-99 0 -162 72.5t-63 181.5zM477 242q0 94 -52 160t-140 66q-86 0 -139 -66t-53 -160t53 -160.5t139 -66.5q87 0 139.5 66.5t52.5 160.5zM275 603l14 159q2 22 24 22
q10 0 17 -7t7 -16l-2 -12l-37 -150q-2 -9 -11 -9q-5 0 -9 4t-3 9z" />
    <glyph glyph-name="upsilontonos" unicode="&#x3cd;" horiz-adv-x="549" 
d="M86 207v263q0 6 4.5 10.5t10.5 4.5t10.5 -4.5t4.5 -10.5v-263q0 -91 38.5 -141.5t109.5 -50.5q87 0 139.5 66.5t52.5 160.5q0 135 -76 223q-3 5 -3 10q0 6 4.5 10.5t10.5 4.5q8 0 12 -6q85 -103 85 -242q0 -109 -62.5 -181.5t-162.5 -72.5q-86 0 -132 57.5t-46 161.5z
M254 603l14 159q2 22 24 22q10 0 17 -7t7 -16l-2 -12l-37 -150q-2 -9 -11 -9q-5 0 -9 4t-3 9z" />
    <glyph glyph-name="omegatonos" unicode="&#x3ce;" horiz-adv-x="770" 
d="M385 143q-12 -61 -52 -108q-39 -47 -103 -47q-75 0 -122.5 71t-47.5 173q0 181 83 256q4 4 10 4q15 0 15 -15q0 -7 -4 -11q-71 -73 -71 -234q0 -87 38.5 -152t100.5 -65q64 0 101 66q37 67 37 161v111q0 6 4.5 10.5t10.5 4.5t10.5 -4.5t4.5 -10.5v-111q0 -94 37 -161
q37 -66 101 -66q62 0 100.5 65t38.5 152q0 161 -71 234q-4 4 -4 11q0 15 15 15q6 0 10 -4q83 -75 83 -256q0 -102 -47.5 -173t-122.5 -71q-63 0 -104 47q-39 48 -51 108zM375 603l14 159q2 22 24 22q10 0 17 -7t7 -16l-2 -12l-37 -150q-2 -9 -11 -9q-5 0 -9 4t-3 9z" />
    <glyph glyph-name="uni0401" unicode="&#x401;" horiz-adv-x="558" 
d="M88 18v631q0 18 18 18h377q6 0 10.5 -4.5t4.5 -10.5t-4.5 -10.5t-10.5 -4.5h-363v-279h356q6 0 10.5 -4.5t4.5 -10.5t-4.5 -10.5t-10.5 -4.5h-356v-298h363q6 0 10.5 -4.5t4.5 -10.5t-4.5 -10.5t-10.5 -4.5h-377q-18 0 -18 18zM167 765q0 11 8.5 19.5t19.5 8.5t19.5 -8.5
t8.5 -19.5t-8.5 -19.5t-19.5 -8.5t-19.5 8.5t-8.5 19.5zM369 765q0 11 8.5 19.5t19.5 8.5t19.5 -8.5t8.5 -19.5t-8.5 -19.5t-19.5 -8.5t-19.5 8.5t-8.5 19.5z" />
    <glyph glyph-name="uni0402" unicode="&#x402;" horiz-adv-x="777" 
d="M510 18q147 6 147 161v12q0 90 -38.5 129.5t-124.5 39.5q-117 0 -199 -40v-306q0 -6 -4.5 -11t-11.5 -5t-11.5 5t-4.5 11v623h-212q-6 0 -10.5 4.5t-4.5 10.5t4.5 10.5t10.5 4.5h457q6 0 10.5 -4.5t4.5 -10.5t-4.5 -10.5t-10.5 -4.5h-213v-289q89 42 199 42
q102 0 148.5 -47.5t46.5 -152.5v-11q0 -98 -45.5 -143t-132.5 -48q-6 0 -11 4.5t-5 10.5q0 15 15 15z" />
    <glyph glyph-name="uni0403" unicode="&#x403;" horiz-adv-x="533" 
d="M88 14v635q0 18 18 18h377q6 0 10.5 -4.5t4.5 -10.5t-4.5 -10.5t-10.5 -4.5h-363v-623q0 -6 -4.5 -11t-11.5 -5t-11.5 5t-4.5 11zM305 721q-10 0 -10 10q0 4 4 8l140 126q4 4 9 4q6 0 10.5 -4.5t4.5 -10.5t-6 -11l-145 -119q-3 -3 -7 -3z" />
    <glyph glyph-name="uni0404" unicode="&#x404;" horiz-adv-x="667" 
d="M596 105q5 5 12 5t12 -4.5t5 -11.5t-5 -12q-93 -94 -222 -94q-138 -3 -236.5 97t-96.5 248q-2 148 96.5 247.5t236.5 97.5q131 0 222 -94q4 -4 4 -11q0 -16 -16 -16q-7 0 -12 5q-80 86 -198 86q-120 0 -205 -81.5t-92 -208.5h408q6 0 10.5 -4.5t4.5 -10.5t-4.5 -10.5
t-10.5 -4.5h-409q-1 -133 86.5 -222.5t211.5 -87.5q57 0 109.5 23t88.5 64z" />
    <glyph glyph-name="uni0405" unicode="&#x405;" horiz-adv-x="575" 
d="M59 93q0 7 5 12.5t12 5.5q8 0 13 -6q80 -87 197 -87q105 0 148 46q45 46 45 105q0 49 -27 81q-25 30 -61 47t-108 37q-63 17 -111 37q-98 41 -98 137q0 77 60.5 123.5t148.5 46.5q129 0 206 -83q5 -5 5 -11q0 -7 -5 -12t-12 -5q-9 0 -13 6q-67 75 -181 75
q-73 0 -123.5 -40t-50.5 -100q0 -42 24 -69q23 -24 56.5 -38.5t104.5 -34.5q70 -21 115 -41q105 -44 105 -156q0 -73 -55 -127t-173 -54q-137 0 -223 94q-4 4 -4 11z" />
    <glyph glyph-name="uni0406" unicode="&#x406;" horiz-adv-x="208" 
d="M88 14v639q0 6 4.5 11t11.5 5t11.5 -5t4.5 -11v-639q0 -6 -4.5 -11t-11.5 -5t-11.5 5t-4.5 11z" />
    <glyph glyph-name="uni0407" unicode="&#x407;" horiz-adv-x="208" 
d="M88 14v639q0 6 4.5 11t11.5 5t11.5 -5t4.5 -11v-639q0 -6 -4.5 -11t-11.5 -5t-11.5 5t-4.5 11zM-25 765q0 11 8.5 19.5t19.5 8.5t19.5 -8.5t8.5 -19.5t-8.5 -19.5t-19.5 -8.5t-19.5 8.5t-8.5 19.5zM177 765q0 11 8.5 19.5t19.5 8.5t19.5 -8.5t8.5 -19.5t-8.5 -19.5
t-19.5 -8.5t-19.5 8.5t-8.5 19.5z" />
    <glyph glyph-name="uni0408" unicode="&#x408;" horiz-adv-x="465" 
d="M21 74q0 8 5.5 13t12.5 5q10 0 14 -7q55 -67 132 -67q72 0 116 46t44 121v468q0 6 4.5 11t11.5 5t11.5 -5t4.5 -11v-468q0 -94 -54.5 -145.5t-137.5 -51.5q-101 0 -160 75q-4 5 -4 11z" />
    <glyph glyph-name="uni0409" unicode="&#x409;" horiz-adv-x="1042" 
d="M806 0h-213q-18 0 -18 18v619h-282l-14 -136q-20 -189 -47 -290q-26 -103 -59 -152t-80 -64q-21 -7 -41 -7q-6 0 -11 4.5t-5 10.5q0 14 14 16q38 3 65.5 24.5t53 74.5t45 148.5t35.5 240.5l15 143q2 17 19 17h306q18 0 18 -18v-271h199q88 0 141.5 -54.5t53.5 -134.5
t-53.5 -134.5t-141.5 -54.5zM607 348v-318h198q72 0 116.5 44.5t44.5 114.5t-44.5 114.5t-116.5 44.5h-198z" />
    <glyph glyph-name="uni040A" unicode="&#x40a;" horiz-adv-x="1042" 
d="M104 669q7 0 11.5 -5t4.5 -11v-295h455v295q0 6 4.5 11t11.5 5t11.5 -5t4.5 -11v-295h209q83 0 134 -51.5t51 -127.5t-50.5 -127.5t-134.5 -51.5h-223q-18 0 -18 18v310h-455v-314q0 -6 -4.5 -11t-11.5 -5t-11.5 5t-4.5 11v639q0 6 4.5 11t11.5 5zM966 179q0 65 -42 107
q-40 42 -108 42h-209v-298h209q68 0 108 42q42 42 42 107z" />
    <glyph glyph-name="uni040B" unicode="&#x40b;" horiz-adv-x="777" 
d="M494 360q-117 0 -199 -40v-306q0 -6 -4.5 -11t-11.5 -5t-11.5 5t-4.5 11v623h-212q-6 0 -10.5 4.5t-4.5 10.5t4.5 10.5t10.5 4.5h457q6 0 10.5 -4.5t4.5 -10.5t-4.5 -10.5t-10.5 -4.5h-213v-289q89 42 199 42q103 0 149 -49.5t46 -160.5v-166q0 -6 -4.5 -11t-11.5 -5
t-11.5 5t-4.5 11v167q0 96 -38 137.5t-125 41.5z" />
    <glyph glyph-name="uni040C" unicode="&#x40c;" horiz-adv-x="571" 
d="M521 14q0 -7 -4.5 -11.5t-10.5 -4.5q-7 0 -12 5l-294 325l-80 -87v-227q0 -6 -4.5 -11t-11.5 -5t-11.5 5t-4.5 11v639q0 6 4.5 11t11.5 5t11.5 -5t4.5 -11v-371l344 381q4 6 12 6q6 0 11 -4.5t5 -11.5q0 -3 -5 -11l-267 -294l297 -323q4 -5 4 -11zM312 721q-10 0 -10 10
q0 4 4 8l140 126q4 4 9 4q6 0 10.5 -4.5t4.5 -10.5t-6 -11l-145 -119q-3 -3 -7 -3z" />
    <glyph glyph-name="uni040E" unicode="&#x40e;" horiz-adv-x="612" 
d="M582 652l-1 -2q-1 -3 -1 -5l-268 -537q-33 -65 -64.5 -92.5t-78.5 -27.5q-25 0 -51 8q-11 5 -11 15q0 7 5 11.5t11 4.5q1 0 7 -2q17 -7 39 -7q36 0 58 22q25 25 56 83l34 63l-280 458q-2 6 -2 8q0 7 4.5 12t11.5 5q8 0 14 -8l268 -443l217 441q4 10 15 10q7 0 12 -5
t5 -12zM171 774q-3 4 -3 8q0 14 13 14q7 0 10 -5q47 -53 116 -53q73 0 115 53q3 5 10 5q14 0 14 -14q0 -4 -3 -8q-52 -63 -136 -63t-136 63z" />
    <glyph glyph-name="uni040F" unicode="&#x40f;" horiz-adv-x="685" 
d="M597 653v-635q0 -18 -18 -18h-221v-113q0 -6 -4.5 -10.5t-10.5 -4.5t-10.5 4.5t-4.5 10.5v113h-222q-18 0 -18 18v635q0 6 4.5 11t11.5 5t11.5 -5t4.5 -11v-623h445v623q0 6 4.5 11t11.5 5t11.5 -5t4.5 -11z" />
    <glyph glyph-name="uni0410" unicode="&#x410;" horiz-adv-x="636" 
d="M607 16q0 -18 -17 -18q-11 0 -16 11l-70 170h-372l-70 -170q-5 -11 -16 -11q-7 0 -12 5t-5 12q0 3 2 9l262 628q6 17 25 17t25 -17l262 -628q2 -6 2 -8zM144 209h348l-174 421z" />
    <glyph glyph-name="uni0411" unicode="&#x411;" horiz-adv-x="555" 
d="M488 652q0 -6 -4.5 -10.5t-10.5 -4.5h-353v-259h199q88 0 141.5 -54.5t53.5 -134.5t-53.5 -134.5t-141.5 -54.5h-213q-18 0 -18 18v631q0 18 18 18h367q6 0 10.5 -4.5t4.5 -10.5zM120 348v-318h198q72 0 116.5 44.5t44.5 114.5t-44.5 114.5t-116.5 44.5h-198z" />
    <glyph glyph-name="uni0412" unicode="&#x412;" horiz-adv-x="600" 
d="M88 18v631q0 18 18 18h233q83 0 132.5 -45t49.5 -125q0 -58 -34 -100.5t-84 -52.5q52 -7 91.5 -57t39.5 -107q0 -84 -51.5 -132t-139.5 -48h-237q-18 0 -18 18zM120 358h219q70 0 108.5 38.5t38.5 100.5t-39.5 101t-107.5 39h-219v-279zM120 30h223q73 0 114.5 40
t41.5 109q0 62 -42 105.5t-114 43.5h-223v-298z" />
    <glyph glyph-name="uni0413" unicode="&#x413;" horiz-adv-x="533" 
d="M88 14v635q0 18 18 18h377q6 0 10.5 -4.5t4.5 -10.5t-4.5 -10.5t-10.5 -4.5h-363v-623q0 -6 -4.5 -11t-11.5 -5t-11.5 5t-4.5 11z" />
    <glyph glyph-name="uni0414" unicode="&#x414;" horiz-adv-x="710" 
d="M666 12v-122q0 -6 -4.5 -10.5t-10.5 -4.5t-10.5 4.5t-4.5 10.5v110h-568v-110q0 -6 -4.5 -10.5t-10.5 -4.5t-10.5 4.5t-4.5 10.5v122q0 18 18 18h32q28 24 51 71q52 105 96 419l19 130q3 17 19 17h306q18 0 18 -18v-619h51q18 0 18 -18zM565 30v607h-283l-17 -121
q-34 -241 -64 -338q-30 -102 -66 -148h430z" />
    <glyph glyph-name="uni0415" unicode="&#x415;" horiz-adv-x="558" 
d="M88 18v631q0 18 18 18h377q6 0 10.5 -4.5t4.5 -10.5t-4.5 -10.5t-10.5 -4.5h-363v-279h356q6 0 10.5 -4.5t4.5 -10.5t-4.5 -10.5t-10.5 -4.5h-356v-298h363q6 0 10.5 -4.5t4.5 -10.5t-4.5 -10.5t-10.5 -4.5h-377q-18 0 -18 18z" />
    <glyph glyph-name="uni0416" unicode="&#x416;" horiz-adv-x="874" 
d="M824 14q0 -7 -4.5 -11.5t-10.5 -4.5q-7 0 -12 5l-299 327h-45v-316q0 -6 -4.5 -11t-11.5 -5t-11.5 5t-4.5 11v316h-45l-299 -327q-5 -5 -12 -5q-6 0 -10.5 4.5t-4.5 11.5q0 6 4 11l297 321l-267 296q-5 8 -5 11q0 7 5 11.5t11 4.5q7 0 12 -6l275 -307h39v297q0 6 4.5 11
t11.5 5t11.5 -5t4.5 -11v-297h39l275 307q5 6 12 6q6 0 11 -4.5t5 -11.5q0 -3 -5 -11l-267 -296l297 -321q4 -5 4 -11z" />
    <glyph glyph-name="uni0417" unicode="&#x417;" horiz-adv-x="562" 
d="M42 97q0 7 5 11.5t12 4.5q9 0 13 -7q66 -88 197 -88q89 0 140.5 42.5t51.5 116.5q0 75 -52 114t-138 39h-107q-6 0 -10.5 4.5t-4.5 10.5t4.5 10.5t10.5 4.5h107q76 0 128 36t52 107q0 68 -52 105q-52 39 -128 39q-111 0 -186 -81q-4 -4 -12 -4q-16 0 -16 16q0 3 5 11
q82 88 209 88q89 0 152 -47.5t63 -126.5q0 -72 -45 -111q-46 -38 -97 -47q55 -5 103.5 -49.5t48.5 -118.5q0 -83 -61.5 -136t-166.5 -53q-146 0 -222 99q-4 4 -4 10z" />
    <glyph glyph-name="uni0418" unicode="&#x418;" horiz-adv-x="690" 
d="M104 669q7 0 11.5 -5t4.5 -11v-596l445 603q5 9 17 9q8 0 14 -6.5t6 -14.5v-634q0 -6 -4.5 -11t-11.5 -5t-11.5 5t-4.5 11v602l-445 -609q-5 -9 -17 -9q-8 0 -14 6.5t-6 14.5v634q0 6 4.5 11t11.5 5z" />
    <glyph glyph-name="uni0419" unicode="&#x419;" horiz-adv-x="690" 
d="M104 669q7 0 11.5 -5t4.5 -11v-596l445 603q5 9 17 9q8 0 14 -6.5t6 -14.5v-634q0 -6 -4.5 -11t-11.5 -5t-11.5 5t-4.5 11v602l-445 -609q-5 -9 -17 -9q-8 0 -14 6.5t-6 14.5v634q0 6 4.5 11t11.5 5zM209 774q-3 4 -3 8q0 14 13 14q7 0 10 -5q47 -53 116 -53q73 0 115 53
q3 5 10 5q14 0 14 -14q0 -4 -3 -8q-52 -63 -136 -63t-136 63z" />
    <glyph glyph-name="uni041A" unicode="&#x41a;" horiz-adv-x="571" 
d="M521 14q0 -7 -4.5 -11.5t-10.5 -4.5q-7 0 -12 5l-294 325l-80 -87v-227q0 -6 -4.5 -11t-11.5 -5t-11.5 5t-4.5 11v639q0 6 4.5 11t11.5 5t11.5 -5t4.5 -11v-371l344 381q4 6 12 6q6 0 11 -4.5t5 -11.5q0 -3 -5 -11l-267 -294l297 -323q4 -5 4 -11z" />
    <glyph glyph-name="uni041B" unicode="&#x41b;" horiz-adv-x="695" 
d="M575 14v623h-282l-14 -136q-20 -189 -47 -290q-26 -103 -59 -152t-80 -64q-21 -6 -41 -7q-6 0 -11 4.5t-5 10.5q0 14 14 16q38 3 65.5 24.5t53 74.5t45 148.5t35.5 240.5l15 143q2 17 19 17h306q18 0 18 -18v-635q0 -6 -4.5 -11t-11.5 -5t-11.5 5t-4.5 11z" />
    <glyph glyph-name="uni041C" unicode="&#x41c;" horiz-adv-x="770" 
d="M650 14v615l-254 -620q-4 -10 -11 -10t-11 10l-254 620v-615q0 -6 -4.5 -11t-11.5 -5t-11.5 5t-4.5 11v625q0 12 8.5 21t21.5 9q21 0 28 -19l239 -586l239 586q7 19 28 19q13 0 21.5 -9t8.5 -21v-625q0 -6 -4.5 -11t-11.5 -5t-11.5 5t-4.5 11z" />
    <glyph glyph-name="uni041D" unicode="&#x41d;" horiz-adv-x="695" 
d="M575 14v314h-455v-314q0 -6 -4.5 -11t-11.5 -5t-11.5 5t-4.5 11v639q0 6 4.5 11t11.5 5t11.5 -5t4.5 -11v-295h455v295q0 6 4.5 11t11.5 5t11.5 -5t4.5 -11v-639q0 -6 -4.5 -11t-11.5 -5t-11.5 5t-4.5 11z" />
    <glyph glyph-name="uni041E" unicode="&#x41e;" horiz-adv-x="764" 
d="M382 678q140 0 228.5 -98.5t88.5 -246.5t-88.5 -246.5t-228.5 -98.5q-140 -2 -229.5 98t-87.5 247q-2 147 87.5 247t229.5 98zM382 648q-127 0 -204.5 -88t-77.5 -227q-2 -136 77 -226.5t205 -88.5q124 -2 204 88.5t78 226.5q0 138 -78 226.5t-204 88.5z" />
    <glyph glyph-name="uni041F" unicode="&#x41f;" horiz-adv-x="695" 
d="M575 14v623h-455v-623q0 -6 -4.5 -11t-11.5 -5t-11.5 5t-4.5 11v635q0 18 18 18h483q18 0 18 -18v-635q0 -6 -4.5 -11t-11.5 -5t-11.5 5t-4.5 11z" />
    <glyph glyph-name="uni0420" unicode="&#x420;" horiz-adv-x="555" 
d="M88 14v635q0 18 18 18h213q88 0 141.5 -54.5t53.5 -134.5t-53.5 -134.5t-141.5 -54.5h-199v-275q0 -6 -4.5 -11t-11.5 -5t-11.5 5t-4.5 11zM318 637h-198v-318h198q72 0 116.5 44.5t44.5 114.5t-44.5 114.5t-116.5 44.5z" />
    <glyph glyph-name="uni0421" unicode="&#x421;" horiz-adv-x="667" 
d="M65 333q-2 148 96.5 247.5t236.5 97.5q131 0 222 -94q4 -4 4 -11q0 -16 -16 -16q-7 0 -12 5q-80 86 -198 86q-125 2 -212.5 -88.5t-85.5 -226.5q-2 -135 85.5 -226t212.5 -89q57 0 109.5 23t88.5 64q5 5 12 5t12 -4.5t5 -11.5t-5 -12q-93 -94 -222 -94q-138 -3 -236.5 97
t-96.5 248z" />
    <glyph glyph-name="uni0422" unicode="&#x422;" horiz-adv-x="559" 
d="M263 14v623h-212q-6 0 -10.5 4.5t-4.5 10.5t4.5 10.5t10.5 4.5h457q6 0 10.5 -4.5t4.5 -10.5t-4.5 -10.5t-10.5 -4.5h-213v-623q0 -6 -4.5 -11t-11.5 -5t-11.5 5t-4.5 11z" />
    <glyph glyph-name="uni0423" unicode="&#x423;" horiz-adv-x="612" 
d="M582 652l-1 -2q-1 -3 -1 -5l-268 -537q-33 -65 -64.5 -92.5t-78.5 -27.5q-25 0 -51 8q-11 5 -11 15q0 7 5 11.5t11 4.5q1 0 7 -2q17 -7 39 -7q36 0 58 22q25 25 56 83l34 63l-280 458q-2 6 -2 8q0 7 4.5 12t11.5 5q8 0 14 -8l268 -443l217 441q4 10 15 10q7 0 12 -5
t5 -12z" />
    <glyph glyph-name="uni0424" unicode="&#x424;" horiz-adv-x="764" 
d="M398 64v-50q0 -6 -4.5 -11t-11.5 -5t-11.5 5t-4.5 11v50q-135 4 -218 80.5t-83 188.5t83 188.5t218 80.5v51q0 6 4.5 11t11.5 5t11.5 -5t4.5 -11v-51q134 -4 217.5 -81t83.5 -188t-83.5 -188t-217.5 -81zM366 94v478q-121 -4 -193.5 -70t-72.5 -169q0 -102 72.5 -168.5
t193.5 -70.5zM664 333q0 102 -73 168.5t-193 70.5v-478q119 4 192.5 70.5t73.5 168.5z" />
    <glyph glyph-name="uni0425" unicode="&#x425;" horiz-adv-x="638" 
d="M597 15q0 -7 -5 -12t-12 -5t-13 6l-248 315l-248 -315q-6 -6 -13 -6t-12 5t-5 12q0 5 4 10l256 317l-241 299q-3 5 -3 11q0 7 5 12t12 5q9 0 13 -7l232 -295l232 295q4 7 13 7q7 0 12 -5t5 -12q0 -5 -4 -10l-240 -299l256 -318q4 -5 4 -10z" />
    <glyph glyph-name="uni0426" unicode="&#x426;" horiz-adv-x="710" 
d="M666 12v-122q0 -6 -4.5 -10.5t-10.5 -4.5t-10.5 4.5t-4.5 10.5v110h-530q-18 0 -18 18v635q0 6 4.5 11t11.5 5t11.5 -5t4.5 -11v-623h445v623q0 6 4.5 11t11.5 5t11.5 -5t4.5 -11v-623h51q18 0 18 -18z" />
    <glyph glyph-name="uni0427" unicode="&#x427;" horiz-adv-x="580" 
d="M261 307q117 0 199 40v306q0 6 4.5 11t11.5 5t11.5 -5t4.5 -11v-639q0 -6 -4.5 -11t-11.5 -5t-11.5 5t-4.5 11v305q-88 -42 -199 -42q-103 0 -149 49.5t-46 160.5v166q0 6 4.5 11t11.5 5t11.5 -5t4.5 -11v-167q0 -96 38 -137.5t125 -41.5z" />
    <glyph glyph-name="uni0428" unicode="&#x428;" horiz-adv-x="966" 
d="M878 653v-635q0 -18 -18 -18h-754q-18 0 -18 18v635q0 6 4.5 11t11.5 5t11.5 -5t4.5 -11v-623h347v623q0 6 4.5 11t11.5 5t11.5 -5t4.5 -11v-623h347v623q0 6 4.5 11t11.5 5t11.5 -5t4.5 -11z" />
    <glyph glyph-name="uni0429" unicode="&#x429;" horiz-adv-x="991" 
d="M947 12v-122q0 -6 -4.5 -10.5t-10.5 -4.5t-10.5 4.5t-4.5 10.5v110h-811q-18 0 -18 18v635q0 6 4.5 11t11.5 5t11.5 -5t4.5 -11v-623h347v623q0 6 4.5 11t11.5 5t11.5 -5t4.5 -11v-623h347v623q0 6 4.5 11t11.5 5t11.5 -5t4.5 -11v-623h51q18 0 18 -18z" />
    <glyph glyph-name="uni042A" unicode="&#x42a;" horiz-adv-x="730" 
d="M263 18v619h-212q-6 0 -10.5 4.5t-4.5 10.5t4.5 10.5t10.5 4.5h226q18 0 18 -18v-271h199q88 0 141.5 -54.5t53.5 -134.5t-53.5 -134.5t-141.5 -54.5h-213q-18 0 -18 18zM295 348v-318h198q72 0 116.5 44.5t44.5 114.5t-44.5 114.5t-116.5 44.5h-198z" />
    <glyph glyph-name="uni042B" unicode="&#x42b;" horiz-adv-x="721" 
d="M120 653v-275h199q88 0 141.5 -54.5t53.5 -134.5t-53.5 -134.5t-141.5 -54.5h-213q-18 0 -18 18v635q0 6 4.5 11t11.5 5t11.5 -5t4.5 -11zM601 14v639q0 6 4.5 11t11.5 5t11.5 -5t4.5 -11v-639q0 -6 -4.5 -11t-11.5 -5t-11.5 5t-4.5 11zM120 348v-318h198
q72 0 116.5 44.5t44.5 114.5t-44.5 114.5t-116.5 44.5h-198z" />
    <glyph glyph-name="uni042C" unicode="&#x42c;" horiz-adv-x="555" 
d="M120 653v-275h199q88 0 141.5 -54.5t53.5 -134.5t-53.5 -134.5t-141.5 -54.5h-213q-18 0 -18 18v635q0 6 4.5 11t11.5 5t11.5 -5t4.5 -11zM120 348v-318h198q72 0 116.5 44.5t44.5 114.5t-44.5 114.5t-116.5 44.5h-198z" />
    <glyph glyph-name="uni042D" unicode="&#x42d;" horiz-adv-x="667" 
d="M602 333q2 -148 -96.5 -248t-236.5 -97q-129 0 -222 94q-5 5 -5 12t5 11.5t12 4.5t12 -5q36 -41 88.5 -64t109.5 -23q124 -2 211.5 87.5t86.5 222.5h-409q-6 0 -10.5 4.5t-4.5 10.5t4.5 10.5t10.5 4.5h408q-7 127 -92 208.5t-205 81.5q-118 0 -198 -86q-5 -5 -12 -5
q-16 0 -16 16q0 7 4 11q91 94 222 94q138 2 236.5 -97.5t96.5 -247.5z" />
    <glyph glyph-name="uni042E" unicode="&#x42e;" horiz-adv-x="957" 
d="M892 333q0 -148 -88.5 -246.5t-228.5 -98.5t-227.5 96.5t-89.5 243.5h-138v-314q0 -6 -4.5 -11t-11.5 -5t-11.5 5t-4.5 11v639q0 6 4.5 11t11.5 5t11.5 -5t4.5 -11v-295h139q8 139 94 229.5t222 90.5q140 0 228.5 -98.5t88.5 -246.5zM857 333q0 138 -78 226.5t-204 88.5
q-127 0 -204.5 -88t-77.5 -227q-2 -136 77 -226.5t205 -88.5q124 -2 204 88.5t78 226.5z" />
    <glyph glyph-name="uni042F" unicode="&#x42f;" horiz-adv-x="579" 
d="M491 649v-635q0 -6 -4.5 -11t-11.5 -5t-11.5 5t-4.5 11v274h-166l-198 -283q-4 -7 -14 -7q-7 0 -11.5 5t-4.5 12t3 10l188 263q-83 2 -137.5 53.5t-54.5 136.5q0 88 55.5 138.5t141.5 50.5h212q18 0 18 -18zM459 318v319h-198q-72 0 -117 -44.5t-45 -114.5t45 -115
t117 -45h198z" />
    <glyph glyph-name="uni0430" unicode="&#x430;" horiz-adv-x="514" 
d="M428 349v-336q0 -6 -4.5 -10.5t-10.5 -4.5t-10.5 4.5t-4.5 10.5v46q-65 -71 -167 -71q-69 0 -119 44.5t-50 116.5t49.5 116.5t119.5 44.5q102 0 167 -71v109q0 55 -38.5 87.5t-97.5 32.5q-86 0 -146 -66q-5 -5 -12 -5q-6 0 -10.5 4.5t-4.5 10.5t4 10q67 73 169 73
q76 0 121 -38t45 -108zM398 89v120q-56 74 -159 74q-64 0 -104 -38t-40 -96t40 -96t104 -38q103 0 159 74z" />
    <glyph glyph-name="uni0431" unicode="&#x431;" horiz-adv-x="577" 
d="M354 656l107 20h3q15 0 15 -14q0 -13 -12 -15l-107 -20q-129 -24 -190 -94q-62 -71 -78 -169q63 131 194 131q98 0 161 -72.5t63 -179.5q0 -109 -62.5 -182t-162.5 -73q-101 0 -163 76.5t-62 199.5q0 176 70.5 269.5t223.5 122.5zM285 468q-86 0 -139 -66t-53 -160
t53 -160.5t139 -66.5q87 0 139.5 66.5t52.5 160.5t-52 160t-140 66z" />
    <glyph glyph-name="uni0432" unicode="&#x432;" horiz-adv-x="527" 
d="M86 18v447q0 18 18 18h192q69 0 108 -32.5t39 -91.5q0 -41 -22.5 -70.5t-57.5 -39.5q38 -10 63.5 -44t25.5 -74q0 -62 -41 -96.5t-113 -34.5h-194q-18 0 -18 18zM296 456h-180v-193h180q54 0 84.5 26.5t30.5 69.5q0 45 -30.5 71t-84.5 26zM298 236h-182v-209h182
q57 0 89 27.5t32 75.5q0 46 -32.5 76t-88.5 30z" />
    <glyph glyph-name="uni0433" unicode="&#x433;" horiz-adv-x="413" 
d="M86 13v452q0 18 18 18h266q5 0 9.5 -4t4.5 -9q0 -6 -4.5 -10t-9.5 -4h-254v-443q0 -6 -4.5 -10.5t-10.5 -4.5t-10.5 4.5t-4.5 10.5z" />
    <glyph glyph-name="uni0434" unicode="&#x434;" horiz-adv-x="545" 
d="M502 9v-120q0 -5 -4 -9.5t-10 -4.5q-5 0 -9 4.5t-4 9.5v111h-430v-111q0 -5 -4 -9.5t-9 -4.5q-6 0 -10 4.5t-4 9.5v120q0 18 18 18h24q59 73 91 349l10 90q2 17 19 17h244q18 0 18 -18v-438h42q18 0 18 -18zM412 27v429h-224l-10 -85q-31 -275 -85 -344h319z" />
    <glyph glyph-name="uni0435" unicode="&#x435;" horiz-adv-x="571" 
d="M287 495q103 0 163.5 -71t60.5 -171q0 -21 -18 -21h-399q3 -92 59 -154.5t144 -62.5q92 0 160 65q3 3 9 3q13 0 13 -13q0 -5 -4 -9q-78 -73 -178 -73q-104 0 -170.5 71.5t-66.5 182.5q0 105 65.5 179t161.5 74zM94 259h385q0 81 -52 145t-141 64q-85 0 -137 -63.5
t-55 -145.5z" />
    <glyph glyph-name="uni0436" unicode="&#x436;" horiz-adv-x="680" 
d="M415 245l217 -222q4 -4 4 -10q0 -15 -14 -15q-6 0 -11 5l-223 229h-33v-219q0 -6 -4.5 -10.5t-10.5 -4.5t-10.5 4.5t-4.5 10.5v219h-33l-223 -229q-5 -5 -11 -5q-14 0 -14 15q0 6 4 10l217 222l-220 215q-4 4 -4 10q0 15 14 15q6 0 10 -4l227 -222h33v211q0 6 4.5 10.5
t10.5 4.5t10.5 -4.5t4.5 -10.5v-211h33l227 222q4 4 10 4q14 0 14 -15q0 -6 -4 -10z" />
    <glyph glyph-name="uni0437" unicode="&#x437;" horiz-adv-x="487" 
d="M50 68q0 15 15 15q7 0 10 -4q64 -64 161 -64q72 0 115 30.5t43 81.5q0 105 -165 105h-72q-5 0 -9.5 4t-4.5 10q0 5 4.5 9t9.5 4h72q69 0 112.5 28t43.5 80q0 45 -41 73t-104 28q-98 0 -155 -63q-3 -5 -10 -5q-6 0 -10 4.5t-4 9.5t3 10q66 71 176 71q75 0 125 -34
q52 -34 52 -94q0 -53 -35 -85q-34 -30 -75 -36q44 -4 82 -33t38 -86q0 -62 -51.5 -100.5t-139.5 -38.5q-113 0 -182 69q-4 4 -4 11z" />
    <glyph glyph-name="uni0438" unicode="&#x438;" 
d="M86 16v454q0 6 4.5 10.5t10.5 4.5t10.5 -4.5t4.5 -10.5v-422l294 429q6 8 14 8q7 0 12.5 -5.5t5.5 -12.5v-454q0 -6 -4.5 -10.5t-10.5 -4.5t-10.5 4.5t-4.5 10.5v426l-294 -433q-6 -8 -14 -8q-7 0 -12.5 5.5t-5.5 12.5z" />
    <glyph glyph-name="uni0439" unicode="&#x439;" 
d="M86 16v454q0 6 4.5 10.5t10.5 4.5t10.5 -4.5t4.5 -10.5v-422l294 429q6 8 14 8q7 0 12.5 -5.5t5.5 -12.5v-454q0 -6 -4.5 -10.5t-10.5 -4.5t-10.5 4.5t-4.5 10.5v426l-294 -433q-6 -8 -14 -8q-7 0 -12.5 5.5t-5.5 12.5zM128 627q-3 5 -3 8q0 14 13 14q7 0 10 -5
q47 -53 116 -53q73 0 115 53q3 5 10 5q14 0 14 -14q0 -3 -3 -8q-52 -63 -136 -63t-136 63z" />
    <glyph glyph-name="uni043A" unicode="&#x43a;" horiz-adv-x="496" 
d="M239 265l210 -240q4 -5 4 -11t-4.5 -11t-11.5 -5t-12 6l-209 239l-100 -92v-138q0 -6 -4.5 -10.5t-10.5 -4.5t-10.5 4.5t-4.5 10.5v457q0 6 4.5 10.5t10.5 4.5t10.5 -4.5t4.5 -10.5v-280l313 291q4 4 10 4q14 0 14 -15q0 -8 -5 -11z" />
    <glyph glyph-name="uni043B" unicode="&#x43b;" 
d="M412 13v443h-224l-9 -80q-23 -205 -54.5 -288.5t-81.5 -96.5q-10 -2 -11 -2q-6 0 -11 4t-5 10q0 11 11 13q40 7 72 86q30 74 53 275l10 89q2 17 19 17h243q18 0 18 -18v-452q0 -6 -4.5 -10.5t-10.5 -4.5t-10.5 4.5t-4.5 10.5z" />
    <glyph glyph-name="uni043C" unicode="&#x43c;" horiz-adv-x="632" 
d="M516 13v431l-187 -435q-5 -11 -12 -11t-12 11l-189 435v-431q0 -6 -4.5 -10.5t-10.5 -4.5t-10.5 4.5t-4.5 10.5v447q0 10 7 17.5t17 7.5q16 0 23 -15l183 -428l182 428q8 15 23 15q10 0 17.5 -7.5t7.5 -17.5v-447q0 -6 -4.5 -10.5t-10.5 -4.5t-10.5 4.5t-4.5 10.5z" />
    <glyph glyph-name="uni043D" unicode="&#x43d;" 
d="M86 13v457q0 6 4.5 10.5t10.5 4.5t10.5 -4.5t4.5 -10.5v-205h296v205q0 6 4.5 10.5t10.5 4.5t10.5 -4.5t4.5 -10.5v-457q0 -6 -4.5 -10.5t-10.5 -4.5t-10.5 4.5t-4.5 10.5v225h-296v-225q0 -6 -4.5 -10.5t-10.5 -4.5t-10.5 4.5t-4.5 10.5z" />
    <glyph glyph-name="uni043E" unicode="&#x43e;" horiz-adv-x="570" 
d="M60 242q0 108 62.5 180.5t162.5 72.5t162.5 -72.5t62.5 -180.5q0 -109 -62.5 -181.5t-162.5 -72.5q-99 0 -162 72.5t-63 181.5zM477 242q0 94 -52 160t-140 66q-86 0 -139 -66t-53 -160t53 -160.5t139 -66.5q87 0 139.5 66.5t52.5 160.5z" />
    <glyph glyph-name="uni043F" unicode="&#x43f;" 
d="M412 13v443h-296v-443q0 -6 -4.5 -10.5t-10.5 -4.5t-10.5 4.5t-4.5 10.5v452q0 18 18 18h320q18 0 18 -18v-452q0 -6 -4.5 -10.5t-10.5 -4.5t-10.5 4.5t-4.5 10.5z" />
    <glyph glyph-name="uni0440" unicode="&#x440;" horiz-adv-x="566" 
d="M506 242q0 -114 -59.5 -184t-156.5 -70q-53 0 -98.5 25t-75.5 70v-254q0 -6 -4.5 -10.5t-10.5 -4.5t-10.5 4.5t-4.5 10.5v641q0 6 4.5 10.5t10.5 4.5t10.5 -4.5t4.5 -10.5v-68q28 42 74.5 67.5t99.5 25.5q97 0 156.5 -69.5t59.5 -183.5zM473 242q0 100 -49 162
q-48 64 -134 64q-53 0 -101 -27.5t-73 -68.5v-259q25 -41 73.5 -69.5t100.5 -28.5q86 0 134 64q49 64 49 163z" />
    <glyph glyph-name="uni0441" unicode="&#x441;" horiz-adv-x="493" 
d="M288 495q93 0 157 -71q3 -4 3 -9q0 -14 -14 -14q-7 0 -10 5q-52 62 -134 62q-89 0 -143 -64.5t-54 -161.5q0 -98 53.5 -162.5t143.5 -64.5q80 0 133 63q3 5 11 5q14 0 14 -14q0 -7 -3 -10q-64 -71 -157 -71q-102 0 -165 73t-63 181q0 107 63.5 180t164.5 73z" />
    <glyph glyph-name="uni0442" unicode="&#x442;" horiz-adv-x="379" 
d="M174 13v443h-131q-5 0 -9.5 4t-4.5 10q0 5 4.5 9t9.5 4h293q5 0 9.5 -4t4.5 -10q0 -5 -4.5 -9t-9.5 -4h-132v-443q0 -6 -4.5 -10.5t-10.5 -4.5t-10.5 4.5t-4.5 10.5z" />
    <glyph glyph-name="uni0443" unicode="&#x443;" horiz-adv-x="471" 
d="M65 -165q1 0 12.5 -2t20.5 -2q48 0 76 66l44 100l-197 463q-2 6 -2 8q0 7 4.5 12t11.5 5q12 0 14 -10l187 -440l186 440q2 10 14 10q7 0 11.5 -5t4.5 -12q0 -3 -2 -9l-246 -573q-36 -82 -106 -82q-16 0 -33 3q-14 3 -14 14q0 14 14 14z" />
    <glyph glyph-name="uni0444" unicode="&#x444;" horiz-adv-x="680" 
d="M620 242q0 -109 -69 -179.5t-196 -74.5v-159q0 -6 -4.5 -10.5t-10.5 -4.5t-10.5 4.5t-4.5 10.5v159q-127 4 -196 74.5t-69 179.5t68 179q66 69 197 74v159q0 6 4.5 10.5t10.5 4.5t10.5 -4.5t4.5 -10.5v-159q131 -5 197 -74q68 -70 68 -179zM325 15v453q-117 -5 -175 -68
q-57 -63 -57 -158q0 -94 57 -159q58 -63 175 -68zM587 242q0 96 -58 158q-56 63 -174 68v-453q118 5 174 68q58 64 58 159z" />
    <glyph glyph-name="uni0445" unicode="&#x445;" horiz-adv-x="472" 
d="M435 14q0 -7 -4.5 -11.5t-10.5 -4.5t-12 6l-172 224l-172 -224q-6 -6 -12 -6t-10.5 4.5t-4.5 11.5q0 6 3 9l179 225l-168 212q-3 3 -3 9q0 7 4.5 11.5t10.5 4.5t12 -6l161 -210l161 210q6 6 12 6t10.5 -4.5t4.5 -11.5q0 -6 -3 -9l-168 -212l179 -225q3 -3 3 -9z" />
    <glyph glyph-name="uni0446" unicode="&#x446;" horiz-adv-x="539" 
d="M496 9v-120q0 -5 -4 -9.5t-10 -4.5q-5 0 -9 4.5t-4 9.5v111h-365q-18 0 -18 18v452q0 6 4.5 10.5t10.5 4.5t10.5 -4.5t4.5 -10.5v-443h290v443q0 6 4.5 10.5t10.5 4.5t10.5 -4.5t4.5 -10.5v-443h42q18 0 18 -18z" />
    <glyph glyph-name="uni0447" unicode="&#x447;" 
d="M116 470v-132q0 -78 32.5 -109.5t103.5 -31.5q38 0 87 11q49 13 73 28v234q0 6 4.5 10.5t10.5 4.5t10.5 -4.5t4.5 -10.5v-457q0 -6 -4.5 -10.5t-10.5 -4.5t-10.5 4.5t-4.5 10.5v198q-77 -41 -160 -41q-88 0 -127 38.5t-39 129.5v132q0 6 4.5 10.5t10.5 4.5t10.5 -4.5
t4.5 -10.5z" />
    <glyph glyph-name="uni0448" unicode="&#x448;" horiz-adv-x="771" 
d="M685 470v-452q0 -18 -18 -18h-563q-18 0 -18 18v452q0 6 4.5 10.5t10.5 4.5t10.5 -4.5t4.5 -10.5v-443h254v443q0 6 4.5 10.5t10.5 4.5t10.5 -4.5t4.5 -10.5v-443h255v443q0 6 4.5 10.5t10.5 4.5t10.5 -4.5t4.5 -10.5z" />
    <glyph glyph-name="uni0449" unicode="&#x449;" horiz-adv-x="788" 
d="M745 9v-120q0 -5 -4 -9.5t-10 -4.5q-5 0 -9 4.5t-4 9.5v111h-614q-18 0 -18 18v452q0 6 4.5 10.5t10.5 4.5t10.5 -4.5t4.5 -10.5v-443h254v443q0 6 4.5 10.5t10.5 4.5t10.5 -4.5t4.5 -10.5v-443h255v443q0 6 4.5 10.5t10.5 4.5t10.5 -4.5t4.5 -10.5v-443h42q18 0 18 -18z
" />
    <glyph glyph-name="uni044A" unicode="&#x44a;" horiz-adv-x="584" 
d="M174 18v438h-131q-5 0 -9.5 4t-4.5 9q0 6 4.5 10t9.5 4h143q18 0 18 -18v-168h185q70 0 110.5 -43.5t40.5 -105.5q0 -61 -40 -104.5t-111 -43.5h-197q-18 0 -18 18zM204 270v-243h185q56 0 87.5 34t31.5 87q0 55 -30.5 88.5t-88.5 33.5h-185z" />
    </font>
</defs>
</svg>
