<?xml version="1.0" standalone="no"?>
<!DOCTYPE svg PUBLIC "-//W3C//DTD SVG 1.1//EN" "http://www.w3.org/Graphics/SVG/1.1/DTD/svg11.dtd" >
<svg xmlns="http://www.w3.org/2000/svg" xmlns:xlink="http://www.w3.org/1999/xlink" version="1.1">
<metadata>
Created by FontForge 20170731 at Tue Dec 25 03:00:00 2018
 By Aleksey,,,
Copyright (c) 2018 by Mark Simonson. All rights reserved.
</metadata>
<defs>
<font id="ProximaSoft-ThinIt" horiz-adv-x="528" >
  <font-face 
    font-family="Proxima Soft Thin"
    font-weight="250"
    font-style="italic"
    font-stretch="normal"
    units-per-em="1000"
    panose-1="2 0 5 6 3 0 0 2 0 4"
    ascent="790"
    descent="-210"
    x-height="483"
    cap-height="667"
    bbox="-275 -291 1150 1080"
    underline-thickness="24"
    underline-position="-244"
    slope="-12.5"
    unicode-range="U+000D-FB04"
  />
<missing-glyph horiz-adv-x="527" 
d="M108 -28v718q0 62 62 62h227q62 0 62 -62v-718q0 -62 -62 -62h-227q-62 0 -62 62zM427 722h-288v-782h288v782z" />
    <glyph glyph-name="f_f_j" unicode="ffj" horiz-adv-x="694" 
d="M367 653q0 -8 -6.5 -12t-13.5 0q-19 9 -46 9q-43 0 -68.5 -28.5t-38.5 -87.5l-11 -51h83q13 0 13 -14q0 -13 -13 -13h-89l-99 -446q-2 -12 -14 -12q-7 0 -11 5.5t-3 12.5l97 440h-65q-13 0 -13 13q0 14 13 14h71l11 51q32 143 140 143q32 0 56 -12q7 -3 7 -12zM613 653
q0 -8 -6.5 -12t-13.5 0q-20 9 -46 9q-43 0 -68.5 -28.5t-38.5 -87.5l-11 -51h83q13 0 13 -14q0 -13 -13 -13h-89l-99 -446q-2 -12 -14 -12q-7 0 -11 5.5t-3 12.5l97 440h-65q-13 0 -13 13q0 14 13 14h71l11 51q32 143 140 143q32 0 56 -12q7 -3 7 -12zM645 612q0 14 10 23
t23 9q11 0 19 -7.5t8 -18.5q0 -14 -10 -23t-23 -9q-11 0 -19 7.5t-8 18.5zM358 -176q0 8 6 12t13 1q15 -6 35 -6q74 0 95 93l122 549q2 12 14 12q7 0 11.5 -5.5t2.5 -12.5l-120 -543q-27 -120 -125 -120q-27 0 -45 7q-9 5 -9 13z" />
    <glyph glyph-name="f_j" unicode="fj" horiz-adv-x="448" 
d="M367 653q0 -8 -6.5 -12t-13.5 0q-19 9 -46 9q-43 0 -68.5 -28.5t-38.5 -87.5l-11 -51h83q13 0 13 -14q0 -13 -13 -13h-89l-99 -446q-2 -12 -14 -12q-7 0 -11 5.5t-3 12.5l97 440h-65q-13 0 -13 13q0 14 13 14h71l11 51q32 143 140 143q32 0 56 -12q7 -3 7 -12zM399 612
q0 14 10 23t23 9q11 0 19 -7.5t8 -18.5q0 -14 -10 -23t-23 -9q-11 0 -19 7.5t-8 18.5zM112 -176q0 8 6 12t13 1q15 -6 35 -6q74 0 95 93l122 549q2 12 14 12q7 0 11.5 -5.5t2.5 -12.5l-120 -543q-27 -120 -125 -120q-27 0 -45 7q-9 5 -9 13z" />
    <glyph glyph-name="f_f" unicode="ff" horiz-adv-x="492" 
d="M367 653q0 -8 -6.5 -12t-13.5 0q-19 9 -46 9q-43 0 -68.5 -28.5t-38.5 -87.5l-11 -51h83q13 0 13 -14q0 -13 -13 -13h-89l-99 -446q-2 -12 -14 -12q-7 0 -11 5.5t-3 12.5l97 440h-65q-13 0 -13 13q0 14 13 14h71l11 51q32 143 140 143q32 0 56 -12q7 -3 7 -12zM613 653
q0 -8 -6.5 -12t-13.5 0q-20 9 -46 9q-43 0 -68.5 -28.5t-38.5 -87.5l-11 -51h83q13 0 13 -14q0 -13 -13 -13h-89l-99 -446q-2 -12 -14 -12q-7 0 -11 5.5t-3 12.5l97 440h-65q-13 0 -13 13q0 14 13 14h71l11 51q32 143 140 143q32 0 56 -12q7 -3 7 -12z" />
    <glyph glyph-name="fi" unicode="fi" horiz-adv-x="448" 
d="M367 653q0 -8 -6.5 -12t-13.5 0q-19 9 -46 9q-43 0 -68.5 -28.5t-38.5 -87.5l-11 -51h83q13 0 13 -14q0 -13 -13 -13h-89l-99 -446q-2 -12 -14 -12q-7 0 -11 5.5t-3 12.5l97 440h-65q-13 0 -13 13q0 14 13 14h71l11 51q32 143 140 143q32 0 56 -12q7 -3 7 -12zM432 644
q11 0 19 -7.5t8 -18.5q0 -14 -10 -23t-23 -9q-11 0 -19 7.5t-8 18.5q0 14 10 23t23 9zM282 16l101 457q2 12 14 12q7 0 11.5 -5.5t2.5 -12.5l-101 -457q-2 -12 -14 -12q-7 0 -11 5.5t-3 12.5z" />
    <glyph glyph-name="fl" unicode="fl" horiz-adv-x="448" 
d="M367 653q0 -8 -6.5 -12t-13.5 0q-19 9 -46 9q-43 0 -68.5 -28.5t-38.5 -87.5l-11 -51h83q13 0 13 -14q0 -13 -13 -13h-89l-99 -446q-2 -12 -14 -12q-7 0 -11 5.5t-3 12.5l97 440h-65q-13 0 -13 13q0 14 13 14h71l11 51q32 143 140 143q32 0 56 -12q7 -3 7 -12zM282 16
l141 641q2 12 14 12q7 0 11.5 -5.5t2.5 -12.5l-141 -641q-2 -12 -14 -12q-7 0 -11 5.5t-3 12.5z" />
    <glyph glyph-name="f_f_i" unicode="ffi" horiz-adv-x="694" 
d="M367 653q0 -8 -6.5 -12t-13.5 0q-19 9 -46 9q-43 0 -68.5 -28.5t-38.5 -87.5l-11 -51h83q13 0 13 -14q0 -13 -13 -13h-89l-99 -446q-2 -12 -14 -12q-7 0 -11 5.5t-3 12.5l97 440h-65q-13 0 -13 13q0 14 13 14h71l11 51q32 143 140 143q32 0 56 -12q7 -3 7 -12zM613 653
q0 -8 -6.5 -12t-13.5 0q-20 9 -46 9q-43 0 -68.5 -28.5t-38.5 -87.5l-11 -51h83q13 0 13 -14q0 -13 -13 -13h-89l-99 -446q-2 -12 -14 -12q-7 0 -11 5.5t-3 12.5l97 440h-65q-13 0 -13 13q0 14 13 14h71l11 51q32 143 140 143q32 0 56 -12q7 -3 7 -12zM678 644q11 0 19 -7.5
t8 -18.5q0 -14 -10 -23t-23 -9q-11 0 -19 7.5t-8 18.5q0 14 10 23t23 9zM528 16l101 457q2 12 14 12q7 0 11.5 -5.5t2.5 -12.5l-101 -457q-2 -12 -14 -12q-7 0 -11 5.5t-3 12.5z" />
    <glyph glyph-name="f_f_l" unicode="ffl" horiz-adv-x="694" 
d="M367 653q0 -8 -6.5 -12t-13.5 0q-19 9 -46 9q-43 0 -68.5 -28.5t-38.5 -87.5l-11 -51h83q13 0 13 -14q0 -13 -13 -13h-89l-99 -446q-2 -12 -14 -12q-7 0 -11 5.5t-3 12.5l97 440h-65q-13 0 -13 13q0 14 13 14h71l11 51q32 143 140 143q32 0 56 -12q7 -3 7 -12zM613 653
q0 -8 -6.5 -12t-13.5 0q-20 9 -46 9q-43 0 -68.5 -28.5t-38.5 -87.5l-11 -51h83q13 0 13 -14q0 -13 -13 -13h-89l-99 -446q-2 -12 -14 -12q-7 0 -11 5.5t-3 12.5l97 440h-65q-13 0 -13 13q0 14 13 14h71l11 51q32 143 140 143q32 0 56 -12q7 -3 7 -12zM528 16l141 641
q2 12 14 12q7 0 11.5 -5.5t2.5 -12.5l-141 -641q-2 -12 -14 -12q-7 0 -11 5.5t-3 12.5z" />
    <glyph glyph-name="f_b" unicode="fb" horiz-adv-x="812" 
d="M367 653q0 -8 -6.5 -12t-13.5 0q-19 9 -46 9q-43 0 -68.5 -28.5t-38.5 -87.5l-11 -51h83q13 0 13 -14q0 -13 -13 -13h-89l-99 -446q-2 -12 -14 -12q-7 0 -11 5.5t-3 12.5l97 440h-65q-13 0 -13 13q0 14 13 14h71l11 51q32 143 140 143q32 0 56 -12q7 -3 7 -12zM760 297
q2 -126 -72 -219t-181 -90q-60 0 -107.5 27t-72.5 73l-17 -78q-2 -12 -14 -12q-7 0 -11 5.5t-3 12.5l141 641q2 12 14 12q7 0 11.5 -5.5t2.5 -12.5l-53 -245q66 89 172 89q86 0 138 -53.5t52 -144.5zM726 293q0 81 -43 128t-115 47q-52 0 -101 -29t-79 -75l-55 -251
q21 -44 67.5 -71t106.5 -27q62 -2 113.5 39t79 105.5t26.5 133.5z" />
    <glyph glyph-name="f_h" unicode="fh" horiz-adv-x="774" 
d="M367 653q0 -8 -6.5 -12t-13.5 0q-19 9 -46 9q-43 0 -68.5 -28.5t-38.5 -87.5l-11 -51h83q13 0 13 -14q0 -13 -13 -13h-89l-99 -446q-2 -12 -14 -12q-7 0 -11 5.5t-3 12.5l97 440h-65q-13 0 -13 13q0 14 13 14h71l11 51q32 143 140 143q32 0 56 -12q7 -3 7 -12zM608 16
l71 323q6 27 6 37q0 46 -30.5 69t-84.5 23q-44 0 -92.5 -26.5t-86.5 -67.5l-81 -364q-2 -12 -14 -12q-7 0 -11 5.5t-3 12.5l141 641q2 12 14 12q7 0 11.5 -5.5t2.5 -12.5l-53 -244q88 88 178 88q64 0 101 -30t37 -86q0 -23 -6 -42l-72 -327q-2 -12 -14 -12q-7 0 -11 5.5
t-3 12.5z" />
    <glyph glyph-name="f_k" unicode="fk" horiz-adv-x="742" 
d="M367 653q0 -8 -6.5 -12t-13.5 0q-19 9 -46 9q-43 0 -68.5 -28.5t-38.5 -87.5l-11 -51h83q13 0 13 -14q0 -13 -13 -13h-89l-99 -446q-2 -12 -14 -12q-7 0 -11 5.5t-3 12.5l97 440h-65q-13 0 -13 13q0 14 13 14h71l11 51q32 143 140 143q32 0 56 -12q7 -3 7 -12zM743 460
l-254 -195l159 -243q3 -6 3 -10q0 -6 -5 -10t-11 -4q-8 0 -12 7l-158 241l-124 -95l-31 -141q-2 -12 -14 -12q-7 0 -11 5.5t-3 12.5l141 641q2 12 14 12q7 0 11.5 -5.5t2.5 -12.5l-101 -459l375 290q3 3 9 3t10 -4.5t4 -9.5q0 -6 -5 -11z" />
    <glyph glyph-name=".notdef" horiz-adv-x="527" 
d="M108 -28v718q0 62 62 62h227q62 0 62 -62v-718q0 -62 -62 -62h-227q-62 0 -62 62zM427 722h-288v-782h288v782z" />
    <glyph glyph-name=".null" horiz-adv-x="0" 
 />
    <glyph glyph-name="nonmarkingreturn" horiz-adv-x="333" 
 />
    <glyph glyph-name="CR" unicode="&#xd;" horiz-adv-x="0" 
 />
    <glyph glyph-name="space" unicode=" " horiz-adv-x="260" 
 />
    <glyph glyph-name="exclam" unicode="!" horiz-adv-x="208" 
d="M77 171l96 482q2 16 20 16q10 0 15.5 -8t3.5 -17l-116 -477q-2 -8 -9 -8q-12 0 -10 12zM58 56q13 0 21.5 -8.5t8.5 -21.5q0 -15 -10.5 -25t-25.5 -10q-13 0 -21.5 8.5t-8.5 21.5q0 15 10.5 25t25.5 10z" />
    <glyph glyph-name="quotedbl" unicode="&#x22;" horiz-adv-x="290" 
d="M121 454l28 190q4 33 31 33q10 0 16.5 -7t6.5 -17q0 -6 -4 -17l-57 -187q-2 -8 -10 -8q-13 0 -11 13zM237 454l28 190q5 33 31 33q10 0 16.5 -7t6.5 -17q0 -6 -4 -17l-57 -187q-2 -8 -10 -8q-13 0 -11 13z" />
    <glyph glyph-name="numbersign" unicode="#" horiz-adv-x="567" 
d="M586 461q0 -14 -15 -14h-110l-126 -227h97q15 0 15 -15q0 -14 -15 -14h-113l-103 -185q-5 -8 -12 -8q-8 0 -12.5 7t-0.5 15l95 171h-124l-103 -185q-5 -8 -12 -8q-8 0 -12.5 7t-0.5 15l95 171h-93q-15 0 -15 15q0 14 15 14h109l126 227h-95q-14 0 -14 15q0 14 14 14h111
l103 185q5 8 12 8q8 0 12.5 -7t0.5 -15l-95 -171h124l103 185q5 8 12 8q8 0 12.5 -7t0.5 -15l-95 -171h94q15 0 15 -15zM302 220l126 227h-124l-126 -227h124z" />
    <glyph glyph-name="dollar" unicode="$" horiz-adv-x="575" 
d="M556 578q0 -7 -5 -12.5t-13 -5.5q-10 0 -14 7q-46 59 -129 76l-63 -285q87 -39 126 -74.5t42 -99.5q0 -79 -61.5 -137.5t-165.5 -58.5q-18 0 -23 1l-18 -79q-2 -12 -15 -12q-7 0 -12 5.5t-3 13.5l17 75q-119 19 -179 97q-3 5 -3 11q0 8 5.5 13t12.5 5q10 0 14 -7
q60 -74 156 -89l70 314q-52 22 -88 42q-79 47 -79 124q0 72 64 124t151 52q22 0 28 -1l18 80q4 13 15 13q7 0 12 -5.5t3 -13.5l-17 -78q101 -17 151 -84q3 -5 3 -11zM303 371l62 276q-5 1 -22 1q-73 0 -126 -44.5t-53 -101.5q0 -42 32.5 -70t106.5 -61zM325 323l-69 -304
q5 -1 20 -1q89 0 138.5 50t49.5 116q0 46 -32.5 76.5t-106.5 62.5z" />
    <glyph glyph-name="percent" unicode="%" horiz-adv-x="709" 
d="M264 677q60 0 100 -37.5t40 -94.5q0 -83 -51.5 -138.5t-120.5 -55.5q-60 0 -100 37.5t-40 94.5q0 83 51.5 138.5t120.5 55.5zM88 12q0 4 3 9l552 643q3 5 11 5q6 0 10 -4.5t4 -9.5t-3 -9l-553 -643q-3 -5 -11 -5q-13 0 -13 14zM263 650q-55 0 -96.5 -48t-41.5 -116
q0 -46 31 -77t77 -31q55 0 96.5 48t41.5 116q0 47 -30.5 77.5t-77.5 30.5zM515 314q60 0 100 -37.5t40 -94.5q0 -83 -51.5 -138.5t-120.5 -55.5q-60 0 -100 37.5t-40 94.5q0 83 51.5 138.5t120.5 55.5zM514 287q-55 0 -96.5 -48t-41.5 -116q0 -46 31 -77t77 -31
q55 0 96.5 48t41.5 116q0 47 -30.5 77.5t-77.5 30.5z" />
    <glyph glyph-name="ampersand" unicode="&#x26;" horiz-adv-x="637" 
d="M555 273l-2 -8q-66 -109 -119 -165l56 -71q4 -4 4 -12q0 -19 -19 -19q-11 0 -15 7q-35 47 -51 70q-96 -87 -196 -87q-81 0 -134 42q-53 44 -53 117q2 87 51 137t149 93q-28 66 -28 124q0 70 51 123t117 53q57 0 91.5 -28t34.5 -78q0 -55 -30 -92t-72 -60
q-40 -22 -119 -54q29 -60 64 -117q46 -75 79 -120q64 68 111 153q6 8 14 8q16 0 16 -16zM259 391q73 31 106 48q91 50 91 129q0 36 -25.5 57.5t-64.5 21.5q-51 0 -92 -40.5t-41 -105.5q0 -44 26 -110zM389 103q-47 66 -82 123q-41 67 -69 124q-90 -39 -133 -84t-43 -114
q0 -62 43 -98t108 -36q87 0 176 85z" />
    <glyph glyph-name="quotesingle" unicode="'" horiz-adv-x="176" 
d="M121 454l28 190q4 33 31 33q10 0 16.5 -7t6.5 -17q0 -6 -4 -17l-57 -187q-2 -8 -10 -8q-13 0 -11 13z" />
    <glyph glyph-name="parenleft" unicode="(" horiz-adv-x="206" 
d="M71 -188q-45 130 -45 265q0 308 238 601q3 4 8 4q6 0 8.5 -6.5t-0.5 -9.5q-112 -157 -167 -304.5t-55 -305.5q0 -100 35 -238v-3q0 -11 -11 -11q-9 0 -11 8z" />
    <glyph glyph-name="parenright" unicode=")" horiz-adv-x="206" 
d="M134 674q45 -131 45 -265q0 -308 -238 -601q-3 -4 -8 -4q-6 0 -8.5 6.5t0.5 9.5q112 157 167 304.5t55 305.5q0 100 -35 238v3q0 11 11 11q9 0 11 -8z" />
    <glyph glyph-name="asterisk" unicode="*" horiz-adv-x="330" 
d="M190 426l28 103l-102 -47q-1 -1 -5 -1q-14 0 -14 13q0 8 9 13l107 38l-81 56q-6 3 -6 12q0 15 14 15q6 0 10 -4l75 -65l18 108q2 12 14 12q7 0 11.5 -6t2.5 -13l-28 -103l102 47q1 1 5 1q14 0 14 -13q0 -8 -9 -13l-106 -38l80 -56q6 -3 6 -12q0 -15 -14 -15q-6 0 -10 4
l-75 65l-18 -108q-2 -12 -14 -12q-7 0 -11.5 6t-2.5 13z" />
    <glyph glyph-name="plus" unicode="+" horiz-adv-x="494" 
d="M280 322l-47 -211q-2 -13 -15 -13q-7 0 -12 5.5t-3 13.5l45 205h-185q-6 0 -10.5 4.5t-4.5 10.5t4.5 10.5t10.5 4.5h192l45 205q2 13 15 13q7 0 12 -5.5t3 -13.5l-43 -199h185q6 0 10.5 -4.5t4.5 -10.5t-4.5 -10.5t-10.5 -4.5h-192z" />
    <glyph glyph-name="comma" unicode="," horiz-adv-x="208" 
d="M1 -109q-13 0 -13 13q0 6 6 11q49 33 60 77h-6q-10 0 -18 8.5t-8 19.5q0 15 10.5 25.5t24.5 10.5q32 0 32 -38q0 -33 -23.5 -68t-57.5 -57q-2 -2 -7 -2z" />
    <glyph glyph-name="hyphen" unicode="-" horiz-adv-x="300" 
d="M28 242q0 6 4.5 10.5t10.5 4.5h212q6 0 10.5 -4.5t4.5 -10.5t-4.5 -10.5t-10.5 -4.5h-212q-6 0 -10.5 4.5t-4.5 10.5z" />
    <glyph glyph-name="period" unicode="." horiz-adv-x="208" 
d="M58 56q13 0 21.5 -8.5t8.5 -21.5q0 -15 -10.5 -25t-25.5 -10q-13 0 -21.5 8.5t-8.5 21.5q0 15 10.5 25t25.5 10z" />
    <glyph glyph-name="slash" unicode="/" horiz-adv-x="268" 
d="M-48 -1l379 682q5 8 12 8q8 0 12.5 -7t0.5 -15l-380 -682q-4 -7 -12 -7t-12 6.5t0 14.5z" />
    <glyph glyph-name="zero" unicode="0" horiz-adv-x="605" 
d="M372 677q97 0 148 -66.5t51 -184.5q0 -99 -36 -201q-34 -101 -103 -170q-67 -67 -159 -67q-97 0 -149 67t-52 185q0 100 36 200q35 100 104 169q70 68 160 68zM369 647q-77 0 -137 -63t-93 -159t-33 -188q0 -102 42.5 -160.5t126.5 -58.5q77 0 136 63q60 65 93 160
q33 96 33 188q0 103 -42 160.5t-126 57.5z" />
    <glyph glyph-name="one" unicode="1" horiz-adv-x="277" 
d="M107 17l133 604l-120 -106q-3 -3 -9 -3q-14 0 -14 14q0 7 5 10l147 128q8 5 12 5q8 0 13 -6.5t4 -15.5l-141 -636q-2 -13 -15 -13q-7 0 -12 5.5t-3 13.5z" />
    <glyph glyph-name="two" unicode="2" horiz-adv-x="557" 
d="M10 24q0 13 10 20q147 95 256 176q100 76 164 152t64 147q0 59 -45 93.5t-119 34.5q-100 0 -166 -60q-4 -4 -10 -4q-16 0 -16 15q0 6 5 11q78 68 187 68q83 0 141 -40t58 -118t-66 -159t-163 -154q-86 -66 -252 -176h357q6 0 10.5 -4.5t4.5 -10.5t-4.5 -10.5t-10.5 -4.5
h-382q-10 0 -16.5 7t-6.5 17z" />
    <glyph glyph-name="three" unicode="3" horiz-adv-x="521" 
d="M1 112q-2 6 -2 7q0 6 5 11.5t12 5.5q12 0 16 -9q23 -50 73 -79.5t114 -29.5q86 0 139.5 50.5t53.5 129.5q0 59 -47.5 95.5t-122.5 36.5h-32q-6 0 -10.5 4.5t-4.5 10.5q0 15 16 15h77q77 0 131.5 41t54.5 113q0 56 -48 94.5t-123 38.5q-91 0 -164 -66q-4 -4 -10 -4
q-7 0 -11.5 5t-4.5 11q0 7 5 12q82 72 185 72q87 0 145 -44q57 -44 57 -119q0 -76 -54.5 -124.5t-126.5 -51.5q52 -12 86 -50t34 -90q0 -87 -63 -148.5t-162 -61.5q-73 0 -134 34q-60 34 -84 90z" />
    <glyph glyph-name="four" unicode="4" horiz-adv-x="504" 
d="M459 210q0 -6 -4.5 -10.5t-10.5 -4.5h-90l-41 -184q-2 -13 -15 -13q-7 0 -12 5.5t-3 13.5l39 178h-289q-9 0 -15.5 6.5t-6.5 15.5q0 7 6 15l391 428q8 9 19 9q12 0 19.5 -9.5t5.5 -21.5l-92 -413h84q6 0 10.5 -4.5t4.5 -10.5zM48 225h280l90 406z" />
    <glyph glyph-name="five" unicode="5" horiz-adv-x="574" 
d="M53 119q0 6 5 11.5t12 5.5q9 0 15 -10q51 -108 184 -108q81 0 141.5 60t60.5 144q0 73 -48 115.5t-124 42.5q-71 0 -142 -47q-5 -3 -11 -3q-10 0 -16 7t-4 17l66 297q3 16 19 16h331q6 0 10.5 -4.5t4.5 -10.5t-4.5 -10.5t-10.5 -4.5h-321l-61 -274q60 47 146 47
q83 0 140.5 -50t57.5 -137q0 -96 -69 -165.5t-171 -69.5q-151 0 -209 124q-2 6 -2 7z" />
    <glyph glyph-name="six" unicode="6" horiz-adv-x="577" 
d="M371 677q126 0 176 -95q2 -8 2 -9q0 -16 -17 -16q-10 0 -15 9q-42 81 -148 81q-107 0 -170 -94q-63 -97 -91 -230l-3 -16q30 36 90 68q58 31 118 31q89 0 142 -45.5t53 -123.5q2 -99 -70 -175t-171 -74q-97 0 -148 61t-51 174q0 91 32 198q31 104 100 181q69 75 171 75z
M309 376q-113 0 -209 -110q-2 -26 -2 -59q0 -87 45 -138t127 -51q86 0 145.5 64.5t59.5 149.5q0 67 -45 105.5t-121 38.5z" />
    <glyph glyph-name="seven" unicode="7" horiz-adv-x="489" 
d="M81 14q0 1 2 9l417 614h-360q-6 0 -10.5 4.5t-4.5 10.5t4.5 10.5t10.5 4.5h392q7 0 10.5 -6.5t-0.5 -13.5l-432 -642q-4 -7 -14 -7q-6 0 -10.5 5t-4.5 11z" />
    <glyph glyph-name="eight" unicode="8" horiz-adv-x="561" 
d="M260 349q-57 19 -93 57t-36 89q0 84 64.5 133t150.5 49q83 0 142 -44t59 -114q0 -73 -55 -120t-148 -59q52 -19 95 -61q42 -41 42 -102q0 -79 -64.5 -134t-156.5 -55q-98 0 -157 44t-59 119q0 77 58.5 129.5t157.5 68.5zM345 646q-75 0 -128 -41.5t-53 -108.5
q0 -47 44 -85.5t98 -51.5q95 8 151 50t56 110q0 54 -49 90.5t-119 36.5zM300 330q-96 -6 -159.5 -55t-63.5 -119q0 -64 53 -102q52 -36 129 -36q76 0 133 44.5t57 115.5q0 53 -47 95.5t-102 56.5z" />
    <glyph glyph-name="nine" unicode="9" horiz-adv-x="577" 
d="M244 -11q-126 0 -176 95q-2 8 -2 9q0 16 17 16q11 0 15 -9q42 -81 148 -81q108 0 169 94q64 96 92 230l3 16q-30 -36 -90 -68q-58 -31 -118 -31q-89 0 -142 45.5t-53 123.5q-2 99 70 175t171 74q97 0 148 -61t51 -174q0 -91 -32 -199q-31 -104 -101 -180
q-68 -75 -170 -75zM306 290q113 0 209 110q2 26 2 59q0 87 -45 138t-127 51q-86 0 -145.5 -64.5t-59.5 -149.5q0 -67 45 -105.5t121 -38.5z" />
    <glyph glyph-name="colon" unicode=":" horiz-adv-x="208" 
d="M154 490q13 0 21.5 -8.5t8.5 -21.5q0 -15 -10.5 -25t-25.5 -10q-13 0 -21.5 8.5t-8.5 21.5q0 15 10.5 25t25.5 10zM58 56q13 0 21.5 -8.5t8.5 -21.5q0 -15 -10.5 -25t-25.5 -10q-13 0 -21.5 8.5t-8.5 21.5q0 15 10.5 25t25.5 10z" />
    <glyph glyph-name="semicolon" unicode=";" horiz-adv-x="208" 
d="M154 490q13 0 21.5 -8.5t8.5 -21.5q0 -15 -10.5 -25t-25.5 -10q-13 0 -21.5 8.5t-8.5 21.5q0 15 10.5 25t25.5 10zM1 -109q-13 0 -13 13q0 6 6 11q49 33 60 77h-6q-10 0 -18 8.5t-8 19.5q0 15 10.5 25.5t24.5 10.5q32 0 32 -38q0 -33 -23.5 -68t-57.5 -57q-2 -2 -7 -2z
" />
    <glyph glyph-name="less" unicode="&#x3c;" horiz-adv-x="494" 
d="M47 333q0 9 9 14l456 220q6 2 7 2q6 0 10.5 -4.5t4.5 -11.5q0 -9 -9 -13l-436 -208l340 -203q8 -6 8 -14q0 -7 -5 -11.5t-12 -4.5q-6 0 -8 2l-357 218q-8 6 -8 14z" />
    <glyph glyph-name="equal" unicode="=" horiz-adv-x="494" 
d="M69 433q0 6 4.5 10.5t10.5 4.5h409q6 0 10.5 -4.5t4.5 -10.5t-4.5 -10.5t-10.5 -4.5h-409q-6 0 -10.5 4.5t-4.5 10.5zM25 235q0 6 4.5 10.5t10.5 4.5h409q6 0 10.5 -4.5t4.5 -10.5t-4.5 -10.5t-10.5 -4.5h-409q-6 0 -10.5 4.5t-4.5 10.5z" />
    <glyph glyph-name="greater" unicode="&#x3e;" horiz-adv-x="494" 
d="M14 101q-15 0 -15 15q0 10 9 14l437 206l-341 205q-8 6 -8 14q0 7 5 11.5t12 4.5q6 0 8 -2l357 -219q8 -6 8 -14q0 -10 -9 -14l-456 -219q-6 -2 -7 -2z" />
    <glyph glyph-name="question" unicode="?" horiz-adv-x="467" 
d="M198 181q-19 28 -19 59t17 56q17 22 39.5 37.5t73.5 41.5q43 21 75 41q69 44 69 116q0 52 -42 83.5t-114 31.5q-99 0 -172 -70q-4 -4 -9 -4q-6 0 -10 4.5t-4 9.5q0 6 4 10q81 80 191 80q86 0 139 -40.5t53 -104.5q0 -45 -23 -79q-20 -31 -49 -50.5t-89 -50.5
q-66 -33 -92 -56t-26 -56q0 -21 14 -40q3 -3 3 -9q0 -16 -16 -16q-9 0 -13 6zM176 56q13 0 21.5 -8.5t8.5 -21.5q0 -15 -10.5 -25t-25.5 -10q-13 0 -21.5 8.5t-8.5 21.5q0 15 10.5 25t25.5 10z" />
    <glyph glyph-name="at" unicode="@" horiz-adv-x="783" 
d="M767 311q0 -104 -43.5 -165t-107.5 -61q-38 0 -62 25.5t-24 62.5v6q-29 -41 -75 -67.5t-96 -26.5q-68 0 -110 43t-42 115q-3 102 74 180.5t169 76.5q47 0 81 -23.5t50 -63.5l12 59q2 12 14 12q7 0 11.5 -5.5t3.5 -12.5l-59 -278q-1 -4 -1 -18q0 -26 15 -42t39 -16
q43 0 82.5 50t39.5 150q2 125 -81 211.5t-208 84.5q-93 2 -178.5 -50t-136.5 -137.5t-49 -175.5q0 -121 83 -203.5t208 -82.5q92 0 178 51q6 2 7 2q14 0 14 -14q0 -8 -6 -12q-95 -56 -197 -56q-132 -2 -225.5 91t-91.5 223q-2 103 54.5 195.5t149.5 146.5t193 52
q136 2 226.5 -94t88.5 -233zM539 223l34 157q-12 39 -44.5 66t-78.5 27q-82 2 -147 -70.5t-63 -159.5q0 -59 32 -95t87 -36q53 0 100 31t80 80z" />
    <glyph glyph-name="A" unicode="A" horiz-adv-x="636" 
d="M557 19v-3q0 -18 -17 -18q-14 0 -16 14l-32 167h-372l-110 -173q-6 -8 -14 -8q-7 0 -12 5t-5 12q0 3 3 9l403 632q7 13 23 13q10 0 17.5 -6t8.5 -16zM139 209h347l-81 421z" />
    <glyph glyph-name="B" unicode="B" horiz-adv-x="600" 
d="M38 20l140 631q3 16 19 16h221q66 0 113 -41t47 -107q0 -71 -45.5 -122.5t-110.5 -59.5q40 -11 69 -51q29 -41 29 -88q0 -83 -60 -140.5t-164 -57.5h-242q-21 0 -16 20zM412 637h-205l-62 -279h230q85 0 126 47q41 49 41 114q0 49 -38 84q-37 34 -92 34zM349 328h-211
l-66 -298h230q83 0 133 50t50 118q0 57 -37 93.5t-99 36.5z" />
    <glyph glyph-name="C" unicode="C" horiz-adv-x="667" 
d="M438 678q161 0 243 -115q3 -5 3 -10q0 -7 -5 -12.5t-13 -5.5t-14 8q-72 105 -217 105q-60 1 -118.5 -26t-105 -75t-74.5 -120t-27 -153q0 -116 70 -186t187 -70q99 0 188 68q3 3 9 3q7 0 11.5 -4.5t4.5 -10.5t-6 -12q-98 -74 -209 -74q-129 0 -210 79t-81 207
q-2 85 29.5 162t83 129.5t117.5 83t134 29.5z" />
    <glyph glyph-name="D" unicode="D" horiz-adv-x="684" 
d="M38 20l140 631q3 16 19 16h177q112 0 189 -81.5t77 -201.5q1 -72 -27 -141t-79.5 -124t-130.5 -87.5t-172 -31.5h-177q-21 0 -16 20zM606 384q0 108 -68.5 180.5t-169.5 72.5h-161l-135 -607h164q161 -3 266.5 102.5t103.5 251.5z" />
    <glyph glyph-name="E" unicode="E" horiz-adv-x="558" 
d="M38 20l140 631q3 16 19 16h375q6 0 10.5 -4.5t4.5 -10.5t-4.5 -10.5t-10.5 -4.5h-365l-62 -279h352q6 0 10.5 -4.5t4.5 -10.5t-4.5 -10.5t-10.5 -4.5h-359l-66 -298h359q6 0 10.5 -4.5t4.5 -10.5t-4.5 -10.5t-10.5 -4.5h-377q-21 0 -16 20z" />
    <glyph glyph-name="F" unicode="F" horiz-adv-x="533" 
d="M38 17l140 634q3 16 19 16h375q6 0 10.5 -4.5t4.5 -10.5t-4.5 -10.5t-10.5 -4.5h-365l-62 -279h352q6 0 10.5 -4.5t4.5 -10.5t-4.5 -10.5t-10.5 -4.5h-359l-70 -317q-2 -13 -15 -13q-7 0 -12 5.5t-3 13.5z" />
    <glyph glyph-name="G" unicode="G" horiz-adv-x="708" 
d="M685 553q0 -6 -4.5 -11t-11.5 -5q-9 0 -13 7q-72 104 -221 104q-128 3 -228 -108t-97 -266q0 -117 70.5 -186.5t186.5 -69.5q118 0 212 88l41 184h-258q-6 0 -10.5 4.5t-4.5 10.5t4.5 10.5t10.5 4.5h276q21 0 16 -20l-44 -200q-3 -11 -12 -20q-109 -92 -233 -92
q-133 0 -212 80t-79 206q-2 83 28.5 159.5t81 130t117.5 84.5t137 30q159 0 244 -117q3 -3 3 -8z" />
    <glyph glyph-name="H" unicode="H" horiz-adv-x="695" 
d="M525 17l68 311h-455l-70 -317q-2 -13 -15 -13q-7 0 -12 5.5t-3 13.5l141 639q2 13 15 13q7 0 12 -5.5t3 -13.5l-64 -292h455l66 298q2 13 15 13q7 0 12 -5.5t3 -13.5l-141 -639q-2 -13 -15 -13q-7 0 -12 5.5t-3 13.5z" />
    <glyph glyph-name="I" unicode="I" horiz-adv-x="208" 
d="M38 17l141 639q2 13 15 13q7 0 12 -5.5t3 -13.5l-141 -639q-2 -13 -15 -13q-7 0 -12 5.5t-3 13.5z" />
    <glyph glyph-name="J" unicode="J" horiz-adv-x="465" 
d="M-12 77q0 7 5 12t12 5q8 0 14 -8q45 -68 134 -68q70 0 115.5 44t63.5 123l104 471q2 13 15 13q7 0 12 -5.5t3 -13.5l-102 -465q-21 -97 -76 -147t-135 -50q-113 0 -162 80q-3 6 -3 9z" />
    <glyph glyph-name="K" unicode="K" horiz-adv-x="571" 
d="M575 642l-332 -294l227 -325q3 -3 3 -9q0 -7 -5 -11.5t-11 -4.5q-10 0 -14 7l-222 326l-102 -90l-51 -230q-2 -13 -15 -13q-7 0 -12 5.5t-3 13.5l141 639q2 13 15 13q7 0 12 -5.5t3 -13.5l-80 -363l426 378q4 4 10 4t10.5 -4.5t4.5 -11.5q0 -6 -5 -11z" />
    <glyph glyph-name="L" unicode="L" horiz-adv-x="517" 
d="M38 20l141 636q2 13 15 13q7 0 12 -5.5t3 -13.5l-137 -620h318q6 0 10.5 -4.5t4.5 -10.5t-4.5 -10.5t-10.5 -4.5h-336q-21 0 -16 20z" />
    <glyph glyph-name="M" unicode="M" horiz-adv-x="770" 
d="M600 17l135 612l-392 -627q-4 -7 -10 -7q-10 0 -13 12l-115 622l-137 -618q-2 -13 -15 -13q-7 0 -12 5.5t-3 13.5l138 628q5 24 29 24q23 0 29 -24l108 -588l373 598q9 14 24 14q14 0 23 -11t6 -25l-138 -622q-2 -13 -15 -13q-7 0 -12 5.5t-3 13.5z" />
    <glyph glyph-name="N" unicode="N" horiz-adv-x="690" 
d="M511 10l-308 609l-135 -608q-2 -13 -15 -13q-7 0 -12 5.5t-3 13.5l140 635q6 17 21 17q14 0 19 -12l309 -603l134 602q2 13 15 13q7 0 12 -5.5t3 -13.5l-140 -635q-6 -17 -21 -17q-14 0 -19 12z" />
    <glyph glyph-name="O" unicode="O" horiz-adv-x="764" 
d="M438 678q127 0 209 -76.5t82 -209.5q2 -108 -48.5 -202.5t-135 -149t-180.5 -52.5q-127 0 -209 76.5t-82 209.5q-2 108 48.5 202.5t135 149t180.5 52.5zM435 648q-130 3 -228.5 -107t-96.5 -267q0 -120 73 -188t184 -68q130 -3 229.5 107t96.5 267q0 120 -73 188t-185 68
z" />
    <glyph glyph-name="P" unicode="P" horiz-adv-x="555" 
d="M38 17l140 634q3 16 19 16h203q70 0 118 -48t48 -114q0 -89 -62.5 -152.5t-176.5 -63.5h-197l-62 -278q-2 -13 -15 -13q-7 0 -12 5.5t-3 13.5zM531 505q0 53 -39.5 92.5t-95.5 39.5h-189l-71 -318h198q93 0 145 53.5t52 132.5z" />
    <glyph glyph-name="Q" unicode="Q" horiz-adv-x="764" 
d="M574 61l39 -51q3 -5 3 -10q0 -8 -6 -13q-5 -5 -11 -5t-12 7l-41 52q-83 -53 -181 -53q-127 0 -209 76.5t-82 209.5q-2 108 48.5 202.5t135 149t180.5 52.5q127 0 209 -76.5t82 -209.5q0 -101 -41.5 -188.5t-113.5 -142.5zM527 66l-86 110q-3 5 -3 10q0 10 7 14q4 3 10 3
q7 0 12 -6l87 -112q65 52 102 132t37 175q0 120 -73 188t-185 68q-130 3 -228.5 -107t-96.5 -267q0 -120 73 -188t184 -68q87 0 160 48z" />
    <glyph glyph-name="R" unicode="R" horiz-adv-x="579" 
d="M331 288l132 -266q2 -4 2 -9q0 -6 -5.5 -10.5t-11.5 -4.5q-9 0 -15 10l-136 280h-168l-61 -277q-2 -13 -15 -13q-7 0 -12 5.5t-3 13.5l140 634q3 16 19 16h196q70 0 122 -45t52 -117q0 -95 -64 -155.5t-172 -61.5zM531 505q0 56 -41.5 94t-96.5 38h-186l-71 -319h198
q91 0 144 53.5t53 133.5z" />
    <glyph glyph-name="S" unicode="S" horiz-adv-x="575" 
d="M37 100q0 8 5.5 13t12.5 5q10 0 14 -7q76 -93 207 -93q89 0 138.5 50t49.5 116q0 38 -22 63q-19 25 -48 42t-90 43q-66 29 -93 44q-83 48 -83 126q0 72 64 124t151 52q68 0 123.5 -23.5t86.5 -65.5q3 -5 3 -11q0 -7 -5 -12.5t-13 -5.5q-10 0 -14 7q-63 81 -181 81
q-73 0 -126 -44.5t-53 -101.5q0 -32 20 -57q32 -37 133 -80q57 -24 96 -47q87 -51 87 -134q0 -79 -61.5 -137.5t-165.5 -58.5q-73 0 -136 27.5t-97 73.5q-3 5 -3 11z" />
    <glyph glyph-name="T" unicode="T" horiz-adv-x="559" 
d="M213 17l137 620h-208q-6 0 -10.5 4.5t-4.5 10.5t4.5 10.5t10.5 4.5h455q6 0 10.5 -4.5t4.5 -10.5t-4.5 -10.5t-10.5 -4.5h-215l-139 -626q-2 -13 -15 -13q-7 0 -12 5.5t-3 13.5z" />
    <glyph glyph-name="U" unicode="U" horiz-adv-x="672" 
d="M90 253l89 403q2 13 15 13q7 0 12 -5.5t3 -13.5l-87 -397q-6 -24 -6 -49q0 -85 54.5 -135.5t148.5 -50.5q98 0 153 57t82 178l89 403q2 13 15 13q7 0 12 -5.5t3 -13.5l-87 -397q-31 -137 -92.5 -201t-174.5 -64q-108 0 -171 57t-63 155q0 25 5 53z" />
    <glyph glyph-name="V" unicode="V" horiz-adv-x="636" 
d="M241 20l-123 628v4q0 17 17 17q14 0 16 -14l119 -618l395 624q6 8 14 8q16 0 16 -16q0 -4 -2 -10l-403 -632q-7 -13 -23 -13q-10 0 -17.5 6t-8.5 16z" />
    <glyph glyph-name="W" unicode="W" horiz-adv-x="852" 
d="M544 21l-38 586l-301 -596q-7 -13 -22 -13q-9 0 -15.5 6.5t-7.5 16.5l-41 630v2q0 7 5 11.5t12 4.5t12 -5t5 -11l36 -605l307 609q5 12 19 12q19 0 21 -20l37 -601l307 612q4 9 15 9q16 0 16 -15q0 -5 -2 -9l-320 -634q-7 -13 -22 -13q-9 0 -15.5 6.5t-7.5 16.5z" />
    <glyph glyph-name="X" unicode="X" horiz-adv-x="638" 
d="M664 640l-303 -300l185 -318l2 -8q0 -16 -16 -16q-8 0 -14 8l-180 315l-317 -318q-5 -5 -12 -5t-11.5 5t-4.5 12t5 12l322 318l-174 299l-2 8q0 7 4.5 12t11.5 5q10 0 15 -9l168 -295l297 299q5 5 12 5t12 -5t5 -12t-5 -12z" />
    <glyph glyph-name="Y" unicode="Y" horiz-adv-x="610" 
d="M658 641l-327 -353l-62 -277q-2 -13 -15 -13q-7 0 -12 5.5t-3 13.5l60 273l-174 355q-2 6 -2 7q0 6 5 11.5t12 5.5q9 0 15 -10l163 -338l316 342q4 6 12 6q7 0 11.5 -5t4.5 -12q0 -6 -4 -11z" />
    <glyph glyph-name="Z" unicode="Z" horiz-adv-x="578" 
d="M1 19q0 4 5 12l557 606h-406q-6 0 -10.5 4.5t-4.5 10.5t4.5 10.5t10.5 4.5h433q19 0 19 -19q0 -4 -5 -12l-558 -606h414q6 0 10.5 -4.5t4.5 -10.5t-4.5 -10.5t-10.5 -4.5h-440q-19 0 -19 19z" />
    <glyph glyph-name="bracketleft" unicode="[" horiz-adv-x="212" 
d="M-58 -170l185 832q3 16 19 16h128q6 0 10.5 -4.5t4.5 -10.5t-4.5 -10.5t-10.5 -4.5h-121l-179 -808h114q6 0 10.5 -4.5t4.5 -10.5t-4.5 -10.5t-10.5 -4.5h-130q-21 0 -16 20z" />
    <glyph glyph-name="backslash" unicode="\" horiz-adv-x="268" 
d="M100 672v2q0 5 4.5 10t10.5 5q13 0 15 -14l77 -680v-2q0 -5 -4.5 -10t-10.5 -5q-13 0 -15 14z" />
    <glyph glyph-name="bracketright" unicode="]" horiz-adv-x="212" 
d="M-77 -175q0 6 4.5 10.5t10.5 4.5h120l179 808h-114q-6 0 -10.5 4.5t-4.5 10.5t4.5 10.5t10.5 4.5h131q21 0 16 -20l-185 -832q-2 -16 -20 -16h-127q-6 0 -10.5 4.5t-4.5 10.5z" />
    <glyph glyph-name="asciicircum" unicode="^" horiz-adv-x="424" 
d="M389 342l-88 298l-224 -303q-5 -6 -11 -6t-10.5 4.5t-4.5 10.5q0 4 3 8l233 307q6 8 16 8q14 0 19 -14l96 -304l1 -5q0 -6 -4.5 -10.5t-10.5 -4.5q-12 0 -15 11z" />
    <glyph glyph-name="underscore" unicode="_" horiz-adv-x="564" 
d="M-70 -55q0 6 4.5 10.5t10.5 4.5h542q6 0 10.5 -4.5t4.5 -10.5t-4.5 -10.5t-10.5 -4.5h-542q-6 0 -10.5 4.5t-4.5 10.5z" />
    <glyph glyph-name="grave" unicode="`" horiz-adv-x="205" 
d="M242 558l-116 117q-4 4 -4 11t4.5 11.5t10.5 4.5q7 0 12 -6l110 -123q3 -3 3 -7q0 -12 -12 -12q-4 0 -8 4z" />
    <glyph glyph-name="a" unicode="a" horiz-adv-x="566" 
d="M529 467l-101 -457q-2 -12 -14 -12q-7 0 -11 5.5t-3 12.5l13 60q-71 -88 -172 -88q-86 0 -138 53.5t-52 144.5q-2 125 72 218t181 91q60 0 107.5 -27t72.5 -73l17 78q2 12 14 12q7 0 11.5 -5.5t2.5 -12.5zM423 119l55 251q-21 44 -67.5 71t-106.5 27q-62 2 -113.5 -39
t-79 -105.5t-26.5 -133.5q0 -81 43 -128t115 -47q52 0 101 29t79 75z" />
    <glyph glyph-name="b" unicode="b" horiz-adv-x="566" 
d="M514 297q2 -126 -72 -219t-181 -90q-60 0 -107.5 27t-72.5 73l-17 -78q-2 -12 -14 -12q-7 0 -11 5.5t-3 12.5l141 641q2 12 14 12q7 0 11.5 -5.5t2.5 -12.5l-53 -245q66 89 172 89q86 0 138 -53.5t52 -144.5zM480 293q0 81 -43 128t-115 47q-52 0 -101 -29t-79 -75
l-55 -251q21 -44 67.5 -71t106.5 -27q62 -2 113.5 39t79 105.5t26.5 133.5z" />
    <glyph glyph-name="c" unicode="c" horiz-adv-x="493" 
d="M315 495q107 0 160 -75q3 -6 3 -9q0 -14 -15 -14q-7 0 -12 6q-46 65 -133 65q-101 2 -168.5 -80.5t-65.5 -190.5q0 -86 49 -134t129 -48q75 0 131 56q3 4 10 4q14 0 14 -13q0 -6 -4 -10q-67 -64 -153 -64q-92 0 -150.5 56.5t-58.5 155.5q-3 118 77 207.5t187 87.5z" />
    <glyph glyph-name="d" unicode="d" horiz-adv-x="566" 
d="M570 651l-142 -641q-2 -12 -14 -12q-7 0 -11 5.5t-3 12.5l13 60q-71 -88 -172 -88q-86 0 -138 53.5t-52 144.5q-2 125 72 218t181 91q60 0 106.5 -26.5t73.5 -72.5l58 261q2 12 14 12q7 0 11.5 -5.5t2.5 -12.5zM423 119l55 251q-21 44 -67.5 71t-106.5 27
q-62 2 -113.5 -39t-79 -105.5t-26.5 -133.5q0 -81 43 -128t115 -47q52 0 101 29t79 75z" />
    <glyph glyph-name="e" unicode="e" horiz-adv-x="571" 
d="M316 495q93 0 147 -58.5t54 -148.5q0 -19 -4 -40q-3 -16 -19 -16h-407q-2 -16 -2 -32q0 -83 50.5 -134t139.5 -51q77 0 144 49q3 3 7 3q14 0 14 -13q0 -6 -6 -11q-73 -55 -159 -55q-104 0 -164 58.5t-60 153.5q-2 119 78 208t187 87zM487 285q0 84 -47 133.5t-129 49.5
q-78 0 -142.5 -62t-78.5 -147h395q2 16 2 26z" />
    <glyph glyph-name="f" unicode="f" horiz-adv-x="246" 
d="M367 653q0 -8 -6.5 -12t-13.5 0q-19 9 -46 9q-43 0 -68.5 -28.5t-38.5 -87.5l-11 -51h83q13 0 13 -14q0 -13 -13 -13h-89l-99 -446q-2 -12 -14 -12q-7 0 -11 5.5t-3 12.5l97 440h-65q-13 0 -13 13q0 14 13 14h71l11 51q32 143 140 143q32 0 56 -12q7 -3 7 -12z" />
    <glyph glyph-name="g" unicode="g" horiz-adv-x="566" 
d="M529 467l-104 -470q-43 -193 -213 -193q-132 0 -192 69q-4 5 -4 11q0 7 5 12t12 5q9 0 13 -6q52 -64 166 -64q69 0 117 41t66 125l17 80q-66 -89 -178 -89q-83 0 -133.5 53.5t-50.5 149.5q-2 121 71 214t181 90q52 0 102.5 -28t78.5 -71l18 77q2 12 14 12q7 0 11.5 -5.5
t2.5 -12.5zM420 111l58 259q-23 44 -72.5 71t-106.5 27q-61 2 -112.5 -40t-78 -105.5t-25.5 -130.5q0 -83 42.5 -130t114.5 -47q48 0 97 27t83 69z" />
    <glyph glyph-name="h" unicode="h" 
d="M362 16l71 323q6 27 6 37q0 46 -30.5 69t-84.5 23q-44 0 -92.5 -26.5t-86.5 -67.5l-81 -364q-2 -12 -14 -12q-7 0 -11 5.5t-3 12.5l141 641q2 12 14 12q7 0 11.5 -5.5t2.5 -12.5l-53 -244q88 88 178 88q64 0 101 -30t37 -86q0 -23 -6 -42l-72 -327q-2 -12 -14 -12
q-7 0 -11 5.5t-3 12.5z" />
    <glyph glyph-name="i" unicode="i" horiz-adv-x="202" 
d="M186 644q11 0 19 -7.5t8 -18.5q0 -14 -10 -23t-23 -9q-11 0 -19 7.5t-8 18.5q0 14 10 23t23 9zM36 16l101 457q2 12 14 12q7 0 11.5 -5.5t2.5 -12.5l-101 -457q-2 -12 -14 -12q-7 0 -11 5.5t-3 12.5z" />
    <glyph glyph-name="j" unicode="j" horiz-adv-x="202" 
d="M153 612q0 14 10 23t23 9q11 0 19 -7.5t8 -18.5q0 -14 -10 -23t-23 -9q-11 0 -19 7.5t-8 18.5zM-134 -176q0 8 6 12t13 1q15 -6 35 -6q74 0 95 93l122 549q2 12 14 12q7 0 11.5 -5.5t2.5 -12.5l-120 -543q-27 -120 -125 -120q-27 0 -45 7q-9 5 -9 13z" />
    <glyph glyph-name="k" unicode="k" horiz-adv-x="496" 
d="M497 460l-254 -195l159 -243q3 -6 3 -10q0 -6 -5 -10t-11 -4q-8 0 -12 7l-158 241l-124 -95l-31 -141q-2 -12 -14 -12q-7 0 -11 5.5t-3 12.5l141 641q2 12 14 12q7 0 11.5 -5.5t2.5 -12.5l-101 -459l375 290q3 3 9 3t10 -4.5t4 -9.5q0 -6 -5 -11z" />
    <glyph glyph-name="l" unicode="l" horiz-adv-x="202" 
d="M36 16l141 641q2 12 14 12q7 0 11.5 -5.5t2.5 -12.5l-141 -641q-2 -12 -14 -12q-7 0 -11 5.5t-3 12.5z" />
    <glyph glyph-name="m" unicode="m" horiz-adv-x="770" 
d="M708 378q0 -24 -4 -41l-72 -327q-2 -12 -14 -12q-7 0 -11 5.5t-3 12.5l73 332q4 12 4 30q0 40 -26.5 65t-67.5 25q-38 0 -81 -26t-77 -67l-81 -365q-2 -12 -14 -12q-7 0 -11 5.5t-3 12.5l73 332q3 18 3 32q0 43 -24.5 65.5t-69.5 22.5q-75 0 -157 -93l-81 -365
q-2 -12 -14 -12q-7 0 -11 5.5t-3 12.5l101 457q2 12 14 12q7 0 11.5 -5.5t2.5 -12.5l-13 -60q30 37 71.5 62.5t84.5 25.5q52 0 85 -30.5t33 -66.5v-2q35 44 79 71.5t88 27.5q54 0 84.5 -31.5t30.5 -85.5z" />
    <glyph glyph-name="n" unicode="n" 
d="M467 379q0 -14 -5 -42l-72 -327q-2 -12 -14 -12q-7 0 -11 5.5t-3 12.5l71 322q5 28 5 41q0 89 -114 89q-44 0 -92.5 -26t-86.5 -67l-81 -365q-2 -12 -14 -12q-7 0 -11 5.5t-3 12.5l101 457q2 12 14 12q7 0 11.5 -5.5t2.5 -12.5l-13 -60q92 88 178 88q65 0 101 -30.5
t36 -85.5z" />
    <glyph glyph-name="o" unicode="o" horiz-adv-x="570" 
d="M312 495q93 0 149 -57t56 -153q2 -116 -76.5 -208t-184.5 -89q-93 0 -149 57t-56 153q-2 116 76.5 208t184.5 89zM312 468q-93 2 -161 -82t-66 -188q0 -84 45.5 -133.5t125.5 -49.5q93 -2 161 82t66 188q0 84 -45.5 133.5t-125.5 49.5z" />
    <glyph glyph-name="p" unicode="p" horiz-adv-x="562" 
d="M514 297q2 -126 -72 -219t-181 -90q-60 0 -106.5 26.5t-73.5 72.5l-58 -261q-2 -12 -14 -12q-7 0 -11.5 5.5t-2.5 12.5l142 641q2 12 14 12q7 0 11.5 -5.5t2.5 -12.5l-13 -60q71 88 172 88q86 0 138 -53.5t52 -144.5zM480 293q0 81 -43 128t-115 47q-52 0 -101 -29
t-79 -75l-55 -251q21 -44 67.5 -71t106.5 -27q62 -2 113.5 39t79 105.5t26.5 133.5z" />
    <glyph glyph-name="q" unicode="q" horiz-adv-x="562" 
d="M529 467l-142 -641q-2 -12 -14 -12q-7 0 -11 5.5t-3 12.5l54 245q-66 -89 -172 -89q-86 0 -138 53.5t-52 144.5q-2 125 72 218t181 91q60 0 107.5 -27t72.5 -73l17 78q2 12 14 12q7 0 11.5 -5.5t2.5 -12.5zM423 119l55 251q-21 44 -67.5 71t-106.5 27q-62 2 -113.5 -39
t-79 -105.5t-26.5 -133.5q0 -81 43 -128t115 -47q52 0 101 29t79 75z" />
    <glyph glyph-name="r" unicode="r" horiz-adv-x="304" 
d="M334 475q0 -7 -5 -12t-12 -5l-19 1q-43 0 -86 -28t-70 -69l-78 -352q-2 -12 -14 -12q-7 0 -11 5.5t-3 12.5l101 457q2 12 14 12q7 0 11.5 -5.5t2.5 -12.5l-14 -65q77 89 161 89q22 0 22 -16z" />
    <glyph glyph-name="s" unicode="s" horiz-adv-x="454" 
d="M18 70q0 6 4.5 10.5t10.5 4.5t12 -6q22 -29 62 -46.5t87 -17.5q64 0 105 34t41 81q0 35 -27.5 56.5t-96.5 51.5q-31 13 -73 34q-65 36 -65 92q0 54 46.5 92.5t122.5 38.5q53 0 96 -18.5t65 -49.5q3 -3 3 -9t-4.5 -10.5t-10.5 -4.5q-8 0 -12 6q-20 26 -59 42.5t-82 16.5
q-59 0 -96.5 -28.5t-37.5 -71.5q0 -32 26.5 -52.5t92.5 -47.5q45 -18 75 -35q68 -37 68 -98q0 -60 -47.5 -103.5t-126.5 -43.5q-118 0 -176 73q-3 3 -3 9z" />
    <glyph glyph-name="t" unicode="t" horiz-adv-x="256" 
d="M271 469q0 -13 -13 -13h-90l-82 -371q-3 -14 -3 -25q0 -45 51 -45q22 0 45 13q2 0 5 1l2 1q6 0 11 -6q2 -6 2 -7q0 -7 -6 -11q-25 -18 -58 -18q-83 0 -83 68q0 9 4 29l83 371h-65q-13 0 -13 14q0 13 13 13h71l27 122q3 12 14 12q7 0 11.5 -5.5t2.5 -12.5l-26 -116h84
q13 0 13 -14z" />
    <glyph glyph-name="u" unicode="u" 
d="M491 467l-101 -457q-2 -12 -14 -12q-7 0 -11 5.5t-3 12.5l13 60q-92 -88 -178 -88q-65 0 -101 30.5t-36 85.5q0 14 5 42l72 327q2 12 14 12q7 0 11.5 -5.5t2.5 -12.5l-71 -322q-5 -28 -5 -41q0 -89 114 -89q44 0 92.5 26t86.5 67l81 365q2 12 14 12q7 0 11.5 -5.5
t2.5 -12.5z" />
    <glyph glyph-name="v" unicode="v" horiz-adv-x="471" 
d="M501 469l-2 -8l-294 -451q-7 -12 -21 -12q-9 0 -16 5.5t-8 14.5l-92 447v3q0 6 4.5 11.5t10.5 5.5q14 0 16 -13l88 -437l286 443q4 7 13 7q6 0 10.5 -4.5t4.5 -11.5z" />
    <glyph glyph-name="w" unicode="w" horiz-adv-x="704" 
d="M443 12l-48 426l-240 -432q-5 -8 -13 -8q-13 0 -15 14l-50 456v2q0 5 4.5 10t10.5 5q13 0 15 -14l42 -424l239 430q5 8 13 8q13 0 15 -14l47 -424l234 430q5 8 13 8q15 0 15 -15l-2 -8l-252 -456q-5 -8 -13 -8q-13 0 -15 14z" />
    <glyph glyph-name="x" unicode="x" horiz-adv-x="472" 
d="M468 460l-215 -212l131 -226l2 -8q0 -16 -16 -16q-8 0 -13 8l-122 222l-222 -225q-5 -5 -11 -5t-10.5 4.5t-4.5 10.5t5 11l227 224l-121 213q-2 8 -2 9q0 15 16 15q11 0 14 -8l112 -208l209 211q5 5 11 5t10.5 -4.5t4.5 -10.5q0 -5 -5 -10z" />
    <glyph glyph-name="y" unicode="y" horiz-adv-x="471" 
d="M-20 -159q18 -5 34 -5q41 0 81 61l66 100l-93 468v3q0 6 4.5 11.5t10.5 5.5q14 0 16 -13l88 -437l286 443q4 7 13 7q6 0 10.5 -4.5t4.5 -11.5l-2 -8l-375 -575q-54 -82 -120 -82q-13 0 -33 4q-12 2 -12 16q0 8 7 13.5t14 3.5z" />
    <glyph glyph-name="z" unicode="z" horiz-adv-x="466" 
d="M8 17q0 7 4 11l398 428h-288q-13 0 -13 13q0 14 13 14h314q7 0 12 -5t5 -12q0 -3 -5 -11l-400 -428h294q5 0 9.5 -4t4.5 -10q0 -5 -4.5 -9t-9.5 -4h-318q-7 0 -11.5 5t-4.5 12z" />
    <glyph glyph-name="braceleft" unicode="{" horiz-adv-x="237" 
d="M-16 -102q0 14 3 25l52 234q2 16 2 17q0 41 -26 52q-10 4 -10 17q0 15 15 17q44 7 58 71l52 234q13 54 45.5 83.5t78.5 29.5h45q6 0 10.5 -4.5t4.5 -10.5t-4.5 -10.5t-10.5 -4.5h-52q-33 0 -56 -22t-31 -61l-53 -237q-15 -68 -64 -87q29 -14 29 -53q0 -19 -4 -34
l-51 -231q-2 -16 -2 -22q0 -26 17 -43.5t42 -17.5h39q6 0 10.5 -4.5t4.5 -10.5t-4.5 -10.5t-10.5 -4.5h-40q-36 0 -62.5 25t-26.5 63z" />
    <glyph glyph-name="bar" unicode="|" horiz-adv-x="206" 
d="M108 -7v681q0 6 4.5 10.5t10.5 4.5t10.5 -4.5t4.5 -10.5v-681q0 -6 -4.5 -10.5t-10.5 -4.5t-10.5 4.5t-4.5 10.5z" />
    <glyph glyph-name="braceright" unicode="}" horiz-adv-x="237" 
d="M252 590q0 -14 -3 -25l-52 -234q-2 -16 -2 -17q0 -41 26 -52q10 -4 10 -17q0 -15 -15 -17q-44 -7 -58 -71l-52 -234q-13 -54 -45.5 -83.5t-78.5 -29.5h-45q-6 0 -10.5 4.5t-4.5 10.5t4.5 10.5t10.5 4.5h52q33 0 56 22t31 61l53 237q15 68 64 87q-29 14 -29 53q0 19 4 34
l51 231q2 16 2 22q0 26 -17 43.5t-42 17.5h-39q-6 0 -10.5 4.5t-4.5 10.5t4.5 10.5t10.5 4.5h40q36 0 62.5 -25t26.5 -63z" />
    <glyph glyph-name="asciitilde" unicode="~" horiz-adv-x="496" 
d="M557 649q-55 -216 -166 -216q-25 2 -40.5 9t-25 24t-13.5 31.5t-11 46.5q-9 51 -21.5 71t-42.5 20q-85 0 -135 -193q-3 -11 -14 -11q-7 0 -11.5 6t-2.5 13q55 215 165 215q25 -2 40.5 -9t25 -24t13.5 -31.5t11 -46.5q9 -51 21.5 -71.5t42.5 -20.5q85 0 135 194
q3 11 15 11q7 0 11.5 -5.5t2.5 -12.5z" />
    <glyph glyph-name="uni00A0" unicode="&#xa0;" horiz-adv-x="260" 
 />
    <glyph glyph-name="exclamdown" unicode="&#xa1;" horiz-adv-x="208" 
d="M148 427q-13 0 -21.5 8.5t-8.5 21.5q0 15 10.5 25t25.5 10q13 0 21.5 -8.5t8.5 -21.5q0 -15 -10.5 -25t-25.5 -10zM129 312l-96 -482q-2 -16 -20 -16q-10 0 -15.5 8t-3.5 17l116 477q2 8 9 8q12 0 10 -12z" />
    <glyph glyph-name="cent" unicode="&#xa2;" horiz-adv-x="493" 
d="M478 411q0 -14 -15 -14q-7 0 -12 6q-40 57 -111 64l-99 -451q5 -1 21 -1q75 0 131 56q3 4 10 4q14 0 14 -13q0 -6 -4 -10q-67 -64 -153 -64q-20 0 -25 1l-18 -79q-2 -12 -14 -12q-7 0 -11 5.5t-3 12.5l17 78q-72 15 -113.5 68.5t-41.5 137.5q-3 118 77 207.5t187 87.5h3
l13 60q2 12 14 12q7 0 11.5 -5.5t2.5 -12.5l-13 -56q86 -9 129 -73q3 -6 3 -9zM212 20l100 448q-100 -1 -165 -83t-63 -188q0 -71 34 -117t94 -60z" />
    <glyph glyph-name="sterling" unicode="&#xa3;" horiz-adv-x="491" 
d="M503 577q0 -6 -4.5 -11.5t-10.5 -5.5q-9 0 -14 9q-16 34 -56.5 56t-90.5 22q-79 0 -136 -51t-57 -132q0 -31 10 -55.5t35 -62.5q17 -24 29 -49h132q6 0 10.5 -4.5t4.5 -10.5t-4.5 -10.5t-10.5 -4.5h-121q4 -12 4 -33q0 -52 -37 -99q-38 -48 -86 -79q27 8 49 8
q33 0 92 -25q49 -23 82 -23q44 0 88 32q3 3 8 3q14 0 14 -14q0 -6 -5 -11q-55 -40 -105 -40q-45 0 -98 24q-54 24 -102 24q-40 0 -102 -32q-1 -1 -7 -1t-10.5 4.5t-4.5 10.5q0 10 9 14q80 33 132 90q53 59 53 115q0 15 -4 32h-150q-6 0 -10.5 4.5t-4.5 10.5t4.5 10.5
t10.5 4.5h138q-4 8 -28 45q-27 40 -38 64.5t-11 56.5q0 86 66.5 150t160.5 64q57 0 106 -27q49 -25 69 -67q1 -1 1 -6z" />
    <glyph glyph-name="currency" unicode="&#xa4;" horiz-adv-x="577" 
d="M607 553l-94 -77q30 -47 30 -110q0 -119 -84 -197l49 -60q3 -3 3 -10q0 -6 -4.5 -10.5t-10.5 -4.5t-12 6l-47 60q-64 -49 -146 -49q-102 0 -160 63l-92 -74q-4 -4 -10 -4q-7 0 -11.5 5t-4.5 11q0 7 6 13l93 75q-30 46 -30 109q0 119 85 198l-51 63q-3 3 -3 10
q0 6 4.5 10.5t10.5 4.5t12 -6l50 -62q65 47 144 47q102 0 160 -63l93 77q3 3 10 3q16 0 16 -16q0 -6 -6 -12zM509 361q0 77 -46.5 124.5t-130.5 47.5q-91 0 -153.5 -69t-62.5 -161q0 -75 47 -123t130 -48q91 0 153.5 68.5t62.5 160.5z" />
    <glyph glyph-name="yen" unicode="&#xa5;" horiz-adv-x="610" 
d="M666 652q0 -6 -4 -11l-299 -322h225q6 0 10.5 -4.5t4.5 -10.5t-4.5 -10.5t-10.5 -4.5h-253l-29 -130h247q6 0 10.5 -4.5t4.5 -10.5t-4.5 -10.5t-10.5 -4.5h-253l-27 -119q-2 -12 -15 -12q-7 0 -12 5.5t-3 13.5l25 112h-256q-6 0 -10.5 4.5t-4.5 10.5t4.5 10.5t10.5 4.5
h262l29 130h-255q-6 0 -10.5 4.5t-4.5 10.5t4.5 10.5t10.5 4.5h240l-159 326q-2 6 -2 7q0 6 5 11.5t12 5.5q9 0 15 -10l163 -338l316 342q4 6 12 6q7 0 11.5 -5t4.5 -12z" />
    <glyph glyph-name="brokenbar" unicode="&#xa6;" horiz-adv-x="206" 
d="M108 384v290q0 6 4.5 10.5t10.5 4.5t10.5 -4.5t4.5 -10.5v-290q0 -6 -4.5 -10.5t-10.5 -4.5t-10.5 4.5t-4.5 10.5zM108 -7v290q0 6 4.5 10.5t10.5 4.5t10.5 -4.5t4.5 -10.5v-290q0 -6 -4.5 -10.5t-10.5 -4.5t-10.5 4.5t-4.5 10.5z" />
    <glyph glyph-name="section" unicode="&#xa7;" horiz-adv-x="454" 
d="M355 67q0 -59 -47.5 -103.5t-124.5 -44.5q-119 0 -183 66q-4 4 -4 12q0 16 16 16q7 0 13 -6q50 -61 156 -61q62 0 102 33.5t40 84.5q-4 38 -28 56.5t-92 46.5q-35 14 -74 32q-65 36 -65 97q0 50 42 89t118 47q-53 19 -79.5 44.5t-26.5 65.5q0 53 45 94t119 41
q112 0 170 -64q5 -5 5 -10q0 -6 -4.5 -10.5t-11.5 -4.5q-6 0 -11 5q-51 57 -146 57q-58 0 -97 -29.5t-39 -72.5q2 -21 9 -35.5t25 -26.5t34.5 -19.5t52.5 -21.5q43 -17 74 -33q67 -34 67 -100q0 -49 -33.5 -87t-98.5 -55q43 -23 60 -46t17 -57zM94 300q3 -43 32.5 -63
t119.5 -54q66 18 99.5 52t33.5 73q0 37 -28 61.5t-87 46.5q-82 -11 -126 -42.5t-44 -73.5z" />
    <glyph glyph-name="dieresis" unicode="&#xa8;" horiz-adv-x="404" 
d="M152 595q0 13 9 22t22 9q10 0 17.5 -7t7.5 -18q0 -13 -9 -22t-22 -9q-11 0 -18 7.5t-7 17.5zM354 595q0 13 9 22t22 9q10 0 17.5 -7t7.5 -18q0 -13 -9 -22t-22 -9q-11 0 -18 7.5t-7 17.5z" />
    <glyph glyph-name="copyright" unicode="&#xa9;" horiz-adv-x="778" 
d="M64 334q-3 139 101.5 243t242.5 102q140 2 244.5 -102t101.5 -243q3 -139 -101.5 -243.5t-244.5 -101.5q-138 -3 -242.5 101.5t-101.5 243.5zM728 334q3 129 -93.5 225t-226.5 94q-128 2 -224.5 -94t-93.5 -225q-3 -128 93.5 -225t224.5 -94q130 -3 226.5 94t93.5 225z
M196 307q-3 97 72 171t165 72q98 0 146 -69q3 -6 3 -9q0 -14 -15 -14q-9 0 -12 6q-38 59 -122 59q-77 2 -143.5 -63.5t-64.5 -152.5q0 -68 46 -114.5t117 -46.5q60 0 106 38q3 3 9 3q13 0 13 -13q0 -6 -5 -11q-59 -44 -123 -44q-87 0 -139.5 53.5t-52.5 134.5z" />
    <glyph glyph-name="ordfeminine" unicode="&#xaa;" horiz-adv-x="408" 
d="M423 625l-65 -290q-2 -11 -13 -11q-6 0 -10.5 5.5t-3.5 11.5l9 39q-50 -62 -118 -62q-56 0 -91.5 36t-35.5 100q0 77 49.5 135.5t121.5 58.5q82 0 121 -60l9 43q2 11 13 11q7 0 11.5 -5.5t2.5 -11.5zM346 405l36 161q-13 26 -45 42t-71 16q-58 0 -99.5 -51t-41.5 -119
q0 -53 28 -82.5t74 -29.5q67 0 119 63z" />
    <glyph glyph-name="guillemotleft" unicode="&#xab;" horiz-adv-x="364" 
d="M146 68l-108 161q-4 7 -4 11q0 6 8 14l185 164q4 4 9 4q6 0 10.5 -4.5t4.5 -10.5q0 -7 -5 -10l-178 -159l102 -154q3 -4 3 -9q0 -14 -15 -14q-8 0 -12 7zM251 68l-108 161q-4 7 -4 11q0 6 8 14l185 164q4 4 9 4q6 0 10.5 -4.5t4.5 -10.5q0 -7 -5 -10l-178 -159l102 -154
q3 -4 3 -9q0 -14 -15 -14q-8 0 -12 7z" />
    <glyph glyph-name="logicalnot" unicode="&#xac;" horiz-adv-x="494" 
d="M446 218q-7 0 -12 5.5t-3 13.5l40 181h-387q-6 0 -10.5 4.5t-4.5 10.5t4.5 10.5t10.5 4.5h406q21 0 16 -20l-45 -197q-2 -13 -15 -13z" />
    <glyph glyph-name="uni00AD" unicode="&#xad;" horiz-adv-x="300" 
d="M28 242q0 6 4.5 10.5t10.5 4.5h212q6 0 10.5 -4.5t4.5 -10.5t-4.5 -10.5t-10.5 -4.5h-212q-6 0 -10.5 4.5t-4.5 10.5z" />
    <glyph glyph-name="registered" unicode="&#xae;" horiz-adv-x="494" 
d="M84 465q0 88 62 150t150 62t150 -62t62 -150t-62.5 -150t-150.5 -62q-87 0 -149 62t-62 150zM482 465q0 77 -55 131.5t-132 54.5t-131 -54.5t-54 -131.5q0 -76 54.5 -131t130.5 -55q77 0 132 55t55 131zM327 351l-39 88h-49l-19 -87q-2 -11 -14 -11q-7 0 -11 5t-3 12
l47 212q3 16 19 16h75q28 0 48 -17.5t20 -46.5q0 -34 -25 -58t-55 -24l35 -76q1 -1 1 -6q0 -7 -4.5 -12t-11.5 -5q-12 0 -14 10zM329 559h-64l-20 -92h70q22 0 38.5 15t16.5 36q0 18 -11.5 29.5t-29.5 11.5z" />
    <glyph glyph-name="overscore" unicode="&#xaf;" horiz-adv-x="363" 
d="M117 594q0 14 13 14h259q13 0 13 -13q0 -14 -13 -14h-259q-13 0 -13 13z" />
    <glyph glyph-name="degree" unicode="&#xb0;" horiz-adv-x="273" 
d="M97 566q0 46 32 78.5t78 32.5t78.5 -32.5t32.5 -78.5t-32.5 -78t-78.5 -32t-78 32t-32 78zM127 566q0 -33 23 -56.5t56 -23.5t57.5 23.5t24.5 56.5t-24 57t-57 24t-56.5 -24t-23.5 -57z" />
    <glyph glyph-name="plusminus" unicode="&#xb1;" horiz-adv-x="494" 
d="M280 322l-47 -211q-2 -13 -15 -13q-7 0 -12 5.5t-3 13.5l45 205h-185q-6 0 -10.5 4.5t-4.5 10.5t4.5 10.5t10.5 4.5h192l45 205q2 13 15 13q7 0 12 -5.5t3 -13.5l-43 -199h185q6 0 10.5 -4.5t4.5 -10.5t-4.5 -10.5t-10.5 -4.5h-192zM-23 15q0 6 4.5 10.5t10.5 4.5h408
q6 0 10.5 -4.5t4.5 -10.5t-4.5 -10.5t-10.5 -4.5h-408q-6 0 -10.5 4.5t-4.5 10.5z" />
    <glyph glyph-name="uni00B2" unicode="&#xb2;" horiz-adv-x="340" 
d="M65 438q0 10 9 15q113 69 159 101q136 95 136 171q0 35 -28.5 55.5t-70.5 20.5q-62 0 -105 -40q-3 -3 -9 -3q-13 0 -13 12q0 6 4 10q50 47 123 47q51 0 89 -25q40 -24 40 -77q0 -47 -39 -94q-39 -46 -94 -85q-63 -44 -152 -99h211q13 0 13 -13t-13 -13h-242q-7 0 -12.5 5
t-5.5 12z" />
    <glyph glyph-name="uni00B3" unicode="&#xb3;" horiz-adv-x="360" 
d="M95 475q-3 6 -3 8q0 6 4.5 10t9.5 4q8 0 11 -5q40 -52 115 -52q47 0 77 29t30 72q0 32 -30.5 53t-77.5 21h-12q-13 0 -13 13t13 13q42 -2 48 -2q49 0 79 23.5t30 62.5q0 33 -30 54.5t-74 21.5q-55 0 -102 -40q-3 -3 -9 -3q-12 0 -12 13q0 6 4 10q56 46 119 46
q57 0 95 -26t38 -72t-31 -74t-81 -32q31 -6 54 -30t23 -56q0 -48 -39 -85.5t-99 -37.5q-94 0 -137 61z" />
    <glyph glyph-name="acute" unicode="&#xb4;" horiz-adv-x="205" 
d="M93 554q-9 0 -9 9q0 6 5 9l165 126q4 3 9 3q6 0 10 -4.5t4 -9.5q0 -9 -7 -13l-167 -116q-4 -4 -10 -4z" />
    <glyph glyph-name="uni00B5" unicode="&#xb5;" horiz-adv-x="542" 
d="M8 -186q-7 0 -11 5.5t-3 12.5l145 641q2 12 14 12q7 0 11.5 -5.5t2.5 -12.5l-72 -322q-5 -25 -5 -39q0 -46 27.5 -69.5t74.5 -23.5q46 0 100 26q56 28 89 64l82 370q2 12 14 12q7 0 11.5 -5.5t2.5 -12.5l-84 -382q-3 -15 -3 -27q0 -43 39 -43h7q14 0 14 -13
q0 -11 -12 -13q-3 -1 -15 -1q-64 0 -64 62q0 2 2 24q-43 -38 -94 -62t-95 -24q-83 0 -112 65l-52 -227q-2 -12 -14 -12z" />
    <glyph glyph-name="paragraph" unicode="&#xb6;" horiz-adv-x="449" 
d="M254 -84l160 721h-98l-162 -727q-2 -12 -14 -12q-7 0 -11 5.5t-3 12.5l90 407q-57 0 -97 44.5t-40 111.5q0 73 57 130.5t137 57.5h157q21 0 16 -20l-164 -737q-2 -12 -14 -12q-7 0 -11 5.5t-3 12.5z" />
    <glyph glyph-name="middot" unicode="&#xb7;" horiz-adv-x="208" 
d="M107 277q13 0 21.5 -8.5t8.5 -21.5q0 -15 -10.5 -25t-25.5 -10q-13 0 -21.5 8.5t-8.5 21.5q0 15 10.5 25t25.5 10z" />
    <glyph glyph-name="cedilla" unicode="&#xb8;" horiz-adv-x="191" 
d="M-84 -148q0 7 4.5 11.5t10.5 4.5t10 -4q30 -24 72 -24q34 0 52.5 15.5t18.5 40.5q0 36 -43 36q-21 0 -34 -13q-4 -4 -9 -4q-13 0 -13 13q0 1 2 7l45 76h30l-41 -69q15 12 35 12q27 0 42 -14.5t15 -41.5q0 -37 -28 -61t-75 -24q-54 0 -88 27q-6 4 -6 12z" />
    <glyph glyph-name="uni00B9" unicode="&#xb9;" horiz-adv-x="192" 
d="M145 437l74 340l-67 -58q-3 -3 -8 -3q-13 0 -13 13q0 6 4 10l95 80q4 4 10 4q7 0 12 -5.5t3 -13.5l-82 -373q-2 -12 -14 -12q-7 0 -11 5.5t-3 12.5z" />
    <glyph glyph-name="ordmasculine" unicode="&#xba;" horiz-adv-x="405" 
d="M273 648q63 0 101.5 -38.5t38.5 -101.5q0 -77 -51.5 -133.5t-124.5 -56.5q-63 0 -101.5 38.5t-38.5 101.5q0 77 51.5 133.5t124.5 56.5zM273 621q-63 0 -104.5 -48t-41.5 -115q0 -50 30.5 -82t79.5 -32q62 0 104.5 48.5t42.5 115.5q0 50 -31 81.5t-80 31.5z" />
    <glyph glyph-name="guillemotright" unicode="&#xbb;" horiz-adv-x="364" 
d="M115 415l108 -161q4 -7 4 -11q0 -6 -8 -14l-185 -164q-4 -4 -9 -4q-6 0 -10.5 4.5t-4.5 10.5q0 7 5 10l178 159l-102 154q-3 5 -3 9q0 14 15 14q9 0 12 -7zM220 415l108 -161q4 -7 4 -11q0 -6 -8 -14l-185 -164q-4 -4 -9 -4q-6 0 -10.5 4.5t-4.5 10.5q0 7 5 10l178 159
l-102 154q-3 5 -3 9q0 14 15 14q9 0 12 -7z" />
    <glyph glyph-name="onequarter" unicode="&#xbc;" horiz-adv-x="653" 
d="M111 283l74 340l-67 -58q-3 -3 -8 -3q-13 0 -13 13q0 6 4 10l95 80q4 4 10 4q7 0 12 -5.5t3 -13.5l-82 -373q-2 -12 -14 -12q-7 0 -11 5.5t-3 12.5zM45 -2q-13 0 -13 14q0 4 3 9l552 643q3 5 11 5q6 0 10 -4.5t4 -9.5t-3 -9l-553 -643q-3 -5 -11 -5zM612 126
q0 -13 -13 -13h-53l-23 -104q-2 -11 -14 -11q-6 0 -10.5 5.5t-3.5 12.5l22 97h-178q-6 0 -11 4.5t-5 11.5q0 6 4 11l238 255q6 7 16 7q11 0 17.5 -8.5t4.5 -19.5l-52 -235h48q13 0 13 -13zM522 139l51 228l-215 -228h164z" />
    <glyph glyph-name="onehalf" unicode="&#xbd;" horiz-adv-x="703" 
d="M111 283l74 340l-67 -58q-3 -3 -8 -3q-13 0 -13 13q0 6 4 10l95 80q4 4 10 4q7 0 12 -5.5t3 -13.5l-82 -373q-2 -12 -14 -12q-7 0 -11 5.5t-3 12.5zM45 -2q-13 0 -13 14q0 4 3 9l552 643q3 5 11 5q6 0 10 -4.5t4 -9.5t-3 -9l-553 -643q-3 -5 -11 -5zM335 17q0 11 9 15
q113 69 159 101q136 95 136 171q0 35 -28.5 55.5t-70.5 20.5q-62 0 -105 -40q-3 -3 -9 -3q-13 0 -13 12q0 6 4 10q50 47 123 47q51 0 89 -25q40 -24 40 -77q0 -48 -39 -94t-94 -85q-63 -44 -152 -99h211q13 0 13 -13t-13 -13h-242q-7 0 -12.5 5t-5.5 12z" />
    <glyph glyph-name="threequarters" unicode="&#xbe;" horiz-adv-x="771" 
d="M61 321q-3 6 -3 8q0 6 4.5 10t9.5 4q8 0 11 -5q40 -52 115 -52q47 0 77 29t30 72q0 32 -30.5 53t-77.5 21h-12q-13 0 -13 13t13 13q42 -2 48 -2q49 0 79 23.5t30 62.5q0 33 -30 54.5t-74 21.5q-55 0 -102 -40q-3 -3 -9 -3q-12 0 -12 13q0 6 4 10q56 46 119 46
q57 0 95 -26t38 -72t-31 -74t-81 -32q31 -6 54 -30t23 -56q0 -48 -39 -85.5t-99 -37.5q-94 0 -137 61zM163 -2q-13 0 -13 14q0 4 3 9l552 643q3 5 11 5q6 0 10 -4.5t4 -9.5t-3 -9l-553 -643q-3 -5 -11 -5zM730 126q0 -13 -13 -13h-53l-23 -104q-2 -11 -14 -11
q-6 0 -10.5 5.5t-3.5 12.5l22 97h-178q-6 0 -11 4.5t-5 11.5q0 6 4 11l238 255q6 7 16 7q11 0 17.5 -8.5t4.5 -19.5l-52 -235h48q13 0 13 -13zM640 139l51 228l-215 -228h164z" />
    <glyph glyph-name="questiondown" unicode="&#xbf;" horiz-adv-x="391" 
d="M289 427q-13 0 -21.5 8.5t-8.5 21.5q0 15 10.5 25t25.5 10q13 0 21.5 -8.5t8.5 -21.5q0 -15 -10.5 -25t-25.5 -10zM267 302q19 -28 19 -59q0 -32 -18 -56q-16 -22 -38.5 -37.5t-73.5 -41.5q-50 -24 -76 -42q-68 -44 -68 -115q0 -52 42 -83.5t114 -31.5q99 0 172 70
q4 4 9 4q6 0 10 -4.5t4 -9.5q0 -6 -4 -10q-81 -80 -191 -80q-86 0 -139 40.5t-53 104.5q0 45 23 79q20 31 49 50.5t89 50.5q66 32 92 55.5t26 56.5q0 21 -14 40q-3 3 -3 9q0 16 16 16q8 0 13 -6z" />
    <glyph glyph-name="Agrave" unicode="&#xc0;" horiz-adv-x="636" 
d="M557 19v-3q0 -18 -17 -18q-14 0 -16 14l-32 167h-372l-110 -173q-6 -8 -14 -8q-7 0 -12 5t-5 12q0 3 3 9l403 632q7 13 23 13q10 0 17.5 -6t8.5 -16zM139 209h347l-81 421zM408 725l-116 117q-4 4 -4 11t4.5 11.5t10.5 4.5q7 0 12 -6l110 -123q3 -3 3 -7q0 -12 -12 -12
q-4 0 -8 4z" />
    <glyph glyph-name="Aacute" unicode="&#xc1;" horiz-adv-x="636" 
d="M557 19v-3q0 -18 -17 -18q-14 0 -16 14l-32 167h-372l-110 -173q-6 -8 -14 -8q-7 0 -12 5t-5 12q0 3 3 9l403 632q7 13 23 13q10 0 17.5 -6t8.5 -16zM139 209h347l-81 421zM435 721q-9 0 -9 9q0 6 5 9l165 126q4 3 9 3q6 0 10 -4.5t4 -9.5q0 -9 -7 -13l-167 -116
q-4 -4 -10 -4z" />
    <glyph glyph-name="Acircumflex" unicode="&#xc2;" horiz-adv-x="636" 
d="M557 19v-3q0 -18 -17 -18q-14 0 -16 14l-32 167h-372l-110 -173q-6 -8 -14 -8q-7 0 -12 5t-5 12q0 3 3 9l403 632q7 13 23 13q10 0 17.5 -6t8.5 -16zM139 209h347l-81 421zM516 728l-63 115l-112 -118q-4 -4 -8 -4q-12 0 -12 11q0 5 3 8l107 118q9 11 23 11h4
q17 0 25 -18l54 -113q1 -1 1 -4q0 -13 -12 -13q-6 0 -10 7z" />
    <glyph glyph-name="Atilde" unicode="&#xc3;" horiz-adv-x="636" 
d="M557 19v-3q0 -18 -17 -18q-14 0 -16 14l-32 167h-372l-110 -173q-6 -8 -14 -8q-7 0 -12 5t-5 12q0 3 3 9l403 632q7 13 23 13q10 0 17.5 -6t8.5 -16zM139 209h347l-81 421zM378 834q-50 0 -74 -99q-2 -10 -12 -10q-7 0 -11 5t-2 12q28 119 100 119q26 0 42 -15.5
t28 -45.5q12 -29 22.5 -40.5t28.5 -11.5q50 0 75 99q2 10 12 10q6 0 10 -5.5t3 -11.5q-28 -119 -101 -119q-26 0 -42 15.5t-28 45.5q-12 29 -22.5 40.5t-28.5 11.5z" />
    <glyph glyph-name="Adieresis" unicode="&#xc4;" horiz-adv-x="636" 
d="M557 19v-3q0 -18 -17 -18q-14 0 -16 14l-32 167h-372l-110 -173q-6 -8 -14 -8q-7 0 -12 5t-5 12q0 3 3 9l403 632q7 13 23 13q10 0 17.5 -6t8.5 -16zM139 209h347l-81 421zM308 762q0 13 9 22t22 9q10 0 17.5 -7t7.5 -18q0 -13 -9 -22t-22 -9q-11 0 -18 7.5t-7 17.5z
M510 762q0 13 9 22t22 9q10 0 17.5 -7t7.5 -18q0 -13 -9 -22t-22 -9q-11 0 -18 7.5t-7 17.5z" />
    <glyph glyph-name="Aring" unicode="&#xc5;" horiz-adv-x="636" 
d="M557 19v-3q0 -18 -17 -18q-14 0 -16 14l-32 167h-372l-110 -173q-6 -8 -14 -8q-7 0 -12 5t-5 12q0 3 3 9l403 632q7 13 23 13q10 0 17.5 -6t8.5 -16zM139 209h347l-81 421zM454 906q37 0 60.5 -23.5t23.5 -60.5q0 -41 -31 -72q-30 -30 -71 -30q-37 0 -60.5 23.5
t-23.5 60.5q0 41 30 71q31 31 72 31zM454 882q-32 0 -55 -22.5t-23 -53.5q0 -27 16.5 -44.5t43.5 -17.5q32 0 55 22.5t23 53.5q0 28 -16.5 45t-43.5 17z" />
    <glyph glyph-name="AE" unicode="&#xc6;" horiz-adv-x="930" 
d="M956 652q0 -6 -4.5 -10.5t-10.5 -4.5h-365l-62 -279h352q6 0 10.5 -4.5t4.5 -10.5t-4.5 -10.5t-10.5 -4.5h-359l-66 -298h359q6 0 10.5 -4.5t4.5 -10.5t-4.5 -10.5t-10.5 -4.5h-377q-21 0 -16 20l35 159h-283l-149 -175q-5 -6 -11 -6q-7 0 -11.5 4.5t-4.5 10.5q0 5 4 10
l543 634q9 10 22 10h389q6 0 10.5 -4.5t4.5 -10.5zM449 209l92 417l-356 -417h264z" />
    <glyph glyph-name="Ccedilla" unicode="&#xc7;" horiz-adv-x="667" 
d="M684 553q0 -7 -5 -12.5t-13 -5.5t-14 8q-72 105 -217 105q-60 1 -118.5 -26t-105 -75t-74.5 -120t-27 -153q0 -116 70 -186t187 -70q99 0 188 68q3 3 9 3q7 0 11.5 -4.5t4.5 -10.5t-6 -12q-98 -74 -209 -74q-21 0 -27 1l-28 -47q15 12 35 12q27 0 42 -14.5t15 -41.5
q0 -37 -28 -61t-75 -24q-53 0 -88 27q-6 4 -6 12q0 7 4.5 11.5t10.5 4.5t10 -4q30 -24 72 -24q34 0 52.5 15.5t18.5 40.5q0 36 -43 36q-21 0 -34 -13q-4 -4 -9 -4q-13 0 -13 13q0 1 2 7l34 57q-107 17 -172 92q-64 76 -64 190q-2 85 29.5 162t83 129.5t117.5 83t134 29.5
q161 0 243 -115q3 -5 3 -10z" />
    <glyph glyph-name="Egrave" unicode="&#xc8;" horiz-adv-x="558" 
d="M38 20l140 631q3 16 19 16h375q6 0 10.5 -4.5t4.5 -10.5t-4.5 -10.5t-10.5 -4.5h-365l-62 -279h352q6 0 10.5 -4.5t4.5 -10.5t-4.5 -10.5t-10.5 -4.5h-359l-66 -298h359q6 0 10.5 -4.5t4.5 -10.5t-4.5 -10.5t-10.5 -4.5h-377q-21 0 -16 20zM385 725l-116 117q-4 4 -4 11
t4.5 11.5t10.5 4.5q8 0 12 -6l110 -123q3 -3 3 -7q0 -12 -12 -12q-4 0 -8 4z" />
    <glyph glyph-name="Eacute" unicode="&#xc9;" horiz-adv-x="558" 
d="M38 20l140 631q3 16 19 16h375q6 0 10.5 -4.5t4.5 -10.5t-4.5 -10.5t-10.5 -4.5h-365l-62 -279h352q6 0 10.5 -4.5t4.5 -10.5t-4.5 -10.5t-10.5 -4.5h-359l-66 -298h359q6 0 10.5 -4.5t4.5 -10.5t-4.5 -10.5t-10.5 -4.5h-377q-21 0 -16 20zM412 721q-9 0 -9 9q0 6 5 9
l165 126q5 3 9 3q6 0 10 -4.5t4 -9.5q0 -9 -7 -13l-167 -116q-4 -4 -10 -4z" />
    <glyph glyph-name="Ecircumflex" unicode="&#xca;" horiz-adv-x="558" 
d="M38 20l140 631q3 16 19 16h375q6 0 10.5 -4.5t4.5 -10.5t-4.5 -10.5t-10.5 -4.5h-365l-62 -279h352q6 0 10.5 -4.5t4.5 -10.5t-4.5 -10.5t-10.5 -4.5h-359l-66 -298h359q6 0 10.5 -4.5t4.5 -10.5t-4.5 -10.5t-10.5 -4.5h-377q-21 0 -16 20zM493 728l-63 115l-112 -118
q-4 -4 -8 -4q-12 0 -12 11q0 5 3 8l107 118q9 11 23 11h4q17 0 25 -18l54 -113q1 -1 1 -4q0 -13 -12 -13q-6 0 -10 7z" />
    <glyph glyph-name="Edieresis" unicode="&#xcb;" horiz-adv-x="558" 
d="M38 20l140 631q3 16 19 16h375q6 0 10.5 -4.5t4.5 -10.5t-4.5 -10.5t-10.5 -4.5h-365l-62 -279h352q6 0 10.5 -4.5t4.5 -10.5t-4.5 -10.5t-10.5 -4.5h-359l-66 -298h359q6 0 10.5 -4.5t4.5 -10.5t-4.5 -10.5t-10.5 -4.5h-377q-21 0 -16 20zM285 762q0 13 9 22t22 9
q10 0 17.5 -7t7.5 -18q0 -13 -9 -22t-22 -9q-11 0 -18 7.5t-7 17.5zM487 762q0 13 9 22t22 9q10 0 17.5 -7t7.5 -18q0 -13 -9 -22t-22 -9q-11 0 -18 7.5t-7 17.5z" />
    <glyph glyph-name="Igrave" unicode="&#xcc;" horiz-adv-x="208" 
d="M38 17l141 639q2 13 15 13q7 0 12 -5.5t3 -13.5l-141 -639q-2 -13 -15 -13q-7 0 -12 5.5t-3 13.5zM193 725l-116 117q-4 4 -4 11t4.5 11.5t10.5 4.5q8 0 12 -6l110 -123q3 -3 3 -7q0 -12 -12 -12q-4 0 -8 4z" />
    <glyph glyph-name="Iacute" unicode="&#xcd;" horiz-adv-x="208" 
d="M38 17l141 639q2 13 15 13q7 0 12 -5.5t3 -13.5l-141 -639q-2 -13 -15 -13q-7 0 -12 5.5t-3 13.5zM220 721q-9 0 -9 9q0 6 5 9l165 126q5 3 9 3q6 0 10 -4.5t4 -9.5q0 -9 -7 -13l-167 -116q-4 -4 -10 -4z" />
    <glyph glyph-name="Icircumflex" unicode="&#xce;" horiz-adv-x="208" 
d="M38 17l141 639q2 13 15 13q7 0 12 -5.5t3 -13.5l-141 -639q-2 -13 -15 -13q-7 0 -12 5.5t-3 13.5zM301 728l-63 115l-112 -118q-4 -4 -8 -4q-12 0 -12 11q0 5 3 8l107 118q9 11 23 11h4q17 0 25 -18l54 -113q1 -1 1 -4q0 -13 -12 -13q-6 0 -10 7z" />
    <glyph glyph-name="Idieresis" unicode="&#xcf;" horiz-adv-x="208" 
d="M38 17l141 639q2 13 15 13q7 0 12 -5.5t3 -13.5l-141 -639q-2 -13 -15 -13q-7 0 -12 5.5t-3 13.5zM93 762q0 13 9 22t22 9q10 0 17.5 -7t7.5 -18q0 -13 -9 -22t-22 -9q-11 0 -18 7.5t-7 17.5zM295 762q0 13 9 22t22 9q10 0 17.5 -7t7.5 -18q0 -13 -9 -22t-22 -9
q-11 0 -18 7.5t-7 17.5z" />
    <glyph glyph-name="Eth" unicode="&#xd0;" horiz-adv-x="715" 
d="M671 384q1 -72 -27 -141t-79.5 -124t-130.5 -87.5t-172 -31.5h-177q-21 0 -16 20l66 299h-90q-6 0 -10.5 4.5t-4.5 10.5t4.5 10.5t10.5 4.5h97l67 302q3 16 19 16h177q112 0 189 -81.5t77 -201.5zM637 384q0 108 -68.5 180.5t-169.5 72.5h-161l-64 -288h170
q6 0 10.5 -4.5t4.5 -10.5t-4.5 -10.5t-10.5 -4.5h-177l-64 -289h164q161 -3 266.5 102.5t103.5 251.5z" />
    <glyph glyph-name="Ntilde" unicode="&#xd1;" horiz-adv-x="690" 
d="M511 10l-308 609l-135 -608q-2 -13 -15 -13q-7 0 -12 5.5t-3 13.5l140 635q6 17 21 17q14 0 19 -12l309 -603l134 602q2 13 15 13q7 0 12 -5.5t3 -13.5l-140 -635q-6 -17 -21 -17q-14 0 -19 12zM404 834q-50 0 -74 -99q-2 -10 -12 -10q-7 0 -11 5t-2 12q28 119 100 119
q26 0 42 -15.5t28 -45.5q12 -29 22.5 -40.5t28.5 -11.5q50 0 75 99q2 10 12 10q6 0 10 -5.5t3 -11.5q-28 -119 -101 -119q-26 0 -42 15.5t-28 45.5q-12 29 -22.5 40.5t-28.5 11.5z" />
    <glyph glyph-name="Ograve" unicode="&#xd2;" horiz-adv-x="764" 
d="M438 678q127 0 209 -76.5t82 -209.5q2 -108 -48.5 -202.5t-135 -149t-180.5 -52.5q-127 0 -209 76.5t-82 209.5q-2 108 48.5 202.5t135 149t180.5 52.5zM435 648q-130 3 -228.5 -107t-96.5 -267q0 -120 73 -188t184 -68q130 -3 229.5 107t96.5 267q0 120 -73 188t-185 68
zM471 725l-116 117q-4 4 -4 11t4.5 11.5t10.5 4.5q8 0 12 -6l110 -123q3 -3 3 -7q0 -12 -12 -12q-4 0 -8 4z" />
    <glyph glyph-name="Oacute" unicode="&#xd3;" horiz-adv-x="764" 
d="M438 678q127 0 209 -76.5t82 -209.5q2 -108 -48.5 -202.5t-135 -149t-180.5 -52.5q-127 0 -209 76.5t-82 209.5q-2 108 48.5 202.5t135 149t180.5 52.5zM435 648q-130 3 -228.5 -107t-96.5 -267q0 -120 73 -188t184 -68q130 -3 229.5 107t96.5 267q0 120 -73 188t-185 68
zM498 721q-9 0 -9 9q0 6 5 9l165 126q5 3 9 3q6 0 10 -4.5t4 -9.5q0 -9 -7 -13l-167 -116q-4 -4 -10 -4z" />
    <glyph glyph-name="Ocircumflex" unicode="&#xd4;" horiz-adv-x="764" 
d="M438 678q127 0 209 -76.5t82 -209.5q2 -108 -48.5 -202.5t-135 -149t-180.5 -52.5q-127 0 -209 76.5t-82 209.5q-2 108 48.5 202.5t135 149t180.5 52.5zM435 648q-130 3 -228.5 -107t-96.5 -267q0 -120 73 -188t184 -68q130 -3 229.5 107t96.5 267q0 120 -73 188t-185 68
zM579 728l-63 115l-112 -118q-4 -4 -8 -4q-12 0 -12 11q0 5 3 8l107 118q9 11 23 11h4q17 0 25 -18l54 -113q1 -1 1 -4q0 -13 -12 -13q-6 0 -10 7z" />
    <glyph glyph-name="Otilde" unicode="&#xd5;" horiz-adv-x="764" 
d="M438 678q127 0 209 -76.5t82 -209.5q2 -108 -48.5 -202.5t-135 -149t-180.5 -52.5q-127 0 -209 76.5t-82 209.5q-2 108 48.5 202.5t135 149t180.5 52.5zM435 648q-130 3 -228.5 -107t-96.5 -267q0 -120 73 -188t184 -68q130 -3 229.5 107t96.5 267q0 120 -73 188t-185 68
zM441 834q-50 0 -74 -99q-2 -10 -12 -10q-7 0 -11 5t-2 12q28 119 100 119q26 0 42 -15.5t28 -45.5q12 -29 22.5 -40.5t28.5 -11.5q49 0 75 99q2 10 12 10q6 0 10 -5.5t3 -11.5q-28 -119 -101 -119q-26 0 -42 15.5t-28 45.5q-12 29 -22.5 40.5t-28.5 11.5z" />
    <glyph glyph-name="Odieresis" unicode="&#xd6;" horiz-adv-x="764" 
d="M438 678q127 0 209 -76.5t82 -209.5q2 -108 -48.5 -202.5t-135 -149t-180.5 -52.5q-127 0 -209 76.5t-82 209.5q-2 108 48.5 202.5t135 149t180.5 52.5zM435 648q-130 3 -228.5 -107t-96.5 -267q0 -120 73 -188t184 -68q130 -3 229.5 107t96.5 267q0 120 -73 188t-185 68
zM371 762q0 13 9 22t22 9q10 0 17.5 -7t7.5 -18q0 -13 -9 -22t-22 -9q-11 0 -18 7.5t-7 17.5zM573 762q0 13 9 22t22 9q10 0 17.5 -7t7.5 -18q0 -13 -9 -22t-22 -9q-11 0 -18 7.5t-7 17.5z" />
    <glyph glyph-name="multiply" unicode="&#xd7;" horiz-adv-x="494" 
d="M264 313l-180 -148q-3 -3 -9 -3q-15 0 -15 15q0 6 5 11l181 148l-112 143q-3 3 -3 10q0 6 4.5 10.5t10.5 4.5t12 -6l111 -143l181 148q3 3 9 3t10.5 -4.5t4.5 -10.5q0 -5 -6 -11l-180 -148l111 -144q3 -3 3 -9q0 -15 -15 -15q-7 0 -11 6z" />
    <glyph glyph-name="Oslash" unicode="&#xd8;" horiz-adv-x="764" 
d="M762 702q0 -6 -4 -10l-98 -104q69 -75 69 -196q2 -108 -48.5 -202.5t-135 -149t-180.5 -52.5q-127 0 -205 72l-97 -103q-5 -5 -10 -5q-11 0 -11 12q0 6 4 10l97 103q-69 75 -69 197q-2 108 48.5 202.5t135 149t180.5 52.5q127 0 205 -72l98 104q5 5 9 5q12 0 12 -13z
M167 102l452 479q-72 67 -184 67q-130 3 -228.5 -107t-96.5 -267q0 -104 57 -172zM636 563l-452 -478q72 -67 183 -67q130 -3 229.5 107t96.5 267q0 104 -57 171z" />
    <glyph glyph-name="Ugrave" unicode="&#xd9;" horiz-adv-x="672" 
d="M90 253l89 403q2 13 15 13q7 0 12 -5.5t3 -13.5l-87 -397q-6 -24 -6 -49q0 -85 54.5 -135.5t148.5 -50.5q98 0 153 57t82 178l89 403q2 13 15 13q7 0 12 -5.5t3 -13.5l-87 -397q-31 -137 -92.5 -201t-174.5 -64q-108 0 -171 57t-63 155q0 25 5 53zM424 725l-116 117
q-4 4 -4 11t4.5 11.5t10.5 4.5q7 0 12 -6l110 -123q3 -3 3 -7q0 -12 -12 -12q-4 0 -8 4z" />
    <glyph glyph-name="Uacute" unicode="&#xda;" horiz-adv-x="672" 
d="M90 253l89 403q2 13 15 13q7 0 12 -5.5t3 -13.5l-87 -397q-6 -24 -6 -49q0 -85 54.5 -135.5t148.5 -50.5q98 0 153 57t82 178l89 403q2 13 15 13q7 0 12 -5.5t3 -13.5l-87 -397q-31 -137 -92.5 -201t-174.5 -64q-108 0 -171 57t-63 155q0 25 5 53zM451 721q-9 0 -9 9
q0 6 5 9l165 126q4 3 9 3q6 0 10 -4.5t4 -9.5q0 -9 -7 -13l-167 -116q-4 -4 -10 -4z" />
    <glyph glyph-name="Ucircumflex" unicode="&#xdb;" horiz-adv-x="672" 
d="M90 253l89 403q2 13 15 13q7 0 12 -5.5t3 -13.5l-87 -397q-6 -24 -6 -49q0 -85 54.5 -135.5t148.5 -50.5q98 0 153 57t82 178l89 403q2 13 15 13q7 0 12 -5.5t3 -13.5l-87 -397q-31 -137 -92.5 -201t-174.5 -64q-108 0 -171 57t-63 155q0 25 5 53zM532 728l-63 115
l-112 -118q-4 -4 -8 -4q-12 0 -12 11q0 5 3 8l107 118q9 11 23 11h4q17 0 25 -18l54 -113q1 -1 1 -4q0 -13 -12 -13q-6 0 -10 7z" />
    <glyph glyph-name="Udieresis" unicode="&#xdc;" horiz-adv-x="672" 
d="M90 253l89 403q2 13 15 13q7 0 12 -5.5t3 -13.5l-87 -397q-6 -24 -6 -49q0 -85 54.5 -135.5t148.5 -50.5q98 0 153 57t82 178l89 403q2 13 15 13q7 0 12 -5.5t3 -13.5l-87 -397q-31 -137 -92.5 -201t-174.5 -64q-108 0 -171 57t-63 155q0 25 5 53zM324 762q0 13 9 22
t22 9q10 0 17.5 -7t7.5 -18q0 -13 -9 -22t-22 -9q-11 0 -18 7.5t-7 17.5zM526 762q0 13 9 22t22 9q10 0 17.5 -7t7.5 -18q0 -13 -9 -22t-22 -9q-11 0 -18 7.5t-7 17.5z" />
    <glyph glyph-name="Yacute" unicode="&#xdd;" horiz-adv-x="610" 
d="M658 641l-327 -353l-62 -277q-2 -13 -15 -13q-7 0 -12 5.5t-3 13.5l60 273l-174 355q-2 6 -2 7q0 6 5 11.5t12 5.5q9 0 15 -10l163 -338l316 342q4 6 12 6q7 0 11.5 -5t4.5 -12q0 -6 -4 -11zM421 721q-9 0 -9 9q0 6 5 9l165 126q4 3 9 3q6 0 10 -4.5t4 -9.5q0 -9 -7 -13
l-167 -116q-4 -4 -10 -4z" />
    <glyph glyph-name="Thorn" unicode="&#xde;" horiz-adv-x="555" 
d="M537 376q0 -88 -62.5 -152t-176.5 -64h-197l-33 -149q-2 -13 -15 -13q-7 0 -12 5.5t-3 13.5l141 639q2 13 15 13q7 0 12 -5.5t3 -13.5l-24 -112h186q68 0 117 -47.5t49 -114.5zM502 376q0 54 -40.5 93t-94.5 39h-189l-70 -318h195q94 0 146.5 54t52.5 132z" />
    <glyph glyph-name="germandbls" unicode="&#xdf;" horiz-adv-x="522" 
d="M297 365q69 -10 110 -55t41 -112q0 -22 -6 -48q-16 -70 -75 -117q-59 -45 -138 -45q-63 0 -116 31q-7 4 -7 12q0 6 4.5 10.5t10.5 4.5q2 0 17 -8.5t39.5 -16t51.5 -6.5q71 0 118.5 38.5t62.5 102.5q5 22 5 47q0 69 -49 108.5t-141 39.5q-13 0 -13 13q0 12 12 12
q84 3 139 41.5t68 94.5q4 15 4 33q0 48 -33.5 76.5t-82.5 28.5q-62 0 -108.5 -40t-61.5 -111l-109 -489q-3 -12 -14 -12q-7 0 -11 5.5t-3 12.5l107 483q18 84 70.5 131t129.5 47q60 0 104 -37t44 -97q0 -23 -4 -38q-12 -53 -57 -90.5t-109 -49.5z" />
    <glyph glyph-name="agrave" unicode="&#xe0;" horiz-adv-x="566" 
d="M529 467l-101 -457q-2 -12 -14 -12q-7 0 -11 5.5t-3 12.5l13 60q-71 -88 -172 -88q-86 0 -138 53.5t-52 144.5q-2 125 72 218t181 91q60 0 107.5 -27t72.5 -73l17 78q2 12 14 12q7 0 11.5 -5.5t2.5 -12.5zM423 119l55 251q-21 44 -67.5 71t-106.5 27q-62 2 -113.5 -39
t-79 -105.5t-26.5 -133.5q0 -81 43 -128t115 -47q52 0 101 29t79 75zM342 578l-116 117q-4 4 -4 11t4.5 11.5t10.5 4.5q7 0 12 -6l110 -123q3 -3 3 -7q0 -12 -12 -12q-4 0 -8 4z" />
    <glyph glyph-name="aacute" unicode="&#xe1;" horiz-adv-x="566" 
d="M529 467l-101 -457q-2 -12 -14 -12q-7 0 -11 5.5t-3 12.5l13 60q-71 -88 -172 -88q-86 0 -138 53.5t-52 144.5q-2 125 72 218t181 91q60 0 107.5 -27t72.5 -73l17 78q2 12 14 12q7 0 11.5 -5.5t2.5 -12.5zM423 119l55 251q-21 44 -67.5 71t-106.5 27q-62 2 -113.5 -39
t-79 -105.5t-26.5 -133.5q0 -81 43 -128t115 -47q52 0 101 29t79 75zM369 574q-9 0 -9 9q0 6 5 9l165 126q4 3 9 3q6 0 10 -4.5t4 -9.5q0 -9 -7 -13l-167 -116q-4 -4 -10 -4z" />
    <glyph glyph-name="acircumflex" unicode="&#xe2;" horiz-adv-x="566" 
d="M529 467l-101 -457q-2 -12 -14 -12q-7 0 -11 5.5t-3 12.5l13 60q-71 -88 -172 -88q-86 0 -138 53.5t-52 144.5q-2 125 72 218t181 91q60 0 107.5 -27t72.5 -73l17 78q2 12 14 12q7 0 11.5 -5.5t2.5 -12.5zM423 119l55 251q-21 44 -67.5 71t-106.5 27q-62 2 -113.5 -39
t-79 -105.5t-26.5 -133.5q0 -81 43 -128t115 -47q52 0 101 29t79 75zM450 581l-63 115l-112 -118q-4 -4 -8 -4q-12 0 -12 11q0 5 3 8l107 118q9 11 23 11h4q17 0 25 -18l54 -113q1 -1 1 -4q0 -13 -12 -13q-6 0 -10 7z" />
    <glyph glyph-name="atilde" unicode="&#xe3;" horiz-adv-x="566" 
d="M529 467l-101 -457q-2 -12 -14 -12q-7 0 -11 5.5t-3 12.5l13 60q-71 -88 -172 -88q-86 0 -138 53.5t-52 144.5q-2 125 72 218t181 91q60 0 107.5 -27t72.5 -73l17 78q2 12 14 12q7 0 11.5 -5.5t2.5 -12.5zM423 119l55 251q-21 44 -67.5 71t-106.5 27q-62 2 -113.5 -39
t-79 -105.5t-26.5 -133.5q0 -81 43 -128t115 -47q52 0 101 29t79 75zM312 687q-50 0 -74 -99q-2 -10 -12 -10q-7 0 -11 5t-2 12q28 119 100 119q26 0 42 -15.5t28 -45.5q12 -29 22.5 -40.5t28.5 -11.5q50 0 75 99q2 10 12 10q6 0 10 -5.5t3 -11.5q-28 -119 -101 -119
q-26 0 -42 15.5t-28 45.5q-12 29 -22.5 40.5t-28.5 11.5z" />
    <glyph glyph-name="adieresis" unicode="&#xe4;" horiz-adv-x="566" 
d="M529 467l-101 -457q-2 -12 -14 -12q-7 0 -11 5.5t-3 12.5l13 60q-71 -88 -172 -88q-86 0 -138 53.5t-52 144.5q-2 125 72 218t181 91q60 0 107.5 -27t72.5 -73l17 78q2 12 14 12q7 0 11.5 -5.5t2.5 -12.5zM423 119l55 251q-21 44 -67.5 71t-106.5 27q-62 2 -113.5 -39
t-79 -105.5t-26.5 -133.5q0 -81 43 -128t115 -47q52 0 101 29t79 75zM242 615q0 13 9 22t22 9q10 0 17.5 -7t7.5 -18q0 -13 -9 -22t-22 -9q-11 0 -18 7.5t-7 17.5zM444 615q0 13 9 22t22 9q10 0 17.5 -7t7.5 -18q0 -13 -9 -22t-22 -9q-11 0 -18 7.5t-7 17.5z" />
    <glyph glyph-name="aring" unicode="&#xe5;" horiz-adv-x="566" 
d="M529 467l-101 -457q-2 -12 -14 -12q-7 0 -11 5.5t-3 12.5l13 60q-71 -88 -172 -88q-86 0 -138 53.5t-52 144.5q-2 125 72 218t181 91q60 0 107.5 -27t72.5 -73l17 78q2 12 14 12q7 0 11.5 -5.5t2.5 -12.5zM423 119l55 251q-21 44 -67.5 71t-106.5 27q-62 2 -113.5 -39
t-79 -105.5t-26.5 -133.5q0 -81 43 -128t115 -47q52 0 101 29t79 75zM388 759q37 0 60.5 -23.5t23.5 -60.5q0 -41 -31 -72q-30 -30 -71 -30q-37 0 -60.5 23.5t-23.5 60.5q0 41 30 71q31 31 72 31zM388 735q-32 0 -55 -22.5t-23 -53.5q0 -27 16.5 -44.5t43.5 -17.5
q32 0 55 22.5t23 53.5q0 28 -16.5 45t-43.5 17z" />
    <glyph glyph-name="ae" unicode="&#xe6;" horiz-adv-x="958" 
d="M904 288q0 -19 -4 -40q-3 -16 -19 -16h-401q-2 -16 -2 -32q0 -83 50.5 -134t139.5 -51q74 0 138 49q3 3 8 3q13 0 13 -13q0 -6 -6 -11q-73 -55 -153 -55q-86 0 -141.5 45t-66.5 121l-32 -144q-2 -12 -14 -12q-7 0 -11 5.5t-3 12.5l13 60q-71 -88 -172 -88
q-86 0 -138 53.5t-52 144.5q-2 125 72 218t181 91q60 0 107.5 -27t72.5 -73l17 78q2 12 14 12q7 0 11.5 -5.5t2.5 -12.5l-18 -84q36 49 87.5 80.5t110.5 31.5q94 0 144 -59q51 -59 51 -148zM423 119l55 251q-21 44 -67.5 71t-106.5 27q-62 2 -113.5 -39t-79 -105.5
t-26.5 -133.5q0 -81 43 -128t115 -47q52 0 101 29t79 75zM874 285q0 84 -44.5 133.5t-125.5 49.5q-78 0 -142.5 -62t-78.5 -147h389q2 16 2 26z" />
    <glyph glyph-name="ccedilla" unicode="&#xe7;" horiz-adv-x="493" 
d="M478 411q0 -14 -15 -14q-7 0 -12 6q-46 65 -133 65q-101 2 -168.5 -80.5t-65.5 -190.5q0 -86 49 -134t129 -48q75 0 131 56q3 4 10 4q14 0 14 -13q0 -6 -4 -10q-67 -64 -153 -64q-15 0 -19 1l-28 -47q15 12 35 12q27 0 42 -14.5t15 -41.5q0 -37 -28 -61t-75 -24
q-54 0 -88 27q-6 4 -6 12q0 7 4.5 11.5t10.5 4.5t10 -4q30 -24 72 -24q34 0 52.5 15.5t18.5 40.5q0 36 -43 36q-21 0 -34 -13q-4 -4 -9 -4q-13 0 -13 13q0 1 2 7l34 57q-74 15 -118 69t-44 139q-3 118 77 207.5t187 87.5q107 0 160 -75q3 -6 3 -9z" />
    <glyph glyph-name="egrave" unicode="&#xe8;" horiz-adv-x="571" 
d="M316 495q93 0 147 -58.5t54 -148.5q0 -19 -4 -40q-3 -16 -19 -16h-407q-2 -16 -2 -32q0 -83 50.5 -134t139.5 -51q77 0 144 49q3 3 7 3q14 0 14 -13q0 -6 -6 -11q-73 -55 -159 -55q-104 0 -164 58.5t-60 153.5q-2 119 78 208t187 87zM487 285q0 84 -47 133.5t-129 49.5
q-78 0 -142.5 -62t-78.5 -147h395q2 16 2 26zM341 578l-116 117q-4 4 -4 11t4.5 11.5t10.5 4.5q8 0 12 -6l110 -123q3 -3 3 -7q0 -12 -12 -12q-4 0 -8 4z" />
    <glyph glyph-name="eacute" unicode="&#xe9;" horiz-adv-x="571" 
d="M316 495q93 0 147 -58.5t54 -148.5q0 -19 -4 -40q-3 -16 -19 -16h-407q-2 -16 -2 -32q0 -83 50.5 -134t139.5 -51q77 0 144 49q3 3 7 3q14 0 14 -13q0 -6 -6 -11q-73 -55 -159 -55q-104 0 -164 58.5t-60 153.5q-2 119 78 208t187 87zM487 285q0 84 -47 133.5t-129 49.5
q-78 0 -142.5 -62t-78.5 -147h395q2 16 2 26zM368 574q-9 0 -9 9q0 6 5 9l165 126q5 3 9 3q6 0 10 -4.5t4 -9.5q0 -9 -7 -13l-167 -116q-4 -4 -10 -4z" />
    <glyph glyph-name="ecircumflex" unicode="&#xea;" horiz-adv-x="571" 
d="M316 495q93 0 147 -58.5t54 -148.5q0 -19 -4 -40q-3 -16 -19 -16h-407q-2 -16 -2 -32q0 -83 50.5 -134t139.5 -51q77 0 144 49q3 3 7 3q14 0 14 -13q0 -6 -6 -11q-73 -55 -159 -55q-104 0 -164 58.5t-60 153.5q-2 119 78 208t187 87zM487 285q0 84 -47 133.5t-129 49.5
q-78 0 -142.5 -62t-78.5 -147h395q2 16 2 26zM449 581l-63 115l-112 -118q-4 -4 -8 -4q-12 0 -12 11q0 5 3 8l107 118q9 11 23 11h4q17 0 25 -18l54 -113q1 -1 1 -4q0 -13 -12 -13q-6 0 -10 7z" />
    <glyph glyph-name="edieresis" unicode="&#xeb;" horiz-adv-x="571" 
d="M316 495q93 0 147 -58.5t54 -148.5q0 -19 -4 -40q-3 -16 -19 -16h-407q-2 -16 -2 -32q0 -83 50.5 -134t139.5 -51q77 0 144 49q3 3 7 3q14 0 14 -13q0 -6 -6 -11q-73 -55 -159 -55q-104 0 -164 58.5t-60 153.5q-2 119 78 208t187 87zM487 285q0 84 -47 133.5t-129 49.5
q-78 0 -142.5 -62t-78.5 -147h395q2 16 2 26zM241 615q0 13 9 22t22 9q10 0 17.5 -7t7.5 -18q0 -13 -9 -22t-22 -9q-11 0 -18 7.5t-7 17.5zM443 615q0 13 9 22t22 9q10 0 17.5 -7t7.5 -18q0 -13 -9 -22t-22 -9q-11 0 -18 7.5t-7 17.5z" />
    <glyph glyph-name="igrave" unicode="&#xec;" horiz-adv-x="202" 
d="M36 16l101 457q2 12 14 12q7 0 11.5 -5.5t2.5 -12.5l-101 -457q-2 -12 -14 -12q-7 0 -11 5.5t-3 12.5zM158 578l-116 117q-4 4 -4 11t4.5 11.5t10.5 4.5q7 0 12 -6l110 -123q3 -3 3 -7q0 -12 -12 -12q-4 0 -8 4z" />
    <glyph glyph-name="iacute" unicode="&#xed;" horiz-adv-x="202" 
d="M36 16l101 457q2 12 14 12q7 0 11.5 -5.5t2.5 -12.5l-101 -457q-2 -12 -14 -12q-7 0 -11 5.5t-3 12.5zM185 574q-9 0 -9 9q0 6 5 9l165 126q4 3 9 3q6 0 10 -4.5t4 -9.5q0 -9 -7 -13l-167 -116q-4 -4 -10 -4z" />
    <glyph glyph-name="icircumflex" unicode="&#xee;" horiz-adv-x="202" 
d="M36 16l101 457q2 12 14 12q7 0 11.5 -5.5t2.5 -12.5l-101 -457q-2 -12 -14 -12q-7 0 -11 5.5t-3 12.5zM266 581l-63 115l-112 -118q-4 -4 -8 -4q-12 0 -12 11q0 5 3 8l107 118q9 11 23 11h4q17 0 25 -18l54 -113q1 -1 1 -4q0 -13 -12 -13q-6 0 -10 7z" />
    <glyph glyph-name="idieresis" unicode="&#xef;" horiz-adv-x="202" 
d="M36 16l101 457q2 12 14 12q7 0 11.5 -5.5t2.5 -12.5l-101 -457q-2 -12 -14 -12q-7 0 -11 5.5t-3 12.5zM58 615q0 13 9 22t22 9q10 0 17.5 -7t7.5 -18q0 -13 -9 -22t-22 -9q-11 0 -18 7.5t-7 17.5zM260 615q0 13 9 22t22 9q10 0 17.5 -7t7.5 -18q0 -13 -9 -22t-22 -9
q-11 0 -18 7.5t-7 17.5z" />
    <glyph glyph-name="eth" unicode="&#xf0;" horiz-adv-x="570" 
d="M516 300q2 -129 -74 -221.5t-183 -90.5q-91 0 -149 58t-58 145q-1 123 76.5 214.5t179.5 89.5q54 0 99.5 -26.5t69.5 -77.5q-42 106 -122 189l-144 -43h-3q-14 0 -14 13q0 8 10 12l130 39q-40 36 -61 52q-7 6 -7 13t5 12t12 5q5 0 10 -3q40 -31 77 -68l109 33h3
q14 0 14 -13q0 -8 -10 -12l-96 -29q126 -140 126 -291zM482 290q0 72 -45 125t-129 53q-87 2 -155.5 -79t-66.5 -190q0 -82 46.5 -133t126.5 -51q88 -3 156.5 81.5t66.5 193.5z" />
    <glyph glyph-name="ntilde" unicode="&#xf1;" 
d="M467 379q0 -14 -5 -42l-72 -327q-2 -12 -14 -12q-7 0 -11 5.5t-3 12.5l71 322q5 28 5 41q0 89 -114 89q-44 0 -92.5 -26t-86.5 -67l-81 -365q-2 -12 -14 -12q-7 0 -11 5.5t-3 12.5l101 457q2 12 14 12q7 0 11.5 -5.5t2.5 -12.5l-13 -60q92 88 178 88q65 0 101 -30.5
t36 -85.5zM292 687q-50 0 -74 -99q-2 -10 -12 -10q-7 0 -11 5t-2 12q28 119 100 119q26 0 42 -15.5t28 -45.5q12 -29 22.5 -40.5t28.5 -11.5q50 0 75 99q2 10 12 10q6 0 10 -5.5t3 -11.5q-28 -119 -101 -119q-26 0 -42 15.5t-28 45.5q-12 29 -22.5 40.5t-28.5 11.5z" />
    <glyph glyph-name="ograve" unicode="&#xf2;" horiz-adv-x="570" 
d="M312 495q93 0 149 -57t56 -153q2 -116 -76.5 -208t-184.5 -89q-93 0 -149 57t-56 153q-2 116 76.5 208t184.5 89zM312 468q-93 2 -161 -82t-66 -188q0 -84 45.5 -133.5t125.5 -49.5q93 -2 161 82t66 188q0 84 -45.5 133.5t-125.5 49.5zM342 578l-116 117q-4 4 -4 11
t4.5 11.5t10.5 4.5q7 0 12 -6l110 -123q3 -3 3 -7q0 -12 -12 -12q-4 0 -8 4z" />
    <glyph glyph-name="oacute" unicode="&#xf3;" horiz-adv-x="570" 
d="M312 495q93 0 149 -57t56 -153q2 -116 -76.5 -208t-184.5 -89q-93 0 -149 57t-56 153q-2 116 76.5 208t184.5 89zM312 468q-93 2 -161 -82t-66 -188q0 -84 45.5 -133.5t125.5 -49.5q93 -2 161 82t66 188q0 84 -45.5 133.5t-125.5 49.5zM369 574q-9 0 -9 9q0 6 5 9
l165 126q4 3 9 3q6 0 10 -4.5t4 -9.5q0 -9 -7 -13l-167 -116q-4 -4 -10 -4z" />
    <glyph glyph-name="ocircumflex" unicode="&#xf4;" horiz-adv-x="570" 
d="M312 495q93 0 149 -57t56 -153q2 -116 -76.5 -208t-184.5 -89q-93 0 -149 57t-56 153q-2 116 76.5 208t184.5 89zM312 468q-93 2 -161 -82t-66 -188q0 -84 45.5 -133.5t125.5 -49.5q93 -2 161 82t66 188q0 84 -45.5 133.5t-125.5 49.5zM450 581l-63 115l-112 -118
q-4 -4 -8 -4q-12 0 -12 11q0 5 3 8l107 118q9 11 23 11h4q17 0 25 -18l54 -113q1 -1 1 -4q0 -13 -12 -13q-6 0 -10 7z" />
    <glyph glyph-name="otilde" unicode="&#xf5;" horiz-adv-x="570" 
d="M312 495q93 0 149 -57t56 -153q2 -116 -76.5 -208t-184.5 -89q-93 0 -149 57t-56 153q-2 116 76.5 208t184.5 89zM312 468q-93 2 -161 -82t-66 -188q0 -84 45.5 -133.5t125.5 -49.5q93 -2 161 82t66 188q0 84 -45.5 133.5t-125.5 49.5zM312 687q-50 0 -74 -99
q-2 -10 -12 -10q-7 0 -11 5t-2 12q28 119 100 119q26 0 42 -15.5t28 -45.5q12 -29 22.5 -40.5t28.5 -11.5q50 0 75 99q2 10 12 10q6 0 10 -5.5t3 -11.5q-28 -119 -101 -119q-26 0 -42 15.5t-28 45.5q-12 29 -22.5 40.5t-28.5 11.5z" />
    <glyph glyph-name="odieresis" unicode="&#xf6;" horiz-adv-x="570" 
d="M312 495q93 0 149 -57t56 -153q2 -116 -76.5 -208t-184.5 -89q-93 0 -149 57t-56 153q-2 116 76.5 208t184.5 89zM312 468q-93 2 -161 -82t-66 -188q0 -84 45.5 -133.5t125.5 -49.5q93 -2 161 82t66 188q0 84 -45.5 133.5t-125.5 49.5zM242 615q0 13 9 22t22 9
q10 0 17.5 -7t7.5 -18q0 -13 -9 -22t-22 -9q-11 0 -18 7.5t-7 17.5zM444 615q0 13 9 22t22 9q10 0 17.5 -7t7.5 -18q0 -13 -9 -22t-22 -9q-11 0 -18 7.5t-7 17.5z" />
    <glyph glyph-name="divide" unicode="&#xf7;" horiz-adv-x="511" 
d="M287 533q0 15 10.5 25t25.5 10q13 0 21.5 -8.5t8.5 -21.5q0 -15 -10.5 -25t-25.5 -10q-13 0 -21.5 8.5t-8.5 21.5zM48 337q0 6 4.5 10.5t10.5 4.5h426q6 0 10.5 -4.5t4.5 -10.5t-4.5 -10.5t-10.5 -4.5h-426q-6 0 -10.5 4.5t-4.5 10.5zM198 131q0 15 10.5 25t25.5 10
q13 0 21.5 -8.5t8.5 -21.5q0 -15 -10.5 -25t-25.5 -10q-13 0 -21.5 8.5t-8.5 21.5z" />
    <glyph glyph-name="oslash" unicode="&#xf8;" horiz-adv-x="570" 
d="M526 520q0 -3 -4 -8l-61 -74q56 -59 56 -153q2 -116 -76.5 -208t-184.5 -89q-77 0 -129 40l-58 -71q-5 -5 -10 -5q-4 0 -8 3.5t-4 8.5q0 4 3 8l59 71q-58 58 -58 155q-2 116 76.5 208t184.5 89q80 0 132 -42l60 73q5 5 10 5q12 0 12 -11zM128 67l297 363q-44 38 -113 38
q-93 2 -161 -82t-66 -188q0 -82 43 -131zM442 414l-297 -363q45 -36 111 -36q93 -2 161 82t66 188q0 79 -41 129z" />
    <glyph glyph-name="ugrave" unicode="&#xf9;" 
d="M491 467l-101 -457q-2 -12 -14 -12q-7 0 -11 5.5t-3 12.5l13 60q-92 -88 -178 -88q-65 0 -101 30.5t-36 85.5q0 14 5 42l72 327q2 12 14 12q7 0 11.5 -5.5t2.5 -12.5l-71 -322q-5 -28 -5 -41q0 -89 114 -89q44 0 92.5 26t86.5 67l81 365q2 12 14 12q7 0 11.5 -5.5
t2.5 -12.5zM322 578l-116 117q-4 4 -4 11t4.5 11.5t10.5 4.5q7 0 12 -6l110 -123q3 -3 3 -7q0 -12 -12 -12q-4 0 -8 4z" />
    <glyph glyph-name="uacute" unicode="&#xfa;" 
d="M491 467l-101 -457q-2 -12 -14 -12q-7 0 -11 5.5t-3 12.5l13 60q-92 -88 -178 -88q-65 0 -101 30.5t-36 85.5q0 14 5 42l72 327q2 12 14 12q7 0 11.5 -5.5t2.5 -12.5l-71 -322q-5 -28 -5 -41q0 -89 114 -89q44 0 92.5 26t86.5 67l81 365q2 12 14 12q7 0 11.5 -5.5
t2.5 -12.5zM349 574q-9 0 -9 9q0 6 5 9l165 126q4 3 9 3q6 0 10 -4.5t4 -9.5q0 -9 -7 -13l-167 -116q-4 -4 -10 -4z" />
    <glyph glyph-name="ucircumflex" unicode="&#xfb;" 
d="M491 467l-101 -457q-2 -12 -14 -12q-7 0 -11 5.5t-3 12.5l13 60q-92 -88 -178 -88q-65 0 -101 30.5t-36 85.5q0 14 5 42l72 327q2 12 14 12q7 0 11.5 -5.5t2.5 -12.5l-71 -322q-5 -28 -5 -41q0 -89 114 -89q44 0 92.5 26t86.5 67l81 365q2 12 14 12q7 0 11.5 -5.5
t2.5 -12.5zM430 581l-63 115l-112 -118q-4 -4 -8 -4q-12 0 -12 11q0 5 3 8l107 118q9 11 23 11h4q17 0 25 -18l54 -113q1 -1 1 -4q0 -13 -12 -13q-6 0 -10 7z" />
    <glyph glyph-name="udieresis" unicode="&#xfc;" 
d="M491 467l-101 -457q-2 -12 -14 -12q-7 0 -11 5.5t-3 12.5l13 60q-92 -88 -178 -88q-65 0 -101 30.5t-36 85.5q0 14 5 42l72 327q2 12 14 12q7 0 11.5 -5.5t2.5 -12.5l-71 -322q-5 -28 -5 -41q0 -89 114 -89q44 0 92.5 26t86.5 67l81 365q2 12 14 12q7 0 11.5 -5.5
t2.5 -12.5zM222 615q0 13 9 22t22 9q10 0 17.5 -7t7.5 -18q0 -13 -9 -22t-22 -9q-11 0 -18 7.5t-7 17.5zM424 615q0 13 9 22t22 9q10 0 17.5 -7t7.5 -18q0 -13 -9 -22t-22 -9q-11 0 -18 7.5t-7 17.5z" />
    <glyph glyph-name="yacute" unicode="&#xfd;" horiz-adv-x="471" 
d="M-20 -159q18 -5 34 -5q41 0 81 61l66 100l-93 468v3q0 6 4.5 11.5t10.5 5.5q14 0 16 -13l88 -437l286 443q4 7 13 7q6 0 10.5 -4.5t4.5 -11.5l-2 -8l-375 -575q-54 -82 -120 -82q-13 0 -33 4q-12 2 -12 16q0 8 7 13.5t14 3.5zM321 574q-9 0 -9 9q0 6 5 9l165 126q4 3 9 3
q6 0 10 -4.5t4 -9.5q0 -9 -7 -13l-167 -116q-4 -4 -10 -4z" />
    <glyph glyph-name="thorn" unicode="&#xfe;" horiz-adv-x="562" 
d="M81 87l-58 -261q-2 -12 -14 -12q-7 0 -11.5 5.5t-2.5 12.5l182 825q2 12 14 12q7 0 11.5 -5.5t2.5 -12.5l-53 -245q66 89 172 89q86 0 138 -53.5t52 -144.5q2 -126 -72 -219t-181 -90q-60 0 -106.5 26.5t-73.5 72.5zM322 468q-52 0 -101 -29t-79 -75l-55 -251
q21 -44 67.5 -71t106.5 -27q62 -2 113.5 39t79 105.5t26.5 133.5q0 81 -43 128t-115 47z" />
    <glyph glyph-name="ydieresis" unicode="&#xff;" horiz-adv-x="471" 
d="M-20 -159q18 -5 34 -5q41 0 81 61l66 100l-93 468v3q0 6 4.5 11.5t10.5 5.5q14 0 16 -13l88 -437l286 443q4 7 13 7q6 0 10.5 -4.5t4.5 -11.5l-2 -8l-375 -575q-54 -82 -120 -82q-13 0 -33 4q-12 2 -12 16q0 8 7 13.5t14 3.5zM194 615q0 13 9 22t22 9q10 0 17.5 -7
t7.5 -18q0 -13 -9 -22t-22 -9q-11 0 -18 7.5t-7 17.5zM396 615q0 13 9 22t22 9q10 0 17.5 -7t7.5 -18q0 -13 -9 -22t-22 -9q-11 0 -18 7.5t-7 17.5z" />
    <glyph glyph-name="Amacron" unicode="&#x100;" horiz-adv-x="636" 
d="M557 19v-3q0 -18 -17 -18q-14 0 -16 14l-32 167h-372l-110 -173q-6 -8 -14 -8q-7 0 -12 5t-5 12q0 3 3 9l403 632q7 13 23 13q10 0 17.5 -6t8.5 -16zM139 209h347l-81 421zM293 761q0 14 13 14h259q13 0 13 -13q0 -14 -13 -14h-259q-13 0 -13 13z" />
    <glyph glyph-name="amacron" unicode="&#x101;" horiz-adv-x="566" 
d="M529 467l-101 -457q-2 -12 -14 -12q-7 0 -11 5.5t-3 12.5l13 60q-71 -88 -172 -88q-86 0 -138 53.5t-52 144.5q-2 125 72 218t181 91q60 0 107.5 -27t72.5 -73l17 78q2 12 14 12q7 0 11.5 -5.5t2.5 -12.5zM423 119l55 251q-21 44 -67.5 71t-106.5 27q-62 2 -113.5 -39
t-79 -105.5t-26.5 -133.5q0 -81 43 -128t115 -47q52 0 101 29t79 75zM227 614q0 14 13 14h259q13 0 13 -13q0 -14 -13 -14h-259q-13 0 -13 13z" />
    <glyph glyph-name="Abreve" unicode="&#x102;" horiz-adv-x="636" 
d="M557 19v-3q0 -18 -17 -18q-14 0 -16 14l-32 167h-372l-110 -173q-6 -8 -14 -8q-7 0 -12 5t-5 12q0 3 3 9l403 632q7 13 23 13q10 0 17.5 -6t8.5 -16zM139 209h347l-81 421zM274 789q-3 6 -3 8q0 6 4.5 10.5t10.5 4.5q8 0 12 -7q45 -67 131 -67q92 0 164 72q3 3 9 3
q13 0 13 -13q0 -5 -4 -9q-83 -80 -186 -80q-102 0 -151 78z" />
    <glyph glyph-name="abreve" unicode="&#x103;" horiz-adv-x="566" 
d="M529 467l-101 -457q-2 -12 -14 -12q-7 0 -11 5.5t-3 12.5l13 60q-71 -88 -172 -88q-86 0 -138 53.5t-52 144.5q-2 125 72 218t181 91q60 0 107.5 -27t72.5 -73l17 78q2 12 14 12q7 0 11.5 -5.5t2.5 -12.5zM423 119l55 251q-21 44 -67.5 71t-106.5 27q-62 2 -113.5 -39
t-79 -105.5t-26.5 -133.5q0 -81 43 -128t115 -47q52 0 101 29t79 75zM208 642q-3 6 -3 8q0 6 4.5 10.5t10.5 4.5q8 0 12 -7q45 -67 131 -67q92 0 164 72q3 3 9 3q13 0 13 -13q0 -5 -4 -9q-83 -80 -186 -80q-102 0 -151 78z" />
    <glyph glyph-name="Aogonek" unicode="&#x104;" horiz-adv-x="636" 
d="M417 -123q0 -36 43 -36q14 0 29 6q1 1 4 1q13 0 13 -12q0 -8 -7 -11q-24 -11 -45 -11q-32 0 -52 15.5t-20 41.5q0 37 39 75q42 38 95 59l9 3l-1 4l-32 167h-372l-110 -173q-6 -8 -14 -8q-7 0 -12 5t-5 12q0 3 3 9l403 632q7 13 23 13q10 0 17.5 -6t8.5 -16l123 -628v-3
q0 -18 -16 -18q-61 -27 -92.5 -59t-31.5 -62zM139 209h347l-81 421z" />
    <glyph glyph-name="aogonek" unicode="&#x105;" horiz-adv-x="566" 
d="M529 467l-101 -457q-2 -12 -13 -12q-61 -27 -92.5 -59t-31.5 -62q0 -36 43 -36q14 0 29 6q1 1 4 1q13 0 13 -12q0 -8 -7 -11q-24 -11 -45 -11q-32 0 -52 15.5t-20 41.5q0 37 39 75q42 38 95 59q9 3 10 3v8l13 60q-71 -88 -172 -88q-86 0 -138 53.5t-52 144.5
q-2 125 72 218t181 91q60 0 107.5 -27t72.5 -73l17 78q2 12 14 12q7 0 11.5 -5.5t2.5 -12.5zM423 119l55 251q-21 44 -67.5 71t-106.5 27q-62 2 -113.5 -39t-79 -105.5t-26.5 -133.5q0 -81 43 -128t115 -47q52 0 101 29t79 75z" />
    <glyph glyph-name="Cacute" unicode="&#x106;" horiz-adv-x="667" 
d="M438 678q161 0 243 -115q3 -5 3 -10q0 -7 -5 -12.5t-13 -5.5t-14 8q-72 105 -217 105q-60 1 -118.5 -26t-105 -75t-74.5 -120t-27 -153q0 -116 70 -186t187 -70q99 0 188 68q3 3 9 3q7 0 11.5 -4.5t4.5 -10.5t-6 -12q-98 -74 -209 -74q-129 0 -210 79t-81 207
q-2 85 29.5 162t83 129.5t117.5 83t134 29.5zM504 721q-9 0 -9 9q0 6 5 9l165 126q5 3 9 3q6 0 10 -4.5t4 -9.5q0 -9 -7 -13l-167 -116q-4 -4 -10 -4z" />
    <glyph glyph-name="cacute" unicode="&#x107;" horiz-adv-x="493" 
d="M315 495q107 0 160 -75q3 -6 3 -9q0 -14 -15 -14q-7 0 -12 6q-46 65 -133 65q-101 2 -168.5 -80.5t-65.5 -190.5q0 -86 49 -134t129 -48q75 0 131 56q3 4 10 4q14 0 14 -13q0 -6 -4 -10q-67 -64 -153 -64q-92 0 -150.5 56.5t-58.5 155.5q-3 118 77 207.5t187 87.5z
M367 574q-9 0 -9 9q0 6 5 9l165 126q4 3 9 3q6 0 10 -4.5t4 -9.5q0 -9 -7 -13l-167 -116q-4 -4 -10 -4z" />
    <glyph glyph-name="Ccircumflex" unicode="&#x108;" horiz-adv-x="667" 
d="M438 678q161 0 243 -115q3 -5 3 -10q0 -7 -5 -12.5t-13 -5.5t-14 8q-72 105 -217 105q-60 1 -118.5 -26t-105 -75t-74.5 -120t-27 -153q0 -116 70 -186t187 -70q99 0 188 68q3 3 9 3q7 0 11.5 -4.5t4.5 -10.5t-6 -12q-98 -74 -209 -74q-129 0 -210 79t-81 207
q-2 85 29.5 162t83 129.5t117.5 83t134 29.5zM585 728l-63 115l-112 -118q-4 -4 -8 -4q-12 0 -12 11q0 5 3 8l107 118q9 11 23 11h4q17 0 25 -18l54 -113q1 -1 1 -4q0 -13 -12 -13q-6 0 -10 7z" />
    <glyph glyph-name="ccircumflex" unicode="&#x109;" horiz-adv-x="493" 
d="M315 495q107 0 160 -75q3 -6 3 -9q0 -14 -15 -14q-7 0 -12 6q-46 65 -133 65q-101 2 -168.5 -80.5t-65.5 -190.5q0 -86 49 -134t129 -48q75 0 131 56q3 4 10 4q14 0 14 -13q0 -6 -4 -10q-67 -64 -153 -64q-92 0 -150.5 56.5t-58.5 155.5q-3 118 77 207.5t187 87.5z
M448 581l-63 115l-112 -118q-4 -4 -8 -4q-12 0 -12 11q0 5 3 8l107 118q9 11 23 11h4q17 0 25 -18l54 -113q1 -1 1 -4q0 -13 -12 -13q-6 0 -10 7z" />
    <glyph glyph-name="Cdotaccent" unicode="&#x10a;" horiz-adv-x="667" 
d="M438 678q161 0 243 -115q3 -5 3 -10q0 -7 -5 -12.5t-13 -5.5t-14 8q-72 105 -217 105q-60 1 -118.5 -26t-105 -75t-74.5 -120t-27 -153q0 -116 70 -186t187 -70q99 0 188 68q3 3 9 3q7 0 11.5 -4.5t4.5 -10.5t-6 -12q-98 -74 -209 -74q-129 0 -210 79t-81 207
q-2 85 29.5 162t83 129.5t117.5 83t134 29.5zM473 759q0 13 9.5 22.5t22.5 9.5q11 0 18.5 -7.5t7.5 -18.5q0 -13 -9.5 -22.5t-22.5 -9.5q-11 0 -18.5 7.5t-7.5 18.5z" />
    <glyph glyph-name="cdotaccent" unicode="&#x10b;" horiz-adv-x="493" 
d="M315 495q107 0 160 -75q3 -6 3 -9q0 -14 -15 -14q-7 0 -12 6q-46 65 -133 65q-101 2 -168.5 -80.5t-65.5 -190.5q0 -86 49 -134t129 -48q75 0 131 56q3 4 10 4q14 0 14 -13q0 -6 -4 -10q-67 -64 -153 -64q-92 0 -150.5 56.5t-58.5 155.5q-3 118 77 207.5t187 87.5z
M336 612q0 13 9.5 22.5t22.5 9.5q11 0 18.5 -7.5t7.5 -18.5q0 -13 -9.5 -22.5t-22.5 -9.5q-11 0 -18.5 7.5t-7.5 18.5z" />
    <glyph glyph-name="Ccaron" unicode="&#x10c;" horiz-adv-x="667" 
d="M438 678q161 0 243 -115q3 -5 3 -10q0 -7 -5 -12.5t-13 -5.5t-14 8q-72 105 -217 105q-60 1 -118.5 -26t-105 -75t-74.5 -120t-27 -153q0 -116 70 -186t187 -70q99 0 188 68q3 3 9 3q7 0 11.5 -4.5t4.5 -10.5t-6 -12q-98 -74 -209 -74q-129 0 -210 79t-81 207
q-2 85 29.5 162t83 129.5t117.5 83t134 29.5zM435 862l63 -115l112 118q4 4 8 4q12 0 12 -11q0 -5 -3 -8l-107 -118q-9 -11 -23 -11h-4q-17 0 -25 18l-54 113q-1 1 -1 4q0 13 12 13q6 0 10 -7z" />
    <glyph glyph-name="ccaron" unicode="&#x10d;" horiz-adv-x="493" 
d="M315 495q107 0 160 -75q3 -6 3 -9q0 -14 -15 -14q-7 0 -12 6q-46 65 -133 65q-101 2 -168.5 -80.5t-65.5 -190.5q0 -86 49 -134t129 -48q75 0 131 56q3 4 10 4q14 0 14 -13q0 -6 -4 -10q-67 -64 -153 -64q-92 0 -150.5 56.5t-58.5 155.5q-3 118 77 207.5t187 87.5z
M298 715l63 -115l112 118q4 4 8 4q12 0 12 -11q0 -5 -3 -8l-107 -118q-9 -11 -23 -11h-4q-17 0 -25 18l-54 113q-1 1 -1 4q0 13 12 13q6 0 10 -7z" />
    <glyph glyph-name="Dcaron" unicode="&#x10e;" horiz-adv-x="684" 
d="M38 20l140 631q3 16 19 16h177q112 0 189 -81.5t77 -201.5q1 -72 -27 -141t-79.5 -124t-130.5 -87.5t-172 -31.5h-177q-21 0 -16 20zM606 384q0 108 -68.5 180.5t-169.5 72.5h-161l-135 -607h164q161 -3 266.5 102.5t103.5 251.5zM393 862l63 -115l112 118q4 4 8 4
q12 0 12 -11q0 -5 -3 -8l-107 -118q-9 -11 -23 -11h-4q-17 0 -25 18l-54 113q-1 1 -1 4q0 13 12 13q6 0 10 -7z" />
    <glyph glyph-name="dcaron" unicode="&#x10f;" horiz-adv-x="605" 
d="M570 651l-142 -641q-2 -12 -14 -12q-7 0 -11 5.5t-3 12.5l13 60q-71 -88 -172 -88q-86 0 -138 53.5t-52 144.5q-2 125 72 218t181 91q60 0 106.5 -26.5t73.5 -72.5l58 261q2 12 14 12q7 0 11.5 -5.5t2.5 -12.5zM423 119l55 251q-21 44 -67.5 71t-106.5 27
q-62 2 -113.5 -39t-79 -105.5t-26.5 -133.5q0 -81 43 -128t115 -47q52 0 101 29t79 75zM603 515q-13 0 -13 13q0 6 6 11q49 33 60 77h-6q-10 0 -18 8.5t-8 19.5q0 15 10.5 25.5t24.5 10.5q32 0 32 -38q0 -32 -22 -65t-56 -58q-4 -4 -10 -4z" />
    <glyph glyph-name="Dcroat" unicode="&#x110;" horiz-adv-x="715" 
d="M671 384q1 -72 -27 -141t-79.5 -124t-130.5 -87.5t-172 -31.5h-177q-21 0 -16 20l66 299h-90q-6 0 -10.5 4.5t-4.5 10.5t4.5 10.5t10.5 4.5h97l67 302q3 16 19 16h177q112 0 189 -81.5t77 -201.5zM637 384q0 108 -68.5 180.5t-169.5 72.5h-161l-64 -288h170
q6 0 10.5 -4.5t4.5 -10.5t-4.5 -10.5t-10.5 -4.5h-177l-64 -289h164q161 -3 266.5 102.5t103.5 251.5z" />
    <glyph glyph-name="dslash" unicode="&#x111;" horiz-adv-x="569" 
d="M607 555q0 -6 -4.5 -10t-9.5 -4h-47l-118 -531q-2 -12 -14 -12q-7 0 -11 5.5t-3 12.5l13 60q-71 -88 -172 -88q-86 0 -138 53.5t-52 144.5q-2 125 72 218t181 91q60 0 106.5 -26.5t73.5 -72.5l32 145h-170q-5 0 -9.5 4t-4.5 9q0 6 4.5 10t9.5 4h176l20 89q2 12 14 12
q7 0 11.5 -5.5t2.5 -12.5l-18 -83h41q5 0 9.5 -4t4.5 -9zM423 119l55 251q-21 44 -67.5 71t-106.5 27q-62 2 -113.5 -39t-79 -105.5t-26.5 -133.5q0 -81 43 -128t115 -47q52 0 101 29t79 75z" />
    <glyph glyph-name="Emacron" unicode="&#x112;" horiz-adv-x="558" 
d="M38 20l140 631q3 16 19 16h375q6 0 10.5 -4.5t4.5 -10.5t-4.5 -10.5t-10.5 -4.5h-365l-62 -279h352q6 0 10.5 -4.5t4.5 -10.5t-4.5 -10.5t-10.5 -4.5h-359l-66 -298h359q6 0 10.5 -4.5t4.5 -10.5t-4.5 -10.5t-10.5 -4.5h-377q-21 0 -16 20zM270 761q0 14 13 14h259
q13 0 13 -13q0 -14 -13 -14h-259q-13 0 -13 13z" />
    <glyph glyph-name="emacron" unicode="&#x113;" horiz-adv-x="571" 
d="M316 495q93 0 147 -58.5t54 -148.5q0 -19 -4 -40q-3 -16 -19 -16h-407q-2 -16 -2 -32q0 -83 50.5 -134t139.5 -51q77 0 144 49q3 3 7 3q14 0 14 -13q0 -6 -6 -11q-73 -55 -159 -55q-104 0 -164 58.5t-60 153.5q-2 119 78 208t187 87zM487 285q0 84 -47 133.5t-129 49.5
q-78 0 -142.5 -62t-78.5 -147h395q2 16 2 26zM226 614q0 14 13 14h259q13 0 13 -13q0 -14 -13 -14h-259q-13 0 -13 13z" />
    <glyph glyph-name="Ebreve" unicode="&#x114;" horiz-adv-x="558" 
d="M38 20l140 631q3 16 19 16h375q6 0 10.5 -4.5t4.5 -10.5t-4.5 -10.5t-10.5 -4.5h-365l-62 -279h352q6 0 10.5 -4.5t4.5 -10.5t-4.5 -10.5t-10.5 -4.5h-359l-66 -298h359q6 0 10.5 -4.5t4.5 -10.5t-4.5 -10.5t-10.5 -4.5h-377q-21 0 -16 20zM251 789q-3 6 -3 8
q0 6 4.5 10.5t10.5 4.5q8 0 12 -7q45 -67 131 -67q92 0 164 72q3 3 9 3q13 0 13 -13q0 -5 -4 -9q-83 -80 -186 -80q-102 0 -151 78z" />
    <glyph glyph-name="ebreve" unicode="&#x115;" horiz-adv-x="571" 
d="M316 495q93 0 147 -58.5t54 -148.5q0 -19 -4 -40q-3 -16 -19 -16h-407q-2 -16 -2 -32q0 -83 50.5 -134t139.5 -51q77 0 144 49q3 3 7 3q14 0 14 -13q0 -6 -6 -11q-73 -55 -159 -55q-104 0 -164 58.5t-60 153.5q-2 119 78 208t187 87zM487 285q0 84 -47 133.5t-129 49.5
q-78 0 -142.5 -62t-78.5 -147h395q2 16 2 26zM207 642q-3 6 -3 8q0 6 4.5 10.5t10.5 4.5q8 0 12 -7q45 -67 131 -67q92 0 164 72q3 3 9 3q13 0 13 -13q0 -5 -4 -9q-83 -80 -186 -80q-102 0 -151 78z" />
    <glyph glyph-name="Edotaccent" unicode="&#x116;" horiz-adv-x="558" 
d="M38 20l140 631q3 16 19 16h375q6 0 10.5 -4.5t4.5 -10.5t-4.5 -10.5t-10.5 -4.5h-365l-62 -279h352q6 0 10.5 -4.5t4.5 -10.5t-4.5 -10.5t-10.5 -4.5h-359l-66 -298h359q6 0 10.5 -4.5t4.5 -10.5t-4.5 -10.5t-10.5 -4.5h-377q-21 0 -16 20zM381 759q0 13 9.5 22.5
t22.5 9.5q11 0 18.5 -7.5t7.5 -18.5q0 -13 -9.5 -22.5t-22.5 -9.5q-11 0 -18.5 7.5t-7.5 18.5z" />
    <glyph glyph-name="edotaccent" unicode="&#x117;" horiz-adv-x="571" 
d="M316 495q93 0 147 -58.5t54 -148.5q0 -19 -4 -40q-3 -16 -19 -16h-407q-2 -16 -2 -32q0 -83 50.5 -134t139.5 -51q77 0 144 49q3 3 7 3q14 0 14 -13q0 -6 -6 -11q-73 -55 -159 -55q-104 0 -164 58.5t-60 153.5q-2 119 78 208t187 87zM487 285q0 84 -47 133.5t-129 49.5
q-78 0 -142.5 -62t-78.5 -147h395q2 16 2 26zM337 612q0 13 9.5 22.5t22.5 9.5q11 0 18.5 -7.5t7.5 -18.5q0 -13 -9.5 -22.5t-22.5 -9.5q-11 0 -18.5 7.5t-7.5 18.5z" />
    <glyph glyph-name="Eogonek" unicode="&#x118;" horiz-adv-x="558" 
d="M587 652q0 -6 -4.5 -10.5t-10.5 -4.5h-365l-62 -279h352q6 0 10.5 -4.5t4.5 -10.5t-4.5 -10.5t-10.5 -4.5h-359l-66 -298h359q6 0 10.5 -4.5t4.5 -10.5q0 -13 -13 -15q-128 -57 -128 -123q0 -36 43 -36q14 0 29 6q1 1 4 1q13 0 13 -12q0 -8 -7 -11q-24 -11 -45 -11
q-32 0 -52 15.5t-20 41.5q0 35 34.5 69.5t88.5 59.5h-339q-21 0 -16 20l140 631q3 16 19 16h375q6 0 10.5 -4.5t4.5 -10.5z" />
    <glyph glyph-name="eogonek" unicode="&#x119;" horiz-adv-x="571" 
d="M322 -7q-25 -5 -47 -5q-104 0 -164 58.5t-60 153.5q-2 119 78 208t187 87q93 0 147 -58.5t54 -148.5q0 -19 -4 -40q-3 -16 -19 -16h-407q-2 -16 -2 -32q0 -83 50.5 -134t139.5 -51q79 0 144 50q6 2 8 2q12 0 12 -12q0 -7 -6 -11q-110 -72 -142.5 -103t-34.5 -64
q0 -36 43 -36q14 0 29 6q1 1 4 1q13 0 13 -12q0 -8 -7 -11q-24 -11 -45 -11q-32 0 -52 15.5t-20 41.5q0 62 101 122zM487 285q0 84 -47 133.5t-129 49.5q-78 0 -142.5 -62t-78.5 -147h395q2 16 2 26z" />
    <glyph glyph-name="Ecaron" unicode="&#x11a;" horiz-adv-x="558" 
d="M38 20l140 631q3 16 19 16h375q6 0 10.5 -4.5t4.5 -10.5t-4.5 -10.5t-10.5 -4.5h-365l-62 -279h352q6 0 10.5 -4.5t4.5 -10.5t-4.5 -10.5t-10.5 -4.5h-359l-66 -298h359q6 0 10.5 -4.5t4.5 -10.5t-4.5 -10.5t-10.5 -4.5h-377q-21 0 -16 20zM343 862l63 -115l112 118
q4 4 8 4q12 0 12 -11q0 -5 -3 -8l-107 -118q-9 -11 -23 -11h-4q-17 0 -25 18l-54 113q-1 1 -1 4q0 13 12 13q6 0 10 -7z" />
    <glyph glyph-name="ecaron" unicode="&#x11b;" horiz-adv-x="571" 
d="M316 495q93 0 147 -58.5t54 -148.5q0 -19 -4 -40q-3 -16 -19 -16h-407q-2 -16 -2 -32q0 -83 50.5 -134t139.5 -51q77 0 144 49q3 3 7 3q14 0 14 -13q0 -6 -6 -11q-73 -55 -159 -55q-104 0 -164 58.5t-60 153.5q-2 119 78 208t187 87zM487 285q0 84 -47 133.5t-129 49.5
q-78 0 -142.5 -62t-78.5 -147h395q2 16 2 26zM299 715l63 -115l112 118q4 4 8 4q12 0 12 -11q0 -5 -3 -8l-107 -118q-9 -11 -23 -11h-4q-17 0 -25 18l-54 113q-1 1 -1 4q0 13 12 13q6 0 10 -7z" />
    <glyph glyph-name="Gcircumflex" unicode="&#x11c;" horiz-adv-x="708" 
d="M685 553q0 -6 -4.5 -11t-11.5 -5q-9 0 -13 7q-72 104 -221 104q-128 3 -228 -108t-97 -266q0 -117 70.5 -186.5t186.5 -69.5q118 0 212 88l41 184h-258q-6 0 -10.5 4.5t-4.5 10.5t4.5 10.5t10.5 4.5h276q21 0 16 -20l-44 -200q-3 -11 -12 -20q-109 -92 -233 -92
q-133 0 -212 80t-79 206q-2 83 28.5 159.5t81 130t117.5 84.5t137 30q159 0 244 -117q3 -3 3 -8zM581 728l-63 115l-112 -118q-4 -4 -8 -4q-12 0 -12 11q0 5 3 8l107 118q9 11 23 11h4q17 0 25 -18l54 -113q1 -1 1 -4q0 -13 -12 -13q-6 0 -10 7z" />
    <glyph glyph-name="gcircumflex" unicode="&#x11d;" horiz-adv-x="566" 
d="M529 467l-104 -470q-43 -193 -213 -193q-132 0 -192 69q-4 5 -4 11q0 7 5 12t12 5q9 0 13 -6q52 -64 166 -64q69 0 117 41t66 125l17 80q-66 -89 -178 -89q-83 0 -133.5 53.5t-50.5 149.5q-2 121 71 214t181 90q52 0 102.5 -28t78.5 -71l18 77q2 12 14 12q7 0 11.5 -5.5
t2.5 -12.5zM420 111l58 259q-23 44 -72.5 71t-106.5 27q-61 2 -112.5 -40t-78 -105.5t-25.5 -130.5q0 -83 42.5 -130t114.5 -47q48 0 97 27t83 69zM450 581l-63 115l-112 -118q-4 -4 -8 -4q-12 0 -12 11q0 5 3 8l107 118q9 11 23 11h4q17 0 25 -18l54 -113q1 -1 1 -4
q0 -13 -12 -13q-6 0 -10 7z" />
    <glyph glyph-name="Gbreve" unicode="&#x11e;" horiz-adv-x="708" 
d="M685 553q0 -6 -4.5 -11t-11.5 -5q-9 0 -13 7q-72 104 -221 104q-128 3 -228 -108t-97 -266q0 -117 70.5 -186.5t186.5 -69.5q118 0 212 88l41 184h-258q-6 0 -10.5 4.5t-4.5 10.5t4.5 10.5t10.5 4.5h276q21 0 16 -20l-44 -200q-3 -11 -12 -20q-109 -92 -233 -92
q-133 0 -212 80t-79 206q-2 83 28.5 159.5t81 130t117.5 84.5t137 30q159 0 244 -117q3 -3 3 -8zM339 789q-3 6 -3 8q0 6 4.5 10.5t10.5 4.5q8 0 12 -7q45 -67 131 -67q92 0 164 72q3 3 9 3q13 0 13 -13q0 -5 -4 -9q-83 -80 -186 -80q-102 0 -151 78z" />
    <glyph glyph-name="gbreve" unicode="&#x11f;" horiz-adv-x="566" 
d="M529 467l-104 -470q-43 -193 -213 -193q-132 0 -192 69q-4 5 -4 11q0 7 5 12t12 5q9 0 13 -6q52 -64 166 -64q69 0 117 41t66 125l17 80q-66 -89 -178 -89q-83 0 -133.5 53.5t-50.5 149.5q-2 121 71 214t181 90q52 0 102.5 -28t78.5 -71l18 77q2 12 14 12q7 0 11.5 -5.5
t2.5 -12.5zM420 111l58 259q-23 44 -72.5 71t-106.5 27q-61 2 -112.5 -40t-78 -105.5t-25.5 -130.5q0 -83 42.5 -130t114.5 -47q48 0 97 27t83 69zM208 642q-3 6 -3 8q0 6 4.5 10.5t10.5 4.5q8 0 12 -7q45 -67 131 -67q92 0 164 72q3 3 9 3q13 0 13 -13q0 -5 -4 -9
q-83 -80 -186 -80q-102 0 -151 78z" />
    <glyph glyph-name="Gdotaccent" unicode="&#x120;" horiz-adv-x="708" 
d="M685 553q0 -6 -4.5 -11t-11.5 -5q-9 0 -13 7q-72 104 -221 104q-128 3 -228 -108t-97 -266q0 -117 70.5 -186.5t186.5 -69.5q118 0 212 88l41 184h-258q-6 0 -10.5 4.5t-4.5 10.5t4.5 10.5t10.5 4.5h276q21 0 16 -20l-44 -200q-3 -11 -12 -20q-109 -92 -233 -92
q-133 0 -212 80t-79 206q-2 83 28.5 159.5t81 130t117.5 84.5t137 30q159 0 244 -117q3 -3 3 -8zM469 759q0 13 9.5 22.5t22.5 9.5q11 0 18.5 -7.5t7.5 -18.5q0 -13 -9.5 -22.5t-22.5 -9.5q-11 0 -18.5 7.5t-7.5 18.5z" />
    <glyph glyph-name="gdotaccent" unicode="&#x121;" horiz-adv-x="566" 
d="M529 467l-104 -470q-43 -193 -213 -193q-132 0 -192 69q-4 5 -4 11q0 7 5 12t12 5q9 0 13 -6q52 -64 166 -64q69 0 117 41t66 125l17 80q-66 -89 -178 -89q-83 0 -133.5 53.5t-50.5 149.5q-2 121 71 214t181 90q52 0 102.5 -28t78.5 -71l18 77q2 12 14 12q7 0 11.5 -5.5
t2.5 -12.5zM420 111l58 259q-23 44 -72.5 71t-106.5 27q-61 2 -112.5 -40t-78 -105.5t-25.5 -130.5q0 -83 42.5 -130t114.5 -47q48 0 97 27t83 69zM338 612q0 13 9.5 22.5t22.5 9.5q11 0 18.5 -7.5t7.5 -18.5q0 -13 -9.5 -22.5t-22.5 -9.5q-11 0 -18.5 7.5t-7.5 18.5z" />
    <glyph glyph-name="uni0122" unicode="&#x122;" horiz-adv-x="708" 
d="M685 553q0 -6 -4.5 -11t-11.5 -5q-9 0 -13 7q-72 104 -221 104q-128 3 -228 -108t-97 -266q0 -117 70.5 -186.5t186.5 -69.5q118 0 212 88l41 184h-258q-6 0 -10.5 4.5t-4.5 10.5t4.5 10.5t10.5 4.5h276q21 0 16 -20l-44 -200q-3 -11 -12 -20q-109 -92 -233 -92
q-133 0 -212 80t-79 206q-2 83 28.5 159.5t81 130t117.5 84.5t137 30q159 0 244 -117q3 -3 3 -8zM251 -249q-13 0 -13 13q0 6 6 11q49 33 60 77h-6q-10 0 -18 8.5t-8 19.5q0 15 10.5 25.5t24.5 10.5q32 0 32 -38q0 -32 -22 -65t-56 -58q-4 -4 -10 -4z" />
    <glyph glyph-name="uni0123" unicode="&#x123;" horiz-adv-x="566" 
d="M321 603q0 32 22 65t56 58q4 4 10 4q13 0 13 -13q0 -7 -6 -11q-49 -33 -60 -77h6q10 0 18 -8.5t8 -19.5q0 -15 -10.5 -25.5t-24.5 -10.5q-32 0 -32 38zM529 467l-104 -470q-43 -193 -213 -193q-132 0 -192 69q-4 5 -4 11q0 7 5 12t12 5q9 0 13 -6q52 -64 166 -64
q69 0 117 41t66 125l17 80q-66 -89 -178 -89q-83 0 -133.5 53.5t-50.5 149.5q-2 121 71 214t181 90q52 0 102.5 -28t78.5 -71l18 77q2 12 14 12q7 0 11.5 -5.5t2.5 -12.5zM420 111l58 259q-23 44 -72.5 71t-106.5 27q-61 2 -112.5 -40t-78 -105.5t-25.5 -130.5
q0 -83 42.5 -130t114.5 -47q48 0 97 27t83 69z" />
    <glyph glyph-name="Hcircumflex" unicode="&#x124;" horiz-adv-x="695" 
d="M525 17l68 311h-455l-70 -317q-2 -13 -15 -13q-7 0 -12 5.5t-3 13.5l141 639q2 13 15 13q7 0 12 -5.5t3 -13.5l-64 -292h455l66 298q2 13 15 13q7 0 12 -5.5t3 -13.5l-141 -639q-2 -13 -15 -13q-7 0 -12 5.5t-3 13.5zM545 728l-63 115l-112 -118q-4 -4 -8 -4
q-12 0 -12 11q0 5 3 8l107 118q9 11 23 11h4q17 0 25 -18l54 -113q1 -1 1 -4q0 -13 -12 -13q-6 0 -10 7z" />
    <glyph glyph-name="hcircumflex" unicode="&#x125;" 
d="M362 16l71 323q6 27 6 37q0 46 -30.5 69t-84.5 23q-44 0 -92.5 -26.5t-86.5 -67.5l-81 -364q-2 -12 -14 -12q-7 0 -11 5.5t-3 12.5l141 641q2 12 14 12q7 0 11.5 -5.5t2.5 -12.5l-53 -244q88 88 178 88q64 0 101 -30t37 -86q0 -23 -6 -42l-72 -327q-2 -12 -14 -12
q-7 0 -11 5.5t-3 12.5zM460 728l-63 115l-112 -118q-4 -4 -8 -4q-12 0 -12 11q0 5 3 8l107 118q9 11 23 11h4q17 0 25 -18l54 -113q1 -1 1 -4q0 -13 -12 -13q-6 0 -10 7z" />
    <glyph glyph-name="Hbar" unicode="&#x126;" horiz-adv-x="717" 
d="M764 515q0 -14 -13 -14h-76l-108 -490q-2 -13 -15 -13q-7 0 -12 5.5t-3 13.5l68 311h-455l-70 -317q-2 -13 -15 -13q-7 0 -12 5.5t-3 13.5l107 484h-73q-13 0 -13 14q0 13 13 13h79l28 128q2 13 15 13q7 0 12 -5.5t3 -13.5l-27 -122h456l28 128q2 13 15 13q7 0 12 -5.5
t3 -13.5l-27 -122h70q13 0 13 -13zM612 358l32 143h-456l-31 -143h455z" />
    <glyph glyph-name="hbar" unicode="&#x127;" horiz-adv-x="530" 
d="M470 379q0 -23 -6 -42l-72 -327q-2 -12 -14 -12q-7 0 -11 5.5t-3 12.5l71 323q6 27 6 37q0 46 -30.5 69t-84.5 23q-44 0 -92.5 -26.5t-86.5 -67.5l-81 -364q-2 -12 -14 -12q-7 0 -11 5.5t-3 12.5l115 525h-61q-13 0 -13 14q0 13 13 13h67l20 89q2 12 14 12q7 0 11.5 -5.5
t2.5 -12.5l-18 -83h151q13 0 13 -14q0 -13 -13 -13h-157l-29 -134q88 88 178 88q64 0 101 -30t37 -86z" />
    <glyph glyph-name="Itilde" unicode="&#x128;" horiz-adv-x="208" 
d="M38 17l141 639q2 13 15 13q7 0 12 -5.5t3 -13.5l-141 -639q-2 -13 -15 -13q-7 0 -12 5.5t-3 13.5zM163 834q-50 0 -74 -99q-2 -10 -12 -10q-7 0 -11 5t-2 12q28 119 100 119q26 0 42 -15.5t28 -45.5q12 -29 22.5 -40.5t28.5 -11.5q49 0 75 99q2 10 12 10q6 0 10 -5.5
t3 -11.5q-28 -119 -101 -119q-26 0 -42 15.5t-28 45.5q-12 29 -22.5 40.5t-28.5 11.5z" />
    <glyph glyph-name="itilde" unicode="&#x129;" horiz-adv-x="202" 
d="M36 16l101 457q2 12 14 12q7 0 11.5 -5.5t2.5 -12.5l-101 -457q-2 -12 -14 -12q-7 0 -11 5.5t-3 12.5zM128 687q-50 0 -74 -99q-2 -10 -12 -10q-7 0 -11 5t-2 12q28 119 100 119q26 0 42 -15.5t28 -45.5q12 -29 22.5 -40.5t28.5 -11.5q50 0 75 99q2 10 12 10q6 0 10 -5.5
t3 -11.5q-28 -119 -101 -119q-26 0 -42 15.5t-28 45.5q-12 29 -22.5 40.5t-28.5 11.5z" />
    <glyph glyph-name="Imacron" unicode="&#x12a;" horiz-adv-x="208" 
d="M38 17l141 639q2 13 15 13q7 0 12 -5.5t3 -13.5l-141 -639q-2 -13 -15 -13q-7 0 -12 5.5t-3 13.5zM78 761q0 14 13 14h259q13 0 13 -13q0 -14 -13 -14h-259q-13 0 -13 13z" />
    <glyph glyph-name="imacron" unicode="&#x12b;" horiz-adv-x="202" 
d="M36 16l101 457q2 12 14 12q7 0 11.5 -5.5t2.5 -12.5l-101 -457q-2 -12 -14 -12q-7 0 -11 5.5t-3 12.5zM43 614q0 14 13 14h259q13 0 13 -13q0 -14 -13 -14h-259q-13 0 -13 13z" />
    <glyph glyph-name="Ibreve" unicode="&#x12c;" horiz-adv-x="208" 
d="M38 17l141 639q2 13 15 13q7 0 12 -5.5t3 -13.5l-141 -639q-2 -13 -15 -13q-7 0 -12 5.5t-3 13.5zM59 789q-3 6 -3 8q0 6 4.5 10.5t10.5 4.5q8 0 12 -7q45 -67 131 -67q92 0 164 72q3 3 9 3q13 0 13 -13q0 -5 -4 -9q-83 -80 -186 -80q-102 0 -151 78z" />
    <glyph glyph-name="ibreve" unicode="&#x12d;" horiz-adv-x="202" 
d="M36 16l101 457q2 12 14 12q7 0 11.5 -5.5t2.5 -12.5l-101 -457q-2 -12 -14 -12q-7 0 -11 5.5t-3 12.5zM24 642q-3 6 -3 8q0 6 4.5 10.5t10.5 4.5q8 0 12 -7q45 -67 131 -67q92 0 164 72q3 3 9 3q13 0 13 -13q0 -5 -4 -9q-83 -80 -186 -80q-102 0 -151 78z" />
    <glyph glyph-name="Iogonek" unicode="&#x12e;" horiz-adv-x="208" 
d="M209 650l-141 -639q-2 -13 -14 -13q-61 -27 -92.5 -59t-31.5 -62q0 -36 43 -36q14 0 29 6q1 1 4 1q13 0 13 -12q0 -8 -7 -11q-24 -11 -45 -11q-32 0 -52 15.5t-20 41.5q0 38 40 75t94 59l10 3q-2 7 -1 9l141 639q2 13 15 13q7 0 12 -5.5t3 -13.5z" />
    <glyph glyph-name="iogonek" unicode="&#x12f;" horiz-adv-x="202" 
d="M213 618q0 -14 -10 -23t-23 -9q-11 0 -19 7.5t-8 18.5q0 14 10 23t23 9q11 0 19 -7.5t8 -18.5zM165 467l-101 -457q-2 -12 -13 -12q-61 -27 -92.5 -59t-31.5 -62q0 -36 43 -36q14 0 29 6q1 1 4 1q13 0 13 -12q0 -8 -7 -11q-24 -11 -45 -11q-32 0 -52 15.5t-20 41.5
q0 38 40 75t94 59q9 3 10 3v8l101 457q2 12 14 12q7 0 11.5 -5.5t2.5 -12.5z" />
    <glyph glyph-name="Idot" unicode="&#x130;" horiz-adv-x="208" 
d="M38 17l141 639q2 13 15 13q7 0 12 -5.5t3 -13.5l-141 -639q-2 -13 -15 -13q-7 0 -12 5.5t-3 13.5zM189 759q0 13 9.5 22.5t22.5 9.5q11 0 18.5 -7.5t7.5 -18.5q0 -13 -9.5 -22.5t-22.5 -9.5q-11 0 -18.5 7.5t-7.5 18.5z" />
    <glyph glyph-name="dotlessi" unicode="&#x131;" horiz-adv-x="202" 
d="M36 16l101 457q2 12 14 12q7 0 11.5 -5.5t2.5 -12.5l-101 -457q-2 -12 -14 -12q-7 0 -11 5.5t-3 12.5z" />
    <glyph glyph-name="IJ" unicode="&#x132;" horiz-adv-x="673" 
d="M38 17l141 639q2 13 15 13q7 0 12 -5.5t3 -13.5l-141 -639q-2 -13 -15 -13q-7 0 -12 5.5t-3 13.5zM196 77q0 7 5 12t12 5q8 0 14 -8q45 -68 134 -68q70 0 115.5 44t63.5 123l104 471q2 13 15 13q7 0 12 -5.5t3 -13.5l-102 -465q-21 -97 -76 -147t-135 -50q-113 0 -162 80
q-3 6 -3 9z" />
    <glyph glyph-name="ij" unicode="&#x133;" horiz-adv-x="404" 
d="M186 644q11 0 19 -7.5t8 -18.5q0 -14 -10 -23t-23 -9q-11 0 -19 7.5t-8 18.5q0 14 10 23t23 9zM36 16l101 457q2 12 14 12q7 0 11.5 -5.5t2.5 -12.5l-101 -457q-2 -12 -14 -12q-7 0 -11 5.5t-3 12.5zM355 612q0 14 10 23t23 9q11 0 19 -7.5t8 -18.5q0 -14 -10 -23t-23 -9
q-11 0 -19 7.5t-8 18.5zM68 -176q0 8 6 12t13 1q15 -6 35 -6q74 0 95 93l122 549q2 12 14 12q7 0 11.5 -5.5t2.5 -12.5l-120 -543q-27 -120 -125 -120q-27 0 -45 7q-9 5 -9 13z" />
    <glyph glyph-name="Jcircumflex" unicode="&#x134;" horiz-adv-x="465" 
d="M-12 77q0 7 5 12t12 5q8 0 14 -8q45 -68 134 -68q70 0 115.5 44t63.5 123l104 471q2 13 15 13q7 0 12 -5.5t3 -13.5l-102 -465q-21 -97 -76 -147t-135 -50q-113 0 -162 80q-3 6 -3 9zM561 745l-63 115l-112 -118q-4 -4 -8 -4q-12 0 -12 11q0 5 3 8l107 118q9 11 23 11h4
q17 0 25 -18l54 -113q1 -1 1 -4q0 -13 -12 -13q-6 0 -10 7z" />
    <glyph glyph-name="jcircumflex" unicode="&#x135;" horiz-adv-x="202" 
d="M-134 -176q0 8 6 12t13 1q15 -6 35 -6q74 0 95 93l122 549q2 12 14 12q7 0 11.5 -5.5t2.5 -12.5l-120 -543q-27 -120 -125 -120q-27 0 -45 7q-9 5 -9 13zM266 581l-63 115l-112 -118q-4 -4 -8 -4q-12 0 -12 11q0 5 3 8l107 118q9 11 23 11h4q17 0 25 -18l54 -113
q1 -1 1 -4q0 -13 -12 -13q-6 0 -10 7z" />
    <glyph glyph-name="uni0136" unicode="&#x136;" horiz-adv-x="571" 
d="M575 642l-332 -294l227 -325q3 -3 3 -9q0 -7 -5 -11.5t-11 -4.5q-10 0 -14 7l-222 326l-102 -90l-51 -230q-2 -13 -15 -13q-7 0 -12 5.5t-3 13.5l141 639q2 13 15 13q7 0 12 -5.5t3 -13.5l-80 -363l426 378q4 4 10 4t10.5 -4.5t4.5 -11.5q0 -6 -5 -11zM170 -249
q-13 0 -13 13q0 6 6 11q49 33 60 77h-6q-10 0 -18 8.5t-8 19.5q0 15 10.5 25.5t24.5 10.5q32 0 32 -38q0 -32 -22 -65t-56 -58q-4 -4 -10 -4z" />
    <glyph glyph-name="uni0137" unicode="&#x137;" horiz-adv-x="496" 
d="M497 460l-254 -195l159 -243q3 -6 3 -10q0 -6 -5 -10t-11 -4q-8 0 -12 7l-158 241l-124 -95l-31 -141q-2 -12 -14 -12q-7 0 -11 5.5t-3 12.5l141 641q2 12 14 12q7 0 11.5 -5.5t2.5 -12.5l-101 -459l375 290q3 3 9 3t10 -4.5t4 -9.5q0 -6 -5 -11zM120 -249q-13 0 -13 13
q0 6 6 11q49 33 60 77h-6q-10 0 -18 8.5t-8 19.5q0 15 10.5 25.5t24.5 10.5q32 0 32 -38q0 -32 -22 -65t-56 -58q-4 -4 -10 -4z" />
    <glyph glyph-name="kgreenlandic" unicode="&#x138;" horiz-adv-x="496" 
d="M497 460l-254 -195l159 -243q3 -6 3 -10q0 -6 -5 -10t-11 -4q-8 0 -12 7l-158 241l-124 -95l-31 -141q-2 -12 -14 -12q-7 0 -11 5.5t-3 12.5l101 457q2 12 14 12q7 0 11.5 -5.5t2.5 -12.5l-61 -275l375 290q3 3 9 3t10 -4.5t4 -9.5q0 -6 -5 -11z" />
    <glyph glyph-name="Lacute" unicode="&#x139;" horiz-adv-x="517" 
d="M38 20l141 636q2 13 15 13q7 0 12 -5.5t3 -13.5l-137 -620h318q6 0 10.5 -4.5t4.5 -10.5t-4.5 -10.5t-10.5 -4.5h-336q-21 0 -16 20zM220 721q-9 0 -9 9q0 6 5 9l165 126q5 3 9 3q6 0 10 -4.5t4 -9.5q0 -9 -7 -13l-167 -116q-4 -4 -10 -4z" />
    <glyph glyph-name="lacute" unicode="&#x13a;" horiz-adv-x="202" 
d="M36 16l141 641q2 12 14 12q7 0 11.5 -5.5t2.5 -12.5l-141 -641q-2 -12 -14 -12q-7 0 -11 5.5t-3 12.5zM218 721q-9 0 -9 9q0 6 5 9l165 126q5 3 9 3q6 0 10 -4.5t4 -9.5q0 -9 -7 -13l-167 -116q-4 -4 -10 -4z" />
    <glyph glyph-name="uni013B" unicode="&#x13b;" horiz-adv-x="517" 
d="M38 20l141 636q2 13 15 13q7 0 12 -5.5t3 -13.5l-137 -620h318q6 0 10.5 -4.5t4.5 -10.5t-4.5 -10.5t-10.5 -4.5h-336q-21 0 -16 20zM138 -249q-13 0 -13 13q0 6 6 11q49 33 60 77h-6q-10 0 -18 8.5t-8 19.5q0 15 10.5 25.5t24.5 10.5q32 0 32 -38q0 -32 -22 -65t-56 -58
q-4 -4 -10 -4z" />
    <glyph glyph-name="uni013C" unicode="&#x13c;" horiz-adv-x="202" 
d="M36 16l141 641q2 12 14 12q7 0 11.5 -5.5t2.5 -12.5l-141 -641q-2 -12 -14 -12q-7 0 -11 5.5t-3 12.5zM-33 -249q-13 0 -13 13q0 6 6 11q49 33 60 77h-6q-10 0 -18 8.5t-8 19.5q0 15 10.5 25.5t24.5 10.5q32 0 32 -38q0 -32 -22 -65t-56 -58q-4 -4 -10 -4z" />
    <glyph glyph-name="Lcaron" unicode="&#x13d;" horiz-adv-x="517" 
d="M38 20l141 636q2 13 15 13q7 0 12 -5.5t3 -13.5l-137 -620h318q6 0 10.5 -4.5t4.5 -10.5t-4.5 -10.5t-10.5 -4.5h-336q-21 0 -16 20zM292 514q-13 0 -13 13q0 7 6 11q49 33 60 77h-6q-10 0 -18 8.5t-8 19.5q0 15 10.5 25.5t24.5 10.5q32 0 32 -38q0 -32 -22 -65t-56 -58
q-4 -4 -10 -4z" />
    <glyph glyph-name="lcaron" unicode="&#x13e;" horiz-adv-x="237" 
d="M36 16l141 641q2 12 14 12q7 0 11.5 -5.5t2.5 -12.5l-141 -641q-2 -12 -14 -12q-7 0 -11 5.5t-3 12.5zM254 514q-13 0 -13 13q0 7 6 11q49 33 60 77h-6q-10 0 -18 8.5t-8 19.5q0 15 10.5 25.5t24.5 10.5q32 0 32 -38q0 -32 -22 -65t-56 -58q-4 -4 -10 -4z" />
    <glyph glyph-name="Ldot" unicode="&#x13f;" horiz-adv-x="517" 
d="M38 20l141 636q2 13 15 13q7 0 12 -5.5t3 -13.5l-137 -620h318q6 0 10.5 -4.5t4.5 -10.5t-4.5 -10.5t-10.5 -4.5h-336q-21 0 -16 20zM370 374q13 0 21.5 -8.5t8.5 -21.5q0 -15 -10.5 -25t-25.5 -10q-13 0 -21.5 8.5t-8.5 21.5q0 15 10.5 25t25.5 10z" />
    <glyph glyph-name="ldot" unicode="&#x140;" horiz-adv-x="240" 
d="M36 16l141 641q2 12 14 12q7 0 11.5 -5.5t2.5 -12.5l-141 -641q-2 -12 -14 -12q-7 0 -11 5.5t-3 12.5zM224 277q13 0 21.5 -8.5t8.5 -21.5q0 -15 -10.5 -25t-25.5 -10q-13 0 -21.5 8.5t-8.5 21.5q0 15 10.5 25t25.5 10z" />
    <glyph glyph-name="Lslash" unicode="&#x141;" horiz-adv-x="557" 
d="M445 15q0 -6 -4.5 -10.5t-10.5 -4.5h-336q-21 0 -16 20l63 284l-89 -46l-6 -2q-5 0 -9.5 4t-4.5 10q0 9 7 12l110 56l70 318q2 13 15 13q7 0 12 -5.5t3 -13.5l-65 -293l106 54q1 1 6 1q14 0 14 -13q0 -7 -8 -12l-125 -65l-65 -292h318q6 0 10.5 -4.5t4.5 -10.5z" />
    <glyph glyph-name="lslash" unicode="&#x142;" horiz-adv-x="268" 
d="M279 410q13 0 13 -12q0 -8 -7 -12l-118 -60l-70 -316q-2 -12 -14 -12q-7 0 -11 5.5t-3 12.5l65 293l-100 -50q-1 -1 -5 -1q-13 0 -13 12q0 9 7 12l118 60l69 315q2 12 14 12q7 0 11.5 -5.5t2.5 -12.5l-64 -292l99 50q1 1 6 1z" />
    <glyph glyph-name="Nacute" unicode="&#x143;" horiz-adv-x="690" 
d="M511 10l-308 609l-135 -608q-2 -13 -15 -13q-7 0 -12 5.5t-3 13.5l140 635q6 17 21 17q14 0 19 -12l309 -603l134 602q2 13 15 13q7 0 12 -5.5t3 -13.5l-140 -635q-6 -17 -21 -17q-14 0 -19 12zM461 721q-9 0 -9 9q0 6 5 9l165 126q4 3 9 3q6 0 10 -4.5t4 -9.5
q0 -9 -7 -13l-167 -116q-4 -4 -10 -4z" />
    <glyph glyph-name="nacute" unicode="&#x144;" 
d="M467 379q0 -14 -5 -42l-72 -327q-2 -12 -14 -12q-7 0 -11 5.5t-3 12.5l71 322q5 28 5 41q0 89 -114 89q-44 0 -92.5 -26t-86.5 -67l-81 -365q-2 -12 -14 -12q-7 0 -11 5.5t-3 12.5l101 457q2 12 14 12q7 0 11.5 -5.5t2.5 -12.5l-13 -60q92 88 178 88q65 0 101 -30.5
t36 -85.5zM349 574q-9 0 -9 9q0 6 5 9l165 126q4 3 9 3q6 0 10 -4.5t4 -9.5q0 -9 -7 -13l-167 -116q-4 -4 -10 -4z" />
    <glyph glyph-name="uni0145" unicode="&#x145;" horiz-adv-x="690" 
d="M511 10l-308 609l-135 -608q-2 -13 -15 -13q-7 0 -12 5.5t-3 13.5l140 635q6 17 21 17q14 0 19 -12l309 -603l134 602q2 13 15 13q7 0 12 -5.5t3 -13.5l-140 -635q-6 -17 -21 -17q-14 0 -19 12zM198 -249q-13 0 -13 13q0 6 6 11q49 33 60 77h-6q-10 0 -18 8.5t-8 19.5
q0 15 10.5 25.5t24.5 10.5q32 0 32 -38q0 -32 -22 -65t-56 -58q-4 -4 -10 -4z" />
    <glyph glyph-name="uni0146" unicode="&#x146;" 
d="M467 379q0 -14 -5 -42l-72 -327q-2 -12 -14 -12q-7 0 -11 5.5t-3 12.5l71 322q5 28 5 41q0 89 -114 89q-44 0 -92.5 -26t-86.5 -67l-81 -365q-2 -12 -14 -12q-7 0 -11 5.5t-3 12.5l101 457q2 12 14 12q7 0 11.5 -5.5t2.5 -12.5l-13 -60q92 88 178 88q65 0 101 -30.5
t36 -85.5zM130 -249q-13 0 -13 13q0 6 6 11q49 33 60 77h-6q-10 0 -18 8.5t-8 19.5q0 15 10.5 25.5t24.5 10.5q32 0 32 -38q0 -32 -22 -65t-56 -58q-4 -4 -10 -4z" />
    <glyph glyph-name="Ncaron" unicode="&#x147;" horiz-adv-x="690" 
d="M511 10l-308 609l-135 -608q-2 -13 -15 -13q-7 0 -12 5.5t-3 13.5l140 635q6 17 21 17q14 0 19 -12l309 -603l134 602q2 13 15 13q7 0 12 -5.5t3 -13.5l-140 -635q-6 -17 -21 -17q-14 0 -19 12zM392 862l63 -115l112 118q4 4 8 4q12 0 12 -11q0 -5 -3 -8l-107 -118
q-9 -11 -23 -11h-4q-17 0 -25 18l-54 113q-1 1 -1 4q0 13 12 13q6 0 10 -7z" />
    <glyph glyph-name="ncaron" unicode="&#x148;" 
d="M467 379q0 -14 -5 -42l-72 -327q-2 -12 -14 -12q-7 0 -11 5.5t-3 12.5l71 322q5 28 5 41q0 89 -114 89q-44 0 -92.5 -26t-86.5 -67l-81 -365q-2 -12 -14 -12q-7 0 -11 5.5t-3 12.5l101 457q2 12 14 12q7 0 11.5 -5.5t2.5 -12.5l-13 -60q92 88 178 88q65 0 101 -30.5
t36 -85.5zM280 715l63 -115l112 118q4 4 8 4q12 0 12 -11q0 -5 -3 -8l-107 -118q-9 -11 -23 -11h-4q-17 0 -25 18l-54 113q-1 1 -1 4q0 13 12 13q6 0 10 -7z" />
    <glyph glyph-name="napostrophe" unicode="&#x149;" 
d="M467 379q0 -14 -5 -42l-72 -327q-2 -12 -14 -12q-7 0 -11 5.5t-3 12.5l71 322q5 28 5 41q0 89 -114 89q-44 0 -92.5 -26t-86.5 -67l-81 -365q-2 -12 -14 -12q-7 0 -11 5.5t-3 12.5l101 457q2 12 14 12q7 0 11.5 -5.5t2.5 -12.5l-13 -60q92 88 178 88q65 0 101 -30.5
t36 -85.5zM154 560q-13 0 -13 13q0 7 6 11q49 33 60 77h-6q-10 0 -18 8.5t-8 19.5q0 15 10.5 25.5t24.5 10.5q32 0 32 -38q0 -32 -22 -65t-56 -58q-4 -4 -10 -4z" />
    <glyph glyph-name="Eng" unicode="&#x14a;" horiz-adv-x="690" 
d="M691 650l-144 -654q-48 -192 -210 -192q-112 0 -162 80q-3 6 -3 9q0 7 5 11.5t12 4.5q10 0 14 -7q43 -68 134 -68q69 0 114.5 42.5t64.5 123.5l-313 619l-135 -608q-2 -13 -15 -13q-7 0 -12 5.5t-3 13.5l140 635q6 17 21 17q14 0 19 -12l309 -603l134 602q2 13 15 13
q7 0 12 -5.5t3 -13.5z" />
    <glyph glyph-name="eng" unicode="&#x14b;" 
d="M467 380q0 -15 -5 -43l-91 -413q-13 -62 -43.5 -91t-81.5 -29q-27 0 -45 7q-9 5 -9 13t6 12t13 1q15 -6 35 -6q74 0 95 93l92 414q5 28 5 41q0 89 -114 89q-44 0 -92.5 -26t-86.5 -67l-81 -365q-2 -12 -14 -12q-7 0 -11 5.5t-3 12.5l101 457q2 12 14 12q7 0 11.5 -5.5
t2.5 -12.5l-13 -60q92 88 178 88q65 0 101 -30t36 -85z" />
    <glyph glyph-name="Omacron" unicode="&#x14c;" horiz-adv-x="764" 
d="M438 678q127 0 209 -76.5t82 -209.5q2 -108 -48.5 -202.5t-135 -149t-180.5 -52.5q-127 0 -209 76.5t-82 209.5q-2 108 48.5 202.5t135 149t180.5 52.5zM435 648q-130 3 -228.5 -107t-96.5 -267q0 -120 73 -188t184 -68q130 -3 229.5 107t96.5 267q0 120 -73 188t-185 68
zM356 761q0 14 13 14h259q13 0 13 -13q0 -14 -13 -14h-259q-13 0 -13 13z" />
    <glyph glyph-name="omacron" unicode="&#x14d;" horiz-adv-x="570" 
d="M312 495q93 0 149 -57t56 -153q2 -116 -76.5 -208t-184.5 -89q-93 0 -149 57t-56 153q-2 116 76.5 208t184.5 89zM312 468q-93 2 -161 -82t-66 -188q0 -84 45.5 -133.5t125.5 -49.5q93 -2 161 82t66 188q0 84 -45.5 133.5t-125.5 49.5zM227 614q0 14 13 14h259
q13 0 13 -13q0 -14 -13 -14h-259q-13 0 -13 13z" />
    <glyph glyph-name="Obreve" unicode="&#x14e;" horiz-adv-x="764" 
d="M438 678q127 0 209 -76.5t82 -209.5q2 -108 -48.5 -202.5t-135 -149t-180.5 -52.5q-127 0 -209 76.5t-82 209.5q-2 108 48.5 202.5t135 149t180.5 52.5zM435 648q-130 3 -228.5 -107t-96.5 -267q0 -120 73 -188t184 -68q130 -3 229.5 107t96.5 267q0 120 -73 188t-185 68
zM337 789q-3 6 -3 8q0 6 4.5 10.5t10.5 4.5q8 0 12 -7q45 -67 131 -67q92 0 164 72q3 3 9 3q13 0 13 -13q0 -5 -4 -9q-83 -80 -186 -80q-102 0 -151 78z" />
    <glyph glyph-name="obreve" unicode="&#x14f;" horiz-adv-x="570" 
d="M312 495q93 0 149 -57t56 -153q2 -116 -76.5 -208t-184.5 -89q-93 0 -149 57t-56 153q-2 116 76.5 208t184.5 89zM312 468q-93 2 -161 -82t-66 -188q0 -84 45.5 -133.5t125.5 -49.5q93 -2 161 82t66 188q0 84 -45.5 133.5t-125.5 49.5zM208 642q-3 6 -3 8q0 6 4.5 10.5
t10.5 4.5q8 0 12 -7q45 -67 131 -67q92 0 164 72q3 3 9 3q13 0 13 -13q0 -5 -4 -9q-83 -80 -186 -80q-102 0 -151 78z" />
    <glyph glyph-name="Ohungarumlaut" unicode="&#x150;" horiz-adv-x="764" 
d="M438 678q127 0 209 -76.5t82 -209.5q2 -108 -48.5 -202.5t-135 -149t-180.5 -52.5q-127 0 -209 76.5t-82 209.5q-2 108 48.5 202.5t135 149t180.5 52.5zM435 648q-130 3 -228.5 -107t-96.5 -267q0 -120 73 -188t184 -68q130 -3 229.5 107t96.5 267q0 120 -73 188t-185 68
zM415 732q0 1 2 7l115 125q3 5 11 5q6 0 10.5 -4.5t4.5 -10.5q0 -7 -4 -11l-122 -119q-3 -3 -7 -3q-10 0 -10 11zM551 732q0 1 2 7l115 125q3 5 11 5q6 0 10.5 -4.5t4.5 -10.5q0 -7 -4 -11l-122 -119q-3 -3 -7 -3q-10 0 -10 11z" />
    <glyph glyph-name="ohungarumlaut" unicode="&#x151;" horiz-adv-x="570" 
d="M312 495q93 0 149 -57t56 -153q2 -116 -76.5 -208t-184.5 -89q-93 0 -149 57t-56 153q-2 116 76.5 208t184.5 89zM312 468q-93 2 -161 -82t-66 -188q0 -84 45.5 -133.5t125.5 -49.5q93 -2 161 82t66 188q0 84 -45.5 133.5t-125.5 49.5zM286 585q0 1 2 7l115 125q3 5 11 5
q6 0 10.5 -4.5t4.5 -10.5q0 -7 -4 -11l-122 -119q-3 -3 -7 -3q-10 0 -10 11zM422 585q0 1 2 7l115 125q3 5 11 5q6 0 10.5 -4.5t4.5 -10.5q0 -7 -4 -11l-122 -119q-3 -3 -7 -3q-10 0 -10 11z" />
    <glyph glyph-name="OE" unicode="&#x152;" horiz-adv-x="1124" 
d="M1150 652q0 -6 -4.5 -10.5t-10.5 -4.5h-365l-62 -279h352q6 0 10.5 -4.5t4.5 -10.5t-4.5 -10.5t-10.5 -4.5h-359l-66 -298h359q6 0 10.5 -4.5t4.5 -10.5t-4.5 -10.5t-10.5 -4.5h-377q-21 0 -16 20l22 103q-96 -135 -268 -135q-126 0 -203.5 80t-77.5 206q-1 84 29.5 160
t82 129.5t120.5 84t142 29.5q96 0 163.5 -47t93.5 -143l36 164q3 16 19 16h375q6 0 10.5 -4.5t4.5 -10.5zM638 186l53 241q-13 104 -79 162t-171 58q-133 2 -233.5 -107.5t-97.5 -265.5q0 -117 69 -186.5t182 -69.5q84 0 158.5 45t118.5 123z" />
    <glyph glyph-name="oe" unicode="&#x153;" horiz-adv-x="988" 
d="M507 200q0 -83 50 -134t138 -51q77 0 142 49q3 3 8 3q13 0 13 -13q0 -6 -5 -11q-74 -55 -158 -55q-91 -2 -151.5 52.5t-62.5 111.5q-35 -68 -86 -116t-141 -48q-91 0 -147 57t-56 153q-2 116 76 208t183 89q88 0 140.5 -53.5t54.5 -110.5q32 63 88 113q57 51 143 51
q90 0 144 -57q55 -55 55 -150q0 -25 -4 -40q-3 -16 -19 -16h-403q-2 -14 -2 -32zM85 198q0 -84 45 -133.5t124 -49.5q91 -2 159 81t66 189q0 88 -47 135.5t-122 47.5q-90 3 -158.5 -80.5t-66.5 -189.5zM905 285q0 82 -46.5 132.5t-127.5 50.5q-79 2 -145 -66t-74 -143h391
q2 18 2 26z" />
    <glyph glyph-name="Racute" unicode="&#x154;" horiz-adv-x="579" 
d="M331 288l132 -266q2 -4 2 -9q0 -6 -5.5 -10.5t-11.5 -4.5q-9 0 -15 10l-136 280h-168l-61 -277q-2 -13 -15 -13q-7 0 -12 5.5t-3 13.5l140 634q3 16 19 16h196q70 0 122 -45t52 -117q0 -95 -64 -155.5t-172 -61.5zM531 505q0 56 -41.5 94t-96.5 38h-186l-71 -319h198
q91 0 144 53.5t53 133.5zM410 721q-9 0 -9 9q0 6 5 9l165 126q5 3 9 3q6 0 10 -4.5t4 -9.5q0 -9 -7 -13l-167 -116q-4 -4 -10 -4z" />
    <glyph glyph-name="racute" unicode="&#x155;" horiz-adv-x="304" 
d="M334 475q0 -7 -5 -12t-12 -5l-19 1q-43 0 -86 -28t-70 -69l-78 -352q-2 -12 -14 -12q-7 0 -11 5.5t-3 12.5l101 457q2 12 14 12q7 0 11.5 -5.5t2.5 -12.5l-14 -65q77 89 161 89q22 0 22 -16zM270 574q-9 0 -9 9q0 6 5 9l165 126q5 3 9 3q6 0 10 -4.5t4 -9.5q0 -9 -7 -13
l-167 -116q-4 -4 -10 -4z" />
    <glyph glyph-name="uni0156" unicode="&#x156;" horiz-adv-x="579" 
d="M331 288l132 -266q2 -4 2 -9q0 -6 -5.5 -10.5t-11.5 -4.5q-9 0 -15 10l-136 280h-168l-61 -277q-2 -13 -15 -13q-7 0 -12 5.5t-3 13.5l140 634q3 16 19 16h196q70 0 122 -45t52 -117q0 -95 -64 -155.5t-172 -61.5zM531 505q0 56 -41.5 94t-96.5 38h-186l-71 -319h198
q91 0 144 53.5t53 133.5zM160 -249q-13 0 -13 13q0 6 6 11q49 33 60 77h-6q-10 0 -18 8.5t-8 19.5q0 15 10.5 25.5t24.5 10.5q32 0 32 -38q0 -32 -22 -65t-56 -58q-4 -4 -10 -4z" />
    <glyph glyph-name="uni0157" unicode="&#x157;" horiz-adv-x="304" 
d="M334 475q0 -7 -5 -12t-12 -5l-19 1q-43 0 -86 -28t-70 -69l-78 -352q-2 -12 -14 -12q-7 0 -11 5.5t-3 12.5l101 457q2 12 14 12q7 0 11.5 -5.5t2.5 -12.5l-14 -65q77 89 161 89q22 0 22 -16zM-33 -249q-13 0 -13 13q0 6 6 11q49 33 60 77h-6q-10 0 -18 8.5t-8 19.5
q0 15 10.5 25.5t24.5 10.5q32 0 32 -38q0 -32 -22 -65t-56 -58q-4 -4 -10 -4z" />
    <glyph glyph-name="Rcaron" unicode="&#x158;" horiz-adv-x="579" 
d="M331 288l132 -266q2 -4 2 -9q0 -6 -5.5 -10.5t-11.5 -4.5q-9 0 -15 10l-136 280h-168l-61 -277q-2 -13 -15 -13q-7 0 -12 5.5t-3 13.5l140 634q3 16 19 16h196q70 0 122 -45t52 -117q0 -95 -64 -155.5t-172 -61.5zM531 505q0 56 -41.5 94t-96.5 38h-186l-71 -319h198
q91 0 144 53.5t53 133.5zM341 862l63 -115l112 118q4 4 8 4q12 0 12 -11q0 -5 -3 -8l-107 -118q-9 -11 -23 -11h-4q-17 0 -25 18l-54 113q-1 1 -1 4q0 13 12 13q6 0 10 -7z" />
    <glyph glyph-name="rcaron" unicode="&#x159;" horiz-adv-x="304" 
d="M334 475q0 -7 -5 -12t-12 -5l-19 1q-43 0 -86 -28t-70 -69l-78 -352q-2 -12 -14 -12q-7 0 -11 5.5t-3 12.5l101 457q2 12 14 12q7 0 11.5 -5.5t2.5 -12.5l-14 -65q77 89 161 89q22 0 22 -16zM201 715l63 -115l112 118q4 4 8 4q12 0 12 -11q0 -5 -3 -8l-107 -118
q-9 -11 -23 -11h-4q-17 0 -25 18l-54 113q-1 1 -1 4q0 13 12 13q6 0 10 -7z" />
    <glyph glyph-name="Sacute" unicode="&#x15a;" horiz-adv-x="575" 
d="M37 100q0 8 5.5 13t12.5 5q10 0 14 -7q76 -93 207 -93q89 0 138.5 50t49.5 116q0 38 -22 63q-19 25 -48 42t-90 43q-66 29 -93 44q-83 48 -83 126q0 72 64 124t151 52q68 0 123.5 -23.5t86.5 -65.5q3 -5 3 -11q0 -7 -5 -12.5t-13 -5.5q-10 0 -14 7q-63 81 -181 81
q-73 0 -126 -44.5t-53 -101.5q0 -32 20 -57q32 -37 133 -80q57 -24 96 -47q87 -51 87 -134q0 -79 -61.5 -137.5t-165.5 -58.5q-73 0 -136 27.5t-97 73.5q-3 5 -3 11zM397 721q-9 0 -9 9q0 6 5 9l165 126q4 3 9 3q6 0 10 -4.5t4 -9.5q0 -9 -7 -13l-167 -116q-4 -4 -10 -4z
" />
    <glyph glyph-name="sacute" unicode="&#x15b;" horiz-adv-x="454" 
d="M18 70q0 6 4.5 10.5t10.5 4.5t12 -6q22 -29 62 -46.5t87 -17.5q64 0 105 34t41 81q0 35 -27.5 56.5t-96.5 51.5q-31 13 -73 34q-65 36 -65 92q0 54 46.5 92.5t122.5 38.5q53 0 96 -18.5t65 -49.5q3 -3 3 -9t-4.5 -10.5t-10.5 -4.5q-8 0 -12 6q-20 26 -59 42.5t-82 16.5
q-59 0 -96.5 -28.5t-37.5 -71.5q0 -32 26.5 -52.5t92.5 -47.5q45 -18 75 -35q68 -37 68 -98q0 -60 -47.5 -103.5t-126.5 -43.5q-118 0 -176 73q-3 3 -3 9zM303 574q-9 0 -9 9q0 6 5 9l165 126q4 3 9 3q6 0 10 -4.5t4 -9.5q0 -9 -7 -13l-167 -116q-4 -4 -10 -4z" />
    <glyph glyph-name="Scircumflex" unicode="&#x15c;" horiz-adv-x="575" 
d="M37 100q0 8 5.5 13t12.5 5q10 0 14 -7q76 -93 207 -93q89 0 138.5 50t49.5 116q0 38 -22 63q-19 25 -48 42t-90 43q-66 29 -93 44q-83 48 -83 126q0 72 64 124t151 52q68 0 123.5 -23.5t86.5 -65.5q3 -5 3 -11q0 -7 -5 -12.5t-13 -5.5q-10 0 -14 7q-63 81 -181 81
q-73 0 -126 -44.5t-53 -101.5q0 -32 20 -57q32 -37 133 -80q57 -24 96 -47q87 -51 87 -134q0 -79 -61.5 -137.5t-165.5 -58.5q-73 0 -136 27.5t-97 73.5q-3 5 -3 11zM478 728l-63 115l-112 -118q-4 -4 -8 -4q-12 0 -12 11q0 5 3 8l107 118q9 11 23 11h4q17 0 25 -18l54 -113
q1 -1 1 -4q0 -13 -12 -13q-6 0 -10 7z" />
    <glyph glyph-name="scircumflex" unicode="&#x15d;" horiz-adv-x="454" 
d="M18 70q0 6 4.5 10.5t10.5 4.5t12 -6q22 -29 62 -46.5t87 -17.5q64 0 105 34t41 81q0 35 -27.5 56.5t-96.5 51.5q-31 13 -73 34q-65 36 -65 92q0 54 46.5 92.5t122.5 38.5q53 0 96 -18.5t65 -49.5q3 -3 3 -9t-4.5 -10.5t-10.5 -4.5q-8 0 -12 6q-20 26 -59 42.5t-82 16.5
q-59 0 -96.5 -28.5t-37.5 -71.5q0 -32 26.5 -52.5t92.5 -47.5q45 -18 75 -35q68 -37 68 -98q0 -60 -47.5 -103.5t-126.5 -43.5q-118 0 -176 73q-3 3 -3 9zM384 581l-63 115l-112 -118q-4 -4 -8 -4q-12 0 -12 11q0 5 3 8l107 118q9 11 23 11h4q17 0 25 -18l54 -113q1 -1 1 -4
q0 -13 -12 -13q-6 0 -10 7z" />
    <glyph glyph-name="uni015E" unicode="&#x15e;" horiz-adv-x="575" 
d="M556 578q0 -7 -5 -12.5t-13 -5.5q-10 0 -14 7q-63 81 -181 81q-73 0 -126 -44.5t-53 -101.5q0 -32 20 -57q32 -37 133 -80q57 -24 96 -47q87 -51 87 -134q0 -79 -61.5 -137.5t-165.5 -58.5q-4 0 -34 2l-28 -48q15 12 35 12q27 0 42 -14.5t15 -41.5q0 -37 -28 -61t-75 -24
q-54 0 -88 27q-6 4 -6 12q0 7 4.5 11.5t10.5 4.5t10 -4q30 -24 72 -24q34 0 52.5 15.5t18.5 40.5q0 36 -43 36q-21 0 -34 -13q-4 -4 -9 -4q-13 0 -13 13q0 1 2 7l35 58q-114 20 -172 96q-3 5 -3 11q0 8 5.5 13t12.5 5q10 0 14 -7q76 -93 207 -93q89 0 138.5 50t49.5 116
q0 38 -22 63q-19 25 -48 42t-90 43q-66 29 -93 44q-83 48 -83 126q0 72 64 124t151 52q68 0 123.5 -23.5t86.5 -65.5q3 -5 3 -11z" />
    <glyph glyph-name="uni015F" unicode="&#x15f;" horiz-adv-x="454" 
d="M411 418q0 -6 -4.5 -10.5t-10.5 -4.5q-8 0 -12 6q-20 26 -59 42.5t-82 16.5q-59 0 -96.5 -28.5t-37.5 -71.5q0 -32 26.5 -52.5t92.5 -47.5q45 -18 75 -35q68 -37 68 -98q0 -60 -47.5 -103.5t-126.5 -43.5q-16 0 -21 1l-28 -47q15 12 35 12q27 0 42 -14.5t15 -41.5
q0 -37 -28 -61t-75 -24q-53 0 -88 27q-6 4 -6 12q0 7 4.5 11.5t10.5 4.5t10 -4q30 -24 72 -24q34 0 52.5 15.5t18.5 40.5q0 36 -43 36q-21 0 -34 -13q-4 -4 -9 -4q-13 0 -13 13q0 1 2 7l34 57q-80 12 -127 69q-3 3 -3 9t4.5 10.5t10.5 4.5t12 -6q22 -29 62 -46.5t87 -17.5
q64 0 105 34t41 81q0 35 -27.5 56.5t-96.5 51.5q-31 13 -73 34q-65 36 -65 92q0 54 46.5 92.5t122.5 38.5q53 0 96 -18.5t65 -49.5q3 -3 3 -9z" />
    <glyph glyph-name="Scaron" unicode="&#x160;" horiz-adv-x="575" 
d="M37 100q0 8 5.5 13t12.5 5q10 0 14 -7q76 -93 207 -93q89 0 138.5 50t49.5 116q0 38 -22 63q-19 25 -48 42t-90 43q-66 29 -93 44q-83 48 -83 126q0 72 64 124t151 52q68 0 123.5 -23.5t86.5 -65.5q3 -5 3 -11q0 -7 -5 -12.5t-13 -5.5q-10 0 -14 7q-63 81 -181 81
q-73 0 -126 -44.5t-53 -101.5q0 -32 20 -57q32 -37 133 -80q57 -24 96 -47q87 -51 87 -134q0 -79 -61.5 -137.5t-165.5 -58.5q-73 0 -136 27.5t-97 73.5q-3 5 -3 11zM328 862l63 -115l112 118q4 4 8 4q12 0 12 -11q0 -5 -3 -8l-107 -118q-9 -11 -23 -11h-4q-17 0 -25 18
l-54 113q-1 1 -1 4q0 13 12 13q6 0 10 -7z" />
    <glyph glyph-name="scaron" unicode="&#x161;" horiz-adv-x="454" 
d="M18 70q0 6 4.5 10.5t10.5 4.5t12 -6q22 -29 62 -46.5t87 -17.5q64 0 105 34t41 81q0 35 -27.5 56.5t-96.5 51.5q-31 13 -73 34q-65 36 -65 92q0 54 46.5 92.5t122.5 38.5q53 0 96 -18.5t65 -49.5q3 -3 3 -9t-4.5 -10.5t-10.5 -4.5q-8 0 -12 6q-20 26 -59 42.5t-82 16.5
q-59 0 -96.5 -28.5t-37.5 -71.5q0 -32 26.5 -52.5t92.5 -47.5q45 -18 75 -35q68 -37 68 -98q0 -60 -47.5 -103.5t-126.5 -43.5q-118 0 -176 73q-3 3 -3 9zM234 715l63 -115l112 118q4 4 8 4q12 0 12 -11q0 -5 -3 -8l-107 -118q-9 -11 -23 -11h-4q-17 0 -25 18l-54 113
q-1 1 -1 4q0 13 12 13q6 0 10 -7z" />
    <glyph glyph-name="uni0162" unicode="&#x162;" horiz-adv-x="559" 
d="M213 17l137 620h-208q-6 0 -10.5 4.5t-4.5 10.5t4.5 10.5t10.5 4.5h455q6 0 10.5 -4.5t4.5 -10.5t-4.5 -10.5t-10.5 -4.5h-215l-139 -626q-2 -13 -15 -13q-7 0 -12 5.5t-3 13.5zM146 -249q-13 0 -13 13q0 6 6 11q49 33 60 77h-6q-10 0 -18 8.5t-8 19.5q0 15 10.5 25.5
t24.5 10.5q32 0 32 -38q0 -32 -22 -65t-56 -58q-4 -4 -10 -4z" />
    <glyph glyph-name="uni0163" unicode="&#x163;" horiz-adv-x="256" 
d="M271 469q0 -13 -13 -13h-90l-82 -371q-3 -14 -3 -25q0 -45 51 -45q22 0 45 13q2 0 5 1l2 1q6 0 11 -6q2 -6 2 -7q0 -7 -6 -11q-25 -18 -58 -18q-83 0 -83 68q0 9 4 29l83 371h-65q-13 0 -13 14q0 13 13 13h71l27 122q3 12 14 12q7 0 11.5 -5.5t2.5 -12.5l-26 -116h84
q13 0 13 -14zM17 -249q-13 0 -13 13q0 6 6 11q49 33 60 77h-6q-10 0 -18 8.5t-8 19.5q0 15 10.5 25.5t24.5 10.5q32 0 32 -38q0 -32 -22 -65t-56 -58q-4 -4 -10 -4z" />
    <glyph glyph-name="Tcaron" unicode="&#x164;" horiz-adv-x="559" 
d="M213 17l137 620h-208q-6 0 -10.5 4.5t-4.5 10.5t4.5 10.5t10.5 4.5h455q6 0 10.5 -4.5t4.5 -10.5t-4.5 -10.5t-10.5 -4.5h-215l-139 -626q-2 -13 -15 -13q-7 0 -12 5.5t-3 13.5zM327 862l63 -115l112 118q4 4 8 4q12 0 12 -11q0 -5 -3 -8l-107 -118q-9 -11 -23 -11h-4
q-17 0 -25 18l-54 113q-1 1 -1 4q0 13 12 13q6 0 10 -7z" />
    <glyph glyph-name="tcaron" unicode="&#x165;" horiz-adv-x="256" 
d="M271 469q0 -13 -13 -13h-90l-82 -371q-3 -14 -3 -25q0 -45 51 -45q22 0 45 13q2 0 5 1l2 1q6 0 11 -6q2 -6 2 -7q0 -7 -6 -11q-25 -18 -58 -18q-83 0 -83 68q0 9 4 29l83 371h-65q-13 0 -13 14q0 13 13 13h71l27 122q3 12 14 12q7 0 11.5 -5.5t2.5 -12.5l-26 -116h84
q13 0 13 -14zM265 560q-13 0 -13 13q0 7 6 11q49 33 60 77h-6q-10 0 -18 8.5t-8 19.5q0 15 10.5 25.5t24.5 10.5q32 0 32 -38q0 -32 -22 -65t-56 -58q-4 -4 -10 -4z" />
    <glyph glyph-name="Tbar" unicode="&#x166;" horiz-adv-x="559" 
d="M612 652q0 -6 -4.5 -10.5t-10.5 -4.5h-215l-64 -289h150q13 0 13 -14q0 -13 -13 -13h-156l-69 -310q-2 -13 -15 -13q-7 0 -12 5.5t-3 13.5l67 304h-150q-13 0 -13 14q0 13 13 13h156l64 289h-208q-6 0 -10.5 4.5t-4.5 10.5t4.5 10.5t10.5 4.5h455q6 0 10.5 -4.5
t4.5 -10.5z" />
    <glyph glyph-name="tbar" unicode="&#x167;" horiz-adv-x="256" 
d="M271 469q0 -13 -13 -13h-90l-41 -187h56q13 0 13 -13q0 -14 -13 -14h-62l-35 -157q-3 -14 -3 -25q0 -45 51 -45q22 0 45 13q2 0 5 1l2 1q6 0 11 -6q2 -6 2 -7q0 -7 -6 -11q-25 -18 -58 -18q-83 0 -83 68q0 9 4 29l35 157h-65q-13 0 -13 14q0 13 13 13h71l42 187h-65
q-13 0 -13 14q0 13 13 13h71l27 122q3 12 14 12q7 0 11.5 -5.5t2.5 -12.5l-26 -116h84q13 0 13 -14z" />
    <glyph glyph-name="Utilde" unicode="&#x168;" horiz-adv-x="672" 
d="M90 253l89 403q2 13 15 13q7 0 12 -5.5t3 -13.5l-87 -397q-6 -24 -6 -49q0 -85 54.5 -135.5t148.5 -50.5q98 0 153 57t82 178l89 403q2 13 15 13q7 0 12 -5.5t3 -13.5l-87 -397q-31 -137 -92.5 -201t-174.5 -64q-108 0 -171 57t-63 155q0 25 5 53zM394 834q-50 0 -74 -99
q-2 -10 -12 -10q-7 0 -11 5t-2 12q28 119 100 119q26 0 42 -15.5t28 -45.5q12 -29 22.5 -40.5t28.5 -11.5q50 0 75 99q2 10 12 10q6 0 10 -5.5t3 -11.5q-28 -119 -101 -119q-26 0 -42 15.5t-28 45.5q-12 29 -22.5 40.5t-28.5 11.5z" />
    <glyph glyph-name="utilde" unicode="&#x169;" 
d="M491 467l-101 -457q-2 -12 -14 -12q-7 0 -11 5.5t-3 12.5l13 60q-92 -88 -178 -88q-65 0 -101 30.5t-36 85.5q0 14 5 42l72 327q2 12 14 12q7 0 11.5 -5.5t2.5 -12.5l-71 -322q-5 -28 -5 -41q0 -89 114 -89q44 0 92.5 26t86.5 67l81 365q2 12 14 12q7 0 11.5 -5.5
t2.5 -12.5zM292 687q-50 0 -74 -99q-2 -10 -12 -10q-7 0 -11 5t-2 12q28 119 100 119q26 0 42 -15.5t28 -45.5q12 -29 22.5 -40.5t28.5 -11.5q50 0 75 99q2 10 12 10q6 0 10 -5.5t3 -11.5q-28 -119 -101 -119q-26 0 -42 15.5t-28 45.5q-12 29 -22.5 40.5t-28.5 11.5z" />
    <glyph glyph-name="Umacron" unicode="&#x16a;" horiz-adv-x="672" 
d="M90 253l89 403q2 13 15 13q7 0 12 -5.5t3 -13.5l-87 -397q-6 -24 -6 -49q0 -85 54.5 -135.5t148.5 -50.5q98 0 153 57t82 178l89 403q2 13 15 13q7 0 12 -5.5t3 -13.5l-87 -397q-31 -137 -92.5 -201t-174.5 -64q-108 0 -171 57t-63 155q0 25 5 53zM309 761q0 14 13 14
h259q13 0 13 -13q0 -14 -13 -14h-259q-13 0 -13 13z" />
    <glyph glyph-name="umacron" unicode="&#x16b;" 
d="M491 467l-101 -457q-2 -12 -14 -12q-7 0 -11 5.5t-3 12.5l13 60q-92 -88 -178 -88q-65 0 -101 30.5t-36 85.5q0 14 5 42l72 327q2 12 14 12q7 0 11.5 -5.5t2.5 -12.5l-71 -322q-5 -28 -5 -41q0 -89 114 -89q44 0 92.5 26t86.5 67l81 365q2 12 14 12q7 0 11.5 -5.5
t2.5 -12.5zM207 614q0 14 13 14h259q13 0 13 -13q0 -14 -13 -14h-259q-13 0 -13 13z" />
    <glyph glyph-name="Ubreve" unicode="&#x16c;" horiz-adv-x="672" 
d="M90 253l89 403q2 13 15 13q7 0 12 -5.5t3 -13.5l-87 -397q-6 -24 -6 -49q0 -85 54.5 -135.5t148.5 -50.5q98 0 153 57t82 178l89 403q2 13 15 13q7 0 12 -5.5t3 -13.5l-87 -397q-31 -137 -92.5 -201t-174.5 -64q-108 0 -171 57t-63 155q0 25 5 53zM290 789q-3 6 -3 8
q0 6 4.5 10.5t10.5 4.5q8 0 12 -7q45 -67 131 -67q92 0 164 72q3 3 9 3q13 0 13 -13q0 -5 -4 -9q-83 -80 -186 -80q-102 0 -151 78z" />
    <glyph glyph-name="ubreve" unicode="&#x16d;" 
d="M491 467l-101 -457q-2 -12 -14 -12q-7 0 -11 5.5t-3 12.5l13 60q-92 -88 -178 -88q-65 0 -101 30.5t-36 85.5q0 14 5 42l72 327q2 12 14 12q7 0 11.5 -5.5t2.5 -12.5l-71 -322q-5 -28 -5 -41q0 -89 114 -89q44 0 92.5 26t86.5 67l81 365q2 12 14 12q7 0 11.5 -5.5
t2.5 -12.5zM188 642q-3 6 -3 8q0 6 4.5 10.5t10.5 4.5q8 0 12 -7q45 -67 131 -67q92 0 164 72q3 3 9 3q13 0 13 -13q0 -5 -4 -9q-83 -80 -186 -80q-102 0 -151 78z" />
    <glyph glyph-name="Uring" unicode="&#x16e;" horiz-adv-x="672" 
d="M90 253l89 403q2 13 15 13q7 0 12 -5.5t3 -13.5l-87 -397q-6 -24 -6 -49q0 -85 54.5 -135.5t148.5 -50.5q98 0 153 57t82 178l89 403q2 13 15 13q7 0 12 -5.5t3 -13.5l-87 -397q-31 -137 -92.5 -201t-174.5 -64q-108 0 -171 57t-63 155q0 25 5 53zM470 906
q37 0 60.5 -23.5t23.5 -60.5q0 -41 -31 -72q-30 -30 -71 -30q-37 0 -60.5 23.5t-23.5 60.5q0 41 30 71q31 31 72 31zM470 882q-32 0 -55 -22.5t-23 -53.5q0 -27 16.5 -44.5t43.5 -17.5q32 0 55 22.5t23 53.5q0 28 -16.5 45t-43.5 17z" />
    <glyph glyph-name="uring" unicode="&#x16f;" 
d="M491 467l-101 -457q-2 -12 -14 -12q-7 0 -11 5.5t-3 12.5l13 60q-92 -88 -178 -88q-65 0 -101 30.5t-36 85.5q0 14 5 42l72 327q2 12 14 12q7 0 11.5 -5.5t2.5 -12.5l-71 -322q-5 -28 -5 -41q0 -89 114 -89q44 0 92.5 26t86.5 67l81 365q2 12 14 12q7 0 11.5 -5.5
t2.5 -12.5zM368 759q37 0 60.5 -23.5t23.5 -60.5q0 -41 -31 -72q-30 -30 -71 -30q-37 0 -60.5 23.5t-23.5 60.5q0 41 30 71q31 31 72 31zM368 735q-32 0 -55 -22.5t-23 -53.5q0 -27 16.5 -44.5t43.5 -17.5q32 0 55 22.5t23 53.5q0 28 -16.5 45t-43.5 17z" />
    <glyph glyph-name="Uhungarumlaut" unicode="&#x170;" horiz-adv-x="672" 
d="M90 253l89 403q2 13 15 13q7 0 12 -5.5t3 -13.5l-87 -397q-6 -24 -6 -49q0 -85 54.5 -135.5t148.5 -50.5q98 0 153 57t82 178l89 403q2 13 15 13q7 0 12 -5.5t3 -13.5l-87 -397q-31 -137 -92.5 -201t-174.5 -64q-108 0 -171 57t-63 155q0 25 5 53zM368 732q0 1 2 7
l115 125q3 5 11 5q6 0 10.5 -4.5t4.5 -10.5q0 -7 -4 -11l-122 -119q-3 -3 -7 -3q-10 0 -10 11zM504 732q0 1 2 7l115 125q3 5 11 5q6 0 10.5 -4.5t4.5 -10.5q0 -7 -4 -11l-122 -119q-3 -3 -7 -3q-10 0 -10 11z" />
    <glyph glyph-name="uhungarumlaut" unicode="&#x171;" 
d="M491 467l-101 -457q-2 -12 -14 -12q-7 0 -11 5.5t-3 12.5l13 60q-92 -88 -178 -88q-65 0 -101 30.5t-36 85.5q0 14 5 42l72 327q2 12 14 12q7 0 11.5 -5.5t2.5 -12.5l-71 -322q-5 -28 -5 -41q0 -89 114 -89q44 0 92.5 26t86.5 67l81 365q2 12 14 12q7 0 11.5 -5.5
t2.5 -12.5zM266 585q0 1 2 7l115 125q3 5 11 5q6 0 10.5 -4.5t4.5 -10.5q0 -7 -4 -11l-122 -119q-3 -3 -7 -3q-10 0 -10 11zM402 585q0 1 2 7l115 125q3 5 11 5q6 0 10.5 -4.5t4.5 -10.5q0 -7 -4 -11l-122 -119q-3 -3 -7 -3q-10 0 -10 11z" />
    <glyph glyph-name="Uogonek" unicode="&#x172;" horiz-adv-x="672" 
d="M322 -159q14 0 29 6q1 1 4 1q13 0 13 -12q0 -8 -7 -11q-24 -11 -45 -11q-32 0 -52 15.5t-20 40.5q0 62 101 119q-5 -1 -26 -1q-108 0 -171 57t-63 155q0 25 5 53l89 403q2 13 15 13q7 0 12 -5.5t3 -13.5l-87 -397q-6 -24 -6 -49q0 -85 54.5 -135.5t148.5 -50.5
q98 0 153 57t82 178l89 403q2 13 15 13q7 0 12 -5.5t3 -13.5l-87 -397q-44 -201 -160 -246q-67 -25 -107 -60t-40 -71q0 -35 43 -35z" />
    <glyph glyph-name="uogonek" unicode="&#x173;" 
d="M491 467l-101 -457q-2 -12 -13 -12q-61 -27 -92.5 -59t-31.5 -62q0 -36 43 -36q14 0 29 6q1 1 4 1q13 0 13 -12q0 -8 -7 -11q-24 -11 -45 -11q-32 0 -52 15.5t-20 41.5q0 37 39 75q42 38 95 59q9 3 10 3v8l13 60q-92 -88 -178 -88q-65 0 -101 30.5t-36 85.5q0 14 5 42
l72 327q2 12 14 12q7 0 11.5 -5.5t2.5 -12.5l-71 -322q-5 -28 -5 -41q0 -89 114 -89q44 0 92.5 26t86.5 67l81 365q2 12 14 12q7 0 11.5 -5.5t2.5 -12.5z" />
    <glyph glyph-name="Wcircumflex" unicode="&#x174;" horiz-adv-x="852" 
d="M544 21l-38 586l-301 -596q-7 -13 -22 -13q-9 0 -15.5 6.5t-7.5 16.5l-41 630v2q0 7 5 11.5t12 4.5t12 -5t5 -11l36 -605l307 609q5 12 19 12q19 0 21 -20l37 -601l307 612q4 9 15 9q16 0 16 -15q0 -5 -2 -9l-320 -634q-7 -13 -22 -13q-9 0 -15.5 6.5t-7.5 16.5zM622 728
l-63 115l-112 -118q-4 -4 -8 -4q-12 0 -12 11q0 5 3 8l107 118q9 11 23 11h4q17 0 25 -18l54 -113q1 -1 1 -4q0 -13 -12 -13q-6 0 -10 7z" />
    <glyph glyph-name="wcircumflex" unicode="&#x175;" horiz-adv-x="704" 
d="M443 12l-48 426l-240 -432q-5 -8 -13 -8q-13 0 -15 14l-50 456v2q0 5 4.5 10t10.5 5q13 0 15 -14l42 -424l239 430q5 8 13 8q13 0 15 -14l47 -424l234 430q5 8 13 8q15 0 15 -15l-2 -8l-252 -456q-5 -8 -13 -8q-13 0 -15 14zM515 581l-63 115l-112 -118q-4 -4 -8 -4
q-12 0 -12 11q0 5 3 8l107 118q9 11 23 11h4q17 0 25 -18l54 -113q1 -1 1 -4q0 -13 -12 -13q-6 0 -10 7z" />
    <glyph glyph-name="Ycircumflex" unicode="&#x176;" horiz-adv-x="610" 
d="M658 641l-327 -353l-62 -277q-2 -13 -15 -13q-7 0 -12 5.5t-3 13.5l60 273l-174 355q-2 6 -2 7q0 6 5 11.5t12 5.5q9 0 15 -10l163 -338l316 342q4 6 12 6q7 0 11.5 -5t4.5 -12q0 -6 -4 -11zM502 728l-63 115l-112 -118q-4 -4 -8 -4q-12 0 -12 11q0 5 3 8l107 118
q9 11 23 11h4q17 0 25 -18l54 -113q1 -1 1 -4q0 -13 -12 -13q-6 0 -10 7z" />
    <glyph glyph-name="ycircumflex" unicode="&#x177;" horiz-adv-x="471" 
d="M-20 -159q18 -5 34 -5q41 0 81 61l66 100l-93 468v3q0 6 4.5 11.5t10.5 5.5q14 0 16 -13l88 -437l286 443q4 7 13 7q6 0 10.5 -4.5t4.5 -11.5l-2 -8l-375 -575q-54 -82 -120 -82q-13 0 -33 4q-12 2 -12 16q0 8 7 13.5t14 3.5zM402 581l-63 115l-112 -118q-4 -4 -8 -4
q-12 0 -12 11q0 5 3 8l107 118q9 11 23 11h4q17 0 25 -18l54 -113q1 -1 1 -4q0 -13 -12 -13q-6 0 -10 7z" />
    <glyph glyph-name="Ydieresis" unicode="&#x178;" horiz-adv-x="610" 
d="M658 641l-327 -353l-62 -277q-2 -13 -15 -13q-7 0 -12 5.5t-3 13.5l60 273l-174 355q-2 6 -2 7q0 6 5 11.5t12 5.5q9 0 15 -10l163 -338l316 342q4 6 12 6q7 0 11.5 -5t4.5 -12q0 -6 -4 -11zM294 762q0 13 9 22t22 9q10 0 17.5 -7t7.5 -18q0 -13 -9 -22t-22 -9
q-11 0 -18 7.5t-7 17.5zM496 762q0 13 9 22t22 9q10 0 17.5 -7t7.5 -18q0 -13 -9 -22t-22 -9q-11 0 -18 7.5t-7 17.5z" />
    <glyph glyph-name="Zacute" unicode="&#x179;" horiz-adv-x="578" 
d="M1 19q0 4 5 12l557 606h-406q-6 0 -10.5 4.5t-4.5 10.5t4.5 10.5t10.5 4.5h433q19 0 19 -19q0 -4 -5 -12l-558 -606h414q6 0 10.5 -4.5t4.5 -10.5t-4.5 -10.5t-10.5 -4.5h-440q-19 0 -19 19zM405 721q-9 0 -9 9q0 6 5 9l165 126q4 3 9 3q6 0 10 -4.5t4 -9.5q0 -9 -7 -13
l-167 -116q-4 -4 -10 -4z" />
    <glyph glyph-name="zacute" unicode="&#x17a;" horiz-adv-x="466" 
d="M8 17q0 7 4 11l398 428h-288q-13 0 -13 13q0 14 13 14h314q7 0 12 -5t5 -12q0 -3 -5 -11l-400 -428h294q5 0 9.5 -4t4.5 -10q0 -5 -4.5 -9t-9.5 -4h-318q-7 0 -11.5 5t-4.5 12zM318 574q-9 0 -9 9q0 6 5 9l165 126q5 3 9 3q6 0 10 -4.5t4 -9.5q0 -9 -7 -13l-167 -116
q-4 -4 -10 -4z" />
    <glyph glyph-name="Zdotaccent" unicode="&#x17b;" horiz-adv-x="578" 
d="M1 19q0 4 5 12l557 606h-406q-6 0 -10.5 4.5t-4.5 10.5t4.5 10.5t10.5 4.5h433q19 0 19 -19q0 -4 -5 -12l-558 -606h414q6 0 10.5 -4.5t4.5 -10.5t-4.5 -10.5t-10.5 -4.5h-440q-19 0 -19 19zM374 759q0 13 9.5 22.5t22.5 9.5q11 0 18.5 -7.5t7.5 -18.5q0 -13 -9.5 -22.5
t-22.5 -9.5q-11 0 -18.5 7.5t-7.5 18.5z" />
    <glyph glyph-name="zdotaccent" unicode="&#x17c;" horiz-adv-x="466" 
d="M8 17q0 7 4 11l398 428h-288q-13 0 -13 13q0 14 13 14h314q7 0 12 -5t5 -12q0 -3 -5 -11l-400 -428h294q5 0 9.5 -4t4.5 -10q0 -5 -4.5 -9t-9.5 -4h-318q-7 0 -11.5 5t-4.5 12zM287 612q0 13 9.5 22.5t22.5 9.5q11 0 18.5 -7.5t7.5 -18.5q0 -13 -9.5 -22.5t-22.5 -9.5
q-11 0 -18.5 7.5t-7.5 18.5z" />
    <glyph glyph-name="Zcaron" unicode="&#x17d;" horiz-adv-x="578" 
d="M1 19q0 4 5 12l557 606h-406q-6 0 -10.5 4.5t-4.5 10.5t4.5 10.5t10.5 4.5h433q19 0 19 -19q0 -4 -5 -12l-558 -606h414q6 0 10.5 -4.5t4.5 -10.5t-4.5 -10.5t-10.5 -4.5h-440q-19 0 -19 19zM336 862l63 -115l112 118q4 4 8 4q12 0 12 -11q0 -5 -3 -8l-107 -118
q-9 -11 -23 -11h-4q-17 0 -25 18l-54 113q-1 1 -1 4q0 13 12 13q6 0 10 -7z" />
    <glyph glyph-name="zcaron" unicode="&#x17e;" horiz-adv-x="466" 
d="M8 17q0 7 4 11l398 428h-288q-13 0 -13 13q0 14 13 14h314q7 0 12 -5t5 -12q0 -3 -5 -11l-400 -428h294q5 0 9.5 -4t4.5 -10q0 -5 -4.5 -9t-9.5 -4h-318q-7 0 -11.5 5t-4.5 12zM249 715l63 -115l112 118q4 4 8 4q12 0 12 -11q0 -5 -3 -8l-107 -118q-9 -11 -23 -11h-4
q-17 0 -25 18l-54 113q-1 1 -1 4q0 13 12 13q6 0 10 -7z" />
    <glyph glyph-name="longs" unicode="&#x17f;" horiz-adv-x="246" 
d="M367 653q0 -8 -6.5 -12t-13.5 0q-19 9 -46 9q-43 0 -68.5 -28.5t-38.5 -87.5l-116 -524q-2 -12 -14 -12q-7 0 -11 5.5t-3 12.5l97 440h-65q-13 0 -13 13q0 14 13 14h71l11 51q32 143 140 143q32 0 56 -12q7 -3 7 -12z" />
    <glyph glyph-name="uni018F" unicode="&#x18f;" horiz-adv-x="749" 
d="M714 392q2 -85 -29.5 -162t-83 -129.5t-117.5 -83t-134 -29.5q-128 0 -206.5 78.5t-78.5 201.5q0 33 4 56q3 16 20 16h586q3 26 3 52q0 116 -70 186t-187 70q-99 0 -188 -68q-3 -3 -9 -3q-7 0 -11.5 4.5t-4.5 10.5t6 12q98 74 209 74q129 0 210 -79t81 -207zM671 310
h-572q-3 -21 -3 -41q0 -106 72 -178.5t185 -72.5q110 0 202.5 81t115.5 211z" />
    <glyph glyph-name="uni0192" unicode="&#x192;" horiz-adv-x="412" 
d="M432 640q0 -6 -4.5 -10.5t-11.5 -4.5q-6 0 -10 4q-21 18 -54 18q-85 0 -110 -113l-53 -237h149q6 0 10.5 -4.5t4.5 -10.5t-4.5 -10.5t-10.5 -4.5h-155l-93 -417q-2 -13 -15 -13q-7 0 -12 5.5t-3 13.5l91 411h-67q-6 0 -10.5 4.5t-4.5 10.5t4.5 10.5t10.5 4.5h73l53 237
q32 143 140 143q46 0 76 -25q6 -6 6 -12z" />
    <glyph glyph-name="uni019D" unicode="&#x19d;" horiz-adv-x="690" 
d="M676 669q7 0 12 -5.5t3 -13.5l-140 -635q-6 -17 -21 -17q-14 0 -19 12l-308 609l-137 -618q-21 -97 -76 -147t-135 -50q-34 0 -64 8q-11 5 -11 15q0 8 6.5 12.5t14.5 2.5q29 -8 54 -8q70 0 115.5 44t63.5 123l144 651q6 17 21 17q14 0 19 -12l309 -603l134 602
q2 13 15 13z" />
    <glyph glyph-name="Ohorn" unicode="&#x1a0;" horiz-adv-x="764" 
d="M690 548q39 -66 39 -156q2 -108 -48.5 -202.5t-135 -149t-180.5 -52.5q-127 0 -209 76.5t-82 209.5q-2 108 48.5 202.5t135 149t180.5 52.5q158 0 237 -108q56 34 68 82h-6q-10 0 -18 8.5t-8 19.5q0 15 10.5 25.5t24.5 10.5q32 0 32 -38q0 -36 -27 -73q-25 -37 -61 -57z
M693 392q0 120 -73 188t-185 68q-130 3 -228.5 -107t-96.5 -267q0 -120 73 -188t184 -68q130 -3 229.5 107t96.5 267z" />
    <glyph glyph-name="ohorn" unicode="&#x1a1;" horiz-adv-x="570" 
d="M476 421q41 -56 41 -136q2 -116 -76.5 -208t-184.5 -89q-93 0 -149 57t-56 153q-2 116 76.5 208t184.5 89q90 0 146 -54q48 31 60 77h-6q-10 0 -18 8.5t-8 19.5q0 15 10.5 25.5t24.5 10.5q32 0 32 -38q0 -33 -22 -67t-55 -56zM483 285q0 84 -45.5 133.5t-125.5 49.5
q-93 2 -161 -82t-66 -188q0 -84 45.5 -133.5t125.5 -49.5q93 -2 161 82t66 188z" />
    <glyph glyph-name="Uhorn" unicode="&#x1af;" horiz-adv-x="672" 
d="M659 585l-73 -332q-31 -137 -92.5 -201t-174.5 -64q-108 0 -171 57t-63 155q0 23 5 53l89 403q2 13 15 13q7 0 12 -5.5t3 -13.5l-87 -397q-6 -24 -6 -49q0 -85 54.5 -135.5t148.5 -50.5q98 0 153 57t82 178l89 403q2 13 15 13q7 0 12 -5.5t3 -13.5l-8 -35q95 45 109 104
h-6q-10 0 -18 8.5t-8 19.5q0 15 10.5 25.5t24.5 10.5q32 0 32 -38q0 -48 -41.5 -92t-108.5 -68z" />
    <glyph glyph-name="uhorn" unicode="&#x1b0;" 
d="M473 385l-83 -375q-2 -12 -14 -12q-7 0 -11 5.5t-3 12.5l13 60q-92 -88 -178 -88q-65 0 -101 30.5t-36 85.5q0 14 5 42l72 327q2 12 14 12q7 0 11.5 -5.5t2.5 -12.5l-71 -322q-5 -28 -5 -41q0 -89 114 -89q44 0 92.5 26t86.5 67l81 365q2 12 14 12q7 0 11.5 -5.5
t2.5 -12.5l-11 -52q89 43 103 102h-6q-10 0 -18 8.5t-8 19.5q0 15 10.5 25.5t24.5 10.5q32 0 32 -38q0 -47 -40 -90t-105 -68z" />
    <glyph glyph-name="Gcaron" unicode="&#x1e6;" horiz-adv-x="708" 
d="M685 553q0 -6 -4.5 -11t-11.5 -5q-9 0 -13 7q-72 104 -221 104q-128 3 -228 -108t-97 -266q0 -117 70.5 -186.5t186.5 -69.5q118 0 212 88l41 184h-258q-6 0 -10.5 4.5t-4.5 10.5t4.5 10.5t10.5 4.5h276q21 0 16 -20l-44 -200q-3 -11 -12 -20q-109 -92 -233 -92
q-133 0 -212 80t-79 206q-2 83 28.5 159.5t81 130t117.5 84.5t137 30q159 0 244 -117q3 -3 3 -8zM431 862l63 -115l112 118q4 4 8 4q12 0 12 -11q0 -5 -3 -8l-107 -118q-9 -11 -23 -11h-4q-17 0 -25 18l-54 113q-1 1 -1 4q0 13 12 13q6 0 10 -7z" />
    <glyph glyph-name="gcaron" unicode="&#x1e7;" horiz-adv-x="566" 
d="M529 467l-104 -470q-43 -193 -213 -193q-132 0 -192 69q-4 5 -4 11q0 7 5 12t12 5q9 0 13 -6q52 -64 166 -64q69 0 117 41t66 125l17 80q-66 -89 -178 -89q-83 0 -133.5 53.5t-50.5 149.5q-2 121 71 214t181 90q52 0 102.5 -28t78.5 -71l18 77q2 12 14 12q7 0 11.5 -5.5
t2.5 -12.5zM420 111l58 259q-23 44 -72.5 71t-106.5 27q-61 2 -112.5 -40t-78 -105.5t-25.5 -130.5q0 -83 42.5 -130t114.5 -47q48 0 97 27t83 69zM300 715l63 -115l112 118q4 4 8 4q12 0 12 -11q0 -5 -3 -8l-107 -118q-9 -11 -23 -11h-4q-17 0 -25 18l-54 113q-1 1 -1 4
q0 13 12 13q6 0 10 -7z" />
    <glyph glyph-name="uni01EA" unicode="&#x1ea;" horiz-adv-x="764" 
d="M314 -123q0 -36 43 -36q14 0 29 6q1 1 4 1q13 0 13 -12q0 -8 -7 -11q-24 -11 -45 -11q-32 0 -52 15.5t-20 41.5q0 63 100 117h-14q-127 0 -209 76.5t-82 209.5q-2 108 48.5 202.5t135 149t180.5 52.5q127 0 209 -76.5t82 -209.5q1 -146 -86 -260t-213 -138
q-56 -26 -86 -57t-30 -60zM367 18q130 -3 229.5 107t96.5 267q0 120 -73 188t-185 68q-130 3 -228.5 -107t-96.5 -267q0 -120 73 -188t184 -68z" />
    <glyph glyph-name="uni01EB" unicode="&#x1eb;" horiz-adv-x="570" 
d="M195 -123q0 -36 43 -36q14 0 29 6q1 1 4 1q13 0 13 -12q0 -8 -7 -11q-24 -11 -45 -11q-32 0 -52 15.5t-20 41.5q0 30 27.5 61.5t71.5 55.5h-3q-93 0 -149 57t-56 153q-2 116 76.5 208t184.5 89q93 0 149 -57t56 -153q1 -99 -58.5 -184.5t-146.5 -105.5q-57 -27 -87 -58
t-30 -60zM256 15q93 -2 161 82t66 188q0 84 -45.5 133.5t-125.5 49.5q-93 2 -161 -82t-66 -188q0 -84 45.5 -133.5t125.5 -49.5z" />
    <glyph glyph-name="Aringacute" unicode="&#x1fa;" horiz-adv-x="636" 
d="M557 19v-3q0 -18 -17 -18q-14 0 -16 14l-32 167h-372l-110 -173q-6 -8 -14 -8q-7 0 -12 5t-5 12q0 3 3 9l403 632q7 13 23 13q10 0 17.5 -6t8.5 -16zM139 209h347l-81 421zM454 906q37 0 60.5 -23.5t23.5 -60.5q0 -41 -31 -72q-30 -30 -71 -30q-37 0 -60.5 23.5
t-23.5 60.5q0 41 30 71q31 31 72 31zM454 882q-32 0 -55 -22.5t-23 -53.5q0 -27 16.5 -44.5t43.5 -17.5q32 0 55 22.5t23 53.5q0 28 -16.5 45t-43.5 17zM481 933q-9 0 -9 9q0 6 5 9l165 126q4 3 9 3q6 0 10 -4.5t4 -9.5q0 -9 -7 -13l-167 -116q-4 -4 -10 -4z" />
    <glyph glyph-name="aringacute" unicode="&#x1fb;" horiz-adv-x="566" 
d="M529 467l-101 -457q-2 -12 -14 -12q-7 0 -11 5.5t-3 12.5l13 60q-71 -88 -172 -88q-86 0 -138 53.5t-52 144.5q-2 125 72 218t181 91q60 0 107.5 -27t72.5 -73l17 78q2 12 14 12q7 0 11.5 -5.5t2.5 -12.5zM423 119l55 251q-21 44 -67.5 71t-106.5 27q-62 2 -113.5 -39
t-79 -105.5t-26.5 -133.5q0 -81 43 -128t115 -47q52 0 101 29t79 75zM388 759q37 0 60.5 -23.5t23.5 -60.5q0 -41 -31 -72q-30 -30 -71 -30q-37 0 -60.5 23.5t-23.5 60.5q0 41 30 71q31 31 72 31zM388 735q-32 0 -55 -22.5t-23 -53.5q0 -27 16.5 -44.5t43.5 -17.5
q32 0 55 22.5t23 53.5q0 28 -16.5 45t-43.5 17zM415 786q-9 0 -9 9q0 6 5 9l165 126q4 3 9 3q6 0 10 -4.5t4 -9.5q0 -9 -7 -13l-167 -116q-4 -4 -10 -4z" />
    <glyph glyph-name="AEacute" unicode="&#x1fc;" horiz-adv-x="930" 
d="M956 652q0 -6 -4.5 -10.5t-10.5 -4.5h-365l-62 -279h352q6 0 10.5 -4.5t4.5 -10.5t-4.5 -10.5t-10.5 -4.5h-359l-66 -298h359q6 0 10.5 -4.5t4.5 -10.5t-4.5 -10.5t-10.5 -4.5h-377q-21 0 -16 20l35 159h-283l-149 -175q-5 -6 -11 -6q-7 0 -11.5 4.5t-4.5 10.5q0 5 4 10
l543 634q9 10 22 10h389q6 0 10.5 -4.5t4.5 -10.5zM449 209l92 417l-356 -417h264zM588 721q-9 0 -9 9q0 6 5 9l165 126q5 3 9 3q6 0 10 -4.5t4 -9.5q0 -9 -7 -13l-167 -116q-4 -4 -10 -4z" />
    <glyph glyph-name="aeacute" unicode="&#x1fd;" horiz-adv-x="958" 
d="M904 288q0 -19 -4 -40q-3 -16 -19 -16h-401q-2 -16 -2 -32q0 -83 50.5 -134t139.5 -51q74 0 138 49q3 3 8 3q13 0 13 -13q0 -6 -6 -11q-73 -55 -153 -55q-86 0 -141.5 45t-66.5 121l-32 -144q-2 -12 -14 -12q-7 0 -11 5.5t-3 12.5l13 60q-71 -88 -172 -88
q-86 0 -138 53.5t-52 144.5q-2 125 72 218t181 91q60 0 107.5 -27t72.5 -73l17 78q2 12 14 12q7 0 11.5 -5.5t2.5 -12.5l-18 -84q36 49 87.5 80.5t110.5 31.5q94 0 144 -59q51 -59 51 -148zM423 119l55 251q-21 44 -67.5 71t-106.5 27q-62 2 -113.5 -39t-79 -105.5
t-26.5 -133.5q0 -81 43 -128t115 -47q52 0 101 29t79 75zM874 285q0 84 -44.5 133.5t-125.5 49.5q-78 0 -142.5 -62t-78.5 -147h389q2 16 2 26zM549 574q-9 0 -9 9q0 6 5 9l165 126q4 3 9 3q6 0 10 -4.5t4 -9.5q0 -9 -7 -13l-167 -116q-4 -4 -10 -4z" />
    <glyph glyph-name="Oslashacute" unicode="&#x1fe;" horiz-adv-x="764" 
d="M762 702q0 -6 -4 -10l-98 -104q69 -75 69 -196q2 -108 -48.5 -202.5t-135 -149t-180.5 -52.5q-127 0 -205 72l-97 -103q-5 -5 -10 -5q-11 0 -11 12q0 6 4 10l97 103q-69 75 -69 197q-2 108 48.5 202.5t135 149t180.5 52.5q127 0 205 -72l98 104q5 5 9 5q12 0 12 -13z
M167 102l452 479q-72 67 -184 67q-130 3 -228.5 -107t-96.5 -267q0 -104 57 -172zM636 563l-452 -478q72 -67 183 -67q130 -3 229.5 107t96.5 267q0 104 -57 171zM498 721q-9 0 -9 9q0 6 5 9l165 126q5 3 9 3q6 0 10 -4.5t4 -9.5q0 -9 -7 -13l-167 -116q-4 -4 -10 -4z" />
    <glyph glyph-name="oslashacute" unicode="&#x1ff;" horiz-adv-x="570" 
d="M526 520q0 -3 -4 -8l-61 -74q56 -59 56 -153q2 -116 -76.5 -208t-184.5 -89q-77 0 -129 40l-58 -71q-5 -5 -10 -5q-4 0 -8 3.5t-4 8.5q0 4 3 8l59 71q-58 58 -58 155q-2 116 76.5 208t184.5 89q80 0 132 -42l60 73q5 5 10 5q12 0 12 -11zM128 67l297 363q-44 38 -113 38
q-93 2 -161 -82t-66 -188q0 -82 43 -131zM442 414l-297 -363q45 -36 111 -36q93 -2 161 82t66 188q0 79 -41 129zM369 574q-9 0 -9 9q0 6 5 9l165 126q4 3 9 3q6 0 10 -4.5t4 -9.5q0 -9 -7 -13l-167 -116q-4 -4 -10 -4z" />
    <glyph glyph-name="uni0218" unicode="&#x218;" horiz-adv-x="575" 
d="M37 100q0 8 5.5 13t12.5 5q10 0 14 -7q76 -93 207 -93q89 0 138.5 50t49.5 116q0 38 -22 63q-19 25 -48 42t-90 43q-66 29 -93 44q-83 48 -83 126q0 72 64 124t151 52q68 0 123.5 -23.5t86.5 -65.5q3 -5 3 -11q0 -7 -5 -12.5t-13 -5.5q-10 0 -14 7q-63 81 -181 81
q-73 0 -126 -44.5t-53 -101.5q0 -32 20 -57q32 -37 133 -80q57 -24 96 -47q87 -51 87 -134q0 -79 -61.5 -137.5t-165.5 -58.5q-73 0 -136 27.5t-97 73.5q-3 5 -3 11zM147 -249q-13 0 -13 13q0 6 6 11q49 33 60 77h-6q-10 0 -18 8.5t-8 19.5q0 15 10.5 25.5t24.5 10.5
q32 0 32 -38q0 -32 -22 -65t-56 -58q-4 -4 -10 -4z" />
    <glyph glyph-name="uni0219" unicode="&#x219;" horiz-adv-x="454" 
d="M18 70q0 6 4.5 10.5t10.5 4.5t12 -6q22 -29 62 -46.5t87 -17.5q64 0 105 34t41 81q0 35 -27.5 56.5t-96.5 51.5q-31 13 -73 34q-65 36 -65 92q0 54 46.5 92.5t122.5 38.5q53 0 96 -18.5t65 -49.5q3 -3 3 -9t-4.5 -10.5t-10.5 -4.5q-8 0 -12 6q-20 26 -59 42.5t-82 16.5
q-59 0 -96.5 -28.5t-37.5 -71.5q0 -32 26.5 -52.5t92.5 -47.5q45 -18 75 -35q68 -37 68 -98q0 -60 -47.5 -103.5t-126.5 -43.5q-118 0 -176 73q-3 3 -3 9zM84 -249q-13 0 -13 13q0 6 6 11q49 33 60 77h-6q-10 0 -18 8.5t-8 19.5q0 15 10.5 25.5t24.5 10.5q32 0 32 -38
q0 -32 -22 -65t-56 -58q-4 -4 -10 -4z" />
    <glyph glyph-name="uni021A" unicode="&#x21a;" horiz-adv-x="559" 
d="M213 17l137 620h-208q-6 0 -10.5 4.5t-4.5 10.5t4.5 10.5t10.5 4.5h455q6 0 10.5 -4.5t4.5 -10.5t-4.5 -10.5t-10.5 -4.5h-215l-139 -626q-2 -13 -15 -13q-7 0 -12 5.5t-3 13.5zM146 -249q-13 0 -13 13q0 6 6 11q49 33 60 77h-6q-10 0 -18 8.5t-8 19.5q0 15 10.5 25.5
t24.5 10.5q32 0 32 -38q0 -32 -22 -65t-56 -58q-4 -4 -10 -4z" />
    <glyph glyph-name="uni021B" unicode="&#x21b;" horiz-adv-x="256" 
d="M271 469q0 -13 -13 -13h-90l-82 -371q-3 -14 -3 -25q0 -45 51 -45q22 0 45 13q2 0 5 1l2 1q6 0 11 -6q2 -6 2 -7q0 -7 -6 -11q-25 -18 -58 -18q-83 0 -83 68q0 9 4 29l83 371h-65q-13 0 -13 14q0 13 13 13h71l27 122q3 12 14 12q7 0 11.5 -5.5t2.5 -12.5l-26 -116h84
q13 0 13 -14zM17 -249q-13 0 -13 13q0 6 6 11q49 33 60 77h-6q-10 0 -18 8.5t-8 19.5q0 15 10.5 25.5t24.5 10.5q32 0 32 -38q0 -32 -22 -65t-56 -58q-4 -4 -10 -4z" />
    <glyph glyph-name="uni0232" unicode="&#x232;" horiz-adv-x="610" 
d="M658 641l-327 -353l-62 -277q-2 -13 -15 -13q-7 0 -12 5.5t-3 13.5l60 273l-174 355q-2 6 -2 7q0 6 5 11.5t12 5.5q9 0 15 -10l163 -338l316 342q4 6 12 6q7 0 11.5 -5t4.5 -12q0 -6 -4 -11zM279 761q0 14 13 14h259q13 0 13 -13q0 -14 -13 -14h-259q-13 0 -13 13z" />
    <glyph glyph-name="uni0233" unicode="&#x233;" horiz-adv-x="471" 
d="M-20 -159q18 -5 34 -5q41 0 81 61l66 100l-93 468v3q0 6 4.5 11.5t10.5 5.5q14 0 16 -13l88 -437l286 443q4 7 13 7q6 0 10.5 -4.5t4.5 -11.5l-2 -8l-375 -575q-54 -82 -120 -82q-13 0 -33 4q-12 2 -12 16q0 8 7 13.5t14 3.5zM179 614q0 14 13 14h259q13 0 13 -13
q0 -14 -13 -14h-259q-13 0 -13 13z" />
    <glyph glyph-name="uni0237" unicode="&#x237;" horiz-adv-x="202" 
d="M-134 -176q0 8 6 12t13 1q15 -6 35 -6q74 0 95 93l122 549q2 12 14 12q7 0 11.5 -5.5t2.5 -12.5l-120 -543q-27 -120 -125 -120q-27 0 -45 7q-9 5 -9 13z" />
    <glyph glyph-name="uni0259" unicode="&#x259;" horiz-adv-x="571" 
d="M253 -12q-93 0 -147 58.5t-54 148.5q0 19 4 40q3 16 19 16h407q2 16 2 32q0 83 -50.5 134t-139.5 51q-77 0 -144 -49q-3 -3 -7 -3q-14 0 -14 13q0 7 6 11q73 55 159 55q104 0 164 -58.5t60 -153.5q2 -119 -78 -208t-187 -87zM82 198q0 -84 47 -133.5t129 -49.5
q78 0 142.5 62t78.5 147h-395q-2 -16 -2 -26z" />
    <glyph glyph-name="uni0272" unicode="&#x272;" 
d="M468 381q0 -20 -6 -44l-72 -327q-2 -12 -14 -12q-7 0 -11 5.5t-3 12.5l71 322q4 17 4 39q0 91 -113 91q-44 0 -92.5 -26t-86.5 -67l-100 -451q-13 -62 -43.5 -91t-81.5 -29q-27 0 -45 7q-9 5 -9 13t6 12t13 1q15 -6 35 -6q74 0 95 93l122 549q2 12 14 12q7 0 11.5 -5.5
t2.5 -12.5l-13 -60q92 88 178 88q65 0 101.5 -30t36.5 -84z" />
    <glyph glyph-name="uni02B0" unicode="&#x2b0;" horiz-adv-x="387" 
d="M311 341l44 198q2 14 2 21q0 31 -20 48t-57 17q-53 0 -113 -60l-50 -230q-2 -11 -13 -11q-6 0 -10.5 5.5t-3.5 11.5l91 410q2 11 13 11q6 0 10.5 -5.5t3.5 -11.5l-34 -154q55 57 118 57q45 0 70 -20t25 -57q0 -16 -4 -32l-45 -204q-2 -11 -13 -11q-6 0 -10.5 5.5
t-3.5 11.5z" />
    <glyph glyph-name="uni02BC" unicode="&#x2bc;" horiz-adv-x="208" 
d="M139 512q-13 0 -13 13q0 7 6 11q49 33 60 77h-6q-10 0 -18 8.5t-8 19.5q0 15 10.5 25.5t24.5 10.5q32 0 32 -38q0 -33 -23.5 -68t-57.5 -57q-2 -2 -7 -2z" />
    <glyph glyph-name="circumflex" unicode="&#x2c6;" horiz-adv-x="235" 
d="M276 561l-63 115l-112 -118q-4 -4 -8 -4q-12 0 -12 11q0 5 3 8l107 118q9 11 23 11h4q17 0 25 -18l54 -113q1 -1 1 -4q0 -13 -12 -13q-6 0 -10 7z" />
    <glyph glyph-name="caron" unicode="&#x2c7;" horiz-adv-x="235" 
d="M129 695l63 -115l112 118q4 4 8 4q12 0 12 -11q0 -5 -3 -8l-107 -118q-9 -11 -23 -11h-4q-17 0 -25 18l-54 113q-1 1 -1 4q0 13 12 13q6 0 10 -7z" />
    <glyph glyph-name="uni02C9" unicode="&#x2c9;" horiz-adv-x="363" 
d="M119 604q0 14 13 14h258q13 0 13 -14q0 -13 -13 -13h-258q-13 0 -13 13z" />
    <glyph glyph-name="uni02CB" unicode="&#x2cb;" horiz-adv-x="205" 
d="M242 558l-116 117q-4 4 -4 11t4.5 11.5t10.5 4.5q7 0 12 -6l110 -123q3 -3 3 -7q0 -12 -12 -12q-4 0 -8 4z" />
    <glyph glyph-name="breve" unicode="&#x2d8;" horiz-adv-x="351" 
d="M91 622q-3 6 -3 8q0 6 4.5 10.5t10.5 4.5q8 0 12 -7q45 -67 131 -67q92 0 164 72q3 3 9 3q13 0 13 -13q0 -5 -4 -9q-83 -80 -186 -80q-102 0 -151 78z" />
    <glyph glyph-name="dotaccent" unicode="&#x2d9;" horiz-adv-x="98" 
d="M98 592q0 13 9.5 22.5t22.5 9.5q11 0 18.5 -7.5t7.5 -18.5q0 -13 -9.5 -22.5t-22.5 -9.5q-11 0 -18.5 7.5t-7.5 18.5z" />
    <glyph glyph-name="ring" unicode="&#x2da;" horiz-adv-x="227" 
d="M212 739q37 0 60.5 -23.5t23.5 -60.5q0 -41 -31 -72q-30 -30 -71 -30q-37 0 -60.5 23.5t-23.5 60.5q0 41 30 71q31 31 72 31zM212 715q-32 0 -55 -22.5t-23 -53.5q0 -27 16.5 -44.5t43.5 -17.5q32 0 55 22.5t23 53.5q0 28 -16.5 45t-43.5 17z" />
    <glyph glyph-name="ogonek" unicode="&#x2db;" horiz-adv-x="177" 
d="M57 -175q-24 -11 -45 -11q-32 0 -52 15.5t-20 41.5q0 38 40 75t94 59q15 5 23 5q13 0 13 -4q0 -3 -7 -6q-128 -57 -128 -123q0 -36 43 -36q14 0 29 6q1 1 4 1q13 0 13 -12q0 -8 -7 -11z" />
    <glyph glyph-name="tilde" unicode="&#x2dc;" horiz-adv-x="301" 
d="M173 667q-50 0 -74 -99q-2 -10 -12 -10q-7 0 -11 5t-2 12q28 119 100 119q26 0 42 -15.5t28 -45.5q12 -29 22.5 -40.5t28.5 -11.5q49 0 75 99q2 10 12 10q6 0 10 -5.5t3 -11.5q-28 -119 -101 -119q-26 0 -42 15.5t-28 45.5q-12 29 -22.5 40.5t-28.5 11.5z" />
    <glyph glyph-name="hungarumlaut" unicode="&#x2dd;" horiz-adv-x="277" 
d="M79 565q0 1 2 7l115 125q3 5 11 5q6 0 10.5 -4.5t4.5 -10.5q0 -7 -4 -11l-122 -119q-3 -3 -7 -3q-10 0 -10 11zM215 565q0 1 2 7l115 125q3 5 11 5q6 0 10.5 -4.5t4.5 -10.5q0 -7 -4 -11l-122 -119q-3 -3 -7 -3q-10 0 -10 11z" />
    <glyph glyph-name="gravecomb" unicode="&#x300;" horiz-adv-x="0" 
d="M37 558l-116 117q-4 4 -4 11t4.5 11.5t10.5 4.5q8 0 12 -6l110 -123q3 -3 3 -7q0 -12 -12 -12q-4 0 -8 4z" />
    <glyph glyph-name="acutecomb" unicode="&#x301;" horiz-adv-x="0" 
d="M-112 554q-9 0 -9 9q0 6 5 9l165 126q5 3 9 3q6 0 10 -4.5t4 -9.5q0 -9 -7 -13l-167 -116q-4 -4 -10 -4z" />
    <glyph glyph-name="uni0302" unicode="&#x302;" horiz-adv-x="0" 
d="M41 561l-63 115l-112 -118q-4 -4 -8 -4q-12 0 -12 11q0 5 3 8l107 118q9 11 23 11h4q17 0 25 -18l54 -113q1 -1 1 -4q0 -13 -12 -13q-6 0 -10 7z" />
    <glyph glyph-name="tildecomb" unicode="&#x303;" horiz-adv-x="0" 
d="M-128 667q-50 0 -74 -99q-2 -10 -12 -10q-7 0 -11 5t-2 12q28 119 100 119q26 0 42 -15.5t28 -45.5q12 -29 22.5 -40.5t28.5 -11.5q50 0 75 99q2 10 12 10q6 0 10 -5.5t3 -11.5q-28 -119 -101 -119q-26 0 -42 15.5t-28 45.5q-12 29 -22.5 40.5t-28.5 11.5z" />
    <glyph glyph-name="uni0304" unicode="&#x304;" horiz-adv-x="0" 
d="M-246 594q0 14 13 14h259q13 0 13 -13q0 -14 -13 -14h-259q-13 0 -13 13z" />
    <glyph glyph-name="uni0306" unicode="&#x306;" horiz-adv-x="0" 
d="M-260 622q-3 6 -3 8q0 6 4.5 10.5t10.5 4.5q8 0 12 -7q45 -67 131 -67q92 0 164 72q3 3 9 3q13 0 13 -13q0 -5 -4 -9q-83 -80 -186 -80q-102 0 -151 78z" />
    <glyph glyph-name="uni0307" unicode="&#x307;" horiz-adv-x="0" 
d="M0 592q0 13 9.5 22.5t22.5 9.5q11 0 18.5 -7.5t7.5 -18.5q0 -13 -9.5 -22.5t-22.5 -9.5q-11 0 -18.5 7.5t-7.5 18.5z" />
    <glyph glyph-name="uni0308" unicode="&#x308;" horiz-adv-x="0" 
d="M-252 595q0 13 9 22t22 9q10 0 17.5 -7t7.5 -18q0 -13 -9 -22t-22 -9q-11 0 -18 7.5t-7 17.5zM-50 595q0 13 9 22t22 9q10 0 17.5 -7t7.5 -18q0 -13 -9 -22t-22 -9q-11 0 -18 7.5t-7 17.5z" />
    <glyph glyph-name="uni0309" unicode="&#x309;" horiz-adv-x="0" 
d="M23 569q0 5 3 9q27 30 27 64q0 20 -14 33t-34 13q-34 0 -56 -34q-4 -7 -12 -7q-6 0 -10.5 4.5t-4.5 10.5q0 2 3 8q33 46 80 46q34 0 56.5 -20.5t22.5 -53.5q0 -42 -38 -83q-3 -4 -10 -4q-13 0 -13 14z" />
    <glyph glyph-name="uni030A" unicode="&#x30a;" horiz-adv-x="0" 
d="M-15 739q37 0 60.5 -23.5t23.5 -60.5q0 -41 -31 -72q-30 -30 -71 -30q-37 0 -60.5 23.5t-23.5 60.5q0 41 31 71q30 31 71 31zM-15 715q-32 0 -55 -22.5t-23 -53.5q0 -27 16.5 -44.5t43.5 -17.5q32 0 55 22.5t23 53.5q0 28 -16.5 45t-43.5 17z" />
    <glyph glyph-name="uni030B" unicode="&#x30b;" horiz-adv-x="0" 
d="M-198 565q0 1 2 7l115 125q3 5 11 5q6 0 10.5 -4.5t4.5 -10.5q0 -7 -4 -11l-122 -119q-3 -3 -7 -3q-10 0 -10 11zM-62 565q0 1 2 7l115 125q3 5 11 5q6 0 10.5 -4.5t4.5 -10.5q0 -7 -4 -11l-122 -119q-3 -3 -7 -3q-10 0 -10 11z" />
    <glyph glyph-name="uni030C" unicode="&#x30c;" horiz-adv-x="0" 
d="M-106 695l63 -115l112 118q4 4 8 4q12 0 12 -11q0 -5 -3 -8l-107 -118q-9 -11 -23 -11h-4q-17 0 -25 18l-54 113q-1 1 -1 4q0 13 12 13q6 0 10 -7z" />
    <glyph glyph-name="dotbelowcomb" unicode="&#x323;" horiz-adv-x="0" 
d="M-157 -122q0 13 9.5 22.5t22.5 9.5q11 0 18.5 -7.5t7.5 -18.5q0 -13 -9.5 -22.5t-22.5 -9.5q-11 0 -18.5 7.5t-7.5 18.5z" />
    <glyph glyph-name="uni0326" unicode="&#x326;" horiz-adv-x="0" 
d="M-239 -249q-13 0 -13 13q0 6 6 11q49 33 60 77h-6q-10 0 -18 8.5t-8 19.5q0 15 10.5 25.5t24.5 10.5q32 0 32 -38q0 -32 -22 -65t-56 -58q-4 -4 -10 -4z" />
    <glyph glyph-name="uni0327" unicode="&#x327;" horiz-adv-x="0" 
d="M-275 -148q0 7 4.5 11.5t10.5 4.5t10 -4q30 -24 72 -24q34 0 52.5 15.5t18.5 40.5q0 36 -43 36q-21 0 -34 -13q-4 -4 -9 -4q-13 0 -13 13q0 1 2 7l45 76h30l-41 -69q15 12 35 12q27 0 42 -14.5t15 -41.5q0 -37 -28 -61t-75 -24q-53 0 -88 27q-6 4 -6 12z" />
    <glyph glyph-name="uni0328" unicode="&#x328;" horiz-adv-x="0" 
d="M-120 -175q-24 -11 -45 -11q-32 0 -52 15.5t-20 41.5q0 38 40 75t94 59q15 5 23 5q13 0 13 -4q0 -3 -7 -6q-128 -57 -128 -123q0 -36 43 -36q14 0 29 6q1 1 4 1q13 0 13 -12q0 -8 -7 -11z" />
    <glyph glyph-name="uni037E" unicode="&#x37e;" horiz-adv-x="208" 
d="M154 490q13 0 21.5 -8.5t8.5 -21.5q0 -15 -10.5 -25t-25.5 -10q-13 0 -21.5 8.5t-8.5 21.5q0 15 10.5 25t25.5 10zM1 -109q-13 0 -13 13q0 6 6 11q49 33 60 77h-6q-10 0 -18 8.5t-8 19.5q0 15 10.5 25.5t24.5 10.5q32 0 32 -38q0 -33 -23.5 -68t-57.5 -57q-2 -2 -7 -2z
" />
    <glyph glyph-name="tonos" unicode="&#x384;" horiz-adv-x="110" 
d="M98 587l52 164q4 16 21 16q10 0 16.5 -6.5t6.5 -16.5q0 -1 -3 -10l-73 -154q-4 -7 -10 -7q-12 0 -10 14z" />
    <glyph glyph-name="dieresistonos" unicode="&#x385;" horiz-adv-x="337" 
d="M225 587l52 164q4 16 21 16q10 0 16.5 -6.5t6.5 -16.5q0 -1 -3 -10l-73 -154q-4 -7 -10 -7q-12 0 -10 14zM99 595q0 13 9 22t22 9q25 0 25 -25q0 -13 -9 -22t-22 -9q-10 0 -17.5 7.5t-7.5 17.5zM340 595q0 13 9 22t22 9q25 0 25 -25q0 -13 -9 -22t-22 -9q-10 0 -17.5 7.5
t-7.5 17.5z" />
    <glyph glyph-name="Alphatonos" unicode="&#x386;" horiz-adv-x="636" 
d="M557 19v-3q0 -18 -17 -18q-14 0 -16 14l-32 167h-372l-110 -173q-6 -8 -14 -8q-7 0 -12 5t-5 12q0 3 3 9l403 632q7 13 23 13q10 0 17.5 -6t8.5 -16zM139 209h347l-81 421zM159 494l52 164q4 16 21 16q10 0 16.5 -6.5t6.5 -16.5q0 -1 -3 -10l-73 -154q-4 -7 -10 -7
q-12 0 -10 14z" />
    <glyph glyph-name="Epsilontonos" unicode="&#x388;" horiz-adv-x="588" 
d="M68 20l140 631q3 16 19 16h375q6 0 10.5 -4.5t4.5 -10.5t-4.5 -10.5t-10.5 -4.5h-365l-62 -279h352q6 0 10.5 -4.5t4.5 -10.5t-4.5 -10.5t-10.5 -4.5h-359l-66 -298h359q6 0 10.5 -4.5t4.5 -10.5t-4.5 -10.5t-10.5 -4.5h-377q-21 0 -16 20zM43 494l52 164q4 16 21 16
q10 0 16.5 -6.5t6.5 -16.5q0 -1 -3 -10l-73 -154q-4 -7 -10 -7q-12 0 -10 14z" />
    <glyph glyph-name="Etatonos" unicode="&#x389;" horiz-adv-x="725" 
d="M555 17l68 311h-455l-70 -317q-2 -13 -15 -13q-7 0 -12 5.5t-3 13.5l141 639q2 13 15 13q7 0 12 -5.5t3 -13.5l-64 -292h455l66 298q2 13 15 13q7 0 12 -5.5t3 -13.5l-141 -639q-2 -13 -15 -13q-7 0 -12 5.5t-3 13.5zM43 494l52 164q4 16 21 16q10 0 16.5 -6.5t6.5 -16.5
q0 -1 -3 -10l-73 -154q-4 -7 -10 -7q-12 0 -10 14z" />
    <glyph glyph-name="Iotatonos" unicode="&#x38a;" horiz-adv-x="238" 
d="M68 17l141 639q2 13 15 13q7 0 12 -5.5t3 -13.5l-141 -639q-2 -13 -15 -13q-7 0 -12 5.5t-3 13.5zM43 494l52 164q4 16 21 16q10 0 16.5 -6.5t6.5 -16.5q0 -1 -3 -10l-73 -154q-4 -7 -10 -7q-12 0 -10 14z" />
    <glyph glyph-name="Omicrontonos" unicode="&#x38c;" horiz-adv-x="770" 
d="M444 678q127 0 209 -76.5t82 -209.5q2 -108 -48.5 -202.5t-135 -149t-180.5 -52.5q-127 0 -209 76.5t-82 209.5q-2 108 48.5 202.5t135 149t180.5 52.5zM441 648q-130 3 -228.5 -107t-96.5 -267q0 -120 73 -188t184 -68q130 -3 229.5 107t96.5 267q0 120 -73 188t-185 68
zM43 494l52 164q4 16 21 16q10 0 16.5 -6.5t6.5 -16.5q0 -1 -3 -10l-73 -154q-4 -7 -10 -7q-12 0 -10 14z" />
    <glyph glyph-name="Upsilontonos" unicode="&#x38e;" horiz-adv-x="667" 
d="M715 641l-327 -353l-62 -277q-2 -13 -15 -13q-7 0 -12 5.5t-3 13.5l60 273l-174 355q-2 6 -2 7q0 6 5 11.5t12 5.5q9 0 15 -10l163 -338l316 342q5 6 12 6t11.5 -5t4.5 -12q0 -6 -4 -11zM43 494l52 164q4 16 21 16q10 0 16.5 -6.5t6.5 -16.5q0 -1 -3 -10l-73 -154
q-4 -7 -10 -7q-12 0 -10 14z" />
    <glyph glyph-name="Omegatonos" unicode="&#x38f;" horiz-adv-x="770" 
d="M637 15q0 -6 -4.5 -10.5t-10.5 -4.5h-186q-16 0 -16 16q0 11 13 17q110 24 188 125.5t76 231.5q0 117 -70 187t-182 70q-90 2 -167 -49t-120 -138t-42 -187q0 -157 131 -237q9 -6 9 -16q0 -8 -5.5 -14t-13.5 -6h-184q-6 0 -10.5 4.5t-4.5 10.5t4.5 10.5t10.5 4.5h154
q-126 87 -126 243q-2 104 46 198.5t133.5 151.5t184.5 55q131 0 209 -79.5t78 -214.5q0 -128 -65 -217q-66 -90 -164 -137h119q6 0 10.5 -4.5t4.5 -10.5zM43 494l52 164q4 16 21 16q10 0 16.5 -6.5t6.5 -16.5q0 -1 -3 -10l-73 -154q-4 -7 -10 -7q-12 0 -10 14z" />
    <glyph glyph-name="iotadieresistonos" unicode="&#x390;" horiz-adv-x="216" 
d="M51 85l86 388q2 12 14 12q7 0 11.5 -5.5t2.5 -12.5l-84 -382q-3 -15 -3 -27q0 -43 39 -43h7q14 0 14 -13q0 -11 -12 -13q-3 -1 -15 -1q-64 0 -64 62q0 20 4 35zM175 607l52 164q4 16 21 16q10 0 16.5 -6.5t6.5 -16.5q0 -1 -3 -10l-73 -154q-4 -7 -10 -7q-12 0 -10 14z
M49 615q0 13 9 22t22 9q25 0 25 -25q0 -13 -9 -22t-22 -9q-10 0 -17.5 7.5t-7.5 17.5zM290 615q0 13 9 22t22 9q25 0 25 -25q0 -13 -9 -22t-22 -9q-10 0 -17.5 7.5t-7.5 17.5z" />
    <glyph glyph-name="Alpha" unicode="&#x391;" horiz-adv-x="636" 
d="M557 19v-3q0 -18 -17 -18q-14 0 -16 14l-32 167h-372l-110 -173q-6 -8 -14 -8q-7 0 -12 5t-5 12q0 3 3 9l403 632q7 13 23 13q10 0 17.5 -6t8.5 -16zM139 209h347l-81 421z" />
    <glyph glyph-name="Beta" unicode="&#x392;" horiz-adv-x="600" 
d="M38 20l140 631q3 16 19 16h221q66 0 113 -41t47 -107q0 -71 -45.5 -122.5t-110.5 -59.5q40 -11 69 -51q29 -41 29 -88q0 -83 -60 -140.5t-164 -57.5h-242q-21 0 -16 20zM412 637h-205l-62 -279h230q85 0 126 47q41 49 41 114q0 49 -38 84q-37 34 -92 34zM349 328h-211
l-66 -298h230q83 0 133 50t50 118q0 57 -37 93.5t-99 36.5z" />
    <glyph glyph-name="Gamma" unicode="&#x393;" horiz-adv-x="533" 
d="M38 17l140 634q3 16 19 16h375q6 0 10.5 -4.5t4.5 -10.5t-4.5 -10.5t-10.5 -4.5h-365l-139 -626q-2 -13 -15 -13q-7 0 -12 5.5t-3 13.5z" />
    <glyph glyph-name="uni0394" unicode="&#x394;" horiz-adv-x="636" 
d="M-23 11q0 4 4 11l404 634q7 13 23 13q10 0 17.5 -6t8.5 -16l123 -627v-5q0 -15 -16 -15h-548q-16 0 -16 11zM405 630l-381 -600h496z" />
    <glyph glyph-name="Epsilon" unicode="&#x395;" horiz-adv-x="558" 
d="M38 20l140 631q3 16 19 16h375q6 0 10.5 -4.5t4.5 -10.5t-4.5 -10.5t-10.5 -4.5h-365l-62 -279h352q6 0 10.5 -4.5t4.5 -10.5t-4.5 -10.5t-10.5 -4.5h-359l-66 -298h359q6 0 10.5 -4.5t4.5 -10.5t-4.5 -10.5t-10.5 -4.5h-377q-21 0 -16 20z" />
    <glyph glyph-name="Zeta" unicode="&#x396;" horiz-adv-x="578" 
d="M1 19q0 4 5 12l557 606h-406q-6 0 -10.5 4.5t-4.5 10.5t4.5 10.5t10.5 4.5h433q19 0 19 -19q0 -4 -5 -12l-558 -606h414q6 0 10.5 -4.5t4.5 -10.5t-4.5 -10.5t-10.5 -4.5h-440q-19 0 -19 19z" />
    <glyph glyph-name="Eta" unicode="&#x397;" horiz-adv-x="695" 
d="M525 17l68 311h-455l-70 -317q-2 -13 -15 -13q-7 0 -12 5.5t-3 13.5l141 639q2 13 15 13q7 0 12 -5.5t3 -13.5l-64 -292h455l66 298q2 13 15 13q7 0 12 -5.5t3 -13.5l-141 -639q-2 -13 -15 -13q-7 0 -12 5.5t-3 13.5z" />
    <glyph glyph-name="Theta" unicode="&#x398;" horiz-adv-x="764" 
d="M438 678q127 0 209 -76.5t82 -209.5q2 -108 -48.5 -202.5t-135 -149t-180.5 -52.5q-127 0 -209 76.5t-82 209.5q-2 108 48.5 202.5t135 149t180.5 52.5zM435 648q-130 3 -228.5 -107t-96.5 -267q0 -120 73 -188t184 -68q130 -3 229.5 107t96.5 267q0 120 -73 188t-185 68
zM183 343q0 6 4.5 10.5t10.5 4.5h402q6 0 10.5 -4.5t4.5 -10.5t-4.5 -10.5t-10.5 -4.5h-402q-6 0 -10.5 4.5t-4.5 10.5z" />
    <glyph glyph-name="Iota" unicode="&#x399;" horiz-adv-x="208" 
d="M38 17l141 639q2 13 15 13q7 0 12 -5.5t3 -13.5l-141 -639q-2 -13 -15 -13q-7 0 -12 5.5t-3 13.5z" />
    <glyph glyph-name="Kappa" unicode="&#x39a;" horiz-adv-x="571" 
d="M575 642l-332 -294l227 -325q3 -3 3 -9q0 -7 -5 -11.5t-11 -4.5q-10 0 -14 7l-222 326l-102 -90l-51 -230q-2 -13 -15 -13q-7 0 -12 5.5t-3 13.5l141 639q2 13 15 13q7 0 12 -5.5t3 -13.5l-80 -363l426 378q4 4 10 4t10.5 -4.5t4.5 -11.5q0 -6 -5 -11z" />
    <glyph glyph-name="Lambda" unicode="&#x39b;" horiz-adv-x="636" 
d="M524 12l-119 618l-395 -624q-6 -8 -14 -8q-16 0 -16 16q0 4 2 10l403 632q7 13 23 13q10 0 17.5 -6t8.5 -16l123 -628v-4q0 -17 -17 -17q-14 0 -16 14z" />
    <glyph glyph-name="Mu" unicode="&#x39c;" horiz-adv-x="770" 
d="M600 17l135 612l-392 -627q-4 -7 -10 -7q-10 0 -13 12l-115 622l-137 -618q-2 -13 -15 -13q-7 0 -12 5.5t-3 13.5l138 628q5 24 29 24q23 0 29 -24l108 -588l373 598q9 14 24 14q14 0 23 -11t6 -25l-138 -622q-2 -13 -15 -13q-7 0 -12 5.5t-3 13.5z" />
    <glyph glyph-name="Nu" unicode="&#x39d;" horiz-adv-x="690" 
d="M511 10l-308 609l-135 -608q-2 -13 -15 -13q-7 0 -12 5.5t-3 13.5l140 635q6 17 21 17q14 0 19 -12l309 -603l134 602q2 13 15 13q7 0 12 -5.5t3 -13.5l-140 -635q-6 -17 -21 -17q-14 0 -19 12z" />
    <glyph glyph-name="Xi" unicode="&#x39e;" horiz-adv-x="607" 
d="M151 652q0 6 4.5 10.5t10.5 4.5h455q6 0 10.5 -4.5t4.5 -10.5t-4.5 -10.5t-10.5 -4.5h-455q-6 0 -10.5 4.5t-4.5 10.5zM89 343q0 6 4.5 10.5t10.5 4.5h442q6 0 10.5 -4.5t4.5 -10.5t-4.5 -10.5t-10.5 -4.5h-442q-6 0 -10.5 4.5t-4.5 10.5zM10 15q0 6 4.5 10.5t10.5 4.5
h455q6 0 10.5 -4.5t4.5 -10.5t-4.5 -10.5t-10.5 -4.5h-455q-6 0 -10.5 4.5t-4.5 10.5z" />
    <glyph glyph-name="Omicron" unicode="&#x39f;" horiz-adv-x="764" 
d="M438 678q127 0 209 -76.5t82 -209.5q2 -108 -48.5 -202.5t-135 -149t-180.5 -52.5q-127 0 -209 76.5t-82 209.5q-2 108 48.5 202.5t135 149t180.5 52.5zM435 648q-130 3 -228.5 -107t-96.5 -267q0 -120 73 -188t184 -68q130 -3 229.5 107t96.5 267q0 120 -73 188t-185 68
z" />
    <glyph glyph-name="Pi" unicode="&#x3a0;" horiz-adv-x="695" 
d="M525 17l136 620h-455l-138 -626q-2 -13 -15 -13q-7 0 -12 5.5t-3 13.5l140 634q3 16 19 16h483q21 0 16 -20l-141 -636q-2 -13 -15 -13q-7 0 -12 5.5t-3 13.5z" />
    <glyph glyph-name="Rho" unicode="&#x3a1;" horiz-adv-x="555" 
d="M38 17l140 634q3 16 19 16h203q70 0 118 -48t48 -114q0 -89 -62.5 -152.5t-176.5 -63.5h-197l-62 -278q-2 -13 -15 -13q-7 0 -12 5.5t-3 13.5zM531 505q0 53 -39.5 92.5t-95.5 39.5h-189l-71 -318h198q93 0 145 53.5t52 132.5z" />
    <glyph glyph-name="Sigma" unicode="&#x3a3;" horiz-adv-x="523" 
d="M56 30h350q6 0 10.5 -4.5t4.5 -10.5t-4.5 -10.5t-10.5 -4.5h-377q-19 0 -19 19q0 7 6 13l323 312l-185 287q-4 7 -4 13q0 10 7 16.5t16 6.5h374q6 0 10.5 -4.5t4.5 -10.5t-4.5 -10.5t-10.5 -4.5h-363l183 -284q4 -4 4 -11q0 -8 -7 -14z" />
    <glyph glyph-name="Tau" unicode="&#x3a4;" horiz-adv-x="559" 
d="M213 17l137 620h-208q-6 0 -10.5 4.5t-4.5 10.5t4.5 10.5t10.5 4.5h455q6 0 10.5 -4.5t4.5 -10.5t-4.5 -10.5t-10.5 -4.5h-215l-139 -626q-2 -13 -15 -13q-7 0 -12 5.5t-3 13.5z" />
    <glyph glyph-name="Upsilon" unicode="&#x3a5;" horiz-adv-x="610" 
d="M658 641l-327 -353l-62 -277q-2 -13 -15 -13q-7 0 -12 5.5t-3 13.5l60 273l-174 355q-2 6 -2 7q0 6 5 11.5t12 5.5q9 0 15 -10l163 -338l316 342q4 6 12 6q7 0 11.5 -5t4.5 -12q0 -6 -4 -11z" />
    <glyph glyph-name="Phi" unicode="&#x3a6;" horiz-adv-x="764" 
d="M358 64l-12 -54q-3 -12 -15 -12q-7 0 -12 5.5t-3 13.5l11 48q-116 4 -181.5 66t-65.5 158q-3 123 107.5 218t261.5 95l13 55q3 12 15 12q7 0 12 -5.5t3 -13.5l-11 -49q116 -6 181 -67t65 -157q3 -122 -107.5 -217t-261.5 -96zM334 94l109 478q-139 -3 -234.5 -86
t-93.5 -197q0 -85 58.5 -138t160.5 -57zM692 377q0 85 -58.5 138t-159.5 57l-109 -478q138 3 233.5 86t93.5 197z" />
    <glyph glyph-name="Chi" unicode="&#x3a7;" horiz-adv-x="638" 
d="M664 640l-303 -300l185 -318l2 -8q0 -16 -16 -16q-8 0 -14 8l-180 315l-317 -318q-5 -5 -12 -5t-11.5 5t-4.5 12t5 12l322 318l-174 299l-2 8q0 7 4.5 12t11.5 5q10 0 15 -9l168 -295l297 299q5 5 12 5t12 -5t5 -12t-5 -12z" />
    <glyph glyph-name="Psi" unicode="&#x3a8;" horiz-adv-x="736" 
d="M727 669q7 0 12 -5.5t3 -13.5l-62 -271q-26 -116 -111 -184t-211 -71l-26 -114q-2 -12 -15 -12q-7 0 -12 5.5t-3 13.5l24 107q-106 5 -159 54.5t-53 138.5q0 39 10 79l60 261q2 12 15 12q7 0 12 -5.5t3 -13.5l-60 -261q-8 -34 -8 -72q0 -73 47 -116t140 -47l115 503
q2 12 15 12q7 0 12 -5.5t3 -13.5l-113 -496q113 4 187 65.5t98 169.5l62 268q2 12 15 12z" />
    <glyph glyph-name="uni03A9" unicode="&#x3a9;" horiz-adv-x="764" 
d="M631 15q0 -6 -4.5 -10.5t-10.5 -4.5h-186q-16 0 -16 16q0 11 13 17q110 24 188 125.5t76 231.5q0 117 -70 187t-182 70q-90 2 -167 -49t-120 -138t-42 -187q0 -157 131 -237q9 -6 9 -16q0 -8 -5.5 -14t-13.5 -6h-184q-6 0 -10.5 4.5t-4.5 10.5t4.5 10.5t10.5 4.5h154
q-126 87 -126 243q-2 104 46 198.5t133.5 151.5t184.5 55q131 0 209 -79.5t78 -214.5q0 -128 -65 -217q-66 -90 -164 -137h119q6 0 10.5 -4.5t4.5 -10.5z" />
    <glyph glyph-name="Iotadieresis" unicode="&#x3aa;" horiz-adv-x="208" 
d="M38 17l141 639q2 13 15 13q7 0 12 -5.5t3 -13.5l-141 -639q-2 -13 -15 -13q-7 0 -12 5.5t-3 13.5zM93 762q0 13 9 22t22 9q10 0 17.5 -7t7.5 -18q0 -13 -9 -22t-22 -9q-11 0 -18 7.5t-7 17.5zM295 762q0 13 9 22t22 9q10 0 17.5 -7t7.5 -18q0 -13 -9 -22t-22 -9
q-11 0 -18 7.5t-7 17.5z" />
    <glyph glyph-name="Upsilondieresis" unicode="&#x3ab;" horiz-adv-x="610" 
d="M658 641l-327 -353l-62 -277q-2 -13 -15 -13q-7 0 -12 5.5t-3 13.5l60 273l-174 355q-2 6 -2 7q0 6 5 11.5t12 5.5q9 0 15 -10l163 -338l316 342q4 6 12 6q7 0 11.5 -5t4.5 -12q0 -6 -4 -11zM294 762q0 13 9 22t22 9q10 0 17.5 -7t7.5 -18q0 -13 -9 -22t-22 -9
q-11 0 -18 7.5t-7 17.5zM496 762q0 13 9 22t22 9q10 0 17.5 -7t7.5 -18q0 -13 -9 -22t-22 -9q-11 0 -18 7.5t-7 17.5z" />
    <glyph glyph-name="alphatonos" unicode="&#x3ac;" horiz-adv-x="580" 
d="M529 467l-84 -382q-3 -13 -3 -26q0 -44 39 -44h7q14 0 14 -13q0 -11 -12 -13q-3 -1 -15 -1q-64 0 -64 63q0 13 3 30q-67 -93 -173 -93q-86 0 -138 53.5t-52 144.5q-2 125 72 218t181 91q60 0 107.5 -27t72.5 -73l17 78q2 12 14 12q7 0 11.5 -5.5t2.5 -12.5zM423 119
l55 251q-21 44 -67.5 71t-106.5 27q-62 2 -113.5 -39t-79 -105.5t-26.5 -133.5q0 -81 43 -128t115 -47q52 0 101 29t79 75zM357 607l52 164q4 16 21 16q10 0 16.5 -6.5t6.5 -16.5q0 -1 -3 -10l-73 -154q-4 -7 -10 -7q-12 0 -10 14z" />
    <glyph glyph-name="epsilontonos" unicode="&#x3ad;" horiz-adv-x="487" 
d="M33 120q0 56 40 93t109 40q-36 7 -61.5 34t-25.5 69q0 62 49.5 100.5t134.5 38.5q124 0 186 -85q2 -6 2 -8q0 -15 -14 -15q-8 0 -12 7q-50 74 -162 74q-68 0 -110 -29.5t-42 -78.5q0 -46 42 -73.5t108 -27.5h54q13 0 13 -14q0 -13 -13 -13h-90q-174 0 -174 -106
q0 -49 45.5 -80t123.5 -31q82 0 141 46q3 3 9 3q14 0 14 -15q0 -9 -5 -12q-69 -49 -159 -49q-95 0 -149 38t-54 94zM325 607l52 164q4 16 21 16q10 0 16.5 -6.5t6.5 -16.5q0 -1 -3 -10l-73 -154q-4 -7 -10 -7q-12 0 -10 14z" />
    <glyph glyph-name="etatonos" unicode="&#x3ae;" 
d="M468 379q0 -18 -6 -42l-114 -511q-2 -12 -14 -12q-7 0 -11 5.5t-3 12.5l113 506q6 24 6 38q0 46 -30.5 69t-84.5 23q-44 0 -92.5 -26t-86.5 -67l-81 -365q-2 -12 -14 -12q-7 0 -11 5.5t-3 12.5l101 457q2 12 14 12q7 0 11.5 -5.5t2.5 -12.5l-13 -60q92 88 178 88
q64 0 101 -30t37 -86zM336 607l52 164q4 16 21 16q10 0 16.5 -6.5t6.5 -16.5q0 -1 -3 -10l-73 -154q-4 -7 -10 -7q-12 0 -10 14z" />
    <glyph glyph-name="iotatonos" unicode="&#x3af;" horiz-adv-x="216" 
d="M51 85l86 388q2 12 14 12q7 0 11.5 -5.5t2.5 -12.5l-84 -382q-3 -15 -3 -27q0 -43 39 -43h7q14 0 14 -13q0 -11 -12 -13q-3 -1 -15 -1q-64 0 -64 62q0 20 4 35zM173 607l52 164q4 16 21 16q10 0 16.5 -6.5t6.5 -16.5q0 -1 -3 -10l-73 -154q-4 -7 -10 -7q-12 0 -10 14z
" />
    <glyph glyph-name="upsilondieresistonos" unicode="&#x3b0;" horiz-adv-x="549" 
d="M79 207l61 266q2 12 14 12q7 0 11.5 -5.5t2.5 -12.5l-59 -260q-9 -37 -9 -69q0 -60 31.5 -91.5t91.5 -31.5q101 -3 174 88.5t71 212.5q0 90 -35 151l-2 8q0 6 4.5 10.5t11.5 4.5q8 0 14 -8q39 -70 39 -167q2 -132 -80.5 -231t-196.5 -96q-74 0 -113.5 39t-39.5 110
q0 33 9 70zM338 607l52 164q4 16 21 16q10 0 16.5 -6.5t6.5 -16.5q0 -1 -3 -10l-73 -154q-4 -7 -10 -7q-12 0 -10 14zM212 615q0 13 9 22t22 9q25 0 25 -25q0 -13 -9 -22t-22 -9q-10 0 -17.5 7.5t-7.5 17.5zM453 615q0 13 9 22t22 9q25 0 25 -25q0 -13 -9 -22t-22 -9
q-10 0 -17.5 7.5t-7.5 17.5z" />
    <glyph glyph-name="alpha" unicode="&#x3b1;" horiz-adv-x="580" 
d="M529 467l-84 -382q-3 -13 -3 -26q0 -44 39 -44h7q14 0 14 -13q0 -11 -12 -13q-3 -1 -15 -1q-64 0 -64 63q0 13 3 30q-67 -93 -173 -93q-86 0 -138 53.5t-52 144.5q-2 125 72 218t181 91q60 0 107.5 -27t72.5 -73l17 78q2 12 14 12q7 0 11.5 -5.5t2.5 -12.5zM423 119
l55 251q-21 44 -67.5 71t-106.5 27q-62 2 -113.5 -39t-79 -105.5t-26.5 -133.5q0 -81 43 -128t115 -47q52 0 101 29t79 75z" />
    <glyph glyph-name="beta" unicode="&#x3b2;" horiz-adv-x="566" 
d="M80 80l-58 -254q-2 -12 -14 -12q-7 0 -11 5.5t-3 12.5l143 629q25 108 93 162q69 54 155 54q78 0 124.5 -38.5t46.5 -107.5q0 -80 -55.5 -127.5t-122.5 -58.5q44 -3 81.5 -40t37.5 -97q2 -92 -73.5 -157t-177.5 -63q-61 0 -104 25.5t-62 66.5zM464 208q0 59 -44 90
t-118 31q-25 0 -25 16q0 15 31 15q89 0 151.5 45t62.5 126q0 55 -37.5 87t-99.5 32q-73 0 -135.5 -50t-82.5 -139l-80 -350q15 -42 58.5 -69t101.5 -27q98 0 157.5 54.5t59.5 138.5z" />
    <glyph glyph-name="gamma" unicode="&#x3b3;" horiz-adv-x="471" 
d="M487 467q-30 -113 -107 -235q-78 -124 -182 -228l-41 -178q-2 -12 -14 -12q-7 0 -11 5.5t-3 12.5l32 143q17 79 17 147q0 199 -101 338q-3 3 -3 8q0 6 4.5 11.5t10.5 5.5q7 0 13 -6q49 -64 77 -162q30 -99 30 -199q0 -43 -4 -71q90 93 158 204q70 112 96 223q2 11 14 11
q7 0 11.5 -5.5t2.5 -12.5z" />
    <glyph glyph-name="delta" unicode="&#x3b4;" horiz-adv-x="570" 
d="M529 609q0 -14 -14 -14q-7 0 -12 6q-37 51 -125 51q-68 0 -113.5 -34t-45.5 -80q3 -36 26.5 -54.5t89.5 -47.5q59 -25 91 -45q86 -50 86 -151q2 -97 -73 -175.5t-185 -76.5q-96 0 -150.5 56t-54.5 135q0 89 60 156q60 69 158 102q-40 20 -59.5 43t-19.5 58q0 56 55 98.5
t135 42.5q106 0 149 -61q2 -6 2 -9zM320 413l-17 7q-105 -27 -162.5 -91t-57.5 -150q0 -68 45.5 -116t125.5 -48q93 -2 161 69t66 156q0 48 -23 80q-20 31 -50 50t-88 43z" />
    <glyph glyph-name="epsilon" unicode="&#x3b5;" horiz-adv-x="487" 
d="M33 120q0 56 40 93t109 40q-36 7 -61.5 34t-25.5 69q0 62 49.5 100.5t134.5 38.5q124 0 186 -85q2 -6 2 -8q0 -15 -14 -15q-8 0 -12 7q-50 74 -162 74q-68 0 -110 -29.5t-42 -78.5q0 -46 42 -73.5t108 -27.5h54q13 0 13 -14q0 -13 -13 -13h-90q-174 0 -174 -106
q0 -49 45.5 -80t123.5 -31q82 0 141 46q3 3 9 3q14 0 14 -15q0 -9 -5 -12q-69 -49 -159 -49q-95 0 -149 38t-54 94z" />
    <glyph glyph-name="zeta" unicode="&#x3b6;" horiz-adv-x="493" 
d="M48 170q0 251 445 470h-310q-5 0 -9.5 4t-4.5 9q0 6 4.5 10t9.5 4h339q16 0 16 -16q0 -11 -9 -15q-231 -121 -339 -229t-108 -233q0 -71 54.5 -109t151.5 -38q50 0 72 -12.5t22 -42.5q0 -46 -59 -125q-6 -6 -12 -6q-7 0 -11.5 4.5t-4.5 10.5t4 10q49 59 49 98
q0 20 -15.5 28t-52.5 8q-109 0 -170.5 44t-61.5 126z" />
    <glyph glyph-name="eta" unicode="&#x3b7;" 
d="M468 379q0 -18 -6 -42l-114 -511q-2 -12 -14 -12q-7 0 -11 5.5t-3 12.5l113 506q6 24 6 38q0 46 -30.5 69t-84.5 23q-44 0 -92.5 -26t-86.5 -67l-81 -365q-2 -12 -14 -12q-7 0 -11 5.5t-3 12.5l101 457q2 12 14 12q7 0 11.5 -5.5t2.5 -12.5l-13 -60q92 88 178 88
q64 0 101 -30t37 -86z" />
    <glyph glyph-name="theta" unicode="&#x3b8;" horiz-adv-x="570" 
d="M551 426q0 -99 -36 -201q-35 -103 -102 -170t-156 -67q-95 0 -144 66.5t-49 185.5q0 98 36 200q36 104 103 171q68 68 157 68q95 0 143 -66.5t48 -186.5zM109 349h403q6 40 6 80q0 105 -40 164t-121 59q-86 2 -155 -88.5t-93 -214.5zM507 322h-403q-7 -38 -7 -85
q0 -104 40.5 -163t121.5 -59q87 -2 155.5 89.5t92.5 217.5z" />
    <glyph glyph-name="iota" unicode="&#x3b9;" horiz-adv-x="216" 
d="M51 85l86 388q2 12 14 12q7 0 11.5 -5.5t2.5 -12.5l-84 -382q-3 -15 -3 -27q0 -43 39 -43h7q14 0 14 -13q0 -11 -12 -13q-3 -1 -15 -1q-64 0 -64 62q0 20 4 35z" />
    <glyph glyph-name="kappa" unicode="&#x3ba;" horiz-adv-x="496" 
d="M497 460l-254 -195l159 -243q3 -6 3 -10q0 -6 -5 -10t-11 -4q-8 0 -12 7l-158 241l-124 -95l-31 -141q-2 -12 -14 -12q-7 0 -11 5.5t-3 12.5l101 457q2 12 14 12q7 0 11.5 -5.5t2.5 -12.5l-61 -275l375 290q3 3 9 3t10 -4.5t4 -9.5q0 -6 -5 -11z" />
    <glyph glyph-name="lambda" unicode="&#x3bb;" horiz-adv-x="471" 
d="M286 596l116 -578v-3q0 -6 -4.5 -11.5t-10.5 -5.5q-14 0 -16 13l-88 436l-286 -442q-4 -7 -13 -7q-15 0 -15 14q0 4 3 10l302 463l-21 100q-8 37 -22 51.5t-39 14.5q-14 0 -29 -3h-3q-13 0 -13 13q0 10 10 12q25 5 41 5q71 0 88 -82z" />
    <glyph glyph-name="uni03BC" unicode="&#x3bc;" horiz-adv-x="542" 
d="M8 -186q-7 0 -11 5.5t-3 12.5l145 641q2 12 14 12q7 0 11.5 -5.5t2.5 -12.5l-72 -322q-5 -25 -5 -39q0 -46 27.5 -69.5t74.5 -23.5q46 0 100 26q56 28 89 64l82 370q2 12 14 12q7 0 11.5 -5.5t2.5 -12.5l-84 -382q-3 -15 -3 -27q0 -43 39 -43h7q14 0 14 -13
q0 -11 -12 -13q-3 -1 -15 -1q-64 0 -64 62q0 2 2 24q-43 -38 -94 -62t-95 -24q-83 0 -112 65l-52 -227q-2 -12 -14 -12z" />
    <glyph glyph-name="nu" unicode="&#x3bd;" horiz-adv-x="471" 
d="M160 18l-89 446v3q0 18 17 18q14 0 16 -14l86 -439q215 220 269 442q2 11 15 11q7 0 11.5 -5.5t2.5 -12.5q-30 -111 -105.5 -232t-181.5 -230q-7 -7 -17 -7q-19 0 -24 20z" />
    <glyph glyph-name="xi" unicode="&#x3be;" horiz-adv-x="493" 
d="M527 653q0 -5 -4.5 -9t-9.5 -4h-177q-70 -15 -124.5 -66.5t-54.5 -104.5q0 -52 43.5 -81t112.5 -29h123q5 0 9.5 -4t4.5 -9q0 -6 -4.5 -10t-9.5 -4h-123q-103 0 -170.5 -47.5t-67.5 -136.5q0 -121 213 -121q50 0 72 -12.5t22 -42.5q0 -48 -60 -125q-5 -6 -11 -6t-10 4.5
t-4 9.5q0 3 3 9q48 64 48 100t-60 36q-247 0 -247 148q0 45 18 82.5t47.5 61t63 37.5t67.5 17q-43 7 -78 38q-35 32 -35 86q0 50 47 100q48 51 108 70h-96q-5 0 -9.5 4t-4.5 10q0 5 4.5 9t9.5 4h330q5 0 9.5 -4t4.5 -10z" />
    <glyph glyph-name="omicron" unicode="&#x3bf;" horiz-adv-x="570" 
d="M312 495q93 0 149 -57t56 -153q2 -116 -76.5 -208t-184.5 -89q-93 0 -149 57t-56 153q-2 116 76.5 208t184.5 89zM312 468q-93 2 -161 -82t-66 -188q0 -84 45.5 -133.5t125.5 -49.5q93 -2 161 82t66 188q0 84 -45.5 133.5t-125.5 49.5z" />
    <glyph glyph-name="pi" unicode="&#x3c0;" horiz-adv-x="540" 
d="M582 470q0 -14 -13 -14h-71l-102 -446q-2 -12 -14 -12q-7 0 -11 5.5t-3 12.5l100 440h-296l-102 -446q-2 -12 -14 -12q-7 0 -11 5.5t-3 12.5l100 440h-65q-13 0 -13 14q0 13 13 13h492q13 0 13 -13z" />
    <glyph glyph-name="rho" unicode="&#x3c1;" horiz-adv-x="562" 
d="M81 87l-59 -261q-2 -12 -14 -12q-7 0 -11 5.5t-3 12.5l92 410q26 114 93 183q67 70 161 70q83 0 128.5 -54.5t45.5 -143.5q2 -126 -72 -219t-181 -90q-60 0 -106.5 26.5t-73.5 72.5zM340 468q-85 0 -143 -64q-59 -63 -81 -162l-29 -129q21 -44 67.5 -71t106.5 -27
q62 -2 113.5 39t79 105.5t26.5 133.5q0 78 -36.5 126.5t-103.5 48.5z" />
    <glyph glyph-name="uni03C2" unicode="&#x3c2;" horiz-adv-x="475" 
d="M315 495q107 0 160 -75q3 -6 3 -9q0 -14 -15 -14q-7 0 -12 6q-46 65 -133 65q-101 2 -168.5 -80.5t-65.5 -190.5q0 -85 52 -127.5t147 -42.5q50 0 72 -12.5t22 -42.5q0 -48 -60 -125q-5 -6 -11 -6q-13 0 -13 14q0 3 3 8q52 64 52 100q0 20 -17.5 28.5t-55.5 8.5
q-109 0 -166.5 50t-57.5 150q-3 118 77 207.5t187 87.5z" />
    <glyph glyph-name="sigma" unicode="&#x3c3;" horiz-adv-x="570" 
d="M53 198q-2 115 85.5 201t221.5 84h221q13 0 13 -13q0 -14 -13 -14h-132q69 -63 69 -171q2 -116 -77 -208t-185 -89q-93 0 -148 57t-55 153zM401 456h-47q-117 2 -193.5 -78t-74.5 -180q0 -85 45 -134t125 -49q92 -3 161 82t67 188q0 59 -22 104.5t-61 66.5z" />
    <glyph glyph-name="tau" unicode="&#x3c4;" horiz-adv-x="457" 
d="M480 469q0 -13 -13 -13h-174l-83 -371q-3 -12 -3 -22q0 -48 51 -48q22 0 45 13l8 2q12 0 12 -13q0 -7 -6 -11q-29 -18 -58 -18q-37 0 -59.5 17.5t-22.5 51.5q0 13 3 28l83 371h-167q-13 0 -13 13q0 14 13 14h371q13 0 13 -14z" />
    <glyph glyph-name="upsilon" unicode="&#x3c5;" horiz-adv-x="549" 
d="M79 207l61 266q2 12 14 12q7 0 11.5 -5.5t2.5 -12.5l-59 -260q-9 -37 -9 -69q0 -60 31.5 -91.5t91.5 -31.5q101 -3 174 88.5t71 212.5q0 90 -35 151l-2 8q0 6 4.5 10.5t11.5 4.5q8 0 14 -8q39 -70 39 -167q2 -132 -80.5 -231t-196.5 -96q-74 0 -113.5 39t-39.5 110
q0 33 9 70z" />
    <glyph glyph-name="phi" unicode="&#x3c6;" horiz-adv-x="680" 
d="M299 -12l-35 -162q-2 -12 -14 -12q-7 0 -11.5 5.5t-3.5 12.5l35 160q-93 12 -155 66q-60 54 -60 153q0 197 215 280q1 1 5 1q14 0 14 -14q0 -8 -9 -13q-192 -74 -192 -254q0 -82 51 -132t137 -60l101 460q3 16 11 16q99 0 168 -61.5t69 -161.5q0 -121 -83.5 -202.5
t-242.5 -81.5zM592 272q0 85 -55.5 138.5t-133.5 53.5l-98 -449q136 0 211.5 74.5t75.5 182.5z" />
    <glyph glyph-name="chi" unicode="&#x3c7;" horiz-adv-x="472" 
d="M480 470q0 -6 -3 -9l-242 -302l113 -325l1 -4q0 -6 -4.5 -11t-11.5 -5q-9 0 -14 11l-104 305l-248 -310q-5 -6 -11 -6q-15 0 -15 15q0 6 3 9l257 321l-106 306l-1 4q0 6 4.5 11t11.5 5q9 0 14 -11l97 -286l233 291q4 6 11 6q15 0 15 -15z" />
    <glyph glyph-name="psi" unicode="&#x3c8;" horiz-adv-x="700" 
d="M649 485q7 0 11.5 -5.5t2.5 -12.5l-58 -268q-21 -97 -100 -153.5t-196 -57.5l-35 -162q-2 -12 -14 -12q-7 0 -11.5 5.5t-3.5 12.5l35 160q-88 10 -145 61q-55 51 -55 120q0 40 11 93l47 207q2 12 14 12q7 0 11.5 -5.5t2.5 -12.5l-45 -202q-11 -49 -11 -92q0 -57 49 -101
t127 -53l140 638q2 12 14 12q7 0 11.5 -5.5t2.5 -12.5l-140 -636q104 2 174 53t89 139l58 266q2 12 14 12z" />
    <glyph glyph-name="omega" unicode="&#x3c9;" horiz-adv-x="770" 
d="M366 143q-24 -65 -68 -109q-45 -46 -103 -46q-71 0 -108 48.5t-37 132.5q0 83 39.5 176t113.5 146q3 3 9 3q5 0 9.5 -4t4.5 -10q0 -5 -6 -11q-65 -52 -100.5 -131.5t-35.5 -165.5q0 -157 111 -157q63 0 108 63q46 66 68 164l26 114q2 12 14 12q7 0 11.5 -5.5t2.5 -12.5
l-24 -108q-10 -39 -10 -84q0 -67 29 -105t87 -38q47 -2 90.5 42.5t69 117t24.5 148.5q0 86 -35 144q-3 6 -3 8q0 7 5 12t11 5q8 0 14 -8q40 -67 40 -160q2 -134 -64.5 -236.5t-151.5 -99.5q-80 0 -111 46q-32 47 -30 109z" />
    <glyph glyph-name="iotadieresis" unicode="&#x3ca;" horiz-adv-x="216" 
d="M51 85l86 388q2 12 14 12q7 0 11.5 -5.5t2.5 -12.5l-84 -382q-3 -15 -3 -27q0 -43 39 -43h7q14 0 14 -13q0 -11 -12 -13q-3 -1 -15 -1q-64 0 -64 62q0 20 4 35zM59 615q0 13 9 22t22 9q10 0 17.5 -7t7.5 -18q0 -13 -9 -22t-22 -9q-11 0 -18 7.5t-7 17.5zM261 615
q0 13 9 22t22 9q10 0 17.5 -7t7.5 -18q0 -13 -9 -22t-22 -9q-11 0 -18 7.5t-7 17.5z" />
    <glyph glyph-name="upsilondieresis" unicode="&#x3cb;" horiz-adv-x="549" 
d="M79 207l61 266q2 12 14 12q7 0 11.5 -5.5t2.5 -12.5l-59 -260q-9 -37 -9 -69q0 -60 31.5 -91.5t91.5 -31.5q101 -3 174 88.5t71 212.5q0 90 -35 151l-2 8q0 6 4.5 10.5t11.5 4.5q8 0 14 -8q39 -70 39 -167q2 -132 -80.5 -231t-196.5 -96q-74 0 -113.5 39t-39.5 110
q0 33 9 70zM222 615q0 13 9 22t22 9q10 0 17.5 -7t7.5 -18q0 -13 -9 -22t-22 -9q-11 0 -18 7.5t-7 17.5zM424 615q0 13 9 22t22 9q10 0 17.5 -7t7.5 -18q0 -13 -9 -22t-22 -9q-11 0 -18 7.5t-7 17.5z" />
    <glyph glyph-name="omicrontonos" unicode="&#x3cc;" horiz-adv-x="570" 
d="M312 495q93 0 149 -57t56 -153q2 -116 -76.5 -208t-184.5 -89q-93 0 -149 57t-56 153q-2 116 76.5 208t184.5 89zM312 468q-93 2 -161 -82t-66 -188q0 -84 45.5 -133.5t125.5 -49.5q93 -2 161 82t66 188q0 84 -45.5 133.5t-125.5 49.5zM356 607l52 164q4 16 21 16
q10 0 16.5 -6.5t6.5 -16.5q0 -1 -3 -10l-73 -154q-4 -7 -10 -7q-12 0 -10 14z" />
    <glyph glyph-name="upsilontonos" unicode="&#x3cd;" horiz-adv-x="549" 
d="M79 207l61 266q2 12 14 12q7 0 11.5 -5.5t2.5 -12.5l-59 -260q-9 -37 -9 -69q0 -60 31.5 -91.5t91.5 -31.5q101 -3 174 88.5t71 212.5q0 90 -35 151l-2 8q0 6 4.5 10.5t11.5 4.5q8 0 14 -8q39 -70 39 -167q2 -132 -80.5 -231t-196.5 -96q-74 0 -113.5 39t-39.5 110
q0 33 9 70zM336 607l52 164q4 16 21 16q10 0 16.5 -6.5t6.5 -16.5q0 -1 -3 -10l-73 -154q-4 -7 -10 -7q-12 0 -10 14z" />
    <glyph glyph-name="omegatonos" unicode="&#x3ce;" horiz-adv-x="770" 
d="M366 143q-24 -65 -68 -109q-45 -46 -103 -46q-71 0 -108 48.5t-37 132.5q0 83 39.5 176t113.5 146q3 3 9 3q5 0 9.5 -4t4.5 -10q0 -5 -6 -11q-65 -52 -100.5 -131.5t-35.5 -165.5q0 -157 111 -157q63 0 108 63q46 66 68 164l26 114q2 12 14 12q7 0 11.5 -5.5t2.5 -12.5
l-24 -108q-10 -39 -10 -84q0 -67 29 -105t87 -38q47 -2 90.5 42.5t69 117t24.5 148.5q0 86 -35 144q-3 6 -3 8q0 7 5 12t11 5q8 0 14 -8q40 -67 40 -160q2 -134 -64.5 -236.5t-151.5 -99.5q-80 0 -111 46q-32 47 -30 109zM457 607l52 164q4 16 21 16q10 0 16.5 -6.5
t6.5 -16.5q0 -1 -3 -10l-73 -154q-4 -7 -10 -7q-12 0 -10 14z" />
    <glyph glyph-name="uni0401" unicode="&#x401;" horiz-adv-x="558" 
d="M38 20l140 631q3 16 19 16h375q6 0 10.5 -4.5t4.5 -10.5t-4.5 -10.5t-10.5 -4.5h-365l-62 -279h352q6 0 10.5 -4.5t4.5 -10.5t-4.5 -10.5t-10.5 -4.5h-359l-66 -298h359q6 0 10.5 -4.5t4.5 -10.5t-4.5 -10.5t-10.5 -4.5h-377q-21 0 -16 20zM285 762q0 13 9 22t22 9
q10 0 17.5 -7t7.5 -18q0 -13 -9 -22t-22 -9q-11 0 -18 7.5t-7 17.5zM487 762q0 13 9 22t22 9q10 0 17.5 -7t7.5 -18q0 -13 -9 -22t-22 -9q-11 0 -18 7.5t-7 17.5z" />
    <glyph glyph-name="uni0402" unicode="&#x402;" horiz-adv-x="777" 
d="M442 4q0 15 14 15q157 5 186 156l1 5q4 17 4 41q0 65 -45.5 102t-124.5 37q-88 0 -166 -40l-68 -309q-2 -13 -15 -13q-7 0 -12 5.5t-3 13.5l136 620h-208q-6 0 -10.5 4.5t-4.5 10.5t4.5 10.5t10.5 4.5h455q6 0 10.5 -4.5t4.5 -10.5t-4.5 -10.5t-10.5 -4.5h-215l-64 -289
q77 42 166 42q86 0 141 -46q55 -45 55 -121q0 -26 -4 -43l-1 -5q-24 -117 -103 -160q-44 -26 -114 -26q-15 0 -15 15z" />
    <glyph glyph-name="uni0403" unicode="&#x403;" horiz-adv-x="533" 
d="M38 17l140 634q3 16 19 16h375q6 0 10.5 -4.5t4.5 -10.5t-4.5 -10.5t-10.5 -4.5h-365l-139 -626q-2 -13 -15 -13q-7 0 -12 5.5t-3 13.5zM412 721q-10 0 -10 10q0 4 4 8l170 127q3 3 8 3q13 0 13 -14q0 -7 -6 -11l-174 -121q-2 -2 -5 -2z" />
    <glyph glyph-name="uni0404" unicode="&#x404;" horiz-adv-x="667" 
d="M684 553q0 -7 -5 -12.5t-13 -5.5t-14 8q-72 105 -217 105q-108 2 -202 -80t-115 -210h419q6 0 10.5 -4.5t4.5 -10.5t-4.5 -10.5t-10.5 -4.5h-424q-3 -26 -3 -54q0 -116 70 -186t187 -70q99 0 188 68q3 3 9 3q7 0 11.5 -4.5t4.5 -10.5t-6 -12q-98 -74 -209 -74
q-129 0 -210 79t-81 207q-2 85 29.5 162t83 129.5t117.5 83t134 29.5q161 0 243 -115q3 -5 3 -10z" />
    <glyph glyph-name="uni0405" unicode="&#x405;" horiz-adv-x="575" 
d="M37 100q0 8 5.5 13t12.5 5q10 0 14 -7q76 -93 207 -93q89 0 138.5 50t49.5 116q0 38 -22 63q-19 25 -48 42t-90 43q-66 29 -93 44q-83 48 -83 126q0 72 64 124t151 52q68 0 123.5 -23.5t86.5 -65.5q3 -5 3 -11q0 -7 -5 -12.5t-13 -5.5q-10 0 -14 7q-63 81 -181 81
q-73 0 -126 -44.5t-53 -101.5q0 -32 20 -57q32 -37 133 -80q57 -24 96 -47q87 -51 87 -134q0 -79 -61.5 -137.5t-165.5 -58.5q-73 0 -136 27.5t-97 73.5q-3 5 -3 11z" />
    <glyph glyph-name="uni0406" unicode="&#x406;" horiz-adv-x="208" 
d="M38 17l141 639q2 13 15 13q7 0 12 -5.5t3 -13.5l-141 -639q-2 -13 -15 -13q-7 0 -12 5.5t-3 13.5z" />
    <glyph glyph-name="uni0407" unicode="&#x407;" horiz-adv-x="208" 
d="M38 17l141 639q2 13 15 13q7 0 12 -5.5t3 -13.5l-141 -639q-2 -13 -15 -13q-7 0 -12 5.5t-3 13.5zM93 762q0 13 9 22t22 9q10 0 17.5 -7t7.5 -18q0 -13 -9 -22t-22 -9q-11 0 -18 7.5t-7 17.5zM295 762q0 13 9 22t22 9q10 0 17.5 -7t7.5 -18q0 -13 -9 -22t-22 -9
q-11 0 -18 7.5t-7 17.5z" />
    <glyph glyph-name="uni0408" unicode="&#x408;" horiz-adv-x="465" 
d="M-12 77q0 7 5 12t12 5q8 0 14 -8q45 -68 134 -68q70 0 115.5 44t63.5 123l104 471q2 13 15 13q7 0 12 -5.5t3 -13.5l-102 -465q-21 -97 -76 -147t-135 -50q-113 0 -162 80q-3 6 -3 9z" />
    <glyph glyph-name="uni0409" unicode="&#x409;" horiz-adv-x="1042" 
d="M752 0h-211q-21 0 -16 20l136 617h-283l-43 -136q-61 -194 -116 -306q-55 -111 -102 -154q-46 -43 -98 -51q-16 -2 -19 -2q-16 0 -16 15q0 6 4.5 10.5t9.5 4.5q49 3 94 42q95 83 214 447l47 145q5 15 20 15h306q21 0 16 -20l-59 -269h199q74 0 116 -40t42 -105
q0 -16 -5 -44q-17 -80 -82.5 -134.5t-153.5 -54.5zM629 348l-70 -318h198q72 0 126.5 44.5t69.5 114.5q4 17 4 40q0 54 -35 86.5t-95 32.5h-198z" />
    <glyph glyph-name="uni040A" unicode="&#x40a;" horiz-adv-x="1042" 
d="M525 20l68 308h-455l-70 -317q-2 -13 -15 -13q-7 0 -12 5.5t-3 13.5l140 639q2 13 15 13q7 0 12 -5.5t3 -13.5l-64 -292h455l66 298q2 13 15 13q7 0 12 -5.5t3 -13.5l-64 -292h209q71 0 111 -38t40 -99q0 -17 -5 -42q-17 -76 -78.5 -127.5t-145.5 -51.5h-221
q-21 0 -16 20zM625 328l-66 -298h209q67 0 118 42t65 107q4 15 4 37q0 51 -32 81.5t-89 30.5h-209z" />
    <glyph glyph-name="uni040B" unicode="&#x40b;" horiz-adv-x="777" 
d="M649 235q0 125 -172 125q-88 0 -166 -40l-68 -309q-2 -13 -15 -13q-7 0 -12 5.5t-3 13.5l136 620h-208q-6 0 -10.5 4.5t-4.5 10.5t4.5 10.5t10.5 4.5h455q6 0 10.5 -4.5t4.5 -10.5t-4.5 -10.5t-10.5 -4.5h-215l-64 -289q77 42 166 42q198 0 198 -149q0 -32 -7 -61
l-37 -169q-2 -13 -15 -13q-7 0 -12 5.5t-3 13.5l36 164q6 30 6 54z" />
    <glyph glyph-name="uni040C" unicode="&#x40c;" horiz-adv-x="571" 
d="M575 642l-332 -294l227 -325q3 -3 3 -9q0 -7 -5 -11.5t-11 -4.5q-10 0 -14 7l-222 326l-102 -90l-51 -230q-2 -13 -15 -13q-7 0 -12 5.5t-3 13.5l141 639q2 13 15 13q7 0 12 -5.5t3 -13.5l-80 -363l426 378q4 4 10 4t10.5 -4.5t4.5 -11.5q0 -6 -5 -11zM421 721
q-10 0 -10 10q0 4 4 8l170 127q3 3 8 3q13 0 13 -14q0 -7 -6 -11l-174 -121q-2 -2 -5 -2z" />
    <glyph glyph-name="uni040E" unicode="&#x40e;" horiz-adv-x="605" 
d="M661 652q0 -7 -2 -9l-385 -535q-47 -65 -84.5 -92.5t-84.5 -27.5q-26 0 -44 7q-11 5 -11 15q0 9 7.5 14t15.5 2q19 -8 38 -8q36 0 63 21q26 21 73 84l49 66l-180 458q-1 1 -1 6q0 6 4.5 11t11.5 5q12 0 14 -10l172 -441l315 444q4 7 14 7q15 0 15 -17zM275 774q-3 4 -3 9
q0 13 13 13q8 0 11 -5q40 -53 116 -53q66 0 121 55q4 4 10 4q13 0 13 -13q0 -5 -4 -9q-67 -64 -140 -64q-90 0 -137 63z" />
    <glyph glyph-name="uni040F" unicode="&#x40f;" horiz-adv-x="685" 
d="M685 650l-139 -634q-3 -16 -19 -16h-224l-25 -116q-2 -12 -14 -12q-7 0 -11.5 5.5t-3.5 12.5l24 110h-219q-21 0 -16 20l140 636q2 13 15 13q7 0 12 -5.5t3 -13.5l-136 -620h445l138 626q2 13 15 13q7 0 12 -5.5t3 -13.5z" />
    <glyph glyph-name="uni0410" unicode="&#x410;" horiz-adv-x="636" 
d="M557 19v-3q0 -18 -17 -18q-14 0 -16 14l-32 167h-372l-110 -173q-6 -8 -14 -8q-7 0 -12 5t-5 12q0 3 3 9l403 632q7 13 23 13q10 0 17.5 -6t8.5 -16zM139 209h347l-81 421z" />
    <glyph glyph-name="uni0411" unicode="&#x411;" horiz-adv-x="555" 
d="M576 652q0 -6 -4.5 -10.5t-10.5 -4.5h-355l-57 -259h187q70 0 118 -48t48 -114q0 -89 -62 -152.5t-175 -63.5h-211q-21 0 -16 20l139 631q3 16 19 16h365q6 0 10.5 -4.5t4.5 -10.5zM142 348l-70 -318h198q93 0 145 53.5t52 132.5q0 52 -39.5 92t-95.5 40h-190z" />
    <glyph glyph-name="uni0412" unicode="&#x412;" horiz-adv-x="600" 
d="M38 20l140 631q3 16 19 16h221q66 0 113 -41t47 -107q0 -71 -45.5 -122.5t-110.5 -59.5q40 -11 69 -51q29 -41 29 -88q0 -83 -60 -140.5t-164 -57.5h-242q-21 0 -16 20zM412 637h-205l-62 -279h230q85 0 126 47q41 49 41 114q0 49 -38 84q-37 34 -92 34zM349 328h-211
l-66 -298h230q83 0 133 50t50 118q0 57 -37 93.5t-99 36.5z" />
    <glyph glyph-name="uni0413" unicode="&#x413;" horiz-adv-x="533" 
d="M38 17l140 634q3 16 19 16h375q6 0 10.5 -4.5t4.5 -10.5t-4.5 -10.5t-10.5 -4.5h-365l-139 -626q-2 -13 -15 -13q-7 0 -12 5.5t-3 13.5z" />
    <glyph glyph-name="uni0414" unicode="&#x414;" horiz-adv-x="710" 
d="M685 647l-136 -617h49q21 0 16 -20l-27 -123q-2 -12 -14 -12q-7 0 -11 5.5t-3 12.5l23 107h-568l-25 -113q-2 -12 -14 -12q-7 0 -11.5 5.5t-3.5 12.5l27 121q3 16 19 16h35q32 23 66 71q71 100 188 419l48 133q5 14 20 14h306q21 0 16 -20zM517 30l134 607h-284l-43 -121
q-83 -236 -137 -338q-54 -103 -99 -148h429z" />
    <glyph glyph-name="uni0415" unicode="&#x415;" horiz-adv-x="558" 
d="M38 20l140 631q3 16 19 16h375q6 0 10.5 -4.5t4.5 -10.5t-4.5 -10.5t-10.5 -4.5h-365l-62 -279h352q6 0 10.5 -4.5t4.5 -10.5t-4.5 -10.5t-10.5 -4.5h-359l-66 -298h359q6 0 10.5 -4.5t4.5 -10.5t-4.5 -10.5t-10.5 -4.5h-377q-21 0 -16 20z" />
    <glyph glyph-name="uni0416" unicode="&#x416;" horiz-adv-x="874" 
d="M876 641l-332 -300l229 -318q2 -4 2 -9q0 -16 -15 -16q-8 0 -12 7l-232 325h-45l-70 -319q-2 -13 -15 -13q-7 0 -12 5.5t-3 13.5l69 313h-45l-367 -328q-5 -4 -11 -4q-16 0 -16 16q0 6 6 12l368 326l-206 292q-2 6 -2 8q0 17 15 17q8 0 12 -7l213 -306h38l66 300
q2 13 15 13q7 0 12 -5.5t3 -13.5l-64 -294h40l337 308q8 5 11 5q7 0 11.5 -5t4.5 -11q0 -7 -5 -12z" />
    <glyph glyph-name="uni0417" unicode="&#x417;" horiz-adv-x="562" 
d="M9 119q0 6 5 11.5t12 5.5q12 0 16 -9q24 -51 76.5 -80t122.5 -29q94 0 150 50t56 130q0 60 -50 96t-135 36h-76q-6 0 -10.5 4.5t-4.5 10.5t4.5 10.5t10.5 4.5h122q80 0 140.5 41.5t60.5 112.5q0 56 -51 94.5t-133 38.5q-103 0 -176 -66q-4 -4 -10 -4q-7 0 -11.5 5
t-4.5 11q0 7 5 12q82 72 197 72q96 0 155 -43q60 -44 60 -120q0 -74 -61 -123t-135 -52q55 -8 95 -47t40 -94q0 -87 -66 -148.5t-172 -61.5q-81 0 -143 34q-63 34 -87 90q-2 6 -2 7z" />
    <glyph glyph-name="uni0418" unicode="&#x418;" horiz-adv-x="690" 
d="M39 21l140 635q2 13 15 13q8 0 13 -6t3 -14l-132 -595l581 609q5 6 13 6q9 0 14.5 -7.5t3.5 -15.5l-140 -635q-2 -13 -15 -13q-7 0 -12 6.5t-4 13.5l133 601l-582 -615q-4 -6 -14 -6q-8 0 -13.5 7.5t-3.5 15.5z" />
    <glyph glyph-name="uni0419" unicode="&#x419;" horiz-adv-x="690" 
d="M39 21l140 635q2 13 15 13q8 0 13 -6t3 -14l-132 -595l581 609q5 6 13 6q9 0 14.5 -7.5t3.5 -15.5l-140 -635q-2 -13 -15 -13q-7 0 -12 6.5t-4 13.5l133 601l-582 -615q-4 -6 -14 -6q-8 0 -13.5 7.5t-3.5 15.5zM322 775q-3 5 -3 9q0 13 13 13q8 0 11 -5q40 -53 116 -53
q66 0 121 55q4 4 10 4q13 0 13 -13q0 -5 -4 -9q-67 -64 -140 -64q-90 0 -137 63z" />
    <glyph glyph-name="uni041A" unicode="&#x41a;" horiz-adv-x="571" 
d="M575 642l-332 -294l227 -325q3 -3 3 -9q0 -7 -5 -11.5t-11 -4.5q-10 0 -14 7l-222 326l-102 -90l-51 -230q-2 -13 -15 -13q-7 0 -12 5.5t-3 13.5l141 639q2 13 15 13q7 0 12 -5.5t3 -13.5l-80 -363l426 378q4 4 10 4t10.5 -4.5t4.5 -11.5q0 -6 -5 -11z" />
    <glyph glyph-name="uni041B" unicode="&#x41b;" horiz-adv-x="695" 
d="M525 17l136 620h-283l-43 -136q-61 -194 -116 -306q-55 -111 -102 -154q-46 -43 -98 -51q-16 -2 -19 -2q-16 0 -16 15q0 6 4.5 10.5t9.5 4.5q49 3 94 42q95 83 214 447l47 145q5 15 20 15h306q21 0 16 -20l-140 -636q-2 -13 -15 -13q-7 0 -12 5.5t-3 13.5z" />
    <glyph glyph-name="uni041C" unicode="&#x41c;" horiz-adv-x="770" 
d="M600 17l135 612l-392 -627q-4 -7 -10 -7q-10 0 -13 12l-115 622l-137 -618q-2 -13 -15 -13q-7 0 -12 5.5t-3 13.5l138 628q5 24 29 24q23 0 29 -24l108 -588l373 598q9 14 24 14q14 0 23 -11t6 -25l-138 -622q-2 -13 -15 -13q-7 0 -12 5.5t-3 13.5z" />
    <glyph glyph-name="uni041D" unicode="&#x41d;" horiz-adv-x="695" 
d="M525 17l68 311h-455l-70 -317q-2 -13 -15 -13q-7 0 -12 5.5t-3 13.5l141 639q2 13 15 13q7 0 12 -5.5t3 -13.5l-64 -292h455l66 298q2 13 15 13q7 0 12 -5.5t3 -13.5l-141 -639q-2 -13 -15 -13q-7 0 -12 5.5t-3 13.5z" />
    <glyph glyph-name="uni041E" unicode="&#x41e;" horiz-adv-x="764" 
d="M438 678q127 0 209 -76.5t82 -209.5q2 -108 -48.5 -202.5t-135 -149t-180.5 -52.5q-127 0 -209 76.5t-82 209.5q-2 108 48.5 202.5t135 149t180.5 52.5zM435 648q-130 3 -228.5 -107t-96.5 -267q0 -120 73 -188t184 -68q130 -3 229.5 107t96.5 267q0 120 -73 188t-185 68
z" />
    <glyph glyph-name="uni041F" unicode="&#x41f;" horiz-adv-x="695" 
d="M525 17l136 620h-455l-138 -626q-2 -13 -15 -13q-7 0 -12 5.5t-3 13.5l140 634q3 16 19 16h483q21 0 16 -20l-141 -636q-2 -13 -15 -13q-7 0 -12 5.5t-3 13.5z" />
    <glyph glyph-name="uni0420" unicode="&#x420;" horiz-adv-x="555" 
d="M38 17l140 634q3 16 19 16h203q70 0 118 -48t48 -114q0 -89 -62.5 -152.5t-176.5 -63.5h-197l-62 -278q-2 -13 -15 -13q-7 0 -12 5.5t-3 13.5zM531 505q0 53 -39.5 92.5t-95.5 39.5h-189l-71 -318h198q93 0 145 53.5t52 132.5z" />
    <glyph glyph-name="uni0421" unicode="&#x421;" horiz-adv-x="667" 
d="M438 678q161 0 243 -115q3 -5 3 -10q0 -7 -5 -12.5t-13 -5.5t-14 8q-72 105 -217 105q-60 1 -118.5 -26t-105 -75t-74.5 -120t-27 -153q0 -116 70 -186t187 -70q99 0 188 68q3 3 9 3q7 0 11.5 -4.5t4.5 -10.5t-6 -12q-98 -74 -209 -74q-129 0 -210 79t-81 207
q-2 85 29.5 162t83 129.5t117.5 83t134 29.5z" />
    <glyph glyph-name="uni0422" unicode="&#x422;" horiz-adv-x="559" 
d="M213 17l137 620h-208q-6 0 -10.5 4.5t-4.5 10.5t4.5 10.5t10.5 4.5h455q6 0 10.5 -4.5t4.5 -10.5t-4.5 -10.5t-10.5 -4.5h-215l-139 -626q-2 -13 -15 -13q-7 0 -12 5.5t-3 13.5z" />
    <glyph glyph-name="uni0423" unicode="&#x423;" horiz-adv-x="605" 
d="M661 652q0 -7 -2 -9l-385 -535q-47 -65 -84.5 -92.5t-84.5 -27.5q-26 0 -44 7q-11 5 -11 15q0 9 7.5 14t15.5 2q19 -8 38 -8q36 0 63 21q26 21 73 84l49 66l-180 458q-1 1 -1 6q0 6 4.5 11t11.5 5q12 0 14 -10l172 -441l315 444q4 7 14 7q15 0 15 -17z" />
    <glyph glyph-name="uni0424" unicode="&#x424;" horiz-adv-x="764" 
d="M358 64l-12 -54q-3 -12 -15 -12q-7 0 -12 5.5t-3 13.5l11 48q-116 4 -181.5 66t-65.5 158q-3 123 107.5 218t261.5 95l13 55q3 12 15 12q7 0 12 -5.5t3 -13.5l-11 -49q116 -6 181 -67t65 -157q3 -122 -107.5 -217t-261.5 -96zM334 94l109 478q-139 -3 -234.5 -86
t-93.5 -197q0 -85 58.5 -138t160.5 -57zM692 377q0 85 -58.5 138t-159.5 57l-109 -478q138 3 233.5 86t93.5 197z" />
    <glyph glyph-name="uni0425" unicode="&#x425;" horiz-adv-x="638" 
d="M664 640l-303 -300l185 -318l2 -8q0 -16 -16 -16q-8 0 -14 8l-180 315l-317 -318q-5 -5 -12 -5t-11.5 5t-4.5 12t5 12l322 318l-174 299l-2 8q0 7 4.5 12t11.5 5q10 0 15 -9l168 -295l297 299q5 5 12 5t12 -5t5 -12t-5 -12z" />
    <glyph glyph-name="uni0426" unicode="&#x426;" horiz-adv-x="710" 
d="M685 650l-135 -620h49q21 0 16 -20l-28 -123q-2 -12 -14 -12q-7 0 -11 5.5t-3 12.5l23 107h-528q-21 0 -16 20l140 636q2 13 15 13q7 0 12 -5.5t3 -13.5l-135 -620h445l137 626q2 13 15 13q7 0 12 -5.5t3 -13.5z" />
    <glyph glyph-name="uni0427" unicode="&#x427;" horiz-adv-x="580" 
d="M410 17l66 302q-76 -42 -166 -42q-198 0 -198 149q0 32 7 61l37 169q2 13 15 13q7 0 12 -5.5t3 -13.5l-36 -164q-6 -30 -6 -53q0 -126 172 -126q88 0 166 40l68 309q2 13 15 13q7 0 12 -5.5t3 -13.5l-140 -639q-2 -13 -15 -13q-7 0 -12 5.5t-3 13.5z" />
    <glyph glyph-name="uni0428" unicode="&#x428;" horiz-adv-x="966" 
d="M966 650l-139 -634q-3 -16 -19 -16h-754q-21 0 -16 20l140 636q2 13 15 13q7 0 12 -5.5t3 -13.5l-136 -620h347l138 626q2 13 15 13q7 0 12 -5.5t3 -13.5l-136 -620h347l138 626q2 13 15 13q7 0 12 -5.5t3 -13.5z" />
    <glyph glyph-name="uni0429" unicode="&#x429;" horiz-adv-x="991" 
d="M966 650l-135 -620h49q21 0 16 -20l-28 -123q-2 -12 -14 -12q-7 0 -11 5.5t-3 12.5l23 107h-809q-21 0 -16 20l140 636q2 13 15 13q7 0 12 -5.5t3 -13.5l-135 -620h347l137 626q2 13 15 13q7 0 12 -5.5t3 -13.5l-135 -620h347l137 626q2 13 15 13q7 0 12 -5.5t3 -13.5z
" />
    <glyph glyph-name="uni042A" unicode="&#x42a;" horiz-adv-x="730" 
d="M213 20l136 617h-208q-6 0 -10.5 4.5t-4.5 10.5t4.5 10.5t10.5 4.5h226q21 0 16 -20l-59 -269h187q70 0 118 -48t48 -114q0 -89 -62 -152.5t-175 -63.5h-211q-21 0 -16 20zM317 348l-70 -318h198q93 0 145 53.5t52 132.5q0 53 -40 92.5t-97 39.5h-188z" />
    <glyph glyph-name="uni042B" unicode="&#x42b;" horiz-adv-x="721" 
d="M208 650l-59 -272h187q70 0 118 -48t48 -114q0 -89 -62 -152.5t-175 -63.5h-211q-21 0 -16 20l140 636q2 13 15 13q7 0 12 -5.5t3 -13.5zM551 17l140 639q2 13 15 13q7 0 12 -5.5t3 -13.5l-140 -639q-2 -13 -15 -13q-7 0 -12 5.5t-3 13.5zM142 348l-70 -318h198
q93 0 145 53.5t52 132.5q0 53 -40 92.5t-97 39.5h-188z" />
    <glyph glyph-name="uni042C" unicode="&#x42c;" horiz-adv-x="555" 
d="M208 650l-59 -272h187q70 0 118 -48t48 -114q0 -89 -62 -152.5t-175 -63.5h-211q-21 0 -16 20l140 636q2 13 15 13q7 0 12 -5.5t3 -13.5zM142 348l-70 -318h198q93 0 145 53.5t52 132.5q0 53 -40 92.5t-97 39.5h-188z" />
    <glyph glyph-name="uni042D" unicode="&#x42d;" horiz-adv-x="667" 
d="M632 392q0 -170 -108 -288q-51 -55 -118.5 -85.5t-137.5 -30.5q-161 0 -243 115q-3 4 -3 10q0 7 5 12.5t13 5.5t14 -8q72 -105 217 -105q134 0 232 110q73 83 89 200h-407q-6 0 -10.5 4.5t-4.5 10.5t4.5 10.5t10.5 4.5h410q1 7 1 34q0 116 -70 186t-187 70
q-99 0 -188 -68q-3 -3 -9 -3q-7 0 -11.5 4.5t-4.5 10.5t6 12q98 74 209 74q129 0 210 -79t81 -207z" />
    <glyph glyph-name="uni042E" unicode="&#x42e;" horiz-adv-x="957" 
d="M921 392q2 -108 -48.5 -202.5t-135 -149t-180.5 -52.5q-127 0 -209 76.5t-82 209.5q0 27 3 54h-131l-70 -317q-2 -13 -15 -13q-7 0 -12 5.5t-3 13.5l140 639q2 13 15 13q7 0 12 -5.5t3 -13.5l-64 -292h130q23 137 126 229.5t230 90.5q127 0 209 -76.5t82 -209.5zM885 392
q0 120 -73 188t-185 68q-130 3 -228.5 -107t-96.5 -267q0 -120 73 -188t184 -68q130 -3 229.5 107t96.5 267z" />
    <glyph glyph-name="uni042F" unicode="&#x42f;" horiz-adv-x="579" 
d="M580 647l-142 -636q-2 -13 -15 -13q-7 0 -12 5.5t-3 13.5l60 271h-162l-265 -285q-5 -5 -11 -5q-16 0 -16 16q0 6 4 11l249 264q-60 7 -106.5 50t-46.5 111q0 95 66 156t174 61h210q21 0 16 -20zM474 318l70 319h-197q-91 0 -144 -53.5t-53 -133.5q0 -56 43 -94t103 -38
h178z" />
    <glyph glyph-name="uni0430" unicode="&#x430;" horiz-adv-x="566" 
d="M529 467l-101 -457q-2 -12 -14 -12q-7 0 -11 5.5t-3 12.5l13 60q-71 -88 -172 -88q-86 0 -138 53.5t-52 144.5q-2 125 72 218t181 91q60 0 107.5 -27t72.5 -73l17 78q2 12 14 12q7 0 11.5 -5.5t2.5 -12.5zM423 119l55 251q-21 44 -67.5 71t-106.5 27q-62 2 -113.5 -39
t-79 -105.5t-26.5 -133.5q0 -81 43 -128t115 -47q52 0 101 29t79 75z" />
    <glyph glyph-name="uni0431" unicode="&#x431;" horiz-adv-x="577" 
d="M51 198q0 57 26 138q86 271 366 320l110 20h2q5 0 9.5 -4.5t4.5 -9.5q0 -12 -11 -14l-115 -21q-242 -44 -334 -263q34 60 87.5 95.5t120.5 35.5q89 0 144.5 -57t55.5 -153q2 -116 -76.5 -208t-184.5 -89q-93 0 -149 57t-56 153zM483 285q0 84 -45.5 133.5t-125.5 49.5
q-93 2 -161 -82t-66 -188q0 -84 45.5 -133.5t125.5 -49.5q93 -2 161 82t66 188z" />
    <glyph glyph-name="uni0432" unicode="&#x432;" horiz-adv-x="527" 
d="M36 20l99 447q3 16 19 16h175q60 0 98 -28t38 -80q0 -47 -29.5 -83t-80.5 -46q30 -10 50 -39.5t20 -62.5q0 -66 -45 -105t-123 -39h-205q-21 0 -16 20zM433 374q0 39 -30 60.5t-79 21.5h-162l-43 -193h199q52 0 83.5 32t31.5 79zM393 144q0 41 -27.5 66.5t-73.5 25.5
h-179l-46 -209h197q55 0 92 33q37 34 37 84z" />
    <glyph glyph-name="uni0433" unicode="&#x433;" horiz-adv-x="413" 
d="M36 16l99 451q3 16 19 16h265q13 0 13 -14q0 -13 -13 -13h-257l-98 -446q-2 -12 -14 -12q-7 0 -11 5.5t-3 12.5z" />
    <glyph glyph-name="uni0434" unicode="&#x434;" horiz-adv-x="545" 
d="M490 463l-96 -436h39q21 0 16 -20l-27 -121q-2 -11 -13 -11q-6 0 -10.5 5.5t-3.5 11.5l25 108h-429l-25 -114q-2 -11 -13 -11q-6 0 -10 5t-3 11l27 120q3 16 19 16h26q74 71 167 349l31 92q4 15 20 15h244q21 0 16 -20zM364 27l94 429h-224l-29 -85q-95 -279 -160 -344
h319z" />
    <glyph glyph-name="uni0435" unicode="&#x435;" horiz-adv-x="571" 
d="M316 495q93 0 147 -58.5t54 -148.5q0 -19 -4 -40q-3 -16 -19 -16h-407q-2 -16 -2 -32q0 -83 50.5 -134t139.5 -51q77 0 144 49q3 3 7 3q14 0 14 -13q0 -6 -6 -11q-73 -55 -159 -55q-104 0 -164 58.5t-60 153.5q-2 119 78 208t187 87zM487 285q0 84 -47 133.5t-129 49.5
q-78 0 -142.5 -62t-78.5 -147h395q2 16 2 26z" />
    <glyph glyph-name="uni0436" unicode="&#x436;" horiz-adv-x="680" 
d="M687 471q0 -8 -5 -11l-268 -215l170 -222q3 -3 3 -8q0 -17 -15 -17q-6 0 -12 6l-171 228h-37l-49 -222q-2 -12 -14 -12q-7 0 -11 5.5t-3 12.5l47 216h-30l-275 -230q-4 -4 -9 -4q-6 0 -10 4.5t-4 9.5q0 8 5 11l266 222l-173 216q-3 3 -3 8q0 16 15 16q6 0 11 -6l177 -220
h36l47 214q2 12 14 12q7 0 11.5 -5.5t2.5 -12.5l-46 -208h31l276 223q3 3 9 3q14 0 14 -14z" />
    <glyph glyph-name="uni0437" unicode="&#x437;" horiz-adv-x="487" 
d="M15 80q-3 4 -3 9q0 14 15 14q9 0 12 -6q58 -82 174 -82q62 0 108 28q48 29 48 91q0 45 -37 71.5t-108 26.5h-69q-13 0 -13 14q0 13 13 13h75q182 0 182 107q0 44 -36 73t-105 29q-83 0 -150 -51q-3 -3 -9 -3q-13 0 -13 13q0 6 5 11q70 57 167 57q81 0 126.5 -35.5
t45.5 -90.5q0 -61 -44 -91q-43 -28 -94 -36q40 -7 68 -37t28 -71q0 -72 -54 -110q-54 -36 -134 -36q-129 0 -198 92z" />
    <glyph glyph-name="uni0438" unicode="&#x438;" 
d="M362 16l92 423l-391 -435q-5 -6 -12 -6t-11.5 6.5t-3.5 13.5l100 455q2 12 14 12q7 0 11.5 -5.5t2.5 -12.5l-92 -419l391 431q5 6 12 6t11.5 -6.5t3.5 -13.5l-100 -455q-2 -12 -14 -12q-7 0 -11 5.5t-3 12.5z" />
    <glyph glyph-name="uni0439" unicode="&#x439;" 
d="M362 16l92 423l-391 -435q-5 -6 -12 -6t-11.5 6.5t-3.5 13.5l100 455q2 12 14 12q7 0 11.5 -5.5t2.5 -12.5l-92 -419l391 431q5 6 12 6t11.5 -6.5t3.5 -13.5l-100 -455q-2 -12 -14 -12q-7 0 -11 5.5t-3 12.5zM212 627q-3 5 -3 9q0 13 13 13q8 0 11 -5q40 -53 116 -53
q66 0 121 55q4 4 10 4q13 0 13 -13q0 -5 -4 -9q-67 -64 -140 -64q-90 0 -137 63z" />
    <glyph glyph-name="uni043A" unicode="&#x43a;" horiz-adv-x="496" 
d="M497 460l-254 -195l159 -243q3 -6 3 -10q0 -6 -5 -10t-11 -4q-8 0 -12 7l-158 241l-124 -95l-31 -141q-2 -12 -14 -12q-7 0 -11 5.5t-3 12.5l101 457q2 12 14 12q7 0 11.5 -5.5t2.5 -12.5l-61 -275l375 290q3 3 9 3t10 -4.5t4 -9.5q0 -6 -5 -11z" />
    <glyph glyph-name="uni043B" unicode="&#x43b;" 
d="M362 16l96 440h-224l-26 -80q-63 -196 -115 -285q-50 -84 -101 -98l-14 -3h-2q-13 0 -13 13q0 11 12 13q43 6 91 84q49 77 115 277l30 91q5 15 20 15h243q21 0 16 -20l-100 -453q-2 -12 -14 -12q-7 0 -11 5.5t-3 12.5z" />
    <glyph glyph-name="uni043C" unicode="&#x43c;" horiz-adv-x="632" 
d="M466 16l93 428l-284 -440q-4 -7 -11 -7q-9 0 -12 12l-93 435l-95 -434q-2 -12 -14 -12q-7 0 -11 5.5t-3 12.5l98 449q5 20 25 20q8 0 15.5 -6t8.5 -14l88 -419l277 428q6 11 20 11q12 0 19 -9.5t5 -20.5l-98 -445q-2 -12 -14 -12q-7 0 -11 5.5t-3 12.5z" />
    <glyph glyph-name="uni043D" unicode="&#x43d;" 
d="M36 16l104 457q2 12 14 12q7 0 11.5 -5.5t2.5 -12.5l-46 -202h296l48 208q2 12 14 12q7 0 11.5 -5.5t2.5 -12.5l-104 -457q-2 -12 -14 -12q-7 0 -11 5.5t-3 12.5l50 222h-296l-52 -228q-2 -12 -14 -12q-7 0 -11 5.5t-3 12.5z" />
    <glyph glyph-name="uni043E" unicode="&#x43e;" horiz-adv-x="570" 
d="M312 495q93 0 149 -57t56 -153q2 -116 -76.5 -208t-184.5 -89q-93 0 -149 57t-56 153q-2 116 76.5 208t184.5 89zM312 468q-93 2 -161 -82t-66 -188q0 -84 45.5 -133.5t125.5 -49.5q93 -2 161 82t66 188q0 84 -45.5 133.5t-125.5 49.5z" />
    <glyph glyph-name="uni043F" unicode="&#x43f;" 
d="M362 16l100 440h-296l-102 -446q-2 -12 -14 -12q-7 0 -11 5.5t-3 12.5l102 451q2 16 20 16h320q20 0 15 -20l-103 -453q-2 -12 -14 -12q-7 0 -11 5.5t-3 12.5z" />
    <glyph glyph-name="uni0440" unicode="&#x440;" horiz-adv-x="562" 
d="M514 297q2 -126 -72 -219t-181 -90q-60 0 -106.5 26.5t-73.5 72.5l-58 -261q-2 -12 -14 -12q-7 0 -11.5 5.5t-2.5 12.5l142 641q2 12 14 12q7 0 11.5 -5.5t2.5 -12.5l-13 -60q71 88 172 88q86 0 138 -53.5t52 -144.5zM480 293q0 81 -43 128t-115 47q-52 0 -101 -29
t-79 -75l-55 -251q21 -44 67.5 -71t106.5 -27q62 -2 113.5 39t79 105.5t26.5 133.5z" />
    <glyph glyph-name="uni0441" unicode="&#x441;" horiz-adv-x="493" 
d="M315 495q107 0 160 -75q3 -6 3 -9q0 -14 -15 -14q-7 0 -12 6q-46 65 -133 65q-101 2 -168.5 -80.5t-65.5 -190.5q0 -86 49 -134t129 -48q75 0 131 56q3 4 10 4q14 0 14 -13q0 -6 -4 -10q-67 -64 -153 -64q-92 0 -150.5 56.5t-58.5 155.5q-3 118 77 207.5t187 87.5z" />
    <glyph glyph-name="uni0442" unicode="&#x442;" horiz-adv-x="379" 
d="M124 16l96 440h-128q-13 0 -13 13q0 14 13 14h293q13 0 13 -14q0 -13 -13 -13h-135l-98 -446q-2 -12 -14 -12q-7 0 -11 5.5t-3 12.5z" />
    <glyph glyph-name="uni0443" unicode="&#x443;" horiz-adv-x="471" 
d="M-20 -159q18 -5 34 -5q41 0 81 61l66 100l-93 468v3q0 6 4.5 11.5t10.5 5.5q14 0 16 -13l88 -437l286 443q4 7 13 7q6 0 10.5 -4.5t4.5 -11.5l-2 -8l-375 -575q-54 -82 -120 -82q-13 0 -33 4q-12 2 -12 16q0 8 7 13.5t14 3.5z" />
    <glyph glyph-name="uni0444" unicode="&#x444;" horiz-adv-x="680" 
d="M300 -12l-36 -162q-2 -12 -14 -12q-7 0 -11 5.5t-3 12.5l35 160q-93 12 -155 66q-61 54 -61 153q0 121 83.5 202.5t242.5 81.5l35 162q2 12 14 12q7 0 11.5 -5.5t3.5 -12.5l-35 -160q94 -12 154 -66q61 -54 61 -153q0 -121 -83 -202.5t-242 -81.5zM277 19l98 449
q-136 0 -211.5 -74.5t-75.5 -182.5q0 -82 51.5 -132t137.5 -60zM592 272q0 82 -51 132t-137 60l-98 -449q136 0 211 74.5t75 182.5z" />
    </font>
</defs>
</svg>
